<?xml version="1.0" standalone="no"?>
<!DOCTYPE svg PUBLIC "-//W3C//DTD SVG 1.1//EN" "http://www.w3.org/Graphics/SVG/1.1/DTD/svg11.dtd" >
<svg xmlns="http://www.w3.org/2000/svg" xmlns:xlink="http://www.w3.org/1999/xlink" version="1.1">
<metadata>
Created by FontForge 20201107 at Tue Feb 27 18:50:17 2024
 By 
Copyright (c) 2024 by Designova. All rights reserved.
</metadata>
<defs>
<font id="RovelleUno-ThinItalic" horiz-adv-x="1144" >
  <font-face 
    font-family="Rovelle Uno Thin Italic"
    font-weight="100"
    font-style="italic"
    font-stretch="normal"
    units-per-em="2048"
    panose-1="0 0 0 0 0 0 0 0 0 0"
    ascent="1638"
    descent="-410"
    x-height="986"
    cap-height="1394"
    bbox="-280 -463 2377 1940"
    underline-thickness="100"
    underline-position="-255"
    unicode-range="U+0020-F8FF"
  />
<missing-glyph horiz-adv-x="1297" 
d="M172 0l219 1380h953l-219 -1380h-953zM324 240l368 457l-223 456zM353 113h626l-237 482zM546 1268l229 -469l378 469h-607zM825 697l224 -457l145 913z" />
    <glyph glyph-name=".notdef" horiz-adv-x="1297" 
d="M172 0l219 1380h953l-219 -1380h-953zM324 240l368 457l-223 456zM353 113h626l-237 482zM546 1268l229 -469l378 469h-607zM825 697l224 -457l145 913z" />
    <glyph glyph-name=".null" horiz-adv-x="0" 
 />
    <glyph glyph-name="nonmarkingreturn" horiz-adv-x="682" 
 />
    <glyph glyph-name="space" unicode=" " horiz-adv-x="630" 
 />
    <glyph glyph-name="exclam" unicode="!" horiz-adv-x="480" 
d="M255 220l176 1160h56l-192 -1160h-40zM202 12q2 16 15.5 28t30.5 12q16 0 26 -11.5t8 -28.5q-3 -17 -16.5 -28.5t-29.5 -11.5q-17 0 -27 12t-7 28z" />
    <glyph glyph-name="quotedbl" unicode="&#x22;" horiz-adv-x="508" 
d="M466 982l71 488h44l-83 -488h-32zM322 982l71 488h44l-83 -488h-32z" />
    <glyph glyph-name="numbersign" unicode="#" horiz-adv-x="1040" 
d="M220 0l182 490h-224l6 42h234l116 316h-240l7 42h250l182 490h42l-182 -490h222l182 490h42l-182 -490h224l-7 -42h-234l-116 -316h240l-6 -42h-250l-182 -490h-42l182 490h-222l-182 -490h-42zM460 532h222l118 316h-222z" />
    <glyph glyph-name="dollar" unicode="$" horiz-adv-x="1082" 
d="M534 -28q-81 4 -148 29.5t-118 72t-76.5 120t-20.5 166.5h44q-7 -158 81.5 -248t243.5 -98l103 652q-59 18 -105 39t-89.5 53.5t-70 72t-37.5 96t-1 123.5q25 155 143.5 252t277.5 106l24 152h44l-24 -152q170 -6 250.5 -111.5t75.5 -268.5h-44q5 155 -70 243.5
t-219 94.5l-104 -658q365 -110 319 -398q-21 -138 -138 -235t-297 -103l-25 -152h-44zM388 1050q-12 -73 3 -129t55 -94.5t88 -63.5t117 -47l103 650q-133 -8 -238 -90.5t-128 -225.5zM584 14q158 4 259 85t121 207q21 132 -49 216.5t-229 135.5z" />
    <glyph glyph-name="percent" unicode="%" horiz-adv-x="1294" 
d="M174 0l1113 1380h52l-1113 -1380h-52zM263 1090q22 138 105.5 228t200.5 90t172.5 -90t33.5 -228q-22 -136 -106 -227t-201 -91t-172 91t-33 227zM311 1090q-20 -124 22.5 -200t141.5 -76t165.5 76t86.5 200q19 125 -23.5 200.5t-141.5 75.5q-100 0 -166 -75.5
t-85 -200.5zM738 290q22 138 105.5 228t200.5 90t172.5 -90t33.5 -228q-22 -136 -105.5 -227t-200.5 -91t-172.5 91t-33.5 227zM786 290q-19 -124 23 -200t141 -76t166 76t86 200q20 125 -22 200.5t-142 75.5t-166 -75.5t-86 -200.5z" />
    <glyph glyph-name="ampersand" unicode="&#x26;" horiz-adv-x="1252" 
d="M991 168q-187 -187 -461 -207q-131 -8 -217 26q-91 34 -134.5 104.5t-35.5 171.5q15 165 156 285q85 73 249 164q-63 93 -78 118q-75 124 -66 240q14 140 117 233.5t256 103.5q148 11 221.5 -57t62.5 -183q-11 -110 -75 -191q-60 -73 -147.5 -133t-217.5 -131l-11 -6
l386 -479q149 170 208 440h38q-44 -203 -134 -350q-37 -61 -89 -119l171 -212l-31 -26zM184 266q-12 -136 82.5 -207t266.5 -60q259 18 435 197l-396 489q-73 -41 -145 -87q-107 -68 -170.5 -147.5t-72.5 -184.5zM446 1073q-6 -63 14 -121q11 -35 32 -75t39.5 -67.5
t53.5 -77.5l20 11q98 54 199 119q202 131 217 300q10 102 -52.5 160.5t-195.5 49.5q-137 -9 -226.5 -93t-100.5 -206z" />
    <glyph glyph-name="quotesingle" unicode="'" horiz-adv-x="364" 
d="M322 982l71 488h44l-83 -488h-32z" />
    <glyph glyph-name="parenleft" unicode="(" horiz-adv-x="496" 
d="M347 -160q-81 160 -107 391t11 469q37 235 137 467.5t231 392.5h44q-137 -179 -231.5 -400.5t-132.5 -459.5q-37 -242 -13 -461.5t105 -398.5h-44z" />
    <glyph glyph-name="parenright" unicode=")" horiz-adv-x="496" 
d="M55 -160q137 179 231.5 400.5t132.5 459.5q37 242 13 461.5t-105 398.5h44q81 -160 107 -391t-11 -469q-37 -235 -137 -467.5t-231 -392.5h-44z" />
    <glyph glyph-name="asterisk" unicode="*" horiz-adv-x="880" 
d="M256 200l-36 28l273 298l-303 104l21 44l300 -114l55 388h48l-67 -388l336 114l7 -44l-337 -104l179 -298l-44 -28l-168 308z" />
    <glyph glyph-name="plus" unicode="+" horiz-adv-x="1012" 
d="M512 174l69 440h-378l7 42h378l70 440h44l-70 -440h378l-7 -42h-378l-69 -440h-44z" />
    <glyph glyph-name="comma" unicode="," horiz-adv-x="384" 
d="M77 -232l137 280h46v-10l-145 -270h-38z" />
    <glyph glyph-name="hyphen" unicode="-" horiz-adv-x="640" 
d="M196 542l6 42h420l-6 -42h-420z" />
    <glyph glyph-name="period" unicode="." horiz-adv-x="340" 
d="M166 -28q-17 0 -27 12t-7 28q2 16 15.5 28t30.5 12q16 0 26 -11.5t8 -28.5q-3 -17 -16.5 -28.5t-29.5 -11.5z" />
    <glyph glyph-name="slash" unicode="/" horiz-adv-x="674" 
d="M40 -60l740 1500h44l-740 -1500h-44z" />
    <glyph glyph-name="zero" unicode="0" horiz-adv-x="1156" 
d="M574 -28q-121 0 -202.5 53t-118.5 148.5t-44.5 227t20.5 289.5q26 163 72 291t115 225.5t166.5 149.5t218.5 52t202.5 -53t118.5 -148.5t44 -227t-21 -289.5q-26 -163 -72 -291t-114.5 -225.5t-166 -149.5t-218.5 -52zM277 690q-19 -118 -21.5 -216.5t14.5 -185
t54 -146.5t101.5 -94t154.5 -34q111 0 200.5 51t151 145t102 212.5t63.5 267.5q19 118 21.5 216.5t-14.5 185t-54 146.5t-101.5 94t-154.5 34q-111 0 -200.5 -51t-150.5 -145t-101.5 -212.5t-64.5 -267.5z" />
    <glyph glyph-name="one" unicode="1" horiz-adv-x="710" 
d="M542 0l211 1332l-417 -236l8 50l419 234h42l-219 -1380h-44z" />
    <glyph glyph-name="two" unicode="2" horiz-adv-x="1052" 
d="M90 0l5 32l552 464q112 95 184 170t110.5 139t55 112.5t26.5 114.5q23 146 -51.5 240t-233.5 94q-155 0 -275 -101t-163 -269l-5 -20h-44l5 20q48 186 183 299t306 113q125 0 205.5 -51.5t109 -135t11.5 -189.5q-21 -139 -107.5 -267t-282.5 -291l-516 -432h814l-7 -42
h-882z" />
    <glyph glyph-name="three" unicode="3" horiz-adv-x="1122" 
d="M562 -10q-214 0 -321 111.5t-79 292.5l41 2q-27 -169 72 -268.5t293 -99.5q191 0 321.5 99t155.5 257t-74 257t-290 99q-47 0 -93 -6l6 38h4l-1 2l557 578h-814l7 42h882l-5 -32l-569 -584h32q208 0 315.5 -110t80.5 -284q-28 -174 -170.5 -284t-350.5 -110z" />
    <glyph glyph-name="four" unicode="4" horiz-adv-x="1188" 
d="M830 0l54 338h-740l6 42l889 1014h52l-161 -1018h232l-6 -38h-232l-54 -338h-40zM194 376h696l154 974z" />
    <glyph glyph-name="five" unicode="5" horiz-adv-x="1056" 
d="M506 -14q-73 0 -136.5 22t-115 66.5t-78.5 120.5t-21 175l1 20h44l-1 -20q-9 -152 74.5 -247t240.5 -95q59 0 117.5 15t115.5 47.5t103 79t80 115t47 149.5q29 183 -56 292.5t-249 109.5h-28q-120 0 -219 -61t-157 -171h-50l227 790h700l-7 -42h-662l-185 -636
q139 162 356 162h36q189 0 281 -125t61 -317q-33 -206 -181.5 -328t-337.5 -122z" />
    <glyph glyph-name="six" unicode="6" horiz-adv-x="1086" 
d="M542 -10q-186 0 -294.5 127t-79.5 311q19 120 108 240l537 726h42l-456 -620q136 96 285 96q184 0 291.5 -127.5t78.5 -312.5q-19 -121 -93.5 -222t-185.5 -159.5t-233 -58.5zM210 430q-27 -171 70.5 -286.5t267.5 -115.5q169 0 304 117t162 287q27 168 -71.5 285
t-266.5 117q-167 0 -303 -117t-163 -287z" />
    <glyph glyph-name="seven" unicode="7" horiz-adv-x="1120" 
d="M260 0l961 1356h-956l6 38h990l-8 -48l-949 -1346h-44z" />
    <glyph glyph-name="eight" unicode="8" horiz-adv-x="1104" 
d="M547 -30q-200 0 -310 100.5t-82 279.5q22 138 119.5 235t249.5 133q-110 31 -160 119t-30 213q24 153 147 255.5t310 102.5q98 0 171 -28t113.5 -77.5t55.5 -113.5t3 -139q-19 -126 -102 -214.5t-208 -117.5q139 -34 198.5 -130t36.5 -238q-19 -119 -96 -207t-185 -130.5
t-231 -42.5zM203 350q-13 -86 12 -153t78 -106t120.5 -59t144.5 -20q71 0 143 20t137.5 59t112.5 106.5t60 152.5q25 157 -62.5 251.5t-278.5 94.5q-193 0 -317.5 -95.5t-149.5 -250.5zM382 1050q-12 -79 8.5 -140.5t66 -98t103.5 -55t125 -18.5q53 0 104.5 11.5t101 36
t89 60t68 88.5t38.5 116q23 145 -59 230.5t-243 85.5t-270 -85.5t-132 -230.5z" />
    <glyph glyph-name="nine" unicode="9" horiz-adv-x="1086" 
d="M908 620q-141 -96 -285 -96q-183 0 -291 128.5t-79 311.5q29 186 177 313t334 127q187 0 295.5 -126.5t79.5 -311.5q-18 -117 -108 -240l-537 -726h-42zM292 962q-26 -168 72.5 -285t266.5 -117q169 0 304 117t162 287q27 171 -70.5 286.5t-268.5 115.5q-169 0 -304 -117
t-162 -287z" />
    <glyph glyph-name="colon" unicode=":" horiz-adv-x="380" 
d="M348 1000q-17 0 -26.5 12t-6.5 28q2 16 15.5 28t30.5 12q16 0 26 -11.5t8 -28.5q-3 -17 -17 -28.5t-30 -11.5zM152 12q2 16 15.5 28t30.5 12q16 0 26 -11.5t8 -28.5q-3 -17 -16.5 -28.5t-29.5 -11.5q-17 0 -27 12t-7 28z" />
    <glyph glyph-name="semicolon" unicode=";" horiz-adv-x="448" 
d="M97 -232l137 280h46v-10l-145 -270h-38zM383 1040q2 16 15.5 28t30.5 12q16 0 26 -11.5t8 -28.5q-3 -17 -17 -28.5t-30 -11.5q-17 0 -26.5 12t-6.5 28z" />
    <glyph glyph-name="less" unicode="&#x3c;" horiz-adv-x="1014" 
d="M927 120l-740 390l6 40l864 390l-8 -50l-799 -360l685 -360z" />
    <glyph glyph-name="equal" unicode="=" horiz-adv-x="1092" 
d="M252 794l6 42h840l-6 -42h-840zM195 434l6 42h840l-6 -42h-840z" />
    <glyph glyph-name="greater" unicode="&#x3e;" horiz-adv-x="1014" 
d="M125 120l8 50l799 360l-685 360l8 50l740 -390l-6 -40z" />
    <glyph glyph-name="question" unicode="?" horiz-adv-x="1020" 
d="M493 220q28 169 81 257.5t216 226.5q101 86 155 169.5t70 178.5q23 147 -55 230.5t-230 83.5q-167 0 -280.5 -102t-153.5 -276h-44q38 187 172 303.5t313 116.5q181 0 265.5 -100.5t60.5 -255.5q-32 -198 -246 -374q-80 -67 -128 -116t-80 -103t-47.5 -106t-28.5 -133
h-40zM442 12q2 16 15.5 28t30.5 12q16 0 26 -11.5t8 -28.5q-3 -17 -16.5 -28.5t-29.5 -11.5q-17 0 -27 12t-7 28z" />
    <glyph glyph-name="at" unicode="@" horiz-adv-x="1692" 
d="M745 -208q-101 0 -192 27.5t-168 82.5t-128.5 138t-71.5 195t2 253q24 153 93 288.5t165.5 235t213 172t239 108.5t240.5 36q193 0 329 -82.5t194 -231t28 -338.5q-20 -126 -66.5 -227.5t-108.5 -166t-133 -98.5t-143 -34q-39 0 -71.5 9.5t-59.5 31t-38 61t-2 94.5
l-48 -76q-123 -136 -264 -136q-35 0 -66 8.5t-61.5 29t-48.5 54.5t-26.5 86t4.5 124q22 140 96 261.5t184 195t228 73.5q101 0 139 -68l26 -104l53 136h50l-166 -418q-45 -119 -54 -176q-10 -68 26 -106t109 -38q134 0 246 131.5t145 342.5q46 287 -97.5 453.5t-421.5 166.5
q-105 0 -217 -34t-221 -102.5t-200 -161.5t-157 -221.5t-89 -272.5q-25 -157 6.5 -285t106 -208.5t178 -123.5t225.5 -43q160 0 288.5 38t286.5 136l18 -38q-176 -106 -307 -142t-293 -36zM606 444q-21 -134 23.5 -201t140.5 -67q100 0 197 92t173 290l31 80
q47 117 12.5 201.5t-133.5 84.5q-146 0 -279 -141t-165 -339z" />
    <glyph glyph-name="A" unicode="A" horiz-adv-x="1124" 
d="M50 0l707 1394h50l267 -1394h-46l-90 480h-600l-242 -480h-46zM356 518h576l-156 832z" />
    <glyph glyph-name="B" unicode="B" horiz-adv-x="1220" 
d="M180 0l221 1394h492q184 0 274 -90.5t64 -251.5q-19 -118 -89 -201.5t-178 -118.5q130 -20 190 -113.5t35 -246.5q-29 -184 -154.5 -278t-340.5 -94h-514zM226 38h474q396 0 449 334q25 158 -45.5 245t-221.5 87h-550zM338 742h506q136 0 230 83.5t116 222.5
q23 146 -57 227t-246 81h-452z" />
    <glyph glyph-name="C" unicode="C" horiz-adv-x="1342" 
d="M698 -12q-274 0 -411.5 191.5t-86.5 516.5q52 327 250.5 518.5t472.5 191.5h20q187 0 312.5 -91t174.5 -255l-40 -14q-44 153 -161 236.5t-293 83.5h-20q-261 0 -444 -181.5t-232 -488.5q-48 -306 77.5 -487t386.5 -181h20q176 0 319.5 83.5t235.5 236.5l36 -14
q-100 -164 -255 -255t-342 -91h-20z" />
    <glyph glyph-name="D" unicode="D" horiz-adv-x="1248" 
d="M180 0l221 1394h278q334 0 487.5 -185t100.5 -523q-53 -332 -262 -509t-549 -177h-276zM226 38h232q324 0 519 165t246 483q51 324 -92.5 497t-459.5 173h-236z" />
    <glyph glyph-name="E" unicode="E" 
d="M180 0l221 1394h864l-6 -38h-824l-101 -634h754l-6 -38h-754l-102 -646h824l-6 -38h-864z" />
    <glyph glyph-name="F" unicode="F" 
d="M180 0l221 1394h864l-6 -38h-824l-101 -634h754l-6 -38h-754l-108 -684h-40z" />
    <glyph glyph-name="G" unicode="G" horiz-adv-x="1316" 
d="M698 -12q-274 0 -411.5 191.5t-85.5 518.5q51 325 249.5 516.5t472.5 191.5q190 0 315 -94t164 -262l-38 -14q-36 153 -151 241.5t-297 88.5q-261 0 -444 -181t-231 -487q-49 -307 76.5 -488.5t386.5 -181.5q181 0 323.5 87t226.5 237l47 298h-498l6 38h536l-109 -688
h-38l42 264q-95 -131 -236 -203.5t-306 -72.5z" />
    <glyph glyph-name="H" unicode="H" horiz-adv-x="1224" 
d="M180 0l221 1394h40l-106 -668h782l106 668h42l-221 -1394h-42l109 688h-782l-109 -688h-40z" />
    <glyph glyph-name="I" unicode="I" horiz-adv-x="400" 
d="M180 0l221 1394h40l-221 -1394h-40z" />
    <glyph glyph-name="J" unicode="J" horiz-adv-x="1158" 
d="M158 492l2 14h40q-39 -243 82 -379q92 -104 243 -108q156 -4 291 100q165 128 213 359q4 19 7 38l139 878h40l-140 -880q-41 -258 -216 -407q-139 -119 -310 -127q-165 -8 -276 91q-134 119 -123 343q2 38 8 78z" />
    <glyph glyph-name="K" unicode="K" horiz-adv-x="1148" 
d="M180 0l221 1394h40l-134 -844l946 844h56l-662 -590l441 -804h-50l-423 776l-317 -282l-78 -494h-40z" />
    <glyph glyph-name="L" unicode="L" horiz-adv-x="1094" 
d="M180 0l221 1394h40l-215 -1356h824l-6 -38h-864z" />
    <glyph glyph-name="M" unicode="M" horiz-adv-x="1586" 
d="M180 0l221 1394h66l352 -1236l744 1236h64l-221 -1394h-40l214 1350h-2l-747 -1240h-42l-353 1240h-2l-214 -1350h-40z" />
    <glyph glyph-name="N" unicode="N" horiz-adv-x="1272" 
d="M180 0l221 1394h56l603 -1346l213 1346h40l-221 -1394h-58l-601 1342l-213 -1342h-40z" />
    <glyph glyph-name="O" unicode="O" horiz-adv-x="1422" 
d="M698 -12q-274 0 -411.5 191.5t-86.5 516.5q52 327 250.5 518.5t472.5 191.5h20q278 0 414 -194t85 -516q-51 -321 -248 -514.5t-476 -193.5h-20zM240 696q-48 -306 77.5 -487t386.5 -181h20q263 0 446.5 181.5t231.5 486.5q49 307 -77 488.5t-389 181.5h-20
q-261 0 -444 -181.5t-232 -488.5z" />
    <glyph glyph-name="P" unicode="P" 
d="M180 0l221 1394h458q215 0 310.5 -93t66.5 -277v-2q-29 -184 -154.5 -277t-340.5 -93h-418l-103 -652h-40zM329 690h418q396 0 449 334q26 165 -59.5 248.5t-283.5 83.5h-418z" />
    <glyph glyph-name="Q" unicode="Q" horiz-adv-x="1406" 
d="M698 -12q-274 0 -411.5 191.5t-86.5 516.5q52 327 250.5 518.5t472.5 191.5h20q278 0 414 -194t85 -516q-50 -320 -245 -512l135 -158l-30 -26l-133 158q-190 -170 -451 -170h-20zM240 696q-48 -306 77.5 -487t386.5 -181h20q243 0 421 156l-259 306l30 28l258 -306
q180 180 228 484q49 307 -77 488.5t-389 181.5h-20q-261 0 -444 -181.5t-232 -488.5z" />
    <glyph glyph-name="R" unicode="R" horiz-adv-x="1154" 
d="M180 0l221 1394h458q215 0 310.5 -93t66.5 -277v-2q-28 -173 -141 -266t-305 -102l270 -654h-46l-271 652h-420l-103 -652h-40zM329 690h418q396 0 449 334q26 165 -59.5 248.5t-283.5 83.5h-418z" />
    <glyph glyph-name="S" unicode="S" 
d="M588 -28q-93 0 -171 23.5t-138 70t-91.5 122t-26.5 172.5h44q-7 -163 104 -254.5t287 -91.5q171 0 298.5 89t149.5 227q12 74 -1.5 127t-58.5 93.5t-110.5 70t-171.5 61.5q-112 33 -182 65t-118.5 76.5t-63 102t-2.5 136.5q24 149 165 247.5t316 98.5q94 0 166 -30
t114.5 -83t63 -120.5t18.5 -146.5h-44q-2 157 -91 247.5t-236 90.5q-92 0 -181 -32.5t-158 -103t-84 -164.5q-5 -30 -5.5 -55.5t4 -48t12 -42t21 -37t29.5 -32t39 -28.5t47.5 -25.5t57 -24t65 -23.5t74.5 -24q107 -32 177.5 -65.5t119 -79.5t64.5 -106.5t3 -140.5
q-24 -154 -168 -258t-337 -104z" />
    <glyph glyph-name="T" unicode="T" horiz-adv-x="1194" 
d="M576 0l215 1356h-526l6 38h1094l-6 -38h-526l-215 -1356h-42z" />
    <glyph glyph-name="U" unicode="U" horiz-adv-x="1242" 
d="M242 492l143 902h40l-141 -888q-39 -243 82 -379q92 -104 243 -108q156 -4 291 100q165 128 213 359q4 19 7 38l139 878h40l-140 -880q-41 -258 -216 -407q-139 -119 -310 -127q-165 -8 -276 91q-134 119 -123 343q2 38 8 78z" />
    <glyph glyph-name="V" unicode="V" horiz-adv-x="1220" 
d="M588 0l-327 1394h44l312 -1348l740 1348h44l-767 -1394h-46z" />
    <glyph glyph-name="W" unicode="W" horiz-adv-x="1766" 
d="M428 0l-167 1394h44l159 -1342l606 1272h46l204 -1272l585 1342h42l-609 -1394h-52l-202 1264l-604 -1264h-52z" />
    <glyph glyph-name="X" unicode="X" horiz-adv-x="1180" 
d="M60 0l614 708l-379 686h50l360 -654l572 654h48l-597 -686l392 -708h-50l-375 674l-587 -674h-48z" />
    <glyph glyph-name="Y" unicode="Y" horiz-adv-x="1092" 
d="M526 0l61 412l-336 982h48l315 -938l621 938h48l-656 -982l-61 -412h-40z" />
    <glyph glyph-name="Z" unicode="Z" horiz-adv-x="1064" 
d="M76 0l8 48l1077 1308h-870l6 38h912l-7 -46l-1080 -1310h872l-6 -38h-912z" />
    <glyph glyph-name="bracketleft" unicode="[" horiz-adv-x="526" 
d="M155 -160l272 1720h306l-7 -42h-262l-259 -1636h262l-6 -42h-306z" />
    <glyph glyph-name="backslash" unicode="\" horiz-adv-x="674" 
d="M570 -60l-264 1500h44l264 -1500h-44z" />
    <glyph glyph-name="bracketright" unicode="]" horiz-adv-x="526" 
d="M15 -160l6 42h262l259 1636h-262l7 42h306l-272 -1720h-306z" />
    <glyph glyph-name="asciicircum" unicode="^" horiz-adv-x="1058" 
d="M228 430l471 802h54l213 -802h-50l-198 760l-442 -760h-48z" />
    <glyph glyph-name="underscore" unicode="_" horiz-adv-x="920" 
d="M35 -160l6 42h800l-6 -42h-800z" />
    <glyph glyph-name="grave" unicode="`" horiz-adv-x="824" 
d="M619 1610l-103 220h56l85 -220h-38z" />
    <glyph glyph-name="a" unicode="a" horiz-adv-x="1076" 
d="M452 -10q-156 0 -232.5 75.5t-56.5 206.5q23 139 131 210q57 37 127 51t178 19l375 16l6 40q27 171 -57 261.5t-251 90.5q-108 0 -194.5 -41.5t-167.5 -134.5l-26 24q89 100 182 144t212 44q184 0 278 -100.5t64 -287.5l-96 -608h-40l42 264q-40 -81 -117.5 -144
t-171 -96.5t-185.5 -33.5zM203 272q-18 -113 51 -180.5t208 -67.5q108 0 214 53t182.5 148.5t94.5 208.5l16 100l-371 -16q-196 -7 -280 -62q-95 -64 -115 -184z" />
    <glyph glyph-name="b" unicode="b" horiz-adv-x="1192" 
d="M622 -10q-143 0 -241 83.5t-121 226.5l-48 -300h-40l221 1394h40l-113 -712q68 146 192.5 230t269.5 84h28q194 0 299 -142.5t71 -359.5q-34 -216 -184.5 -360t-345.5 -144h-28zM288 494q-32 -202 63 -334t273 -132h28q180 0 318 132.5t170 333.5t-64 332.5t-276 131.5
h-28q-179 0 -315.5 -131t-168.5 -333z" />
    <glyph glyph-name="c" unicode="c" horiz-adv-x="1036" 
d="M540 -10q-200 0 -303.5 140.5t-68.5 363.5q35 224 182.5 363t349.5 139h20q127 0 217.5 -57.5t131.5 -160.5l-40 -16q-39 94 -120 146t-195 52h-20q-184 0 -318.5 -129.5t-167.5 -336.5q-32 -208 61 -338t277 -130h20q115 0 213 52.5t167 147.5l33 -16
q-75 -104 -184 -162t-235 -58h-20z" />
    <glyph glyph-name="d" unicode="d" horiz-adv-x="1192" 
d="M538 -10q-194 0 -299 143.5t-71 360.5t185 359.5t345 142.5h28q145 0 242.5 -84t119.5 -230l113 712h40l-221 -1394h-40l48 300q-69 -143 -194 -226.5t-268 -83.5h-28zM208 494q-32 -201 64 -333.5t276 -132.5h28q178 0 315 132.5t169 333.5q32 202 -62.5 333t-273.5 131
h-28q-180 0 -318 -131.5t-170 -332.5z" />
    <glyph glyph-name="e" unicode="e" horiz-adv-x="1062" 
d="M540 -10q-200 0 -303.5 140.5t-68.5 363.5q39 246 209 386q135 112 301 116q160 3 266 -96q131 -123 113 -349q-2 -28 -7 -57h-842q-32 -208 61 -338t277 -130h20q115 0 213 52.5t167 147.5l33 -16q-75 -104 -184 -162t-235 -58h-20zM213 526h802q25 221 -96 341
q-97 95 -246 92q-154 -4 -280 -113q-138 -119 -180 -320z" />
    <glyph glyph-name="f" unicode="f" horiz-adv-x="752" 
d="M318 0l151 952h-258l5 34h258l27 168q20 125 88 187.5t177 62.5h14q85 0 139 -34l-19 -30q-54 28 -123 28h-14q-91 0 -148 -53.5t-74 -160.5l-27 -168h260l-5 -34h-260l-151 -952h-40z" />
    <glyph glyph-name="g" unicode="g" horiz-adv-x="1191" 
d="M492 -414q-164 0 -260 87t-102 241h40q9 -137 95 -212.5t234 -75.5h30q187 0 309 124t159 360l30 188q-69 -143 -193.5 -226.5t-267.5 -83.5h-10q-196 0 -309 144.5t-79 359.5q34 217 184.5 359.5t344.5 142.5h28q145 0 243 -84t120 -230l48 308h40l-140 -890
q-39 -246 -176.5 -379t-337.5 -133h-30zM208 492q-32 -201 64 -333.5t276 -132.5h28q167 0 298.5 116.5t175.5 299.5l16 100q14 183 -81 298.5t-262 115.5h-28q-180 0 -317.5 -131.5t-169.5 -332.5z" />
    <glyph glyph-name="h" unicode="h" horiz-adv-x="1108" 
d="M172 0l221 1394h40l-103 -648q56 126 155.5 188t254.5 62q193 0 267.5 -100t42.5 -302l-94 -594h-40l92 584q31 193 -33.5 284.5t-240.5 91.5q-370 0 -446 -478l-76 -482h-40z" />
    <glyph glyph-name="i" unicode="i" horiz-adv-x="380" 
d="M172 0l156 986h40l-156 -986h-40zM351 1267q2 16 15.5 28t30.5 12q16 0 26 -11.5t8 -28.5q-3 -17 -17 -28.5t-30 -11.5q-17 0 -26.5 12t-6.5 28z" />
    <glyph glyph-name="j" unicode="j" horiz-adv-x="396" 
d="M-80 -418q-85 0 -139 34l19 30q54 -28 123 -28h14q91 0 148.5 54t73.5 160l183 1154h40l-183 -1154q-20 -125 -88 -187.5t-177 -62.5h-14zM367 1267q2 16 15.5 28t30.5 12q16 0 26 -11.5t8 -28.5q-3 -17 -17 -28.5t-30 -11.5q-17 0 -26.5 12t-6.5 28z" />
    <glyph glyph-name="k" unicode="k" horiz-adv-x="952" 
d="M172 0l221 1394h40l-159 -1004l672 596h54l-405 -358l297 -628h-48l-281 600l-298 -264l-53 -336h-40z" />
    <glyph glyph-name="l" unicode="l" horiz-adv-x="388" 
d="M316 -10q-73 0 -102 47.5t-13 148.5l192 1208h40l-191 -1204q-24 -153 78 -162z" />
    <glyph glyph-name="m" unicode="m" horiz-adv-x="1590" 
d="M172 0l156 986h40l-36 -230q52 119 141.5 179.5t200.5 60.5q122 0 185.5 -63.5t69.5 -196.5q57 128 148 194t209 66q309 0 242 -430l-90 -566h-42l89 560q18 120 9 210q-24 190 -222 190q-78 0 -153 -44q-77 -47 -132 -143t-78 -235l-85 -538h-40l92 584
q31 192 -22.5 284t-191.5 92q-75 0 -153 -46q-168 -107 -216 -416l-79 -498h-42z" />
    <glyph glyph-name="n" unicode="n" horiz-adv-x="1108" 
d="M172 0l156 986h40l-38 -240q56 126 155.5 188t254.5 62q193 0 267.5 -100t42.5 -302l-94 -594h-40l92 584q31 193 -33.5 284.5t-240.5 91.5q-370 0 -446 -478l-76 -482h-40z" />
    <glyph glyph-name="o" unicode="o" horiz-adv-x="1104" 
d="M540 -10q-200 0 -303.5 140.5t-68.5 363.5q35 224 182.5 363t349.5 139h20q202 0 304.5 -139t67.5 -363t-183 -364t-349 -140h-20zM208 494q-32 -208 61 -338t277 -130h20q185 0 319.5 130t166.5 338q33 207 -60.5 336.5t-277.5 129.5h-20q-184 0 -318.5 -129.5
t-167.5 -336.5z" />
    <glyph glyph-name="p" unicode="p" horiz-adv-x="1192" 
d="M107 -408l221 1394h40l-47 -300q69 143 193.5 226.5t267.5 83.5h28q128 0 221 -65.5t132.5 -181t16.5 -257.5q-34 -217 -185 -359.5t-345 -142.5h-28q-145 0 -242.5 84t-119.5 230l-113 -712h-40zM288 492q-32 -202 62.5 -333t273.5 -131h28q180 0 318 131.5t170 332.5
t-64 333.5t-276 132.5h-28q-178 0 -315 -132.5t-169 -333.5z" />
    <glyph glyph-name="q" unicode="q" horiz-adv-x="1192" 
d="M1028 304q-68 -146 -192.5 -230t-269.5 -84h-28q-194 0 -299 142.5t-71 359.5q35 217 185.5 360.5t344.5 143.5h28q143 0 241 -83.5t122 -226.5l47 300h40l-221 -1394h-40zM208 492q-32 -201 64 -332.5t276 -131.5h28q179 0 315.5 131t168.5 333t-63 334t-273 132h-28
q-180 0 -318 -132.5t-170 -333.5z" />
    <glyph glyph-name="r" unicode="r" horiz-adv-x="800" 
d="M172 0l156 986h40l-38 -240q56 126 155.5 188t254.5 62q74 0 135 -16l-13 -36q-59 16 -128 16q-370 0 -446 -478l-76 -482h-40z" />
    <glyph glyph-name="s" unicode="s" horiz-adv-x="966" 
d="M494 -14q-75 0 -137.5 18t-110 54t-72.5 95.5t-22 138.5h44q4 -268 308 -268q131 0 226 55t111 155q16 98 -48.5 149.5t-249.5 90.5q-66 14 -114.5 32.5t-90 47.5t-58.5 73.5t-8 102.5q17 110 121 183t247 73q155 0 232 -78.5t79 -205.5h-44q-14 125 -80.5 185.5
t-194.5 60.5q-115 0 -206.5 -58.5t-107.5 -157.5q-8 -49 6.5 -86t51 -62t82 -41.5t111.5 -30.5q184 -39 260 -100.5t58 -175.5q-18 -113 -127.5 -181.5t-265.5 -68.5z" />
    <glyph glyph-name="t" unicode="t" horiz-adv-x="654" 
d="M528 -12q-109 0 -157.5 62.5t-28.5 187.5l113 714h-244l5 34h244l64 406h40l-64 -406h250l-5 -34h-250l-113 -714q-17 -107 23 -160.5t131 -53.5h14q20 0 48 4l-5 -36q-34 -4 -51 -4h-14z" />
    <glyph glyph-name="u" unicode="u" horiz-adv-x="1088" 
d="M524 -10q-193 0 -267.5 100t-42.5 302l94 594h40l-92 -584q-31 -193 33.5 -284.5t240.5 -91.5q370 0 446 478l76 482h40l-156 -986h-40l38 240q-56 -126 -155.5 -188t-254.5 -62z" />
    <glyph glyph-name="v" unicode="v" horiz-adv-x="970" 
d="M464 0l-248 986h46l229 -940l527 940h48l-560 -986h-42z" />
    <glyph glyph-name="w" unicode="w" horiz-adv-x="1452" 
d="M348 0l-118 986h44l109 -932l477 932h48l181 -930l403 930h42l-428 -986h-50l-179 938l-481 -938h-48z" />
    <glyph glyph-name="x" unicode="x" horiz-adv-x="916" 
d="M50 0l460 492l-304 494h50l285 -462l429 462h50l-460 -494l306 -492h-50l-285 462l-429 -462h-52z" />
    <glyph glyph-name="y" unicode="y" horiz-adv-x="972" 
d="M142 -364q93 -35 176 110l147 258l-249 982h46l230 -936l532 936h44l-717 -1258q-54 -95 -110.5 -125.5t-119.5 -0.5z" />
    <glyph glyph-name="z" unicode="z" horiz-adv-x="926" 
d="M76 0l7 44l877 902l2 4h-736l6 36h774l-8 -50l-870 -900h728l-6 -36h-774z" />
    <glyph glyph-name="braceleft" unicode="{" horiz-adv-x="562" 
d="M463 -160q-121 0 -181 52t-42 170q8 58 55 208q43 145 55 220q12 74 -19.5 127t-113.5 61l7 44q85 8 132.5 61t59.5 127q12 75 15 220q1 149 11 208q35 222 293 222h34l-7 -42h-36q-101 0 -162.5 -41t-77.5 -137q-6 -38 -10 -190q-4 -163 -16 -240q-7 -44 -24.5 -83
t-58 -75.5t-98.5 -49.5q40 -11 67 -35t37 -53.5t14 -62.5t-3 -61q-13 -80 -60 -240q-43 -146 -50 -190q-16 -96 33 -137t150 -41h36l-6 -42h-34z" />
    <glyph glyph-name="bar" unicode="|" horiz-adv-x="484" 
d="M157 -400l316 2000h44l-316 -2000h-44z" />
    <glyph glyph-name="braceright" unicode="}" horiz-adv-x="562" 
d="M15 -160l6 42h36q212 0 241 178q4 26 10 190q4 163 16 240q7 44 24.5 83t58 75.5t98.5 49.5q-53 14 -83 51.5t-33 78.5t1 82q13 80 60 240q45 156 50 190q16 96 -33.5 137t-150.5 41h-36l7 42h34q121 0 181 -52t42 -170q-10 -59 -55 -208q-43 -145 -55 -220
q-12 -74 19 -127t113 -61l-7 -44q-85 -8 -132 -61t-59 -127q-12 -75 -15 -220q-2 -148 -11 -208q-35 -222 -293 -222h-34z" />
    <glyph glyph-name="asciitilde" unicode="~" horiz-adv-x="1108" 
d="M209 458q37 234 209 234q56 0 101 -17.5t144 -76.5q90 -55 132.5 -72.5t86.5 -17.5q130 0 161 192h42q-37 -234 -211 -234q-56 0 -100.5 17t-142.5 77q-88 54 -132 72t-90 18q-129 0 -158 -192h-42z" />
    <glyph glyph-name="uni00A0" unicode="&#xa0;" horiz-adv-x="600" 
 />
    <glyph glyph-name="exclamdown" unicode="&#xa1;" horiz-adv-x="480" 
d="M161 -320l192 1160h40l-176 -1160h-56zM366 1048q2 16 15.5 28t30.5 12q16 0 26 -11.5t8 -28.5q-2 -16 -15.5 -28t-30.5 -12q-16 0 -26 11.5t-8 28.5z" />
    <glyph glyph-name="cent" unicode="&#xa2;" horiz-adv-x="1102" 
d="M540 -28q-191 9 -293 159.5t-63 398.5q19 119 69.5 220.5t122 172t159.5 113.5t181 50l24 154h44l-24 -152q166 -1 263 -98.5t95 -255.5h-44q-3 144 -85.5 227.5t-234.5 86.5l-164 -1036q136 6 248 85.5t162 216.5h44q-54 -152 -179 -244t-281 -98l-25 -152h-44zM234 540
q-19 -128 -2.5 -224.5t63 -162.5t110.5 -101t141 -40l164 1034q-75 -7 -149.5 -42.5t-141.5 -96.5t-117 -156.5t-68 -210.5z" />
    <glyph glyph-name="sterling" unicode="&#xa3;" horiz-adv-x="1018" 
d="M86 40q64 17 122 47.5t111 75t89.5 108.5t48.5 139q11 71 -3 138.5t-54 155.5h-190l6 42h164q-70 154 -46 302q25 159 147.5 259.5t281.5 100.5q179 0 254.5 -106t59.5 -286h-44q16 169 -55 259.5t-226 90.5q-132 0 -239.5 -88t-130.5 -228q-21 -137 52 -304h470l-6 -42
h-444q74 -153 51 -294q-19 -120 -100 -215t-216 -153h736l-7 -42h-838z" />
    <glyph glyph-name="currency" unicode="&#xa4;" horiz-adv-x="1168" 
d="M270 214l-27 32l132 114q-70 99 -48 242q24 144 125 242l-96 114l37 32l96 -114q111 86 247 86q135 0 221 -86l132 114l27 -32l-132 -114q71 -100 47 -242q-22 -144 -124 -242l96 -114l-37 -32l-96 114q-113 -86 -248 -86q-136 0 -220 86zM375 602q-21 -136 50.5 -227
t203.5 -91q133 0 233 91t121 227q22 136 -49.5 227t-203.5 91t-232.5 -91t-122.5 -227z" />
    <glyph glyph-name="yen" unicode="&#xa5;" horiz-adv-x="1112" 
d="M536 0l70 442h-368l7 42h368l25 158h-368l6 42h344l-331 696h60l318 -690l538 690h56l-551 -696h346l-6 -42h-368l-25 -158h368l-7 -42h-368l-70 -442h-44z" />
    <glyph glyph-name="brokenbar" unicode="&#xa6;" horiz-adv-x="484" 
d="M331 700l108 680h44l-108 -680h-44zM169 -320l108 680h44l-108 -680h-44z" />
    <glyph glyph-name="section" unicode="&#xa7;" horiz-adv-x="1140" 
d="M505 -348q-318 0 -338 330h44q28 -288 305 -288q129 0 227 61.5t115 166.5q12 79 -11 131.5t-101.5 95t-226.5 75.5q-51 11 -97 29.5t-90 48t-74 65t-44.5 85t-5.5 104.5q14 88 65.5 154.5t120 102t153.5 51.5q-177 82 -149 260q21 129 123.5 206.5t247.5 77.5
q155 0 230.5 -84t80.5 -226h-44q-14 136 -81 202t-195 66q-116 0 -205.5 -62t-107.5 -174q-10 -63 10 -111.5t65.5 -80t98 -51t119.5 -31.5q188 -35 285.5 -118t76.5 -220q-21 -132 -120.5 -210.5t-238.5 -99.5q102 -46 140.5 -114t22.5 -168q-19 -124 -131.5 -199
t-269.5 -75zM257 562q-18 -113 68 -189.5t221 -104.5q64 -11 120 -30q64 1 126 17.5t117.5 48t94 86t49.5 124.5q19 117 -67 188t-275 110q-36 6 -102 26q-59 -6 -112.5 -22.5t-105 -47t-87.5 -83.5t-47 -123z" />
    <glyph glyph-name="dieresis" unicode="&#xa8;" horiz-adv-x="700" 
d="M457 1716q2 16 15.5 28t30.5 12q16 0 26 -11.5t8 -28.5q-3 -17 -17 -28.5t-30 -11.5q-17 0 -26.5 12t-6.5 28zM709 1716q2 16 15.5 28t30.5 12q16 0 26 -11.5t8 -28.5q-3 -17 -17 -28.5t-30 -11.5q-17 0 -26.5 12t-6.5 28z" />
    <glyph glyph-name="copyright" unicode="&#xa9;" horiz-adv-x="1692" 
d="M841 -32q-120 0 -225.5 37.5t-183 104.5t-131 160t-70 204t0.5 236q33 204 156 374.5t305.5 269t382.5 98.5q150 0 275 -58t206.5 -157t116 -236.5t10.5 -290.5q-32 -204 -155 -374.5t-305.5 -269t-382.5 -98.5zM276 710q-30 -191 35.5 -351t207.5 -252.5t329 -92.5
t358.5 92.5t287.5 252.5t146 351q31 191 -34.5 351.5t-207.5 253.5t-329 93t-358.5 -93t-287.5 -253.5t-147 -351.5zM606 710q31 190 152 304t273 114q131 0 208.5 -71t73.5 -205h-44q-5 110 -66 172t-179 62q-95 0 -176 -53t-131 -137.5t-66 -183.5q-25 -159 44 -265.5
t203 -106.5q237 0 325 232h44q-49 -135 -148 -204.5t-234 -69.5q-143 0 -225.5 113t-53.5 299z" />
    <glyph glyph-name="ordfeminine" unicode="&#xaa;" horiz-adv-x="756" 
d="M417 701q-108 0 -160.5 52t-38.5 143q16 97 90 145q39 25 86.5 34t124.5 13l258 12l5 28q18 118 -40 180.5t-173 62.5q-74 0 -133.5 -28.5t-116.5 -93.5l-18 16q61 69 125 99.5t147 30.5q127 0 191.5 -69t44.5 -198l-67 -420h-27l29 182q-42 -84 -135.5 -136.5
t-191.5 -52.5zM245 896q-13 -79 35 -125.5t144 -46.5q114 0 217 83t122 201l11 69l-256 -12q-135 -3 -194 -43q-66 -44 -79 -126z" />
    <glyph glyph-name="guillemotleft" unicode="&#xab;" horiz-adv-x="1084" 
d="M858 164l-221 332l326 332h58l-326 -332l221 -332h-58zM397 496l326 332h58l-326 -332l221 -332h-58z" />
    <glyph glyph-name="logicalnot" unicode="&#xac;" horiz-adv-x="978" 
d="M831 420l42 268h-658l7 42h702l-49 -310h-44z" />
    <glyph glyph-name="registered" unicode="&#xae;" horiz-adv-x="1000" 
d="M609 688q-185 0 -283.5 118t-69.5 304q29 183 165.5 300.5t320.5 117.5t283.5 -117.5t70.5 -300.5q-29 -186 -165.5 -304t-321.5 -118zM302 1110q-26 -167 61.5 -273.5t252.5 -106.5t286.5 106.5t147.5 273.5q26 165 -62 270.5t-253 105.5t-286 -105.5t-147 -270.5z
M511 900l63 402h138q64 0 93.5 -29t20.5 -85q-16 -96 -112 -112l75 -176h-50l-73 174h-86l-27 -174h-42zM587 1116h96q48 0 71.5 16.5t29.5 55.5q6 38 -12 55t-66 17h-96z" />
    <glyph glyph-name="macron" unicode="&#xaf;" horiz-adv-x="676" 
d="M466 1690l6 42h280l-6 -42h-280z" />
    <glyph glyph-name="degree" unicode="&#xb0;" horiz-adv-x="668" 
d="M493 1004q-89 0 -137.5 57t-34.5 145t80.5 145t155.5 57t137.5 -57t34.5 -145t-80.5 -145t-155.5 -57zM367 1206q-11 -72 25.5 -116t107.5 -44t121.5 44t61.5 116t-25.5 116t-107.5 44t-121.5 -44t-61.5 -116z" />
    <glyph glyph-name="plusminus" unicode="&#xb1;" horiz-adv-x="1012" 
d="M515 194l66 420h-378l7 42h378l66 420h44l-66 -420h378l-7 -42h-378l-66 -420h-44zM106 0l7 42h800l-7 -42h-800z" />
    <glyph glyph-name="uni00B2" unicode="&#xb2;" horiz-adv-x="868" 
d="M323 976l2 18l344 274q70 56 115 100t69 82t34 66.5t16 67.5q14 87 -34 142.5t-147 55.5q-98 0 -173 -59.5t-101 -158.5l-3 -14h-28l5 14q29 109 113 175.5t191 66.5q116 0 169 -62.5t38 -159.5q-13 -80 -66.5 -155.5t-175.5 -172.5l-323 -256h512l-3 -24h-554z" />
    <glyph glyph-name="uni00B3" unicode="&#xb3;" horiz-adv-x="866" 
d="M579 968q-127 0 -191 68t-46 176h22q-16 -101 43 -160.5t176 -59.5t196 59t94 155q14 93 -46 149.5t-177 56.5q-32 0 -55 -2l5 28l334 342h-486l4 26h526l-3 -22l-339 -344h18q123 0 188 -66.5t49 -167.5q-17 -106 -102.5 -172t-209.5 -66z" />
    <glyph glyph-name="acute" unicode="&#xb4;" horiz-adv-x="824" 
d="M677 1610l155 220h56l-173 -220h-38z" />
    <glyph glyph-name="paragraph" unicode="&#xb6;" horiz-adv-x="1106" 
d="M507 -220l136 860h-46q-78 0 -111 2q-146 9 -213 114t-43 254t123.5 254t248.5 114q35 2 113 2h390l-254 -1600h-44l247 1558h-256l-247 -1558h-44z" />
    <glyph glyph-name="periodcentered" unicode="&#xb7;" horiz-adv-x="388" 
d="M284 566q-20 0 -30.5 12.5t-6.5 31.5q3 19 17 31.5t34 12.5q19 0 29.5 -12t7.5 -32q-4 -20 -18 -32t-33 -12z" />
    <glyph glyph-name="cedilla" unicode="&#xb8;" horiz-adv-x="868" 
d="M299 -457q-66 0 -103 20l7 44q37 -22 102 -22q70 0 118.5 31.5t57.5 90.5q9 60 -34.5 91t-143.5 27l125 189h50l-103 -153q173 -16 152 -154q-13 -81 -79.5 -122.5t-148.5 -41.5z" />
    <glyph glyph-name="uni00B9" unicode="&#xb9;" horiz-adv-x="534" 
d="M458 986l124 784l-237 -134l6 36l237 132h32l-130 -818h-32z" />
    <glyph glyph-name="ordmasculine" unicode="&#xba;" horiz-adv-x="788" 
d="M501 713q-138 0 -210 96.5t-47 250.5q24 153 125.5 249t241.5 96h12q140 0 210.5 -95.5t46.5 -249.5q-25 -154 -126.5 -250.5t-240.5 -96.5h-12zM272 1060q-23 -143 41.5 -232t191.5 -89h12q128 0 220 89t115 232t-42 231t-192 88h-12q-127 0 -219 -88t-115 -231z" />
    <glyph glyph-name="guillemotright" unicode="&#xbb;" horiz-adv-x="1084" 
d="M460 164l327 332l-222 332h58l222 -332l-327 -332h-58zM220 164l327 332l-222 332h58l222 -332l-327 -332h-58z" />
    <glyph glyph-name="questiondown" unicode="&#xbf;" horiz-adv-x="1020" 
d="M449 -358q-181 0 -265.5 100.5t-59.5 255.5q31 198 245 374q80 67 128 116t80 103t47.5 106t28.5 133h40q-19 -117 -45 -185t-82 -135.5t-169 -163.5q-102 -86 -156 -169.5t-69 -178.5q-24 -147 54 -230.5t230 -83.5q167 0 280.5 102t153.5 276h44q-37 -186 -171 -303
t-314 -117zM664 1038q3 17 17 28.5t30 11.5q17 0 26.5 -12t6.5 -28q-2 -16 -15.5 -28t-30.5 -12q-16 0 -26 11.5t-8 28.5z" />
    <glyph glyph-name="Agrave" unicode="&#xc0;" horiz-adv-x="1124" 
d="M50 0l707 1394h50l267 -1394h-46l-90 480h-600l-242 -480h-46zM356 518h576l-156 832zM706 1810h56l76 -188h-38z" />
    <glyph glyph-name="Aacute" unicode="&#xc1;" horiz-adv-x="1124" 
d="M50 0l707 1394h50l267 -1394h-46l-90 480h-600l-242 -480h-46zM356 518h576l-156 832zM796 1622l136 188h56l-154 -188h-38z" />
    <glyph glyph-name="Acircumflex" unicode="&#xc2;" horiz-adv-x="1124" 
d="M50 0l707 1394h50l267 -1394h-46l-90 480h-600l-242 -480h-46zM356 518h576l-156 832zM668 1622l160 188h46l100 -188h-48l-81 160l-131 -160h-46z" />
    <glyph glyph-name="Atilde" unicode="&#xc3;" horiz-adv-x="1124" 
d="M50 0l707 1394h50l267 -1394h-46l-90 480h-600l-242 -480h-46zM356 518h576l-156 832zM653 1680q13 82 85 82q36 0 110 -26q68 -24 90 -24q32 0 39 42h40q-13 -82 -85 -82q-36 0 -110 26q-69 24 -90 24q-32 0 -39 -42h-40z" />
    <glyph glyph-name="Adieresis" unicode="&#xc4;" horiz-adv-x="1124" 
d="M50 0l707 1394h50l267 -1394h-46l-90 480h-600l-242 -480h-46zM356 518h576l-156 832zM674 1716q2 16 15.5 28t30.5 12q16 0 26 -11.5t8 -28.5q-3 -17 -17 -28.5t-30 -11.5q-17 0 -26.5 12t-6.5 28zM926 1716q2 16 15.5 28t30.5 12q16 0 26 -11.5t8 -28.5
q-3 -17 -17 -28.5t-30 -11.5q-17 0 -26.5 12t-6.5 28z" />
    <glyph glyph-name="Aring" unicode="&#xc5;" horiz-adv-x="1124" 
d="M50 0l707 1394h50l267 -1394h-46l-90 480h-600l-242 -480h-46zM356 518h576l-156 832zM709 1716q9 55 50.5 88.5t94.5 33.5t84.5 -33.5t22.5 -88.5t-51 -88.5t-95 -33.5t-84 33.5t-22 88.5zM757 1716q-5 -34 12 -57t53 -23t61 23t30 57t-12.5 57t-53.5 23t-60.5 -23
t-29.5 -57z" />
    <glyph glyph-name="AE" unicode="&#xc6;" horiz-adv-x="1645" 
d="M36 0l707 1394h1023l-6 -38h-824l-101 -634h754l-6 -38h-754l-102 -646h824l-6 -38h-864l76 480h-433l-242 -480h-46zM342 518h421l132 832h-133z" />
    <glyph glyph-name="Ccedilla" unicode="&#xc7;" horiz-adv-x="1342" 
d="M584 -452q-66 0 -102 20l7 44q37 -22 102 -22q70 0 118 31.5t57 90.5q10 60 -33.5 91t-143.5 27l101 158q-271 3 -406 194t-84 514q52 327 250.5 518.5t472.5 191.5h20q187 0 312.5 -91t174.5 -255l-40 -14q-44 153 -161 236.5t-293 83.5h-20q-261 0 -444 -181.5
t-232 -488.5q-48 -306 77.5 -487t386.5 -181h20q176 0 319.5 83.5t235.5 236.5l36 -14q-97 -159 -246.5 -250t-329.5 -96l-78 -122q173 -16 151 -154q-13 -81 -79.5 -122.5t-148.5 -41.5z" />
    <glyph glyph-name="Egrave" unicode="&#xc8;" 
d="M180 0l221 1394h864l-6 -38h-824l-101 -634h754l-6 -38h-754l-102 -646h824l-6 -38h-864zM720 1810h56l76 -188h-38z" />
    <glyph glyph-name="Eacute" unicode="&#xc9;" 
d="M180 0l221 1394h864l-6 -38h-824l-101 -634h754l-6 -38h-754l-102 -646h824l-6 -38h-864zM810 1622l136 188h56l-154 -188h-38z" />
    <glyph glyph-name="Ecircumflex" unicode="&#xca;" 
d="M180 0l221 1394h864l-6 -38h-824l-101 -634h754l-6 -38h-754l-102 -646h824l-6 -38h-864zM682 1622l160 188h46l100 -188h-48l-81 160l-131 -160h-46z" />
    <glyph glyph-name="Edieresis" unicode="&#xcb;" 
d="M180 0l221 1394h864l-6 -38h-824l-101 -634h754l-6 -38h-754l-102 -646h824l-6 -38h-864zM684 1716q2 16 15.5 28t30.5 12q16 0 26 -11.5t8 -28.5q-3 -17 -17 -28.5t-30 -11.5q-17 0 -26.5 12t-6.5 28zM936 1716q2 16 15.5 28t30.5 12q16 0 26 -11.5t8 -28.5
q-3 -17 -17 -28.5t-30 -11.5q-17 0 -26.5 12t-6.5 28z" />
    <glyph glyph-name="Igrave" unicode="&#xcc;" horiz-adv-x="242" 
d="M36 0l221 1394h40l-221 -1394h-40zM199 1810h56l76 -188h-38z" />
    <glyph glyph-name="Iacute" unicode="&#xcd;" horiz-adv-x="240" 
d="M170 0l221 1394h40l-221 -1394h-40zM423 1622l136 188h56l-154 -188h-38z" />
    <glyph glyph-name="Icircumflex" unicode="&#xce;" horiz-adv-x="120" 
d="M165 1622l160 188h46l100 -188h-48l-81 160l-131 -160h-46zM40 0l221 1394h40l-221 -1394h-40z" />
    <glyph glyph-name="Idieresis" unicode="&#xcf;" horiz-adv-x="200" 
d="M80 0l221 1394h40l-221 -1394h-40zM207 1716q2 16 15.5 28t30.5 12q16 0 26 -11.5t8 -28.5q-3 -17 -17 -28.5t-30 -11.5q-17 0 -26.5 12t-6.5 28zM459 1716q2 16 15.5 28t30.5 12q16 0 26 -11.5t8 -28.5q-3 -17 -17 -28.5t-30 -11.5q-17 0 -26.5 12t-6.5 28z" />
    <glyph glyph-name="Eth" unicode="&#xd0;" horiz-adv-x="1238" 
d="M170 0l102 646h-110l7 42h110l112 706h278q334 0 487.5 -185t100.5 -523q-53 -332 -262 -509t-549 -177h-276zM216 38h232q324 0 519 165t246 483q51 324 -92.5 497t-459.5 173h-236l-106 -668h382l-7 -42h-382z" />
    <glyph glyph-name="Ntilde" unicode="&#xd1;" horiz-adv-x="1272" 
d="M180 0l221 1394h56l603 -1346l213 1346h40l-221 -1394h-58l-601 1342l-213 -1342h-40zM726 1680q13 82 85 82q36 0 110 -26q67 -24 90 -24q32 0 39 42h40q-13 -82 -85 -82q-36 0 -110 26q-69 24 -90 24q-32 0 -39 -42h-40z" />
    <glyph glyph-name="Ograve" unicode="&#xd2;" horiz-adv-x="1422" 
d="M697 -18q-274 0 -411.5 191.5t-86.5 516.5q52 327 250.5 518.5t472.5 191.5h20q278 0 414 -194t85 -516q-51 -321 -248 -514.5t-476 -193.5h-20zM239 690q-48 -306 77.5 -487t386.5 -181h20q263 0 446.5 181.5t231.5 486.5q49 307 -77 488.5t-389 181.5h-20
q-261 0 -444 -181.5t-232 -488.5zM859 1810h56l76 -188h-38z" />
    <glyph glyph-name="Oacute" unicode="&#xd3;" horiz-adv-x="1422" 
d="M697 -18q-274 0 -411.5 191.5t-86.5 516.5q52 327 250.5 518.5t472.5 191.5h20q278 0 414 -194t85 -516q-51 -321 -248 -514.5t-476 -193.5h-20zM239 690q-48 -306 77.5 -487t386.5 -181h20q263 0 446.5 181.5t231.5 486.5q49 307 -77 488.5t-389 181.5h-20
q-261 0 -444 -181.5t-232 -488.5zM949 1622l136 188h56l-154 -188h-38z" />
    <glyph glyph-name="Ocircumflex" unicode="&#xd4;" horiz-adv-x="1422" 
d="M697 -18q-274 0 -411.5 191.5t-86.5 516.5q52 327 250.5 518.5t472.5 191.5h20q278 0 414 -194t85 -516q-51 -321 -248 -514.5t-476 -193.5h-20zM239 690q-48 -306 77.5 -487t386.5 -181h20q263 0 446.5 181.5t231.5 486.5q49 307 -77 488.5t-389 181.5h-20
q-261 0 -444 -181.5t-232 -488.5zM821 1622l160 188h46l100 -188h-48l-81 160l-131 -160h-46z" />
    <glyph glyph-name="Otilde" unicode="&#xd5;" horiz-adv-x="1422" 
d="M697 -18q-274 0 -411.5 191.5t-86.5 516.5q52 327 250.5 518.5t472.5 191.5h20q278 0 414 -194t85 -516q-51 -321 -248 -514.5t-476 -193.5h-20zM239 690q-48 -306 77.5 -487t386.5 -181h20q263 0 446.5 181.5t231.5 486.5q49 307 -77 488.5t-389 181.5h-20
q-261 0 -444 -181.5t-232 -488.5zM806 1680q13 82 85 82q36 0 110 -26q67 -24 90 -24q32 0 39 42h40q-13 -82 -85 -82q-36 0 -110 26q-69 24 -90 24q-32 0 -39 -42h-40z" />
    <glyph glyph-name="Odieresis" unicode="&#xd6;" horiz-adv-x="1422" 
d="M697 -18q-274 0 -411.5 191.5t-86.5 516.5q52 327 250.5 518.5t472.5 191.5h20q278 0 414 -194t85 -516q-51 -321 -248 -514.5t-476 -193.5h-20zM239 690q-48 -306 77.5 -487t386.5 -181h20q263 0 446.5 181.5t231.5 486.5q49 307 -77 488.5t-389 181.5h-20
q-261 0 -444 -181.5t-232 -488.5zM822 1716q2 16 15.5 28t30.5 12q16 0 26 -11.5t8 -28.5q-3 -17 -17 -28.5t-30 -11.5q-17 0 -26.5 12t-6.5 28zM1074 1716q2 16 15.5 28t30.5 12q16 0 26 -11.5t8 -28.5q-3 -17 -17 -28.5t-30 -11.5q-17 0 -26.5 12t-6.5 28z" />
    <glyph glyph-name="multiply" unicode="&#xd7;" horiz-adv-x="958" 
d="M225 294l-26 30l350 302l-254 302l35 30l254 -302l350 302l25 -30l-350 -302l254 -302l-34 -30l-255 302z" />
    <glyph glyph-name="Oslash" unicode="&#xd8;" horiz-adv-x="1444" 
d="M703 -18q-141 0 -248.5 53.5t-173.5 153.5l-152 -131l-25 30l156 135q-99 187 -55 467q52 327 250.5 518.5t472.5 191.5h20q145 0 254 -55.5t174 -158.5l157 136l26 -30l-164 -141q95 -186 52 -461q-51 -321 -248 -514.5t-476 -193.5h-20zM245 690q-42 -263 49 -438
l1049 906q-60 98 -162.5 150t-239.5 52h-20q-261 0 -444 -181.5t-232 -488.5zM313 217q125 -195 396 -195h20q263 0 446.5 181.5t231.5 486.5q42 259 -44 433z" />
    <glyph glyph-name="Ugrave" unicode="&#xd9;" horiz-adv-x="1242" 
d="M242 492l143 902h40l-141 -888q-39 -243 82 -379q92 -104 243 -108q156 -4 291 100q165 128 213 359q4 19 7 38l139 878h40l-140 -880q-41 -258 -216 -407q-139 -119 -310 -127q-165 -8 -276 91q-134 119 -123 343q2 38 8 78zM762 1810h56l76 -188h-38z" />
    <glyph glyph-name="Uacute" unicode="&#xda;" horiz-adv-x="1242" 
d="M242 492l143 902h40l-141 -888q-39 -243 82 -379q92 -104 243 -108q156 -4 291 100q165 128 213 359q4 19 7 38l139 878h40l-140 -880q-41 -258 -216 -407q-139 -119 -310 -127q-165 -8 -276 91q-134 119 -123 343q2 38 8 78zM852 1622l136 188h56l-154 -188h-38z" />
    <glyph glyph-name="Ucircumflex" unicode="&#xdb;" horiz-adv-x="1242" 
d="M242 492l143 902h40l-141 -888q-39 -243 82 -379q92 -104 243 -108q156 -4 291 100q165 128 213 359q4 19 7 38l139 878h40l-140 -880q-41 -258 -216 -407q-139 -119 -310 -127q-165 -8 -276 91q-134 119 -123 343q2 38 8 78zM724 1622l160 188h46l100 -188h-48l-81 160
l-131 -160h-46z" />
    <glyph glyph-name="Udieresis" unicode="&#xdc;" horiz-adv-x="1242" 
d="M242 492l143 902h40l-141 -888q-39 -243 82 -379q92 -104 243 -108q156 -4 291 100q165 128 213 359q4 19 7 38l139 878h40l-140 -880q-41 -258 -216 -407q-139 -119 -310 -127q-165 -8 -276 91q-134 119 -123 343q2 38 8 78zM728 1716q2 16 15.5 28t30.5 12
q16 0 26 -11.5t8 -28.5q-3 -17 -17 -28.5t-30 -11.5q-17 0 -26.5 12t-6.5 28zM980 1716q2 16 15.5 28t30.5 12q16 0 26 -11.5t8 -28.5q-3 -17 -17 -28.5t-30 -11.5q-17 0 -26.5 12t-6.5 28z" />
    <glyph glyph-name="Yacute" unicode="&#xdd;" horiz-adv-x="1092" 
d="M526 0l61 412l-336 982h48l315 -938l621 938h48l-656 -982l-61 -412h-40zM778 1622l136 188h56l-154 -188h-38z" />
    <glyph glyph-name="Thorn" unicode="&#xde;" horiz-adv-x="1162" 
d="M180 0l219 1380h40l-37 -229h416q215 0 311 -93t67 -277l-1 -2q-59 -370 -494 -370h-416l-65 -409h-40zM291 447h416q396 0 449 334q26 165 -60 248.5t-284 83.5h-416z" />
    <glyph glyph-name="germandbls" unicode="&#xdf;" horiz-adv-x="1119" 
d="M672 -8q-218 0 -312 20l7 46q103 -24 311 -24q140 0 231.5 59t108.5 165q11 67 -16 127t-112 153q-73 78 -93 128.5t-10 119.5q11 68 47 118.5t135 129.5q114 92 159.5 152t56.5 128q17 107 -55.5 165.5t-212.5 58.5q-428 0 -511 -362q-13 -63 -23 -120l-167 -1056h-44
l167 1052q9 62 24 128q41 192 184.5 295.5t378.5 104.5q165 1 245.5 -71.5t60.5 -200.5q-12 -79 -71 -152.5t-175 -163.5q-76 -58 -109 -104t-42 -102q-8 -56 10 -102t76 -104q88 -90 123 -163.5t23 -152.5q-20 -129 -124 -200.5t-271 -71.5z" />
    <glyph glyph-name="agrave" unicode="&#xe0;" horiz-adv-x="1012" 
d="M452 -10q-156 0 -232.5 75.5t-56.5 206.5q23 139 131 210q57 37 127 51t178 19l375 16l6 40q27 171 -57 261.5t-251 90.5q-108 0 -194.5 -41.5t-167.5 -134.5l-26 24q89 100 182 144t212 44q184 0 278 -100.5t64 -287.5l-96 -608h-40l42 264q-40 -81 -117.5 -144
t-171 -96.5t-185.5 -33.5zM203 272q-18 -113 51 -180.5t208 -67.5q108 0 214 53t182.5 148.5t94.5 208.5l16 100l-371 -16q-196 -7 -280 -62q-95 -64 -115 -184zM605 1530h56l85 -220h-38z" />
    <glyph glyph-name="aacute" unicode="&#xe1;" horiz-adv-x="1012" 
d="M452 -10q-156 0 -232.5 75.5t-56.5 206.5q23 139 131 210q57 37 127 51t178 19l375 16l6 40q27 171 -57 261.5t-251 90.5q-108 0 -194.5 -41.5t-167.5 -134.5l-26 24q89 100 182 144t212 44q184 0 278 -100.5t64 -287.5l-96 -608h-40l42 264q-40 -81 -117.5 -144
t-171 -96.5t-185.5 -33.5zM203 272q-18 -113 51 -180.5t208 -67.5q108 0 214 53t182.5 148.5t94.5 208.5l16 100l-371 -16q-196 -7 -280 -62q-95 -64 -115 -184zM728 1310l155 220h56l-173 -220h-38z" />
    <glyph glyph-name="acircumflex" unicode="&#xe2;" horiz-adv-x="1012" 
d="M452 -10q-156 0 -232.5 75.5t-56.5 206.5q23 139 131 210q57 37 127 51t178 19l375 16l6 40q27 171 -57 261.5t-251 90.5q-108 0 -194.5 -41.5t-167.5 -134.5l-26 24q89 100 182 144t212 44q184 0 278 -100.5t64 -287.5l-96 -608h-40l42 264q-40 -81 -117.5 -144
t-171 -96.5t-185.5 -33.5zM203 272q-18 -113 51 -180.5t208 -67.5q108 0 214 53t182.5 148.5t94.5 208.5l16 100l-371 -16q-196 -7 -280 -62q-95 -64 -115 -184zM600 1310l165 220h46l95 -220h-48l-76 188l-136 -188h-46z" />
    <glyph glyph-name="atilde" unicode="&#xe3;" horiz-adv-x="1012" 
d="M452 -10q-156 0 -232.5 75.5t-56.5 206.5q23 139 131 210q57 37 127 51t178 19l375 16l6 40q27 171 -57 261.5t-251 90.5q-108 0 -194.5 -41.5t-167.5 -134.5l-26 24q89 100 182 144t212 44q184 0 278 -100.5t64 -287.5l-96 -608h-40l42 264q-40 -81 -117.5 -144
t-171 -96.5t-185.5 -33.5zM203 272q-18 -113 51 -180.5t208 -67.5q108 0 214 53t182.5 148.5t94.5 208.5l16 100l-371 -16q-196 -7 -280 -62q-95 -64 -115 -184zM613 1410q14 82 85 82q36 0 110 -26q69 -24 90 -24q32 0 39 42h40q-13 -82 -85 -82q-36 0 -110 26
q-67 24 -90 24q-32 0 -39 -42h-40z" />
    <glyph glyph-name="adieresis" unicode="&#xe4;" horiz-adv-x="1012" 
d="M452 -10q-156 0 -232.5 75.5t-56.5 206.5q23 139 131 210q57 37 128 51.5t177 18.5l375 16l6 40q27 171 -57 261.5t-251 90.5q-108 0 -194.5 -41.5t-167.5 -134.5l-26 24q89 100 182 144t212 44q184 0 278 -100.5t64 -287.5l-96 -608h-40l42 264q-40 -81 -117.5 -144
t-171 -96.5t-185.5 -33.5zM203 272q-18 -113 51 -180.5t208 -67.5q108 0 214 53t182.5 148.5t94.5 208.5l16 100l-371 -16q-99 -4 -165.5 -17t-114.5 -45q-95 -64 -115 -184zM606 1418q2 16 15.5 28t30.5 12q16 0 26 -11.5t8 -28.5q-3 -17 -17 -28.5t-30 -11.5
q-17 0 -26.5 12t-6.5 28zM858 1418q2 16 15.5 28t30.5 12q16 0 26 -11.5t8 -28.5q-3 -17 -17 -28.5t-30 -11.5q-17 0 -26.5 12t-6.5 28z" />
    <glyph glyph-name="aring" unicode="&#xe5;" horiz-adv-x="1012" 
d="M452 -10q-156 0 -232.5 75.5t-56.5 206.5q23 139 131 210q57 37 127 51t178 19l375 16l6 40q27 171 -57 261.5t-251 90.5q-108 0 -194.5 -41.5t-167.5 -134.5l-26 24q89 100 182 144t212 44q184 0 278 -100.5t64 -287.5l-96 -608h-40l42 264q-40 -81 -117.5 -144
t-171 -96.5t-185.5 -33.5zM203 272q-18 -113 51 -180.5t208 -67.5q108 0 214 53t182.5 148.5t94.5 208.5l16 100l-371 -16q-196 -7 -280 -62q-95 -64 -115 -184zM657 1418q9 56 50 90t93 34q53 0 83.5 -34t21.5 -90t-50.5 -90t-93.5 -34t-82.5 34t-21.5 90zM703 1418
q-5 -35 12 -58.5t53 -23.5t60.5 23.5t30.5 58.5q5 35 -12 58.5t-53 23.5t-60.5 -23.5t-30.5 -58.5z" />
    <glyph glyph-name="ae" unicode="&#xe6;" horiz-adv-x="1858" 
d="M203 272q-18 -113 51 -180.5t208 -67.5q108 0 214 53t182.5 148.5t94.5 208.5l16 100l-371 -16q-99 -4 -165.5 -17t-114.5 -45q-95 -64 -115 -184zM163 272q23 139 131 210q57 37 128 51.5t177 18.5l375 16l6 40q27 171 -57 261.5t-251 90.5q-108 0 -194.5 -41.5
t-167.5 -134.5l-26 24q89 100 182 144t212 44q161 0 254.5 -77t94.5 -223q37 74 92 133t115.5 94.5t128.5 55.5t131.5 16.5t124.5 -22.5t108 -61.5t80.5 -100t43 -139t-4.5 -178.5h-842q-32 -208 61 -338t277 -130h20q115 0 213 52.5t167 147.5l33 -16q-75 -104 -184 -162
t-235 -58h-20q-157 0 -256.5 89t-119.5 242q-83 -157 -223.5 -244t-284.5 -87q-156 0 -232.5 75.5t-56.5 206.5zM1009 526h802q25 221 -96 341q-97 95 -246 92q-154 -4 -280 -113q-138 -119 -180 -320z" />
    <glyph glyph-name="ccedilla" unicode="&#xe7;" horiz-adv-x="1036" 
d="M390 -457q-66 0 -103 20l7 44q37 -22 102 -22q70 0 118.5 31.5t57.5 90.5q9 60 -34.5 91t-143.5 27l112 166q-184 13 -278 151.5t-60 351.5q35 224 182.5 363t349.5 139h20q127 0 217.5 -57.5t131.5 -160.5l-40 -16q-39 94 -120 146t-195 52h-20q-184 0 -318.5 -129.5
t-167.5 -336.5q-32 -208 61 -338t277 -130h20q115 0 213 52.5t167 147.5l33 -16q-75 -104 -184 -162t-235 -58h-7l-87 -129q173 -16 152 -154q-13 -81 -79.5 -122.5t-148.5 -41.5z" />
    <glyph glyph-name="egrave" unicode="&#xe8;" horiz-adv-x="1062" 
d="M540 -10q-200 0 -303.5 140.5t-68.5 363.5q35 221 179 359.5t343 142.5q196 -5 295.5 -143.5t64.5 -358.5h-842q-32 -208 61 -338t277 -130h20q115 0 213 52.5t167 147.5l33 -16q-75 -104 -184 -162t-235 -58h-20zM213 526h802q22 191 -69 310.5t-262 123.5
q-173 -4 -302 -123.5t-169 -310.5zM630 1530h56l85 -220h-38z" />
    <glyph glyph-name="eacute" unicode="&#xe9;" horiz-adv-x="1062" 
d="M540 -10q-200 0 -303.5 140.5t-68.5 363.5q35 221 179 359.5t343 142.5q196 -5 295.5 -143.5t64.5 -358.5h-842q-32 -208 61 -338t277 -130h20q115 0 213 52.5t167 147.5l33 -16q-75 -104 -184 -162t-235 -58h-20zM213 526h802q22 191 -69 310.5t-262 123.5
q-173 -4 -302 -123.5t-169 -310.5zM715 1310l155 220h56l-173 -220h-38z" />
    <glyph glyph-name="ecircumflex" unicode="&#xea;" horiz-adv-x="1062" 
d="M540 -10q-200 0 -303.5 140.5t-68.5 363.5q35 221 179 359.5t343 142.5q196 -5 295.5 -143.5t64.5 -358.5h-842q-32 -208 61 -338t277 -130h20q115 0 213 52.5t167 147.5l33 -16q-75 -104 -184 -162t-235 -58h-20zM213 526h802q22 191 -69 310.5t-262 123.5
q-173 -4 -302 -123.5t-169 -310.5zM587 1310l165 220h46l95 -220h-48l-76 188l-136 -188h-46z" />
    <glyph glyph-name="edieresis" unicode="&#xeb;" horiz-adv-x="1062" 
d="M540 -10q-200 0 -303.5 140.5t-68.5 363.5q35 221 179 359.5t343 142.5q196 -5 295.5 -143.5t64.5 -358.5h-842q-32 -208 61 -338t277 -130h20q115 0 213 52.5t167 147.5l33 -16q-75 -104 -184 -162t-235 -58h-20zM213 526h802q22 191 -69 310.5t-262 123.5
q-173 -4 -302 -123.5t-169 -310.5zM593 1418q2 16 15.5 28t30.5 12q16 0 26 -11.5t8 -28.5q-3 -17 -17 -28.5t-30 -11.5q-17 0 -26.5 12t-6.5 28zM845 1418q2 16 15.5 28t30.5 12q16 0 26 -11.5t8 -28.5q-3 -17 -17 -28.5t-30 -11.5q-17 0 -26.5 12t-6.5 28z" />
    <glyph glyph-name="igrave" unicode="&#xec;" horiz-adv-x="352" 
d="M140 0l156 986h40l-156 -986h-40zM220 1530h56l85 -220h-38z" />
    <glyph glyph-name="iacute" unicode="&#xed;" horiz-adv-x="326" 
d="M172 0l156 986h40l-156 -986h-40zM379 1310l155 220h56l-173 -220h-38z" />
    <glyph glyph-name="icircumflex" unicode="&#xee;" horiz-adv-x="122" 
d="M115 1310l165 220h46l95 -220h-48l-76 188l-136 -188h-46zM40 0l156 986h40l-156 -986h-40z" />
    <glyph glyph-name="idieresis" unicode="&#xef;" horiz-adv-x="204" 
d="M82 0l156 986h40l-156 -986h-40zM162 1418q2 16 15.5 28t30.5 12q16 0 26 -11.5t8 -28.5q-3 -17 -17 -28.5t-30 -11.5q-17 0 -26.5 12t-6.5 28zM414 1418q2 16 15.5 28t30.5 12q16 0 26 -11.5t8 -28.5q-3 -17 -17 -28.5t-30 -11.5q-17 0 -26.5 12t-6.5 28z" />
    <glyph glyph-name="eth" unicode="&#xf0;" horiz-adv-x="1114" 
d="M540 -10q-200 0 -303.5 140.5t-68.5 363.5q35 224 182.5 363t349.5 139h20q161 0 261 -91l-99 283l-180 -46l-4 41l171 44l-60 172h43l57 -162l155 40l5 -41l-147 -38l155 -437l-3 4q43 -121 18 -271q-35 -224 -183 -364t-349 -140h-20zM208 494q-32 -208 61 -338
t277 -130h20q185 0 319.5 130t166.5 338q33 207 -60.5 336.5t-277.5 129.5h-20q-184 0 -318.5 -129.5t-167.5 -336.5z" />
    <glyph glyph-name="ntilde" unicode="&#xf1;" horiz-adv-x="1108" 
d="M172 0l156 986h40l-38 -240q56 126 155.5 188t254.5 62q193 0 267.5 -100t42.5 -302l-94 -594h-40l92 584q31 193 -33.5 284.5t-240.5 91.5q-370 0 -446 -478l-76 -482h-40zM597 1410q14 82 85 82q36 0 110 -26q69 -24 90 -24q32 0 39 42h40q-13 -82 -85 -82
q-36 0 -110 26q-67 24 -90 24q-32 0 -39 -42h-40z" />
    <glyph glyph-name="ograve" unicode="&#xf2;" horiz-adv-x="1104" 
d="M540 -10q-200 0 -303.5 140.5t-68.5 363.5q35 224 182.5 363t349.5 139h20q202 0 304.5 -139t67.5 -363t-183 -364t-349 -140h-20zM208 494q-32 -208 61 -338t277 -130h20q185 0 319.5 130t166.5 338q33 207 -60.5 336.5t-277.5 129.5h-20q-184 0 -318.5 -129.5
t-167.5 -336.5zM649 1530h56l85 -220h-38z" />
    <glyph glyph-name="oacute" unicode="&#xf3;" horiz-adv-x="1104" 
d="M540 -10q-200 0 -303.5 140.5t-68.5 363.5q35 224 182.5 363t349.5 139h20q202 0 304.5 -139t67.5 -363t-183 -364t-349 -140h-20zM208 494q-32 -208 61 -338t277 -130h20q185 0 319.5 130t166.5 338q33 207 -60.5 336.5t-277.5 129.5h-20q-184 0 -318.5 -129.5
t-167.5 -336.5zM734 1310l155 220h56l-173 -220h-38z" />
    <glyph glyph-name="ocircumflex" unicode="&#xf4;" horiz-adv-x="1104" 
d="M540 -10q-200 0 -303.5 140.5t-68.5 363.5q35 224 182.5 363t349.5 139h20q202 0 304.5 -139t67.5 -363t-183 -364t-349 -140h-20zM208 494q-32 -208 61 -338t277 -130h20q185 0 319.5 130t166.5 338q33 207 -60.5 336.5t-277.5 129.5h-20q-184 0 -318.5 -129.5
t-167.5 -336.5zM606 1310l165 220h46l95 -220h-48l-76 188l-136 -188h-46z" />
    <glyph glyph-name="otilde" unicode="&#xf5;" horiz-adv-x="1104" 
d="M540 -10q-200 0 -303.5 140.5t-68.5 363.5q35 224 182.5 363t349.5 139h20q202 0 304.5 -139t67.5 -363t-183 -364t-349 -140h-20zM208 494q-32 -208 61 -338t277 -130h20q185 0 319.5 130t166.5 338q33 207 -60.5 336.5t-277.5 129.5h-20q-184 0 -318.5 -129.5
t-167.5 -336.5zM598 1410q14 82 85 82q36 0 110 -26q69 -24 90 -24q32 0 39 42h40q-13 -82 -85 -82q-36 0 -110 26q-67 24 -90 24q-32 0 -39 -42h-40z" />
    <glyph glyph-name="odieresis" unicode="&#xf6;" horiz-adv-x="1104" 
d="M540 -10q-200 0 -303.5 140.5t-68.5 363.5q35 224 182.5 363t349.5 139h20q202 0 304.5 -139t67.5 -363t-183 -364t-349 -140h-20zM208 494q-32 -208 61 -338t277 -130h20q185 0 319.5 130t166.5 338q33 207 -60.5 336.5t-277.5 129.5h-20q-184 0 -318.5 -129.5
t-167.5 -336.5zM611 1418q2 16 15.5 28t30.5 12q16 0 26 -11.5t8 -28.5q-3 -17 -17 -28.5t-30 -11.5q-17 0 -26.5 12t-6.5 28zM863 1418q2 16 15.5 28t30.5 12q16 0 26 -11.5t8 -28.5q-3 -17 -17 -28.5t-30 -11.5q-17 0 -26.5 12t-6.5 28z" />
    <glyph glyph-name="divide" unicode="&#xf7;" horiz-adv-x="1012" 
d="M203 614l7 42h800l-7 -42h-800zM505 324q4 22 21 37t40 15q22 0 34.5 -14.5t8.5 -37.5q-3 -22 -20 -37t-40 -15q-22 0 -34.5 14.5t-9.5 37.5zM604 944q3 22 20 37t40 15q22 0 34.5 -14.5t9.5 -37.5q-4 -22 -21 -37t-40 -15q-22 0 -34.5 14.5t-8.5 37.5z" />
    <glyph glyph-name="oslash" unicode="&#xf8;" horiz-adv-x="1264" 
d="M117 -16l-25 30l196 169q-64 132 -36 311q35 224 182.5 363t349.5 139h20q186 0 288 -119l221 191l25 -30l-222 -192q95 -137 60 -352q-35 -224 -183 -364t-349 -140h-20q-105 0 -185.5 41.5t-129.5 117.5zM292 494q-25 -163 28 -283l741 639q-94 110 -263 110h-20
q-184 0 -318.5 -129.5t-167.5 -336.5zM340 176q43 -72 117.5 -111t172.5 -39h20q185 0 319.5 130t166.5 338q31 196 -52 324z" />
    <glyph glyph-name="ugrave" unicode="&#xf9;" horiz-adv-x="1088" 
d="M524 -10q-193 0 -267.5 100t-42.5 302l94 594h40l-92 -584q-31 -193 33.5 -284.5t240.5 -91.5q370 0 446 478l76 482h40l-156 -986h-40l38 240q-56 -126 -155.5 -188t-254.5 -62zM611 1530h56l85 -220h-38z" />
    <glyph glyph-name="uacute" unicode="&#xfa;" horiz-adv-x="1088" 
d="M524 -10q-193 0 -267.5 100t-42.5 302l94 594h40l-92 -584q-31 -193 33.5 -284.5t240.5 -91.5q370 0 446 478l76 482h40l-156 -986h-40l38 240q-56 -126 -155.5 -188t-254.5 -62zM726 1310l155 220h56l-173 -220h-38z" />
    <glyph glyph-name="ucircumflex" unicode="&#xfb;" horiz-adv-x="1088" 
d="M524 -10q-193 0 -267.5 100t-42.5 302l94 594h40l-92 -584q-31 -193 33.5 -284.5t240.5 -91.5q370 0 446 478l76 482h40l-156 -986h-40l38 240q-56 -126 -155.5 -188t-254.5 -62zM598 1310l165 220h46l95 -220h-48l-76 188l-136 -188h-46z" />
    <glyph glyph-name="udieresis" unicode="&#xfc;" horiz-adv-x="1088" 
d="M524 -10q-193 0 -267.5 100t-42.5 302l94 594h40l-92 -584q-31 -193 33.5 -284.5t240.5 -91.5q370 0 446 478l76 482h40l-156 -986h-40l38 240q-56 -126 -155.5 -188t-254.5 -62zM602 1418q2 16 15.5 28t30.5 12q16 0 26 -11.5t8 -28.5q-3 -17 -17 -28.5t-30 -11.5
q-17 0 -26.5 12t-6.5 28zM854 1418q2 16 15.5 28t30.5 12q16 0 26 -11.5t8 -28.5q-3 -17 -17 -28.5t-30 -11.5q-17 0 -26.5 12t-6.5 28z" />
    <glyph glyph-name="yacute" unicode="&#xfd;" horiz-adv-x="972" 
d="M142 -364q95 -35 176 110l147 258l-249 982h46l230 -936l532 936h44l-717 -1258q-104 -186 -230 -126zM670 1310l155 220h56l-173 -220h-38z" />
    <glyph glyph-name="thorn" unicode="&#xfe;" horiz-adv-x="1192" 
d="M107 -408l286 1802h40l-112 -708q69 143 193.5 226.5t267.5 83.5h28q128 0 221 -65.5t132.5 -181t16.5 -257.5q-34 -217 -185 -359.5t-345 -142.5h-28q-145 0 -242.5 84t-119.5 230l-113 -712h-40zM288 492q-32 -202 62.5 -333t273.5 -131h28q180 0 318 131.5t170 332.5
t-64 333.5t-276 132.5h-28q-178 0 -315 -132.5t-169 -333.5z" />
    <glyph glyph-name="ydieresis" unicode="&#xff;" horiz-adv-x="972" 
d="M142 -364q93 -35 176 110l147 258l-249 982h46l230 -936l532 936h44l-717 -1258q-54 -95 -110.5 -125.5t-119.5 -0.5zM548 1418q2 16 15.5 28t30.5 12q16 0 26 -11.5t8 -28.5q-3 -17 -17 -28.5t-30 -11.5q-17 0 -26.5 12t-6.5 28zM800 1418q2 16 15.5 28t30.5 12
q16 0 26 -11.5t8 -28.5q-3 -17 -17 -28.5t-30 -11.5q-17 0 -26.5 12t-6.5 28z" />
    <glyph glyph-name="Amacron" unicode="&#x100;" horiz-adv-x="1124" 
d="M50 0l707 1394h50l267 -1394h-46l-90 480h-600l-242 -480h-46zM356 518h576l-156 832zM691 1694l7 42h280l-7 -42h-280z" />
    <glyph glyph-name="amacron" unicode="&#x101;" horiz-adv-x="1012" 
d="M452 -10q-156 0 -232.5 75.5t-56.5 206.5q23 139 131 210q57 37 127 51t178 19l375 16l6 40q27 171 -57 261.5t-251 90.5q-108 0 -194.5 -41.5t-167.5 -134.5l-26 24q89 100 182 144t212 44q184 0 278 -100.5t64 -287.5l-96 -608h-40l42 264q-40 -81 -117.5 -144
t-171 -96.5t-185.5 -33.5zM203 272q-18 -113 51 -180.5t208 -67.5q108 0 214 53t182.5 148.5t94.5 208.5l16 100l-371 -16q-196 -7 -280 -62q-95 -64 -115 -184zM625 1390l7 42h280l-7 -42h-280z" />
    <glyph glyph-name="Abreve" unicode="&#x102;" horiz-adv-x="1124" 
d="M50 0l707 1394h50l267 -1394h-46l-90 480h-600l-242 -480h-46zM356 518h576l-156 832zM656 1810h36q-12 -82 24.5 -128t105.5 -46t120 46t66 128h36q-16 -99 -79 -157.5t-150 -58.5q-88 0 -131.5 58t-27.5 158z" />
    <glyph glyph-name="abreve" unicode="&#x103;" horiz-adv-x="1012" 
d="M452 -10q-156 0 -232.5 75.5t-56.5 206.5q23 139 131 210q57 37 128 51.5t177 18.5l375 16l6 40q27 171 -57 261.5t-251 90.5q-108 0 -194.5 -41.5t-167.5 -134.5l-26 24q89 100 182 144t212 44q184 0 278 -100.5t64 -287.5l-96 -608h-40l42 264q-40 -81 -117.5 -144
t-171 -96.5t-185.5 -33.5zM203 272q-18 -113 51 -180.5t208 -67.5q108 0 214 53t182.5 148.5t94.5 208.5l16 100l-371 -16q-99 -4 -165.5 -17t-114.5 -45q-95 -64 -115 -184zM591 1518h36q-11 -82 25.5 -128t105.5 -46t120 46t65 128h36q-16 -99 -78.5 -157.5t-149.5 -58.5
q-88 0 -132 58t-28 158z" />
    <glyph glyph-name="Aogonek" unicode="&#x104;" horiz-adv-x="1124" 
d="M847 -446q-55 0 -86.5 31.5t-19.5 106.5q16 101 92.5 187.5t191.5 133.5l-87 467h-600l-242 -480h-46l707 1394h50l267 -1394q-116 -47 -194.5 -126t-93.5 -176q-9 -53 12 -78.5t64 -25.5q68 0 140 62l-8 -46q-65 -56 -147 -56zM356 518h576l-156 832z" />
    <glyph glyph-name="aogonek" unicode="&#x105;" horiz-adv-x="1052" 
d="M693 -446q-55 0 -86.5 31.5t-19.5 106.5q17 108 100 200t200 130l39 242q-40 -81 -117.5 -144t-171 -96.5t-185.5 -33.5q-156 0 -232.5 75.5t-56.5 206.5q23 139 131 210q57 37 127 51t178 19l375 16l6 40q27 171 -57 261.5t-251 90.5q-108 0 -194.5 -41.5t-167.5 -134.5
l-26 24q89 100 182 144t212 44q184 0 278 -100.5t64 -287.5l-96 -608q-111 -28 -193.5 -114t-98.5 -188q-9 -53 12 -78.5t64 -25.5q68 0 140 62l-8 -46q-65 -56 -147 -56zM203 272q-18 -113 51 -180.5t208 -67.5q108 0 214 53t182.5 148.5t94.5 208.5l16 100l-371 -16
q-196 -7 -280 -62q-95 -64 -115 -184z" />
    <glyph glyph-name="Cacute" unicode="&#x106;" horiz-adv-x="1342" 
d="M917 1622l136 188h56l-154 -188h-38zM200 696q52 327 250.5 518.5t472.5 191.5h20q187 0 312.5 -91t174.5 -255l-40 -14q-44 153 -161 236.5t-293 83.5h-20q-261 0 -444 -181.5t-232 -488.5q-48 -306 77.5 -487t386.5 -181h20q176 0 319.5 83.5t235.5 236.5l36 -14
q-100 -164 -255 -255t-342 -91h-20q-274 0 -411.5 191.5t-86.5 516.5z" />
    <glyph glyph-name="cacute" unicode="&#x107;" horiz-adv-x="1036" 
d="M540 -10q-200 0 -303.5 140.5t-68.5 363.5q35 224 182.5 363t349.5 139h20q127 0 217.5 -57.5t131.5 -160.5l-40 -16q-39 94 -120 146t-195 52h-20q-184 0 -318.5 -129.5t-167.5 -336.5q-32 -208 61 -338t277 -130h20q115 0 213 52.5t167 147.5l33 -16
q-75 -104 -184 -162t-235 -58h-20zM725 1310l155 220h56l-173 -220h-38z" />
    <glyph glyph-name="Ccircumflex" unicode="&#x108;" horiz-adv-x="1342" 
d="M818 1622l160 188h46l100 -188h-48l-81 160l-131 -160h-46zM200 696q52 327 250.5 518.5t472.5 191.5h20q187 0 312.5 -91t174.5 -255l-40 -14q-44 153 -161 236.5t-293 83.5h-20q-261 0 -444 -181.5t-232 -488.5q-48 -306 77.5 -487t386.5 -181h20q176 0 319.5 83.5
t235.5 236.5l36 -14q-100 -164 -255 -255t-342 -91h-20q-274 0 -411.5 191.5t-86.5 516.5z" />
    <glyph glyph-name="ccircumflex" unicode="&#x109;" horiz-adv-x="1036" 
d="M540 -10q-200 0 -303.5 140.5t-68.5 363.5q35 224 182.5 363t349.5 139h20q127 0 217.5 -57.5t131.5 -160.5l-40 -16q-39 94 -120 146t-195 52h-20q-184 0 -318.5 -129.5t-167.5 -336.5q-32 -208 61 -338t277 -130h20q115 0 213 52.5t167 147.5l33 -16
q-75 -104 -184 -162t-235 -58h-20zM606 1310l165 220h46l95 -220h-48l-76 188l-136 -188h-46z" />
    <glyph glyph-name="Cdotaccent" unicode="&#x10a;" horiz-adv-x="1342" 
d="M924 1716q2 16 15.5 28t30.5 12q16 0 26 -11.5t8 -28.5q-3 -17 -17 -28.5t-30 -11.5q-17 0 -26.5 12t-6.5 28zM200 696q52 327 250.5 518.5t472.5 191.5h20q187 0 312.5 -91t174.5 -255l-40 -14q-44 153 -161 236.5t-293 83.5h-20q-261 0 -444 -181.5t-232 -488.5
q-48 -306 77.5 -487t386.5 -181h20q176 0 319.5 83.5t235.5 236.5l36 -14q-100 -164 -255 -255t-342 -91h-20q-274 0 -411.5 191.5t-86.5 516.5z" />
    <glyph glyph-name="cdotaccent" unicode="&#x10b;" horiz-adv-x="1036" 
d="M540 -10q-200 0 -303.5 140.5t-68.5 363.5q35 224 182.5 363t349.5 139h20q127 0 217.5 -57.5t131.5 -160.5l-40 -16q-39 94 -120 146t-195 52h-20q-184 0 -318.5 -129.5t-167.5 -336.5q-32 -208 61 -338t277 -130h20q115 0 213 52.5t167 147.5l33 -16
q-75 -104 -184 -162t-235 -58h-20zM726 1416q3 17 17 28.5t30 11.5q17 0 26.5 -12t6.5 -28q-2 -16 -15.5 -28t-30.5 -12q-16 0 -26 11.5t-8 28.5z" />
    <glyph glyph-name="Ccaron" unicode="&#x10c;" horiz-adv-x="1342" 
d="M827 1810h48l80 -160l132 160h46l-160 -188h-46zM200 696q52 327 250.5 518.5t472.5 191.5h20q187 0 312.5 -91t174.5 -255l-40 -14q-44 153 -161 236.5t-293 83.5h-20q-261 0 -444 -181.5t-232 -488.5q-48 -306 77.5 -487t386.5 -181h20q176 0 319.5 83.5t235.5 236.5
l36 -14q-100 -164 -255 -255t-342 -91h-20q-274 0 -411.5 191.5t-86.5 516.5z" />
    <glyph glyph-name="ccaron" unicode="&#x10d;" horiz-adv-x="1036" 
d="M540 -10q-200 0 -303.5 140.5t-68.5 363.5q35 224 182.5 363t349.5 139h20q127 0 217.5 -57.5t131.5 -160.5l-40 -16q-39 94 -120 146t-195 52h-20q-184 0 -318.5 -129.5t-167.5 -336.5q-32 -208 61 -338t277 -130h20q115 0 213 52.5t167 147.5l33 -16
q-75 -104 -184 -162t-235 -58h-20zM632 1530h48l77 -188l135 188h46l-165 -220h-46z" />
    <glyph glyph-name="Dcaron" unicode="&#x10e;" horiz-adv-x="1248" 
d="M180 0l221 1394h278q334 0 487.5 -185t100.5 -523q-53 -332 -262 -509t-549 -177h-276zM226 38h232q324 0 519 165t246 483q51 324 -92.5 497t-459.5 173h-236zM747 1810h48l80 -160l132 160h46l-160 -188h-46z" />
    <glyph glyph-name="dcaron" unicode="&#x10f;" horiz-adv-x="1312" 
d="M538 -10q-194 0 -299 143.5t-71 360.5t185 359.5t345 142.5h28q145 0 242.5 -84t119.5 -230l113 712h40l-221 -1394h-40l48 300q-69 -143 -194 -226.5t-268 -83.5h-28zM208 494q-32 -201 64 -333.5t276 -132.5h28q178 0 315 132.5t169 333.5q32 202 -62.5 333t-273.5 131
h-28q-180 0 -318 -131.5t-170 -332.5zM1376 1224l125 244h50l-2 -10l-135 -234h-38z" />
    <glyph glyph-name="Dcroat" unicode="&#x110;" horiz-adv-x="1238" 
d="M170 0l102 646h-110l7 42h110l112 706h278q334 0 487.5 -185t100.5 -523q-53 -332 -262 -509t-549 -177h-276zM216 38h232q324 0 519 165t246 483q51 324 -92.5 497t-459.5 173h-236l-106 -668h382l-7 -42h-382z" />
    <glyph glyph-name="dcroat" unicode="&#x111;" horiz-adv-x="1146" 
d="M538 -10q-194 0 -299 143.5t-71 360.5t185 359.5t345 142.5h28q145 0 242.5 -84t119.5 -230l80 502h-230l6 42h230l27 168h40l-27 -168h94l-6 -42h-94l-188 -1184h-40l48 300q-69 -143 -194 -226.5t-268 -83.5h-28zM208 494q-32 -201 64 -333.5t276 -132.5h28
q178 0 315 132.5t169 333.5q32 202 -62.5 333t-273.5 131h-28q-180 0 -318 -131.5t-170 -332.5z" />
    <glyph glyph-name="Emacron" unicode="&#x112;" 
d="M180 0l221 1394h864l-6 -38h-824l-101 -634h754l-6 -38h-754l-102 -646h824l-6 -38h-864zM705 1694l7 42h280l-7 -42h-280z" />
    <glyph glyph-name="emacron" unicode="&#x113;" horiz-adv-x="1062" 
d="M540 -10q-200 0 -303.5 140.5t-68.5 363.5q35 221 179 359.5t343 142.5q196 -5 295.5 -143.5t64.5 -358.5h-842q-32 -208 61 -338t277 -130h20q115 0 213 52.5t167 147.5l33 -16q-75 -104 -184 -162t-235 -58h-20zM213 526h802q22 191 -69 310.5t-262 123.5
q-173 -4 -302 -123.5t-169 -310.5zM612 1390l7 42h280l-7 -42h-280z" />
    <glyph glyph-name="Ebreve" unicode="&#x114;" 
d="M180 0l221 1394h864l-6 -38h-824l-101 -634h754l-6 -38h-754l-102 -646h824l-6 -38h-864zM748 1864h36q-12 -82 25 -128t106 -46t119.5 46t65.5 128h36q-16 -99 -78.5 -157.5t-149.5 -58.5q-88 0 -132 58t-28 158z" />
    <glyph glyph-name="ebreve" unicode="&#x115;" horiz-adv-x="1062" 
d="M540 -10q-200 0 -303.5 140.5t-68.5 363.5q39 246 209 386q135 112 301 116q160 3 266 -96q131 -123 113 -349q-2 -28 -7 -57h-842q-32 -208 61 -338t277 -130h20q115 0 213 52.5t167 147.5l33 -16q-75 -104 -184 -162t-235 -58h-20zM213 526h802q25 221 -96 341
q-97 95 -246 92q-154 -4 -280 -113q-138 -119 -180 -320zM576 1518h36q-11 -82 25.5 -128t105.5 -46t120 46t65 128h36q-16 -99 -78.5 -157.5t-149.5 -58.5q-88 0 -132 58t-28 158z" />
    <glyph glyph-name="Edotaccent" unicode="&#x116;" 
d="M180 0l221 1394h864l-6 -38h-824l-101 -634h754l-6 -38h-754l-102 -646h824l-6 -38h-864zM809 1716q2 16 15.5 28t30.5 12q16 0 26 -11.5t8 -28.5q-3 -17 -17 -28.5t-30 -11.5q-17 0 -26.5 12t-6.5 28z" />
    <glyph glyph-name="edotaccent" unicode="&#x117;" horiz-adv-x="1062" 
d="M540 -10q-200 0 -303.5 140.5t-68.5 363.5q35 221 179 359.5t343 142.5q196 -5 295.5 -143.5t64.5 -358.5h-842q-32 -208 61 -338t277 -130h20q115 0 213 52.5t167 147.5l33 -16q-75 -104 -184 -162t-235 -58h-20zM213 526h802q22 191 -69 310.5t-262 123.5
q-173 -4 -302 -123.5t-169 -310.5zM716 1416q3 17 17 28.5t30 11.5q17 0 26.5 -12t6.5 -28q-2 -16 -15.5 -28t-30.5 -12q-16 0 -26 11.5t-8 28.5z" />
    <glyph glyph-name="Eogonek" unicode="&#x118;" horiz-adv-x="1147" 
d="M820 -446q-55 0 -86.5 31.5t-19.5 106.5q15 95 83 176.5t170 131.5h-787l221 1394h864l-6 -38h-824l-101 -634h754l-6 -38h-754l-102 -646h827l-6 -38q-116 -47 -194.5 -126t-93.5 -176q-9 -53 12 -78.5t64 -25.5q68 0 140 62l-8 -46q-65 -56 -147 -56z" />
    <glyph glyph-name="eogonek" unicode="&#x119;" horiz-adv-x="1062" 
d="M459 -446q-55 0 -86.5 31.5t-19.5 106.5q14 85 70.5 166t140.5 132h-24q-200 0 -303.5 140.5t-68.5 363.5q35 221 179 359.5t343 142.5q196 -5 295.5 -143.5t64.5 -358.5h-842q-32 -208 61 -338t277 -130h20q115 0 213 52.5t167 147.5l33 -16q-127 -174 -327 -212
q-97 -37 -168.5 -122t-85.5 -178q-9 -53 12 -78.5t64 -25.5q68 0 140 62l-8 -46q-65 -56 -147 -56zM213 526h802q22 191 -69 310.5t-262 123.5q-173 -4 -302 -123.5t-169 -310.5zM612 1390l7 42h280l-7 -42h-280z" />
    <glyph glyph-name="Ecaron" unicode="&#x11a;" 
d="M180 0l221 1394h864l-6 -38h-824l-101 -634h754l-6 -38h-754l-102 -646h824l-6 -38h-864zM712 1810h48l80 -160l132 160h46l-160 -188h-46z" />
    <glyph glyph-name="ecaron" unicode="&#x11b;" horiz-adv-x="1062" 
d="M540 -10q-200 0 -303.5 140.5t-68.5 363.5q35 221 179 359.5t343 142.5q196 -5 295.5 -143.5t64.5 -358.5h-842q-32 -208 61 -338t277 -130h20q115 0 213 52.5t167 147.5l33 -16q-75 -104 -184 -162t-235 -58h-20zM213 526h802q22 191 -69 310.5t-262 123.5
q-173 -4 -302 -123.5t-169 -310.5zM622 1530h48l77 -188l135 188h46l-165 -220h-46z" />
    <glyph glyph-name="Gcircumflex" unicode="&#x11c;" horiz-adv-x="1316" 
d="M698 -12q-274 0 -411.5 191.5t-85.5 518.5q51 325 249.5 516.5t472.5 191.5q190 0 315 -94t164 -262l-38 -14q-36 153 -151 241.5t-297 88.5q-261 0 -444 -181t-231 -487q-49 -307 76.5 -488.5t386.5 -181.5q181 0 323.5 87t226.5 237l47 298h-498l6 38h536l-109 -688
h-38l42 264q-95 -131 -236 -203.5t-306 -72.5zM799 1622l160 188h46l100 -188h-48l-81 160l-131 -160h-46z" />
    <glyph glyph-name="gcircumflex" unicode="&#x11d;" horiz-adv-x="1191" 
d="M492 -414q-164 0 -260 87t-102 241h40q9 -137 95 -212.5t234 -75.5h30q187 0 309 124t159 360l30 188q-69 -143 -193.5 -226.5t-267.5 -83.5h-10q-196 0 -309 144.5t-79 359.5q34 217 184.5 359.5t344.5 142.5h28q145 0 243 -84t120 -230l48 308h40l-140 -890
q-39 -246 -176.5 -379t-337.5 -133h-30zM208 492q-32 -201 64 -333.5t276 -132.5h28q167 0 298.5 116.5t175.5 299.5l16 100q14 183 -81 298.5t-262 115.5h-28q-180 0 -317.5 -131.5t-169.5 -332.5zM631 1310l165 220h46l95 -220h-48l-76 188l-136 -188h-46z" />
    <glyph glyph-name="Gbreve" unicode="&#x11e;" horiz-adv-x="1316" 
d="M698 -12q-274 0 -411.5 191.5t-85.5 518.5q51 325 249.5 516.5t472.5 191.5q190 0 315 -94t164 -262l-38 -14q-36 153 -151 241.5t-297 88.5q-261 0 -444 -181t-231 -487q-49 -307 76.5 -488.5t386.5 -181.5q181 0 323.5 87t226.5 237l47 298h-498l6 38h536l-109 -688
h-38l42 264q-95 -131 -236 -203.5t-306 -72.5zM802 1864h36q-12 -82 25 -128t106 -46t119.5 46t65.5 128h36q-16 -99 -78.5 -157.5t-149.5 -58.5q-88 0 -132 58t-28 158z" />
    <glyph glyph-name="gbreve" unicode="&#x11f;" horiz-adv-x="1191" 
d="M492 -414q-164 0 -260 87t-102 241h40q9 -137 95 -212.5t234 -75.5h30q187 0 309 124t159 360l30 188q-69 -143 -193.5 -226.5t-267.5 -83.5h-10q-196 0 -309 144.5t-79 359.5q34 217 184.5 359.5t344.5 142.5h28q145 0 243 -84t120 -230l48 308h40l-140 -890
q-39 -246 -176.5 -379t-337.5 -133h-30zM208 492q-32 -201 64 -333.5t276 -132.5h28q167 0 298.5 116.5t175.5 299.5l16 100q14 183 -81 298.5t-262 115.5h-28q-180 0 -317.5 -131.5t-169.5 -332.5zM607 1518h36q-11 -82 25.5 -128t105.5 -46t120 46t65 128h36
q-16 -99 -78.5 -157.5t-149.5 -58.5q-88 0 -132 58t-28 158z" />
    <glyph glyph-name="Gdotaccent" unicode="&#x120;" horiz-adv-x="1316" 
d="M698 -12q-274 0 -411.5 191.5t-85.5 518.5q51 325 249.5 516.5t472.5 191.5q190 0 315 -94t164 -262l-38 -14q-36 153 -151 241.5t-297 88.5q-261 0 -444 -181t-231 -487q-49 -307 76.5 -488.5t386.5 -181.5q181 0 323.5 87t226.5 237l47 298h-498l6 38h536l-109 -688
h-38l42 264q-95 -131 -236 -203.5t-306 -72.5zM933 1716q2 16 15.5 28t30.5 12q16 0 26 -11.5t8 -28.5q-3 -17 -17 -28.5t-30 -11.5q-17 0 -26.5 12t-6.5 28z" />
    <glyph glyph-name="gdotaccent" unicode="&#x121;" horiz-adv-x="1191" 
d="M492 -414q-164 0 -260 87t-102 241h40q9 -137 95 -212.5t234 -75.5h30q187 0 309 124t159 360l30 188q-69 -143 -193.5 -226.5t-267.5 -83.5h-10q-196 0 -309 144.5t-79 359.5q34 217 184.5 359.5t344.5 142.5h28q145 0 243 -84t120 -230l48 308h40l-140 -890
q-39 -246 -176.5 -379t-337.5 -133h-30zM208 492q-32 -201 64 -333.5t276 -132.5h28q167 0 298.5 116.5t175.5 299.5l16 100q14 183 -81 298.5t-262 115.5h-28q-180 0 -317.5 -131.5t-169.5 -332.5zM768 1416q3 17 17 28.5t30 11.5q17 0 26.5 -12t6.5 -28q-2 -16 -15.5 -28
t-30.5 -12q-16 0 -26 11.5t-8 28.5z" />
    <glyph glyph-name="uni0122" unicode="&#x122;" horiz-adv-x="1524" 
d="M784 -12q-274 0 -411.5 191.5t-85.5 518.5q51 325 249.5 516.5t472.5 191.5q190 0 315 -94t164 -262l-38 -14q-36 153 -151 241.5t-297 88.5q-261 0 -444 -181t-231 -487q-49 -307 76.5 -488.5t386.5 -181.5q181 0 323.5 87t226.5 237l47 298h-498l6 38h536l-109 -688
h-38l42 264q-95 -131 -236 -203.5t-306 -72.5zM614 -396l125 244h50l-2 -10l-135 -234h-38z" />
    <glyph glyph-name="uni0123" unicode="&#x123;" horiz-adv-x="1218" 
d="M546 -414q-164 0 -260 87t-102 241h40q9 -137 95 -212.5t234 -75.5h30q187 0 309 124t159 360l30 188q-69 -143 -193.5 -226.5t-267.5 -83.5h-10q-196 0 -309 144.5t-79 359.5q34 217 184.5 359.5t344.5 142.5h28q145 0 243 -84t120 -230l48 308h40l-140 -890
q-39 -246 -176.5 -379t-337.5 -133h-30zM262 492q-32 -201 64 -333.5t276 -132.5h28q167 0 298.5 116.5t175.5 299.5l16 100q14 183 -81 298.5t-262 115.5h-28q-180 0 -317.5 -131.5t-169.5 -332.5zM820 1312l1 10l135 234h38l-124 -244h-50z" />
    <glyph glyph-name="Hcircumflex" unicode="&#x124;" horiz-adv-x="1224" 
d="M180 0l221 1394h40l-106 -668h782l106 668h42l-221 -1394h-42l109 688h-782l-109 -688h-40zM725 1622l160 188h46l100 -188h-48l-81 160l-131 -160h-46z" />
    <glyph glyph-name="hcircumflex" unicode="&#x125;" horiz-adv-x="966" 
d="M30 0l221 1394h40l-103 -648q56 126 155.5 188t254.5 62q193 0 267.5 -100t42.5 -302l-94 -594h-40l92 584q31 193 -33.5 284.5t-240.5 91.5q-370 0 -446 -478l-76 -482h-40zM157 1622l160 188h46l100 -188h-48l-81 160l-131 -160h-46z" />
    <glyph glyph-name="Hbar" unicode="&#x126;" horiz-adv-x="1141" 
d="M144 0l165 1040h-82l6 42h82l50 312h40l-50 -312h782l50 312h42l-50 -312h73l-6 -42h-73l-165 -1040h-42l109 688h-782l-109 -688h-40zM299 726h782l50 314h-782z" />
    <glyph glyph-name="hbar" unicode="&#x127;" horiz-adv-x="1074" 
d="M138 0l188 1184h-106l6 42h106l27 168h40l-27 -168h218l-6 -42h-218l-70 -438q56 126 155.5 188t254.5 62q193 0 267.5 -100t42.5 -302l-94 -594h-40l92 584q31 193 -33.5 284.5t-240.5 91.5q-370 0 -446 -478l-76 -482h-40z" />
    <glyph glyph-name="Itilde" unicode="&#x128;" horiz-adv-x="176" 
d="M70 0l221 1394h40l-221 -1394h-40zM178 1680q13 82 85 82q36 0 110 -26q68 -24 90 -24q32 0 39 42h40q-13 -82 -85 -82q-36 0 -110 26q-69 24 -90 24q-32 0 -39 -42h-40z" />
    <glyph glyph-name="itilde" unicode="&#x129;" horiz-adv-x="160" 
d="M44 0l156 986h40l-156 -986h-40zM127 1410q14 82 85 82q36 0 110 -26q69 -24 90 -24q32 0 39 42h40q-13 -82 -85 -82q-36 0 -110 26q-67 24 -90 24q-32 0 -39 -42h-40z" />
    <glyph glyph-name="Imacron" unicode="&#x12a;" horiz-adv-x="196" 
d="M78 0l221 1394h40l-221 -1394h-40zM226 1694l7 42h280l-7 -42h-280z" />
    <glyph glyph-name="imacron" unicode="&#x12b;" horiz-adv-x="180" 
d="M70 0l156 986h40l-156 -986h-40zM170 1390l7 42h280l-7 -42h-280z" />
    <glyph glyph-name="Ibreve" unicode="&#x12c;" horiz-adv-x="234" 
d="M379 1648q-88 0 -132 58t-28 158h36q-12 -82 25 -128t106 -46t119.5 46t65.5 128h36q-16 -99 -78.5 -157.5t-149.5 -58.5zM98 0l221 1394h40l-221 -1394h-40z" />
    <glyph glyph-name="ibreve" unicode="&#x12d;" horiz-adv-x="248" 
d="M330 1302q-88 0 -132 58t-28 158h36q-11 -82 25.5 -128t105.5 -46t120 46t65 128h36q-16 -99 -78.5 -157.5t-149.5 -58.5zM101 0l156 986h40l-156 -986h-40z" />
    <glyph glyph-name="Iogonek" unicode="&#x12e;" horiz-adv-x="404" 
d="M63 -446q-55 0 -86.5 31.5t-19.5 106.5q16 104 95 190.5t197 135.5l2 -1l218 1377h40l-221 -1393q-115 -48 -193 -127t-93 -176q-9 -53 12 -78.5t64 -25.5q68 0 140 62l-8 -46q-65 -56 -147 -56z" />
    <glyph glyph-name="iogonek" unicode="&#x12f;" horiz-adv-x="430" 
d="M56 -442q-55 0 -86.5 31.5t-19.5 106.5q17 109 106.5 205t210.5 133l151 952h40l-156 -986h-30q-106 -31 -184 -115.5t-93 -182.5q-17 -104 75 -104q68 0 140 62l-7 -46q-65 -56 -147 -56zM443 1270q3 17 16.5 28.5t29.5 11.5q17 0 27 -12t7 -28q-2 -16 -15.5 -28
t-30.5 -12q-16 0 -26 11.5t-8 28.5z" />
    <glyph glyph-name="Idotaccent" unicode="&#x130;" horiz-adv-x="396" 
d="M178 0l221 1394h40l-221 -1394h-40zM430 1716q2 16 15.5 28t30.5 12q16 0 26 -11.5t8 -28.5q-3 -17 -17 -28.5t-30 -11.5q-17 0 -26.5 12t-6.5 28z" />
    <glyph glyph-name="dotlessi" unicode="&#x131;" horiz-adv-x="480" 
d="M220 0l156 986h40l-156 -986h-40z" />
    <glyph glyph-name="IJ" unicode="&#x132;" horiz-adv-x="1534" 
d="M534 492l2 14h40q-39 -243 82 -379q92 -104 243 -108q156 -4 291 100q165 128 213 359q4 19 7 38l139 878h40l-140 -880q-41 -258 -216 -407q-139 -119 -310 -127q-165 -8 -276 91q-134 119 -123 343q2 38 8 78zM164 0l221 1394h40l-221 -1394h-40z" />
    <glyph glyph-name="ij" unicode="&#x133;" horiz-adv-x="704" 
d="M228 -418q-85 0 -139 34l19 30q54 -28 123 -28h14q91 0 148.5 54t73.5 160l183 1154h40l-183 -1154q-20 -125 -88 -187.5t-177 -62.5h-14zM182 0l156 986h40l-156 -986h-40zM363 1266q2 16 15.5 28t30.5 12q16 0 26 -11.5t8 -28.5q-3 -17 -17 -28.5t-30 -11.5
q-17 0 -26.5 12t-6.5 28zM675 1267q2 16 15.5 28t30.5 12q16 0 26 -11.5t8 -28.5q-3 -17 -17 -28.5t-30 -11.5q-17 0 -26.5 12t-6.5 28z" />
    <glyph glyph-name="Jcircumflex" unicode="&#x134;" horiz-adv-x="1009" 
d="M158 492l2 14h40q-39 -243 82 -379q92 -104 243 -108q156 -4 291 100q165 128 213 359q4 19 7 38l139 878h40l-140 -880q-41 -258 -216 -407q-139 -119 -310 -127q-165 -8 -276 91q-134 119 -123 343q2 38 8 78zM1072 1622l160 188h46l100 -188h-48l-81 160l-131 -160
h-46z" />
    <glyph glyph-name="jcircumflex" unicode="&#x135;" horiz-adv-x="264" 
d="M-80 -418q-85 0 -139 34l19 30q54 -28 123 -28h14q91 0 148.5 54t73.5 160l183 1154h40l-183 -1154q-20 -125 -88 -187.5t-177 -62.5h-14zM257 1310l165 220h46l95 -220h-48l-76 188l-136 -188h-46z" />
    <glyph glyph-name="uni0136" unicode="&#x136;" horiz-adv-x="1260" 
d="M234 0l221 1394h40l-134 -844l946 844h56l-662 -590l441 -804h-50l-423 776l-317 -282l-78 -494h-40zM461 -396l125 244h50l-2 -10l-135 -234h-38z" />
    <glyph glyph-name="uni0137" unicode="&#x137;" horiz-adv-x="1054" 
d="M216 0l221 1394h40l-159 -1004l672 596h54l-405 -358l297 -628h-48l-281 600l-298 -264l-53 -336h-40zM334 -396l125 244h50l-2 -10l-135 -234h-38z" />
    <glyph glyph-name="kgreenlandic" unicode="&#x138;" horiz-adv-x="952" 
d="M172 0l157 990h40l-95 -600l672 596h54l-405 -358l297 -628h-48l-281 600l-298 -264l-53 -336h-40z" />
    <glyph glyph-name="Lacute" unicode="&#x139;" horiz-adv-x="1084" 
d="M170 0l221 1394h40l-215 -1356h824l-6 -38h-864zM423 1622l136 188h56l-154 -188h-38z" />
    <glyph glyph-name="lacute" unicode="&#x13a;" horiz-adv-x="388" 
d="M304 -10q-73 0 -102 47.5t-13 148.5l192 1208h40l-191 -1204q-24 -153 78 -162zM430 1720l155 220h56l-173 -220h-38z" />
    <glyph glyph-name="uni013B" unicode="&#x13b;" horiz-adv-x="1226" 
d="M234 0l221 1394h40l-215 -1356h824l-6 -38h-864zM447 -396l125 244h50l-2 -10l-135 -234h-38z" />
    <glyph glyph-name="uni013C" unicode="&#x13c;" horiz-adv-x="388" 
d="M316 -10q-73 0 -102 47.5t-13 148.5l192 1208h40l-191 -1204q-24 -153 78 -162zM87 -396l125 244h50l-2 -10l-135 -234h-38z" />
    <glyph glyph-name="Lcaron" unicode="&#x13d;" horiz-adv-x="1094" 
d="M180 0l221 1394h40l-215 -1356h824l-6 -38h-864zM692 1150l125 244h50l-2 -10l-135 -234h-38z" />
    <glyph glyph-name="lcaron" unicode="&#x13e;" horiz-adv-x="388" 
d="M316 -10q-73 0 -102 47.5t-13 148.5l192 1208h40l-191 -1204q-24 -153 78 -162zM470 1142l125 244h50l-2 -10l-135 -234h-38z" />
    <glyph glyph-name="Ldot" unicode="&#x13f;" horiz-adv-x="1094" 
d="M180 0l221 1394h40l-215 -1356h824l-6 -38h-864zM733 800q2 16 15.5 28t30.5 12q16 0 26 -11.5t8 -28.5q-3 -17 -17 -28.5t-30 -11.5q-17 0 -26.5 12t-6.5 28z" />
    <glyph glyph-name="ldot" unicode="&#x140;" horiz-adv-x="478" 
d="M316 -10q-73 0 -102 47.5t-13 148.5l192 1208h40l-191 -1204q-24 -153 78 -162zM515 800q2 16 15.5 28t30.5 12q16 0 26 -11.5t8 -28.5q-3 -17 -17 -28.5t-30 -11.5q-17 0 -26.5 12t-6.5 28z" />
    <glyph glyph-name="Lslash" unicode="&#x141;" horiz-adv-x="1171" 
d="M257 2l99 624l-250 -136l7 48l251 136l114 722h40l-110 -698l405 220l-7 -48l-406 -220l-97 -610h824l-6 -38h-864z" />
    <glyph glyph-name="lslash" unicode="&#x142;" horiz-adv-x="316" 
d="M281 -10q-73 0 -102 47.5t-13 148.5l67 417l-129 -83l9 52l128 83l117 739h40l-113 -710l131 84l-9 -52l-130 -84l-70 -442q-24 -153 78 -162z" />
    <glyph glyph-name="Nacute" unicode="&#x143;" horiz-adv-x="1272" 
d="M180 0l221 1394h56l603 -1346l213 1346h40l-221 -1394h-58l-601 1342l-213 -1342h-40zM869 1622l136 188h56l-154 -188h-38z" />
    <glyph glyph-name="nacute" unicode="&#x144;" horiz-adv-x="1108" 
d="M172 0l156 986h40l-38 -240q56 126 155.5 188t254.5 62q193 0 267.5 -100t42.5 -302l-94 -594h-40l92 584q31 193 -33.5 284.5t-240.5 91.5q-370 0 -446 -478l-76 -482h-40zM733 1310l155 220h56l-173 -220h-38z" />
    <glyph glyph-name="uni0145" unicode="&#x145;" horiz-adv-x="1380" 
d="M234 0l221 1394h56l603 -1346l213 1346h40l-221 -1394h-58l-601 1342l-213 -1342h-40zM517 -396l125 244h50l-2 -10l-135 -234h-38z" />
    <glyph glyph-name="uni0146" unicode="&#x146;" horiz-adv-x="1206" 
d="M216 0l156 986h40l-38 -240q56 126 155.5 188t254.5 62q193 0 267.5 -100t42.5 -302l-94 -594h-40l92 584q31 193 -33.5 284.5t-240.5 91.5q-370 0 -446 -478l-76 -482h-40zM421 -396l125 244h50l-2 -10l-135 -234h-38z" />
    <glyph glyph-name="Ncaron" unicode="&#x147;" horiz-adv-x="1272" 
d="M180 0l221 1394h56l603 -1346l213 1346h40l-221 -1394h-58l-601 1342l-213 -1342h-40zM771 1810h48l80 -160l132 160h46l-160 -188h-46z" />
    <glyph glyph-name="ncaron" unicode="&#x148;" horiz-adv-x="1108" 
d="M172 0l156 986h40l-38 -240q56 126 155.5 188t254.5 62q193 0 267.5 -100t42.5 -302l-94 -594h-40l92 584q31 193 -33.5 284.5t-240.5 91.5q-370 0 -446 -478l-76 -482h-40zM640 1530h48l77 -188l135 188h46l-165 -220h-46z" />
    <glyph glyph-name="napostrophe" unicode="&#x149;" horiz-adv-x="1227" 
d="M291 0l156 986h40l-38 -240q56 126 155.5 188t254.5 62q193 0 267.5 -100t42.5 -302l-94 -594h-40l92 584q31 193 -33.5 284.5t-240.5 91.5q-370 0 -446 -478l-76 -482h-40zM275 992l224 478h40l-217 -488h-46z" />
    <glyph glyph-name="Eng" unicode="&#x14a;" horiz-adv-x="1272" 
d="M752 -404q121 0 185 52.5t85 185.5l26 166h-14l-601 1342l-213 -1342h-40l221 1394h56l603 -1346l213 1346h40l-242 -1528q-9 -54 -15 -82q-28 -119 -102.5 -172t-208.5 -58z" />
    <glyph glyph-name="eng" unicode="&#x14b;" horiz-adv-x="1108" 
d="M648 -418q-85 0 -139 34l19 30q54 -28 123 -28h14q185 0 222 214l121 752q31 193 -33.5 284.5t-240.5 91.5q-370 0 -446 -478l-76 -482h-40l156 986h40l-38 -240q56 126 155.5 188t254.5 62q193 0 267.5 -100t42.5 -302l-123 -762q-43 -250 -265 -250h-14z" />
    <glyph glyph-name="Omacron" unicode="&#x14c;" horiz-adv-x="1422" 
d="M697 -18q-274 0 -411.5 191.5t-86.5 516.5q52 327 250.5 518.5t472.5 191.5h20q278 0 414 -194t85 -516q-51 -321 -248 -514.5t-476 -193.5h-20zM239 690q-48 -306 77.5 -487t386.5 -181h20q263 0 446.5 181.5t231.5 486.5q49 307 -77 488.5t-389 181.5h-20
q-261 0 -444 -181.5t-232 -488.5zM844 1694l7 42h280l-7 -42h-280z" />
    <glyph glyph-name="omacron" unicode="&#x14d;" horiz-adv-x="1104" 
d="M540 -10q-200 0 -303.5 140.5t-68.5 363.5q35 224 182.5 363t349.5 139h20q202 0 304.5 -139t67.5 -363t-183 -364t-349 -140h-20zM208 494q-32 -208 61 -338t277 -130h20q185 0 319.5 130t166.5 338q33 207 -60.5 336.5t-277.5 129.5h-20q-184 0 -318.5 -129.5
t-167.5 -336.5zM631 1390l7 42h280l-7 -42h-280z" />
    <glyph glyph-name="Obreve" unicode="&#x14e;" horiz-adv-x="1422" 
d="M698 -12q-274 0 -411.5 191.5t-86.5 516.5q52 327 250.5 518.5t472.5 191.5h20q278 0 414 -194t85 -516q-51 -321 -248 -514.5t-476 -193.5h-20zM240 696q-48 -306 77.5 -487t386.5 -181h20q263 0 446.5 181.5t231.5 486.5q49 307 -77 488.5t-389 181.5h-20
q-261 0 -444 -181.5t-232 -488.5zM809 1864h36q-12 -82 25 -128t106 -46t119.5 46t65.5 128h36q-16 -99 -78.5 -157.5t-149.5 -58.5q-88 0 -132 58t-28 158z" />
    <glyph glyph-name="obreve" unicode="&#x14f;" horiz-adv-x="1104" 
d="M634 1518q-11 -82 25.5 -128t105.5 -46t120 46t65 128h36q-16 -99 -78.5 -157.5t-149.5 -58.5q-88 0 -132 58t-28 158h36zM168 494q35 224 182.5 363t349.5 139h20q202 0 304.5 -139t67.5 -363t-183 -364t-349 -140h-20q-200 0 -303.5 140.5t-68.5 363.5zM208 494
q-32 -208 61 -338t277 -130h20q185 0 319.5 130t166.5 338q33 207 -60.5 336.5t-277.5 129.5h-20q-184 0 -318.5 -129.5t-167.5 -336.5z" />
    <glyph glyph-name="Ohungarumlaut" unicode="&#x150;" horiz-adv-x="1422" 
d="M697 -18q-274 0 -411.5 191.5t-86.5 516.5q52 327 250.5 518.5t472.5 191.5h20q278 0 414 -194t85 -516q-51 -321 -248 -514.5t-476 -193.5h-20zM239 690q-48 -306 77.5 -487t386.5 -181h20q263 0 446.5 181.5t231.5 486.5q49 307 -77 488.5t-389 181.5h-20
q-261 0 -444 -181.5t-232 -488.5zM803 1622l136 188h56l-154 -188h-38zM1087 1622l136 188h56l-154 -188h-38z" />
    <glyph glyph-name="ohungarumlaut" unicode="&#x151;" horiz-adv-x="1104" 
d="M540 -10q-200 0 -303.5 140.5t-68.5 363.5q35 224 182.5 363t349.5 139h20q202 0 304.5 -139t67.5 -363t-183 -364t-349 -140h-20zM208 494q-32 -208 61 -338t277 -130h20q185 0 319.5 130t166.5 338q33 207 -60.5 336.5t-277.5 129.5h-20q-184 0 -318.5 -129.5
t-167.5 -336.5zM592 1311l135 188h56l-153 -188h-38zM876 1311l135 188h56l-153 -188h-38z" />
    <glyph glyph-name="OE" unicode="&#x152;" horiz-adv-x="2256" 
d="M697 -18q-274 0 -411.5 191.5t-86.5 516.5q52 327 250.5 518.5t472.5 191.5h20q210 0 341.5 -113.5t162.5 -315.5l67 423h864l-6 -38h-824l-101 -634h754l-6 -38h-754l-102 -646h824l-6 -38h-864l65 409q-95 -201 -262.5 -314t-377.5 -113h-20zM239 690
q-48 -306 77.5 -487t386.5 -181h20q263 0 446.5 181.5t231.5 486.5q49 307 -77 488.5t-389 181.5h-20q-261 0 -444 -181.5t-232 -488.5z" />
    <glyph glyph-name="oe" unicode="&#x153;" horiz-adv-x="1948" 
d="M540 -10q-200 0 -303.5 140.5t-68.5 363.5q35 224 182.5 363t349.5 139h20q163 0 263.5 -92.5t114.5 -251.5q65 156 192 248t286 96q196 -5 295.5 -143.5t64.5 -358.5h-842q-32 -208 61 -338t277 -130h20q115 0 213 52.5t167 147.5l33 -16q-75 -104 -184 -162t-235 -58
h-20q-161 0 -261.5 93.5t-116.5 252.5q-65 -159 -195.5 -252.5t-292.5 -93.5h-20zM208 494q-32 -208 61 -338t277 -130h20q185 0 319.5 130t166.5 338q33 207 -60.5 336.5t-277.5 129.5h-20q-184 0 -318.5 -129.5t-167.5 -336.5zM1099 526h802q22 191 -69 310.5t-262 123.5
q-173 -4 -302 -123.5t-169 -310.5z" />
    <glyph glyph-name="Racute" unicode="&#x154;" horiz-adv-x="1154" 
d="M180 0l221 1394h458q215 0 310.5 -93t66.5 -277v-2q-28 -173 -141 -266t-305 -102l270 -654h-46l-271 652h-420l-103 -652h-40zM329 690h418q396 0 449 334q26 165 -59.5 248.5t-283.5 83.5h-418zM837 1622l136 188h56l-154 -188h-38z" />
    <glyph glyph-name="racute" unicode="&#x155;" horiz-adv-x="800" 
d="M172 0l156 986h40l-38 -240q56 126 155.5 188t254.5 62q74 0 135 -16l-13 -36q-59 16 -128 16q-370 0 -446 -478l-76 -482h-40zM577 1310l155 220h56l-173 -220h-38z" />
    <glyph glyph-name="uni0156" unicode="&#x156;" horiz-adv-x="1234" 
d="M234 0l221 1394h458q215 0 310.5 -93t66.5 -277v-2q-28 -173 -141 -266t-305 -102l270 -654h-46l-271 652h-420l-103 -652h-40zM383 690h418q396 0 449 334q26 165 -59.5 248.5t-283.5 83.5h-418zM465 -396l125 244h50l-2 -10l-135 -234h-38z" />
    <glyph glyph-name="uni0157" unicode="&#x157;" horiz-adv-x="870" 
d="M216 0l156 986h40l-38 -240q56 126 155.5 188t254.5 62q74 0 135 -16l-13 -36q-59 16 -128 16q-370 0 -446 -478l-76 -482h-40zM64 -396l125 244h50l-2 -10l-135 -234h-38z" />
    <glyph glyph-name="Rcaron" unicode="&#x158;" horiz-adv-x="1154" 
d="M180 0l221 1394h458q215 0 310.5 -93t66.5 -277v-2q-28 -173 -141 -266t-305 -102l270 -654h-46l-271 652h-420l-103 -652h-40zM329 690h418q396 0 449 334q26 165 -59.5 248.5t-283.5 83.5h-418zM739 1810h48l80 -160l132 160h46l-160 -188h-46z" />
    <glyph glyph-name="rcaron" unicode="&#x159;" horiz-adv-x="678" 
d="M94 0l156 986h40l-38 -240q56 126 155.5 188t254.5 62q74 0 135 -16l-13 -36q-59 16 -128 16q-370 0 -446 -478l-76 -482h-40zM406 1530h48l77 -188l135 188h46l-165 -220h-46z" />
    <glyph glyph-name="Sacute" unicode="&#x15a;" 
d="M588 -28q-93 0 -171 23.5t-138 70t-91.5 122t-26.5 172.5h44q-7 -163 104 -254.5t287 -91.5q171 0 298.5 89t149.5 227q12 74 -1.5 127t-58.5 93.5t-110.5 70t-171.5 61.5q-112 33 -182 65t-118.5 76.5t-63 102t-2.5 136.5q24 149 165 247.5t316 98.5q94 0 166 -30
t114.5 -83t63 -120.5t18.5 -146.5h-44q-2 157 -91 247.5t-236 90.5q-92 0 -181 -32.5t-158 -103t-84 -164.5q-5 -30 -5.5 -55.5t4 -48t12 -42t21 -37t29.5 -32t39 -28.5t47.5 -25.5t57 -24t65 -23.5t74.5 -24q107 -32 177.5 -65.5t119 -79.5t64.5 -106.5t3 -140.5
q-24 -154 -168 -258t-337 -104zM819 1622l136 188h56l-154 -188h-38z" />
    <glyph glyph-name="sacute" unicode="&#x15b;" horiz-adv-x="962" 
d="M492 -14q-75 0 -137.5 18t-110 54t-72.5 95.5t-22 138.5h44q4 -268 308 -268q131 0 226 55t111 155q16 98 -48.5 149.5t-249.5 90.5q-66 14 -114.5 32.5t-90 47.5t-58.5 73.5t-8 102.5q17 110 121 183t247 73q155 0 232 -78.5t79 -205.5h-44q-14 125 -80.5 185.5
t-194.5 60.5q-115 0 -206.5 -58.5t-107.5 -157.5q-8 -49 6.5 -86t51 -62t82 -41.5t111.5 -30.5q184 -39 260 -100.5t58 -175.5q-18 -113 -127.5 -181.5t-265.5 -68.5zM656 1310l155 220h56l-173 -220h-38z" />
    <glyph glyph-name="Scircumflex" unicode="&#x15c;" 
d="M588 -28q-93 0 -171 23.5t-138 70t-91.5 122t-26.5 172.5h44q-7 -163 104 -254.5t287 -91.5q171 0 298.5 89t149.5 227q12 74 -1.5 127t-58.5 93.5t-110.5 70t-171.5 61.5q-112 33 -182 65t-118.5 76.5t-63 102t-2.5 136.5q24 149 165 247.5t316 98.5q94 0 166 -30
t114.5 -83t63 -120.5t18.5 -146.5h-44q-2 157 -91 247.5t-236 90.5q-92 0 -181 -32.5t-158 -103t-84 -164.5q-5 -30 -5.5 -55.5t4 -48t12 -42t21 -37t29.5 -32t39 -28.5t47.5 -25.5t57 -24t65 -23.5t74.5 -24q107 -32 177.5 -65.5t119 -79.5t64.5 -106.5t3 -140.5
q-24 -154 -168 -258t-337 -104zM694 1622l160 188h46l100 -188h-48l-81 160l-131 -160h-46z" />
    <glyph glyph-name="scircumflex" unicode="&#x15d;" horiz-adv-x="962" 
d="M492 -14q-75 0 -137.5 18t-110 54t-72.5 95.5t-22 138.5h44q4 -268 308 -268q131 0 226 55t111 155q16 98 -48.5 149.5t-249.5 90.5q-66 14 -114.5 32.5t-90 47.5t-58.5 73.5t-8 102.5q17 110 121 183t247 73q155 0 232 -78.5t79 -205.5h-44q-14 125 -80.5 185.5
t-194.5 60.5q-115 0 -206.5 -58.5t-107.5 -157.5q-8 -49 6.5 -86t51 -62t82 -41.5t111.5 -30.5q184 -39 260 -100.5t58 -175.5q-18 -113 -127.5 -181.5t-265.5 -68.5zM528 1310l165 220h46l95 -220h-48l-76 188l-136 -188h-46z" />
    <glyph glyph-name="Scedilla" unicode="&#x15e;" 
d="M431 -463q-66 0 -103 20l7 44q37 -22 102 -22q70 0 118.5 31.5t57.5 90.5q9 60 -34.5 91t-143.5 27l107 155q-177 11 -283.5 109.5t-97.5 276.5h44q-7 -163 104 -254.5t287 -91.5q171 0 298.5 89t149.5 227q12 74 -1.5 127t-58.5 93.5t-110.5 70t-171.5 61.5
q-112 33 -182 65t-118.5 76.5t-63 102t-2.5 136.5q24 149 165 247.5t316 98.5q94 0 166 -30t114.5 -83t63 -120.5t18.5 -146.5h-44q-2 157 -91 247.5t-236 90.5q-92 0 -181 -32.5t-158 -103t-84 -164.5q-5 -30 -5.5 -55.5t4 -48t12 -42t21 -37t29.5 -32t39 -28.5t47.5 -25.5
t57 -24t65 -23.5t74.5 -24q107 -32 177.5 -65.5t119 -79.5t64.5 -106.5t3 -140.5q-24 -154 -168 -258t-335 -104l-83 -117q173 -16 152 -154q-13 -81 -79.5 -122.5t-148.5 -41.5z" />
    <glyph glyph-name="scedilla" unicode="&#x15f;" horiz-adv-x="962" 
d="M349 -459q-66 0 -103 20l7 44q39 -22 103 -22q70 0 118 31.5t57 90.5q10 60 -33.5 91t-143.5 27l101 164q-142 9 -226.5 85t-78.5 220h44q4 -268 308 -268q131 0 226 55t111 155q16 98 -48.5 149.5t-249.5 90.5q-66 14 -114.5 32.5t-90 47.5t-58.5 73.5t-8 102.5
q17 110 121 183t247 73q155 0 232 -78.5t79 -205.5h-44q-14 125 -80.5 185.5t-194.5 60.5q-115 0 -206.5 -58.5t-107.5 -157.5q-8 -49 6.5 -86t51 -62t82 -41.5t111.5 -30.5q184 -39 260 -100.5t58 -175.5q-17 -110 -123.5 -178.5t-258.5 -71.5l-77 -127q173 -16 151 -154
q-13 -81 -79.5 -122.5t-148.5 -41.5z" />
    <glyph glyph-name="Scaron" unicode="&#x160;" 
d="M588 -28q-93 0 -171 23.5t-138 70t-91.5 122t-26.5 172.5h44q-7 -163 104 -254.5t287 -91.5q171 0 298.5 89t149.5 227q12 74 -1.5 127t-58.5 93.5t-110.5 70t-171.5 61.5q-112 33 -182 65t-118.5 76.5t-63 102t-2.5 136.5q24 149 165 247.5t316 98.5q94 0 166 -30
t114.5 -83t63 -120.5t18.5 -146.5h-44q-2 157 -91 247.5t-236 90.5q-92 0 -181 -32.5t-158 -103t-84 -164.5q-5 -30 -5.5 -55.5t4 -48t12 -42t21 -37t29.5 -32t39 -28.5t47.5 -25.5t57 -24t65 -23.5t74.5 -24q107 -32 177.5 -65.5t119 -79.5t64.5 -106.5t3 -140.5
q-24 -154 -168 -258t-337 -104zM721 1810h48l80 -160l132 160h46l-160 -188h-46z" />
    <glyph glyph-name="scaron" unicode="&#x161;" horiz-adv-x="962" 
d="M492 -14q-75 0 -137.5 18t-110 54t-72.5 95.5t-22 138.5h44q4 -268 308 -268q131 0 226 55t111 155q16 98 -48.5 149.5t-249.5 90.5q-66 14 -114.5 32.5t-90 47.5t-58.5 73.5t-8 102.5q17 110 121 183t247 73q155 0 232 -78.5t79 -205.5h-44q-14 125 -80.5 185.5
t-194.5 60.5q-115 0 -206.5 -58.5t-107.5 -157.5q-8 -49 6.5 -86t51 -62t82 -41.5t111.5 -30.5q184 -39 260 -100.5t58 -175.5q-18 -113 -127.5 -181.5t-265.5 -68.5zM563 1530h48l77 -188l135 188h46l-165 -220h-46z" />
    <glyph glyph-name="uni0162" unicode="&#x162;" horiz-adv-x="1276" 
d="M485 -460q-66 0 -103 20l7 44q39 -22 103 -22q70 0 118 31.5t57 90.5q19 127 -177 118l126 178l215 1356h-526l6 38h1094l-6 -38h-526l-215 -1356l-96 -142q173 -16 151 -154q-13 -81 -79.5 -122.5t-148.5 -41.5z" />
    <glyph glyph-name="uni0163" unicode="&#x163;" horiz-adv-x="702" 
d="M298 -459q-66 0 -103 20l7 44q39 -22 103 -22q70 0 118 31.5t57 90.5q10 60 -33.5 91t-143.5 27l111 190q-100 57 -72 225l113 714h-244l5 34h244l64 406h40l-64 -406h250l-5 -34h-250l-113 -714q-17 -107 23 -160.5t131 -53.5h14q20 0 48 4l-5 -36q-34 -4 -51 -4h-14
q-36 0 -71 8l-82 -137q173 -16 151 -154q-13 -81 -79.5 -122.5t-148.5 -41.5z" />
    <glyph glyph-name="Tcaron" unicode="&#x164;" horiz-adv-x="1194" 
d="M576 0l215 1356h-526l6 38h1094l-6 -38h-526l-215 -1356h-42zM732 1810h48l80 -160l132 160h46l-160 -188h-46z" />
    <glyph glyph-name="tcaron" unicode="&#x165;" horiz-adv-x="654" 
d="M528 -12q-109 0 -157.5 62.5t-28.5 187.5l113 714h-244l5 34h244l64 406h40l-64 -406h250l-5 -34h-250l-113 -714q-17 -107 23 -160.5t131 -53.5h14q20 0 48 4l-5 -36q-34 -4 -51 -4h-14zM693 1224l125 244h50l-2 -10l-135 -234h-38z" />
    <glyph glyph-name="Tbar" unicode="&#x166;" horiz-adv-x="1194" 
d="M576 0l102 646h-289l7 42h289l106 668h-526l6 38h1094l-6 -38h-526l-106 -668h289l-7 -42h-289l-102 -646h-42z" />
    <glyph glyph-name="tbar" unicode="&#x167;" horiz-adv-x="654" 
d="M528 -12q-109 0 -157.5 62.5t-28.5 187.5l52 331h-127l6 34h127l55 349h-244l5 34h244l64 406h40l-64 -406h250l-5 -34h-250l-55 -349h133l-6 -34h-133l-52 -331q-17 -107 23 -160.5t131 -53.5h14q20 0 48 4l-5 -36q-34 -4 -51 -4h-14z" />
    <glyph glyph-name="Utilde" unicode="&#x168;" horiz-adv-x="1242" 
d="M242 492l143 902h40l-141 -888q-39 -243 82 -379q92 -104 243 -108q156 -4 291 100q165 128 213 359q4 19 7 38l139 878h40l-140 -880q-41 -258 -216 -407q-139 -119 -310 -127q-165 -8 -276 91q-134 119 -123 343q2 38 8 78zM710 1680q13 82 85 82q36 0 110 -26
q68 -24 90 -24q32 0 39 42h40q-13 -82 -85 -82q-36 0 -110 26q-69 24 -90 24q-32 0 -39 -42h-40z" />
    <glyph glyph-name="utilde" unicode="&#x169;" horiz-adv-x="1088" 
d="M524 -10q-193 0 -267.5 100t-42.5 302l94 594h40l-92 -584q-31 -193 33.5 -284.5t240.5 -91.5q370 0 446 478l76 482h40l-156 -986h-40l38 240q-56 -126 -155.5 -188t-254.5 -62zM585 1410q14 82 85 82q36 0 110 -26q69 -24 90 -24q32 0 39 42h40q-13 -82 -85 -82
q-36 0 -110 26q-67 24 -90 24q-32 0 -39 -42h-40z" />
    <glyph glyph-name="Umacron" unicode="&#x16a;" horiz-adv-x="1242" 
d="M242 492l143 902h40l-141 -888q-39 -243 82 -379q92 -104 243 -108q156 -4 291 100q165 128 213 359q4 19 7 38l139 878h40l-140 -880q-41 -258 -216 -407q-139 -119 -310 -127q-165 -8 -276 91q-134 119 -123 343q2 38 8 78zM747 1694l7 42h280l-7 -42h-280z" />
    <glyph glyph-name="umacron" unicode="&#x16b;" horiz-adv-x="1088" 
d="M524 -10q-193 0 -267.5 100t-42.5 302l94 594h40l-92 -584q-31 -193 33.5 -284.5t240.5 -91.5q370 0 446 478l76 482h40l-156 -986h-40l38 240q-56 -126 -155.5 -188t-254.5 -62zM623 1390l7 42h280l-7 -42h-280z" />
    <glyph glyph-name="Ubreve" unicode="&#x16c;" horiz-adv-x="1242" 
d="M242 492l143 902h40l-141 -888q-39 -243 82 -379q92 -104 243 -108q156 -4 291 100q165 128 213 359q4 19 7 38l139 878h40l-140 -880q-41 -258 -216 -407q-139 -119 -310 -127q-165 -8 -276 91q-134 119 -123 343q2 38 8 78zM720 1864h36q-12 -82 25 -128t106 -46
t119.5 46t65.5 128h36q-16 -99 -78.5 -157.5t-149.5 -58.5q-88 0 -132 58t-28 158z" />
    <glyph glyph-name="ubreve" unicode="&#x16d;" horiz-adv-x="1088" 
d="M524 -10q-193 0 -267.5 100t-42.5 302l94 594h40l-92 -584q-31 -193 33.5 -284.5t240.5 -91.5q370 0 446 478l76 482h40l-156 -986h-40l38 240q-56 -126 -155.5 -188t-254.5 -62zM580 1518h36q-11 -82 25.5 -128t105.5 -46t120 46t65 128h36q-16 -99 -78.5 -157.5
t-149.5 -58.5q-88 0 -132 58t-28 158z" />
    <glyph glyph-name="Uring" unicode="&#x16e;" horiz-adv-x="1242" 
d="M242 492l143 902h40l-141 -888q-39 -243 82 -379q92 -104 243 -108q156 -4 291 100q165 128 213 359q4 19 7 38l139 878h40l-140 -880q-41 -258 -216 -407q-139 -119 -310 -127q-165 -8 -276 91q-134 119 -123 343q2 38 8 78zM765 1716q9 55 50.5 88.5t94.5 33.5
t84.5 -33.5t22.5 -88.5t-51 -88.5t-95 -33.5t-84 33.5t-22 88.5zM813 1716q-5 -34 12 -57t53 -23t61 23t30 57t-12.5 57t-53.5 23t-60.5 -23t-29.5 -57z" />
    <glyph glyph-name="uring" unicode="&#x16f;" horiz-adv-x="1088" 
d="M524 -10q-193 0 -267.5 100t-42.5 302l94 594h40l-92 -584q-31 -193 33.5 -284.5t240.5 -91.5q370 0 446 478l76 482h40l-156 -986h-40l38 240q-56 -126 -155.5 -188t-254.5 -62zM644 1418q9 56 50 90t93 34q53 0 83.5 -34t21.5 -90t-50.5 -90t-93.5 -34t-82.5 34
t-21.5 90zM690 1418q-5 -35 12 -58.5t53 -23.5t60.5 23.5t30.5 58.5q5 35 -12 58.5t-53 23.5t-60.5 -23.5t-30.5 -58.5z" />
    <glyph glyph-name="Uhungarumlaut" unicode="&#x170;" horiz-adv-x="1242" 
d="M242 492l143 902h40l-141 -888q-39 -243 82 -379q92 -104 243 -108q156 -4 291 100q165 128 213 359q4 19 7 38l139 878h40l-140 -880q-41 -258 -216 -407q-139 -119 -310 -127q-165 -8 -276 91q-134 119 -123 343q2 38 8 78zM716 1622l136 188h56l-154 -188h-38z
M1000 1622l136 188h56l-154 -188h-38z" />
    <glyph glyph-name="uhungarumlaut" unicode="&#x171;" horiz-adv-x="1088" 
d="M524 -10q-193 0 -267.5 100t-42.5 302l94 594h40l-92 -584q-31 -193 33.5 -284.5t240.5 -91.5q370 0 446 478l76 482h40l-156 -986h-40l38 240q-56 -126 -155.5 -188t-254.5 -62zM592 1311l135 188h56l-153 -188h-38zM876 1311l135 188h56l-153 -188h-38z" />
    <glyph glyph-name="Uogonek" unicode="&#x172;" horiz-adv-x="1242" 
d="M584 -422q82 0 147 56l7 46q-72 -62 -140 -62q-92 0 -75 104q14 91 83.5 165.5t173.5 123.5q141 52 244.5 181t134.5 322l140 880h-40l-139 -878q-39 -243 -202 -382q-131 -111 -289 -115q-152 -4 -251 95q-124 125 -99 355q2 18 5 37l141 888h-40l-143 -902
q-17 -110 -2.5 -196t53.5 -149t97 -102t126.5 -55t143.5 -8q-75 -52 -122.5 -121t-59.5 -145q-12 -75 19.5 -106.5t86.5 -31.5z" />
    <glyph glyph-name="uogonek" unicode="&#x173;" horiz-adv-x="1088" 
d="M693 -440q-55 0 -86.5 31.5t-19.5 106.5q17 111 104 204.5t210 129.5l33 208q-56 -126 -155.5 -188t-254.5 -62q-193 0 -267.5 100t-42.5 302l94 594h40l-92 -584q-31 -193 33.5 -284.5t240.5 -91.5q370 0 446 478l76 482h40l-156 -986h-33q-104 -33 -180 -116t-91 -180
q-9 -53 12 -78.5t64 -25.5q67 0 139 62l-7 -46q-65 -56 -147 -56z" />
    <glyph glyph-name="Wcircumflex" unicode="&#x174;" horiz-adv-x="1766" 
d="M428 0l-167 1394h44l159 -1342l606 1272h46l204 -1272l585 1342h42l-609 -1394h-52l-202 1264l-604 -1264h-52zM986 1622l160 188h46l100 -188h-48l-81 160l-131 -160h-46z" />
    <glyph glyph-name="wcircumflex" unicode="&#x175;" horiz-adv-x="1452" 
d="M348 0l-118 986h44l109 -932l477 932h48l181 -930l403 930h42l-428 -986h-50l-179 938l-481 -938h-48zM780 1310l165 220h46l95 -220h-48l-76 188l-136 -188h-46z" />
    <glyph glyph-name="Ycircumflex" unicode="&#x176;" horiz-adv-x="1092" 
d="M526 0l61 412l-336 982h48l315 -938l621 938h48l-656 -982l-61 -412h-40zM650 1622l160 188h46l100 -188h-48l-81 160l-131 -160h-46z" />
    <glyph glyph-name="ycircumflex" unicode="&#x177;" horiz-adv-x="972" 
d="M142 -364q95 -35 176 110l147 258l-249 982h46l230 -936l532 936h44l-717 -1258q-104 -186 -230 -126zM542 1310l165 220h46l95 -220h-48l-76 188l-136 -188h-46z" />
    <glyph glyph-name="Ydieresis" unicode="&#x178;" horiz-adv-x="1092" 
d="M526 0l61 412l-336 982h48l315 -938l621 938h48l-656 -982l-61 -412h-40zM653 1716q2 16 15.5 28t30.5 12q16 0 26 -11.5t8 -28.5q-3 -17 -17 -28.5t-30 -11.5q-17 0 -26.5 12t-6.5 28zM905 1716q2 16 15.5 28t30.5 12q16 0 26 -11.5t8 -28.5q-3 -17 -17 -28.5t-30 -11.5
q-17 0 -26.5 12t-6.5 28z" />
    <glyph glyph-name="Zacute" unicode="&#x179;" horiz-adv-x="1064" 
d="M76 0l8 48l1077 1308h-870l6 38h912l-7 -46l-1080 -1310h872l-6 -38h-912zM765 1622l136 188h56l-154 -188h-38z" />
    <glyph glyph-name="zacute" unicode="&#x17a;" horiz-adv-x="926" 
d="M76 0l7 44l877 902l2 4h-736l6 36h774l-8 -50l-870 -900h728l-6 -36h-774zM630 1310l155 220h56l-173 -220h-38z" />
    <glyph glyph-name="Zdotaccent" unicode="&#x17b;" horiz-adv-x="1064" 
d="M76 0l8 48l1077 1308h-870l6 38h912l-7 -46l-1080 -1310h872l-6 -38h-912zM764 1716q2 16 15.5 28t30.5 12q16 0 26 -11.5t8 -28.5q-3 -17 -17 -28.5t-30 -11.5q-17 0 -26.5 12t-6.5 28z" />
    <glyph glyph-name="zdotaccent" unicode="&#x17c;" horiz-adv-x="926" 
d="M76 0l7 44l877 902l2 4h-736l6 36h774l-8 -50l-870 -900h728l-6 -36h-774zM631 1416q3 17 17 28.5t30 11.5q17 0 26.5 -12t6.5 -28q-2 -16 -15.5 -28t-30.5 -12q-16 0 -26 11.5t-8 28.5z" />
    <glyph glyph-name="Zcaron" unicode="&#x17d;" horiz-adv-x="1064" 
d="M76 0l8 48l1077 1308h-870l6 38h912l-7 -46l-1080 -1310h872l-6 -38h-912zM667 1810h48l80 -160l132 160h46l-160 -188h-46z" />
    <glyph glyph-name="zcaron" unicode="&#x17e;" horiz-adv-x="926" 
d="M76 0l7 44l877 902l2 4h-736l6 36h774l-8 -50l-870 -900h728l-6 -36h-774zM537 1530h48l77 -188l135 188h46l-165 -220h-46z" />
    <glyph glyph-name="uni0218" unicode="&#x218;" horiz-adv-x="1172" 
d="M602 -28q-93 0 -171 23.5t-138 70t-91.5 122t-26.5 172.5h44q-7 -163 104 -254.5t287 -91.5q171 0 298.5 89t149.5 227q12 74 -1.5 127t-58.5 93.5t-110.5 70t-171.5 61.5q-112 33 -182 65t-118.5 76.5t-63 102t-2.5 136.5q24 149 165 247.5t316 98.5q94 0 166 -30
t114.5 -83t63 -120.5t18.5 -146.5h-44q-2 157 -91 247.5t-236 90.5q-92 0 -181 -32.5t-158 -103t-84 -164.5q-5 -30 -5.5 -55.5t4 -48t12 -42t21 -37t29.5 -32t39 -28.5t47.5 -25.5t57 -24t65 -23.5t74.5 -24q107 -32 177.5 -65.5t119 -79.5t64.5 -106.5t3 -140.5
q-24 -154 -168 -258t-337 -104zM427 -396l125 244h50l-2 -10l-135 -234h-38z" />
    <glyph glyph-name="uni0219" unicode="&#x219;" horiz-adv-x="984" 
d="M508 -14q-75 0 -137.5 18t-110 54t-72.5 95.5t-22 138.5h44q4 -268 308 -268q131 0 226 55t111 155q16 98 -48.5 149.5t-249.5 90.5q-66 14 -114.5 32.5t-90 47.5t-58.5 73.5t-8 102.5q17 110 121 183t247 73q155 0 232 -78.5t79 -205.5h-44q-14 125 -80.5 185.5
t-194.5 60.5q-115 0 -206.5 -58.5t-107.5 -157.5q-8 -49 6.5 -86t51 -62t82 -41.5t111.5 -30.5q184 -39 260 -100.5t58 -175.5q-18 -113 -127.5 -181.5t-265.5 -68.5zM336 -396l125 244h50l-2 -10l-135 -234h-38z" />
    <glyph glyph-name="uni021A" unicode="&#x21a;" horiz-adv-x="1276" 
d="M616 0l215 1356h-526l6 38h1094l-6 -38h-526l-215 -1356h-42zM463 -396l125 244h50l-2 -10l-135 -234h-38z" />
    <glyph glyph-name="uni021B" unicode="&#x21b;" horiz-adv-x="702" 
d="M528 -12q-109 0 -157.5 62.5t-28.5 187.5l113 714h-244l5 34h244l64 406h40l-64 -406h250l-5 -34h-250l-113 -714q-17 -107 23 -160.5t131 -53.5h14q20 0 48 4l-5 -36q-34 -4 -51 -4h-14zM261 -396l125 244h50l-2 -10l-135 -234h-38z" />
    <glyph glyph-name="uni0237" unicode="&#x237;" horiz-adv-x="474" 
d="M-44 -418q-85 0 -139 34l19 30q54 -28 123 -28h14q91 0 148.5 54t73.5 160l183 1154h40l-183 -1154q-20 -125 -88 -187.5t-177 -62.5h-14z" />
    <glyph glyph-name="circumflex" unicode="&#x2c6;" horiz-adv-x="618" 
d="M411 1610l165 220h46l95 -220h-48l-76 188l-136 -188h-46z" />
    <glyph glyph-name="caron" unicode="&#x2c7;" horiz-adv-x="618" 
d="M541 1610l-95 220h48l76 -188l136 188h46l-165 -220h-46z" />
    <glyph glyph-name="breve" unicode="&#x2d8;" horiz-adv-x="744" 
d="M626 1602q-88 0 -132 58t-28 158h36q-12 -82 24.5 -128t105.5 -46t120 46t66 128h36q-16 -99 -78.5 -157.5t-149.5 -58.5z" />
    <glyph glyph-name="dotaccent" unicode="&#x2d9;" horiz-adv-x="876" 
d="M703 1676q-17 0 -26.5 12t-6.5 28q2 16 15.5 28t30.5 12q16 0 26 -11.5t8 -28.5q-3 -17 -17 -28.5t-30 -11.5z" />
    <glyph glyph-name="ring" unicode="&#x2da;" horiz-adv-x="820" 
d="M662 1594q-52 0 -82.5 34t-21.5 90t50.5 90t93.5 34t82.5 -34t21.5 -90t-50.5 -90t-93.5 -34zM604 1718q-5 -35 12 -58.5t53 -23.5t60.5 23.5t30.5 58.5q5 35 -12 58.5t-53 23.5t-60.5 -23.5t-30.5 -58.5z" />
    <glyph glyph-name="ogonek" unicode="&#x2db;" horiz-adv-x="890" 
d="M243 -446q-55 0 -86.5 31.5t-19.5 106.5q17 111 104.5 204.5t210.5 129.5l22 -26q-111 -28 -193.5 -114t-98.5 -188q-9 -53 12 -78.5t64 -25.5q68 0 140 62l-8 -46q-65 -56 -147 -56z" />
    <glyph glyph-name="tilde" unicode="&#x2dc;" horiz-adv-x="656" 
d="M702 1702q-36 0 -110 26q-69 24 -91 24q-31 0 -38 -42h-40q13 82 85 82q36 0 110 -26q68 -24 90 -24q32 0 39 42h40q-14 -82 -85 -82z" />
    <glyph glyph-name="hungarumlaut" unicode="&#x2dd;" horiz-adv-x="778" 
d="M483 1610l136 188h56l-154 -188h-38zM767 1610l136 188h56l-154 -188h-38z" />
    <glyph glyph-name="uni0326" unicode="&#x326;" horiz-adv-x="0" 
d="M175 -346l125 244h50l-2 -10l-135 -234h-38z" />
    <glyph glyph-name="Wgrave" unicode="&#x1e80;" horiz-adv-x="1766" 
d="M428 0l-167 1394h44l159 -1342l606 1272h46l204 -1272l585 1342h42l-609 -1394h-52l-202 1264l-604 -1264h-52zM1028 1810h56l76 -188h-38z" />
    <glyph glyph-name="wgrave" unicode="&#x1e81;" horiz-adv-x="1452" 
d="M348 0l-118 986h44l109 -932l477 932h48l181 -930l403 930h42l-428 -986h-50l-179 938l-481 -938h-48zM819 1530h56l85 -220h-38z" />
    <glyph glyph-name="Wacute" unicode="&#x1e82;" horiz-adv-x="1766" 
d="M428 0l-167 1394h44l159 -1342l606 1272h46l204 -1272l585 1342h42l-609 -1394h-52l-202 1264l-604 -1264h-52zM1099 1622l136 188h56l-154 -188h-38z" />
    <glyph glyph-name="wacute" unicode="&#x1e83;" horiz-adv-x="1452" 
d="M348 0l-118 986h44l109 -932l477 932h48l181 -930l403 930h42l-428 -986h-50l-179 938l-481 -938h-48zM908 1310l155 220h56l-173 -220h-38z" />
    <glyph glyph-name="Wdieresis" unicode="&#x1e84;" horiz-adv-x="1766" 
d="M428 0l-167 1394h44l159 -1342l606 1272h46l204 -1272l585 1342h42l-609 -1394h-52l-202 1264l-604 -1264h-52zM992 1716q2 16 15.5 28t30.5 12q16 0 26 -11.5t8 -28.5q-3 -17 -17 -28.5t-30 -11.5q-17 0 -26.5 12t-6.5 28zM1244 1716q2 16 15.5 28t30.5 12
q16 0 26 -11.5t8 -28.5q-3 -17 -17 -28.5t-30 -11.5q-17 0 -26.5 12t-6.5 28z" />
    <glyph glyph-name="wdieresis" unicode="&#x1e85;" horiz-adv-x="1452" 
d="M348 0l-118 986h44l109 -932l477 932h48l181 -930l403 930h42l-428 -986h-50l-179 938l-481 -938h-48zM786 1418q2 16 15.5 28t30.5 12q16 0 26 -11.5t8 -28.5q-3 -17 -17 -28.5t-30 -11.5q-17 0 -26.5 12t-6.5 28zM1038 1418q2 16 15.5 28t30.5 12q16 0 26 -11.5
t8 -28.5q-3 -17 -17 -28.5t-30 -11.5q-17 0 -26.5 12t-6.5 28z" />
    <glyph glyph-name="uni1E9E" unicode="&#x1e9e;" horiz-adv-x="1255" 
d="M722 -8q-119 0 -213 20l7 46q103 -24 212 -24q140 0 231.5 59t108.5 165q11 67 -16 127t-112 153q-73 78 -93 128.5t-10 119.5q11 68 47 118.5t135 129.5q114 92 159.5 152t56.5 128q17 107 -55.5 165.5t-212.5 58.5h-445l-244 -1538h-44l250 1580h492q165 0 245.5 -72
t60.5 -200q-12 -79 -71 -152.5t-175 -163.5q-76 -58 -109 -104t-42 -102q-8 -56 10 -102t76 -104q88 -90 123 -163.5t23 -152.5q-20 -129 -124 -200.5t-271 -71.5z" />
    <glyph glyph-name="Ygrave" unicode="&#x1ef2;" horiz-adv-x="1092" 
d="M526 0l61 412l-336 982h48l315 -938l621 938h48l-656 -982l-61 -412h-40zM688 1810h56l76 -188h-38z" />
    <glyph glyph-name="ygrave" unicode="&#x1ef3;" horiz-adv-x="972" 
d="M142 -364q95 -35 176 110l147 258l-249 982h46l230 -936l532 936h44l-717 -1258q-104 -186 -230 -126zM581 1530h56l85 -220h-38z" />
    <glyph glyph-name="endash" unicode="&#x2013;" horiz-adv-x="1040" 
d="M249 560l6 42h720l-6 -42h-720z" />
    <glyph glyph-name="emdash" unicode="&#x2014;" horiz-adv-x="1900" 
d="M179 560l6 42h1720l-6 -42h-1720z" />
    <glyph glyph-name="quoteleft" unicode="&#x2018;" horiz-adv-x="420" 
d="M272 982l-1 10l224 478h40l-217 -488h-46z" />
    <glyph glyph-name="quoteright" unicode="&#x2019;" horiz-adv-x="420" 
d="M274 982l217 488h46v-10l-223 -478h-40z" />
    <glyph glyph-name="quotesinglbase" unicode="&#x201a;" horiz-adv-x="384" 
d="M77 -232l137 280h46v-10l-145 -270h-38z" />
    <glyph glyph-name="quotedblleft" unicode="&#x201c;" horiz-adv-x="600" 
d="M452 982l-1 10l224 478h40l-217 -488h-46zM271 992l224 478h40l-217 -488h-46z" />
    <glyph glyph-name="quotedblright" unicode="&#x201d;" horiz-adv-x="600" 
d="M454 982l217 488h46v-10l-223 -478h-40zM274 982l217 488h46v-10l-223 -478h-40z" />
    <glyph glyph-name="quotedblbase" unicode="&#x201e;" horiz-adv-x="524" 
d="M217 -232l137 280h46v-10l-145 -270h-38zM77 -232l137 280h46v-10l-145 -270h-38z" />
    <glyph glyph-name="dagger" unicode="&#x2020;" horiz-adv-x="1076" 
d="M465 -320l177 1128l-374 -2l7 46l374 -2l82 530h52l-86 -530l374 2l-7 -46l-374 2l-177 -1128h-48z" />
    <glyph glyph-name="daggerdbl" unicode="&#x2021;" horiz-adv-x="1076" 
d="M465 -320l82 526l-375 -2l8 46l373 -2l89 560l-374 -2l7 46l374 -2l82 530h52l-86 -530l374 2l-7 -46l-374 2l-89 -560l375 2l-8 -46l-373 2l-82 -526h-48z" />
    <glyph glyph-name="bullet" unicode="&#x2022;" horiz-adv-x="520" 
d="M342 520q-39 0 -60.5 25.5t-14.5 64.5q6 39 35.5 64.5t68.5 25.5t60.5 -25.5t15.5 -64.5q-7 -39 -36.5 -64.5t-68.5 -25.5z" />
    <glyph glyph-name="ellipsis" unicode="&#x2026;" horiz-adv-x="740" 
d="M566 -28q-17 0 -27 12t-7 28q2 16 15.5 28t30.5 12q16 0 26 -11.5t8 -28.5q-3 -17 -16.5 -28.5t-29.5 -11.5zM132 12q2 16 15.5 28t30.5 12q16 0 26 -11.5t8 -28.5q-3 -17 -16.5 -28.5t-29.5 -11.5q-17 0 -27 12t-7 28zM332 12q2 16 15.5 28t30.5 12q16 0 26 -11.5
t8 -28.5q-3 -17 -16.5 -28.5t-29.5 -11.5q-17 0 -27 12t-7 28z" />
    <glyph glyph-name="perthousand" unicode="&#x2030;" horiz-adv-x="1908" 
d="M174 0l1113 1380h52l-1113 -1380h-52zM263 1090q22 138 105.5 228t200.5 90t172.5 -90t33.5 -228q-22 -136 -106 -227t-201 -91t-172 91t-33 227zM311 1090q-20 -124 22.5 -200t141.5 -76t165.5 76t86.5 200q19 125 -23.5 200.5t-141.5 75.5q-100 0 -166 -75.5
t-85 -200.5zM738 290q22 138 105.5 228t200.5 90t172.5 -90t33.5 -228q-22 -136 -105.5 -227t-200.5 -91t-172.5 91t-33.5 227zM786 290q-19 -124 23 -200t141 -76t166 76t86 200q20 125 -22 200.5t-142 75.5t-166 -75.5t-86 -200.5zM1352 290q22 138 105.5 228t200.5 90
t172.5 -90t33.5 -228q-22 -136 -105.5 -227t-200.5 -91t-172.5 91t-33.5 227zM1400 290q-19 -124 23 -200t141 -76t166 76t86 200q20 125 -22 200.5t-142 75.5t-166 -75.5t-86 -200.5z" />
    <glyph glyph-name="guilsinglleft" unicode="&#x2039;" horiz-adv-x="522" 
d="M390 164l-221 332l326 332h58l-326 -332l221 -332h-58z" />
    <glyph glyph-name="guilsinglright" unicode="&#x203a;" horiz-adv-x="522" 
d="M126 164l327 332l-222 332h58l222 -332l-327 -332h-58z" />
    <glyph glyph-name="fraction" unicode="&#x2044;" horiz-adv-x="80" 
d="M-280 -61l746 1492l38 6l-746 -1492z" />
    <glyph glyph-name="Euro" unicode="&#x20ac;" horiz-adv-x="1140" 
d="M694 -28q-476 0 -427 588h-175l26 42h153q1 11 11 82q7 42 20 96h-125l26 42h107q75 287 240 436.5t379 149.5q111 0 181 -27.5t126 -92.5l-35 -32q-52 61 -117 85.5t-166 24.5q-85 0 -166 -30t-157 -92.5t-138 -170.5t-99 -251h740l-28 -42h-722q-9 -37 -16 -88
q-11 -68 -13 -90h662l-24 -42h-642q-21 -279 79 -412.5t316 -133.5q154 0 293 80l-8 -48q-141 -74 -301 -74z" />
    <glyph glyph-name="trademark" unicode="&#x2122;" horiz-adv-x="1038" 
d="M638 912l65 406h62l83 -368l201 368h58l-65 -406h-40l63 370l-200 -366h-48l-82 364l-57 -368h-40zM263 1282l6 38h380l-6 -38h-168l-59 -370h-44l59 370h-168z" />
    <glyph glyph-name="partialdiff" unicode="&#x2202;" horiz-adv-x="1080" 
d="M508 -28q-175 0 -264.5 123t-57.5 319q36 229 182 364.5t339 135.5q115 0 195 -55.5t113 -144.5q19 129 22.5 238.5t-11.5 207.5t-49 166.5t-95.5 108t-146.5 39.5q-82 0 -150.5 -23.5t-140.5 -76.5l-21 32q148 110 325 110q443 0 304 -870q-51 -323 -185 -498.5
t-359 -175.5zM234 418q-29 -185 50.5 -294.5t229.5 -109.5q190 0 311.5 149.5t177.5 474.5q-33 118 -116 176t-185 58q-181 0 -308.5 -126.5t-159.5 -327.5z" />
    <glyph glyph-name="emptyset" unicode="&#x2205;" horiz-adv-x="1756" 
d="M873 -30q-144 0 -266.5 53.5t-206.5 150.5l-193 -166l-25 30l195 168q-77 100 -107.5 229t-7.5 275q33 206 159 377t308.5 267t378.5 96q144 0 266.5 -53.5t206.5 -150.5l193 166l25 -30l-195 -168q77 -100 107.5 -229t6.5 -275q-24 -155 -104.5 -293t-194 -235.5
t-256.5 -154.5t-290 -57zM310 710q-43 -275 104 -472l1130 976q-79 92 -193.5 143t-249.5 51q-183 0 -353.5 -90.5t-288.5 -251.5t-149 -356zM437 206q79 -92 193.5 -143t249.5 -51q183 0 353 90.5t288 251.5t149 356q44 275 -103 472z" />
    <glyph glyph-name="product" unicode="&#x220f;" horiz-adv-x="1088" 
d="M177 -220l247 1558h-112l7 42h888l-7 -42h-112l-247 -1558h-44l247 1558h-576l-247 -1558h-44z" />
    <glyph glyph-name="summation" unicode="&#x2211;" horiz-adv-x="1086" 
d="M25 -220l6 40l700 782l-399 738l7 40h866l-7 -42h-812l399 -738l-697 -778h882l-7 -42h-938z" />
    <glyph glyph-name="minus" unicode="&#x2212;" horiz-adv-x="1012" 
d="M203 614l7 42h800l-7 -42h-800z" />
    <glyph glyph-name="radical" unicode="&#x221a;" horiz-adv-x="1094" 
d="M463 -320l-121 898h-132l6 42h164l121 -906l718 1846h46l-736 -1880h-66z" />
    <glyph glyph-name="infinity" unicode="&#x221e;" horiz-adv-x="2068" 
d="M560 -28q-207 0 -311.5 153.5t-64.5 402.5q40 250 192.5 405t359.5 155q179 0 281.5 -114t119.5 -338q74 218 216 335t323 117q207 0 311.5 -155t64.5 -405q-40 -249 -192.5 -402.5t-359.5 -153.5q-180 0 -282 114.5t-119 339.5q-79 -224 -218.5 -339t-320.5 -115z
M232 528q-19 -132 -1 -229t69 -160t118.5 -94t147.5 -31q60 0 119 16t121 54.5t114.5 96t97.5 147.5t72 202q3 113 -15.5 202.5t-51.5 147.5t-80.5 96t-100 54t-112.5 16q-80 0 -158 -32t-147.5 -93.5t-121 -163t-71.5 -229.5zM1146 530q-3 -113 15 -202.5t51 -147.5t81 -96
t100.5 -54t112.5 -16q80 0 158 31.5t147.5 92.5t121 162t71.5 228q19 133 0.5 230.5t-68.5 161.5t-118 95t-148 31q-76 0 -151 -27t-148 -84.5t-132.5 -161.5t-92.5 -243z" />
    <glyph glyph-name="integral" unicode="&#x222b;" horiz-adv-x="570" 
d="M151 -320q-75 0 -113 56l33 30q32 -44 89 -44q59 0 105.5 69t69.5 215q25 151 20 582q-2 265 2.5 386.5t20.5 223.5q13 85 38.5 148t58 97t65 49.5t67.5 15.5q75 0 113 -56l-33 -30q-31 44 -89 44q-59 0 -105 -69t-70 -215q-23 -154 -20 -582q2 -270 -2.5 -390
t-20.5 -220q-13 -85 -38.5 -148t-58 -97t-65 -49.5t-67.5 -15.5z" />
    <glyph glyph-name="approxequal" unicode="&#x2248;" 
d="M891 700q-49 0 -90 15.5t-116 58.5q-70 40 -105 53t-81 13q-69 0 -115.5 -27t-104.5 -97l-26 24q104 142 253 142q49 0 89.5 -15.5t116.5 -58.5q70 -40 105 -53t81 -13q69 0 115.5 27t103.5 97l26 -24q-103 -142 -252 -142zM196 380q104 142 253 142q49 0 89.5 -15.5
t116.5 -58.5q70 -40 105 -53t81 -13q69 0 115.5 27t103.5 97l26 -24q-103 -142 -252 -142q-49 0 -90 15.5t-116 58.5q-72 40 -106 53t-80 13q-69 0 -115.5 -27t-104.5 -97z" />
    <glyph glyph-name="notequal" unicode="&#x2260;" horiz-adv-x="1092" 
d="M303 206l170 228h-278l6 42h302l237 318h-488l6 42h512l171 230h48l-171 -230h280l-6 -42h-304l-237 -318h490l-6 -42h-514l-170 -228h-48z" />
    <glyph glyph-name="lessequal" unicode="&#x2264;" horiz-adv-x="1012" 
d="M935 180l-745 350l6 40l856 350l-8 -48l-795 -322l693 -322zM106 0l7 42h800l-7 -42h-800z" />
    <glyph glyph-name="greaterequal" unicode="&#x2265;" horiz-adv-x="1012" 
d="M135 180l7 48l795 322l-693 322l8 48l744 -350l-6 -40zM106 0l7 42h800l-7 -42h-800z" />
    <glyph glyph-name="lozenge" unicode="&#x25ca;" horiz-adv-x="912" 
d="M434 0l-225 690l444 690h44l224 -690l-443 -690h-44zM257 690l207 -642l409 642l-206 640z" />
    <glyph glyph-name="uniF8FF" unicode="&#xf8ff;" horiz-adv-x="1622" 
d="M798 253q-151 0 -279.5 75.5t-203 204.5t-74.5 280q0 152 75 280.5t203.5 203t280.5 74.5q151 0 279.5 -75t203.5 -203.5t75 -279.5q0 -152 -74.5 -281t-203.5 -204t-282 -75zM240 29v146h59q26 0 44 -9q37 -17 37 -64q0 -23 -10 -39q-21 -34 -71 -34h-59zM275 56h22
q18 0 26 4q22 10 22 42q0 18 -5 27q-12 20 -43 20h-22v-93zM308 814q0 -205 144 -350t348 -145q203 0 347.5 144.5t144.5 347.5q0 100 -39 191.5t-104.5 157.5t-156 105t-190.5 40q-134 0 -248 -65.5t-180 -178.5t-66 -247zM392 84q0 16 8 29q16 27 52 27q26 0 42 -14
q18 -15 18 -42v-8h-85q0 -8 3 -13q7 -13 25 -13q7 0 10 1q9 3 14 12l31 -3q-2 -10 -10 -17q-14 -16 -45 -16q-17 0 -33 7q-30 14 -30 50zM427 95h52l-3 10q-6 12 -23 12q-10 0 -14 -3q-10 -6 -12 -19zM482 912q10 -2 12 -4q52 -21 98 -27q41 -3 72 2q43 11 47 12
q3 0 8.5 2.5t7.5 3.5q-5 2 -16.5 8t-17 9t-13 8.5t-13.5 12.5h19q39 0 75 19q65 40 136 61q24 8 58 11q4 0 19.5 1t23.5 0q54 -2 89 -33q10 -11 28 -33v-2l-6 2q-45 17 -83 3.5t-62 -53.5q-7 -13 -25 -55q-9 -21 -27 -63.5t-20 -48.5q-33 -64 -65 -101q-27 -33 -66 -58
q-45 -34 -116 -55h-5l24 22q12 11 25 44q41 116 45 127q24 73 57 131v3q-2 -4 -11 -13q-8 -10 -10 -12q-23 -36 -31 -57q-2 -6 -8 -6q-99 3 -177 67q-40 38 -59 55q-1 1 -5 7t-8 10zM521 61l33 2q5 -14 23 -14q20 0 20 11q0 8 -16 11l-21 4q-36 6 -36 31q0 10 6 18
q13 16 46 16q48 0 53 -32l-31 -3q-4 14 -21 14q-19 0 -19 -11q0 -8 16 -12l22 -3q36 -6 36 -30q0 -9 -7 -18q-13 -18 -48 -18q-51 0 -56 34zM645 168q0 15 19 15q18 0 18 -15t-18 -15q-19 0 -19 15zM647 29v109h34v-109h-34zM696 84q0 20 7 31q13 25 43 25q10 0 18 -3
q12 -5 18 -17h1v18h35v-110q0 -14 -9 -23q-15 -19 -52 -19q-50 0 -57 31l31 3l6 -6q5 -6 21 -6q25 0 25 21v19h-1q-2 -3 -7 -8q-11 -9 -29 -9q-13 0 -25 5q-25 13 -25 48zM731 84q0 -10 3 -16q6 -14 24 -14q25 0 25 30q0 10 -3 17q-6 15 -22 15q-7 0 -15 -4q-12 -7 -12 -28z
M838 29v109h34v-19q10 21 37 21q13 0 23 -5q20 -10 20 -36v-70h-35v64q0 22 -21 22q-7 0 -13 -3q-11 -6 -11 -19v-64h-34zM967 84q0 15 7 29q16 27 54 27q20 0 33 -7q28 -16 28 -49q0 -17 -7 -30q-16 -27 -54 -27q-16 0 -33 7q-28 16 -28 50zM1002 84q0 -9 3 -18
q7 -15 23 -15q10 0 15 4q12 9 12 29q0 2 -3 17q-8 16 -24 16q-7 0 -14 -5q-12 -7 -12 -28zM1091 138h36l26 -78h1l26 78h36l-43 -109h-39zM1217 60q0 17 15 25q13 8 32 8l17 3q13 0 13 7v1q0 14 -19 14q-17 0 -22 -13l-32 3q3 10 10 17q15 15 45 15q20 0 37 -9q15 -8 15 -28
v-74h-33v16q-5 -7 -9 -9q-9 -9 -27 -9q-13 0 -21 4q-21 8 -21 29zM1250 60q0 -12 18 -12q8 0 14 3q12 5 12 18v11q-4 -2 -23 -5q-7 0 -12 -3q-9 -3 -9 -12zM1307 177q0 16 11 26.5t27 10.5t26.5 -10.5t10.5 -26.5t-10.5 -27t-26.5 -11t-27 11t-11 27zM1319 177
q0 -11 7.5 -19t18.5 -8t18.5 8t7.5 19t-7.5 18.5t-18.5 7.5t-18.5 -7.5t-7.5 -18.5zM1332 160v35h14q12 0 12 -11q0 -5 -5 -10l8 -14h-10l-6 11h-5v-11h-8zM1340 180h6q5 0 5 3t-5 3h-6v-6z" />
    <glyph glyph-name="_Designova" horiz-adv-x="1772" 
d="M884 41q-174 0 -322.5 87t-235 235.5t-86.5 323.5q1 131 52 250.5t137.5 205.5t206 137t250.5 51q175 0 323.5 -86t235.5 -234.5t87 -323.5q0 -176 -87 -324.5t-236 -235t-325 -86.5zM318 687q0 -116 45 -221.5t120.5 -181.5t181 -121t221.5 -45q154 0 285 76t207 207
t76 285q0 116 -45 221.5t-120.5 181.5t-180.5 121t-221 45t-221 -45t-181.5 -120.5t-121.5 -181t-45 -221.5zM520 800q7 0 13 -4q58 -22 115 -31q45 -5 81 3q29 4 53 14q5 0 11.5 3t8.5 4q-5 3 -22.5 11.5t-27.5 15.5t-19 17h21q39 0 86 20q85 53 158 73q37 10 66 10
q6 0 24.5 1.5t26.5 0.5q66 -4 102 -39q6 -5 33 -37v-2q-3 2 -7 2q-53 20 -95.5 4.5t-71.5 -59.5q-5 -9 -10 -20.5t-11 -25t-9 -21.5q-6 -14 -25 -59t-30 -68q-36 -74 -74 -119q-20 -27 -74 -66q-52 -38 -136 -63h-7l28 24q18 17 30 51q7 20 25 71t27 78q31 90 65 150v1
q-3 -3 -11 -13q-9 -7 -11 -16q-23 -27 -38 -65q-3 -5 -9 -5q-117 5 -204 78q-10 10 -32.5 31t-33.5 32q-12 14 -16 18z" />
    <glyph glyph-name="_Origin" horiz-adv-x="2275" 
d="M160 1055v50h1955v-50h-1955zM160 236v50h1955v-50h-1955zM238 437v177h42v-177h-42zM270 734v177h148v-32h-107v-39h97v-31h-97v-42h107v-33h-148zM308 437v177h34l89 -107v107h40v-177h-33l-88 109v-109h-42zM448 734v177h34l88 -107v107h40v-177h-33l-88 109v-109h-41
zM564 437v177h87q72 0 72 -45q0 -28 -26 -40q3 0 3 -2q28 -12 28 -42q0 -48 -71 -48h-93zM606 468h48q32 0 32 22t-32 22h-48v-44zM606 545h42q33 0 33 20q0 22 -33 22h-42v-42zM639 879v32h156v-32h-57v-145h-41v145h-58zM748 437v177h148v-33h-107v-38h96v-31h-96v-41h105
v-34h-146zM813 911h44l40 -124l42 124h38l40 -126l42 126h39l-57 -177h-45l-39 121l-41 -121h-43zM924 437v177h81q28 0 42 -6q36 -19 36 -57q0 -21 -10 -35q-15 -18 -29 -23l37 -56h-43l-35 50h-37v-50h-42zM966 520h37q38 0 38 31q0 30 -38 30h-37v-61zM1103 437v177h40
v-143h106v-34h-146zM1106 823q0 39 28 65q26 26 69 26t69 -26q28 -25 28 -65q0 -39 -28 -65q-26 -27 -68 -27q-44 0 -70 27q-28 28 -28 65zM1148 823q0 -25 15.5 -40.5t39.5 -15.5t39.5 15.5t15.5 40.5t-15.5 41.5t-39.5 16.5t-39.5 -16.5t-15.5 -41.5zM1278 437v177h41
v-177h-41zM1323 734v177h81q28 0 41 -6q36 -17 36 -57q0 -21 -10 -35q-9 -15 -29 -23l39 -56h-45l-33 50h-39v-50h-41zM1348 437v177h35l87 -107v107h42v-177h-34l-89 109v-109h-41zM1364 817h37q38 0 38 31t-38 31h-37v-62zM1501 734v177h148v-32h-107v-39h96v-31h-96v-75
h-41zM1538 461q0 24 25 24q10 0 17 -7t7 -17q0 -11 -7 -25l-14 -38h-26l12 41q-14 5 -14 22zM1665 734v177h147v-32h-106v-39h95v-31h-95v-42h106v-33h-147zM1688 437v177h80q30 0 52 -11q46 -21 46 -77q0 -28 -12 -47q-23 -42 -86 -42h-80zM1730 471h37q17 0 31 7
q26 14 26 48q0 21 -6 29q-14 26 -51 26h-37v-110zM1842 734v177h33l90 -107v107h40v-177h-34l-89 109v-109h-40zM1890 437v177h147v-33h-107v-38h97v-31h-97v-41h106v-34h-146z" />
    <glyph glyph-name="_VendorID" horiz-adv-x="1196" 
d="M113 154v1187h974v-1187h-974zM116 63q0 13 7.5 20.5t18.5 7.5q9 0 12 -3l4 -5v26h13v-72h-13v9l-4 -7q-8 -5 -15 -5q-23 0 -23 29zM130 63q0 -17 13 -17q15 0 15 17v1q0 18 -13 18q-15 0 -15 -19zM166 205h869v1084h-869v-1084zM181 63q0 13 7.5 20.5t19.5 7.5
q11 0 18.5 -7.5t7.5 -19.5q0 -2 -2 -5h-37q1 -13 13 -13q10 0 12 9h12q-4 -21 -24 -21q-27 0 -27 29zM195 67h25q-3 15 -12 15q-12 0 -13 -15zM238 52h14q3 -9 9 -9q9 0 9 7q0 3 -12 9q-18 5 -18 16q0 16 21 16t21 -16h-14q-1 7 -7 7q-7 0 -7 -6q0 -4 12 -9q17 -5 17 -15
q0 -18 -22 -18q-20 0 -23 18zM280 455q0 59 46 125l97 137h64l-84 -120q10 3 23 3q62 0 102.5 -41.5t40.5 -103.5q0 -61 -41.5 -103.5t-101.5 -42.5q-61 0 -103.5 42.5t-42.5 103.5zM280 926q0 56 46 123l97 142h64l-84 -122q7 2 23 2q63 0 103 -41t40 -104
q0 -61 -41 -102.5t-102 -41.5t-103.5 42t-42.5 102zM291 102q0 7 8 7t8 -7q0 -8 -8 -8t-8 8zM292 37v54h14v-54h-14zM316 63q0 28 26 28q9 0 12 -3l4 -5v8h14v-41q0 -8 -2 -11q0 -24 -27 -24q-26 0 -26 18v1h14v-1q0 -8 12 -8q11 0 15 13v8l-4 -7q-8 -2 -14 -2q-24 0 -24 26
zM331 64q0 -18 12 -18q15 0 15 17v1q0 18 -15 18q-12 0 -12 -18zM334 455q0 -42 25.5 -68t66.5 -26q39 0 64.5 26t25.5 68q0 40 -25.5 65t-64.5 25q-41 0 -66.5 -25t-25.5 -65zM334 926q0 -41 25.5 -67t66.5 -26q39 0 64.5 26.5t25.5 66.5t-25.5 66t-64.5 26
q-41 0 -66.5 -25t-25.5 -67zM383 37v54h14v-10l4 7q5 3 13 3q17 0 20 -15q1 -3 1 -9v-30h-15v34q0 11 -10 11q-13 0 -13 -21v-24h-14zM442 63q0 13 7.5 20.5t19.5 7.5q28 0 28 -28q0 -29 -28 -29q-12 0 -19.5 8t-7.5 21zM456 63q0 -17 13 -17q15 0 15 17q0 19 -15 19
q-13 0 -13 -19zM502 91h14l14 -45l13 45h14l-19 -54h-18zM562 52q0 16 30 16h3v7q0 7 -9 7q-11 0 -11 -9h-13q0 18 24 18q19 0 21 -15v-39h-12v6l-3 -5q-8 -4 -14 -4q-16 0 -16 18zM575 52q0 -6 8 -6q12 0 12 9v6q-20 2 -20 -9zM616 80v9h6v8q0 15 19 15h6v-11q-11 2 -11 -5
v-7h11v-9h-11v-43h-14v43h-6zM629 455q0 62 44 125l97 137h66l-86 -120q10 3 25 3q61 0 102 -41.5t41 -103.5q0 -61 -41.5 -103.5t-101.5 -42.5q-61 0 -103.5 42.5t-42.5 103.5zM629 926q0 57 44 123l97 142h66l-87 -122q8 2 26 2q61 0 102 -41.5t41 -103.5
q0 -61 -41.5 -102.5t-101.5 -41.5q-61 0 -103.5 41.5t-42.5 102.5zM651 63q0 28 28 28q27 0 27 -28q0 -29 -27 -29q-28 0 -28 29zM665 63q0 -17 14 -17q13 0 13 17q0 19 -13 19q-14 0 -14 -19zM682 455q0 -42 26 -68t67 -26q38 0 62.5 26t24.5 68q0 40 -24.5 65t-62.5 25
q-41 0 -67 -25t-26 -65zM682 926q0 -41 26 -67t67 -26q38 0 62.5 26t24.5 67q0 40 -24.5 66t-62.5 26q-41 0 -67 -25.5t-26 -66.5zM715 37v54h12v-10l6 7q4 3 13 3q16 0 19 -15v-39h-14v34q-4 11 -9 11q-15 0 -15 -21v-24h-12zM772 80v9h8v13h14v-13h10v-9h-10v-28
q2 -10 9 -6v-10h-8q-15 0 -15 10v34h-8zM808 52h15q1 -9 10 -9q8 0 8 7q0 3 -12 9q-17 5 -17 16q0 16 20 16q19 0 24 -16h-16q0 7 -9 7q-5 0 -5 -6q0 -5 11 -9q19 -6 19 -15q0 -18 -23 -18q-21 0 -25 18zM860 42q0 10 9 10t9 -10q0 -8 -9 -8t-9 8zM884 63q0 13 8 20.5
t18 7.5q25 0 25 -20h-13q-3 11 -12 11q-12 0 -12 -19q0 -17 12 -17q10 0 12 9h13q-1 -21 -25 -21q-26 0 -26 29zM940 63q0 28 29 28q26 0 26 -28q0 -29 -26 -29q-29 0 -29 29zM954 63q0 -17 15 -17q13 0 13 17q0 19 -13 19q-15 0 -15 -19zM1005 37v54h14v-9l5 6q3 3 9 3
q13 0 18 -10l5 7q3 3 11 3q17 0 17 -12q1 -4 1 -12v-30h-13v27q0 2 -0.5 5t-0.5 4q0 9 -10 9q-9 0 -9 -18v-27h-13v36q-5 9 -10 9q-10 0 -10 -18v-27h-14z" />
    </font>
</defs>
</svg>
