<?xml version="1.0" standalone="no"?>
<!DOCTYPE svg PUBLIC "-//W3C//DTD SVG 1.1//EN" "http://www.w3.org/Graphics/SVG/1.1/DTD/svg11.dtd" >
<svg xmlns="http://www.w3.org/2000/svg" xmlns:xlink="http://www.w3.org/1999/xlink" version="1.1">
<metadata>
Created by FontForge 20201107 at Tue Feb 27 18:50:35 2024
 By 
Copyright (c) 2024 by Designova. All rights reserved.
</metadata>
<defs>
<font id="RovelleUno-Thin" horiz-adv-x="1144" >
  <font-face 
    font-family="Rovelle Uno Thin"
    font-weight="100"
    font-stretch="normal"
    units-per-em="2048"
    panose-1="0 0 0 0 0 0 0 0 0 0"
    ascent="1638"
    descent="-410"
    x-height="986"
    cap-height="1394"
    bbox="-270 -463 2156 1940"
    underline-thickness="100"
    underline-position="-255"
    unicode-range="U+0020-F8FF"
  />
<missing-glyph horiz-adv-x="1297" 
d="M172 0v1380h953v-1380h-953zM286 240l296 457l-296 456v-913zM335 113h626l-313 482zM345 1268l303 -469l304 469h-607zM715 697l296 -457v913z" />
    <glyph glyph-name=".notdef" horiz-adv-x="1297" 
d="M172 0v1380h953v-1380h-953zM286 240l296 457l-296 456v-913zM335 113h626l-313 482zM345 1268l303 -469l304 469h-607zM715 697l296 -457v913z" />
    <glyph glyph-name=".null" horiz-adv-x="0" 
 />
    <glyph glyph-name="nonmarkingreturn" horiz-adv-x="682" 
 />
    <glyph glyph-name="space" unicode=" " horiz-adv-x="630" 
 />
    <glyph glyph-name="exclam" unicode="!" horiz-adv-x="480" 
d="M220 220l-8 1160h56l-8 -1160h-40zM200 12q0 16 12 28t28 12t28 -12t12 -28t-12 -28t-28 -12t-28 12t-12 28z" />
    <glyph glyph-name="quotedbl" unicode="&#x22;" horiz-adv-x="508" 
d="M310 982l-6 488h44l-6 -488h-32zM160 1470h44l-6 -488h-32z" />
    <glyph glyph-name="numbersign" unicode="#" horiz-adv-x="1040" 
d="M220 0l104 490h-224v42h234l66 316h-240v42h250l104 490h42l-104 -490h222l104 490h42l-104 -490h224v-42h-234l-66 -316h240v-42h-250l-104 -490h-42l104 490h-222l-104 -490h-42zM376 532h222l68 316h-222z" />
    <glyph glyph-name="dollar" unicode="$" horiz-adv-x="1082" 
d="M538 -28q-170 8 -287.5 106.5t-136.5 281.5h44q18 -158 120.5 -248t259.5 -98v652q-62 18 -111.5 39t-98.5 53.5t-81.5 72t-52.5 96t-20 123.5q0 155 103 252t261 106v152h44v-152q171 -6 268 -111.5t118 -268.5h-44q-20 155 -108.5 243.5t-233.5 94.5v-658
q382 -110 382 -398q0 -138 -101 -235t-281 -103v-152h-44v152zM222 1050q0 -73 23.5 -129t69.5 -94.5t98 -63.5t125 -47v650q-84 -5 -154 -40.5t-116 -107t-46 -168.5zM582 14q157 4 245.5 85t88.5 207q0 132 -84 216.5t-250 135.5v-644z" />
    <glyph glyph-name="percent" unicode="%" horiz-adv-x="1294" 
d="M174 0l894 1380h52l-894 -1380h-52zM90 1090q0 138 69.5 228t186.5 90t186.5 -90t69.5 -228q0 -136 -69.5 -227t-186.5 -91t-186.5 91t-69.5 227zM138 1090q0 -124 54.5 -200t153.5 -76t153.5 76t54.5 200q0 125 -54 200.5t-154 75.5t-154 -75.5t-54 -200.5zM692 290
q0 138 69.5 228t186.5 90t186.5 -90t69.5 -228q0 -136 -69.5 -227t-186.5 -91t-186.5 91t-69.5 227zM740 290q0 -124 54.5 -200t153.5 -76t153.5 76t54.5 200q0 125 -54 200.5t-154 75.5t-154 -75.5t-54 -200.5z" />
    <glyph glyph-name="ampersand" unicode="&#x26;" horiz-adv-x="1252" 
d="M964 168q-157 -187 -428 -207q-129 -8 -221 26q-197 70 -214 276q-11 165 111 285q75 74 223 164q-72 86 -96 118q-95 123 -104 240q-9 140 79.5 233.5t239.5 103.5q147 11 231 -57t91 -183q8 -110 -45 -191q-48 -73 -126 -133t-197 -131l-10 -6l462 -479
q122 169 138 440h38q-10 -201 -78 -350q-27 -60 -70 -119l204 -212l-27 -26zM142 266q10 -136 115.5 -207t275.5 -60q256 18 404 197l-473 489q-61 -37 -132 -87q-97 -68 -147.5 -147.5t-42.5 -184.5zM276 1073q4 -64 33 -121q16 -35 44.5 -75.5t49.5 -66.5t66 -78l18 11
q94 56 180 119q182 131 170 300q-6 102 -77.5 160.5t-203.5 49.5q-136 -9 -212 -93t-68 -206z" />
    <glyph glyph-name="quotesingle" unicode="'" horiz-adv-x="364" 
d="M166 982l-6 488h44l-6 -488h-32z" />
    <glyph glyph-name="parenleft" unicode="(" horiz-adv-x="496" 
d="M372 -160q-106 160 -169 392.5t-63 467.5t63 467.5t169 392.5h44q-109 -179 -168.5 -400.5t-59.5 -459.5t59.5 -459.5t168.5 -400.5h-44z" />
    <glyph glyph-name="parenright" unicode=")" horiz-adv-x="496" 
d="M80 -160q109 179 168.5 400.5t59.5 459.5t-59.5 459.5t-168.5 400.5h44q106 -160 169 -392.5t63 -467.5t-63 -467.5t-169 -392.5h-44z" />
    <glyph glyph-name="asterisk" unicode="*" horiz-adv-x="880" 
d="M224 200l-40 28l226 298l-320 104l14 44l318 -114l-6 388h48l-6 -388l318 114l14 -44l-320 -104l226 -298l-40 -28l-216 308z" />
    <glyph glyph-name="plus" unicode="+" horiz-adv-x="1012" 
d="M484 174v440h-378v42h378v440h44v-440h378v-42h-378v-440h-44z" />
    <glyph glyph-name="comma" unicode="," horiz-adv-x="384" 
d="M114 -232l92 280h46l2 -10l-102 -270h-38z" />
    <glyph glyph-name="hyphen" unicode="-" horiz-adv-x="640" 
d="M110 542v42h420v-42h-420z" />
    <glyph glyph-name="period" unicode="." horiz-adv-x="340" 
d="M170 -28q-16 0 -28 12t-12 28t12 28t28 12t28 -12t12 -28t-12 -28t-28 -12z" />
    <glyph glyph-name="slash" unicode="/" horiz-adv-x="674" 
d="M50 -60l502 1500h44l-502 -1500h-44z" />
    <glyph glyph-name="zero" unicode="0" horiz-adv-x="1156" 
d="M578 -28q-121 0 -210.5 52.5t-143 150t-79 225.5t-25.5 290q0 129 16 237t50.5 198t87.5 152t130 96.5t174 34.5q121 0 210.5 -52.5t143 -150t79 -225.5t25.5 -290q0 -129 -16 -237t-50.5 -198t-87.5 -152t-130 -96.5t-174 -34.5zM168 690q0 -118 13 -216.5t43.5 -185
t77 -146.5t116.5 -94t160 -34q111 0 192.5 51t128 145t68 212.5t21.5 267.5q0 118 -13 216.5t-43.5 185t-77 146.5t-116.5 94t-160 34q-111 0 -192.5 -51t-128 -145t-68 -212.5t-21.5 -267.5z" />
    <glyph glyph-name="one" unicode="1" horiz-adv-x="710" 
d="M542 0v1332l-380 -236v50l382 234h42v-1380h-44z" />
    <glyph glyph-name="two" unicode="2" horiz-adv-x="1052" 
d="M90 0v32l478 464q78 77 132.5 141.5t85.5 114t47.5 100t21.5 89t5 91.5q0 146 -89.5 240t-248.5 94q-155 0 -259.5 -101t-120.5 -269l-2 -20h-44l2 20q19 186 136.5 299t287.5 113q185 0 285.5 -106.5t100.5 -269.5q0 -139 -66 -267t-236 -291l-448 -432h814v-42h-882z
" />
    <glyph glyph-name="three" unicode="3" horiz-adv-x="1122" 
d="M564 -10q-215 0 -339.5 111.5t-124.5 292.5l40 2q0 -169 115 -268.5t309 -99.5q191 0 305.5 99t114.5 257t-114.5 257t-305.5 99q-47 0 -92 -6v38h4l-2 2l466 578h-814v42h882v-32l-476 -584h32q208 0 333 -110t125 -284t-125 -284t-333 -110z" />
    <glyph glyph-name="four" unicode="4" horiz-adv-x="1188" 
d="M830 0v338h-740v42l728 1014h52v-1018h232v-38h-232v-338h-40zM134 376h696v974z" />
    <glyph glyph-name="five" unicode="5" horiz-adv-x="1056" 
d="M508 -14q-73 0 -140 22t-125.5 66.5t-97.5 120.5t-49 175l-2 20h44l2 -20q15 -152 114 -247t256 -95q74 0 143.5 25t127 72.5t92.5 127.5t35 181q0 183 -102 292.5t-266 109.5h-28q-120 0 -209.5 -61t-130.5 -171h-50l102 790h700v-42h-662l-84 -636q113 162 330 162h36
q189 0 300.5 -125t111.5 -317q0 -138 -62 -242t-163 -156t-223 -52z" />
    <glyph glyph-name="six" unicode="6" horiz-adv-x="1086" 
d="M544 -10q-186 0 -315 127t-129 311q0 118 70 240l422 726h42l-358 -620q122 96 270 96q184 0 312 -128t128 -312q0 -185 -128 -312.5t-314 -127.5zM142 430q0 -171 116 -286.5t286 -115.5q168 0 285 117t117 287q0 168 -117 285t-285 117q-167 0 -284.5 -117t-117.5 -287
z" />
    <glyph glyph-name="seven" unicode="7" horiz-adv-x="1120" 
d="M260 0l746 1356h-956v38h990v-48l-736 -1346h-44z" />
    <glyph glyph-name="eight" unicode="8" horiz-adv-x="1104" 
d="M552 -30q-200 0 -326 100.5t-126 279.5q0 138 82 235t228 133q-115 31 -178.5 119t-63.5 213q0 153 106.5 255.5t293.5 102.5q98 0 175.5 -28t126 -77.5t73.5 -113.5t25 -139q0 -126 -69 -214.5t-189 -117.5q145 -34 219.5 -130t74.5 -238q0 -90 -36.5 -163t-99 -120
t-143.5 -72t-173 -25zM148 350q0 -86 35.5 -153t95 -106t130 -59t147.5 -20q71 0 139.5 20t128 59t96 106.5t36.5 152.5q0 157 -102.5 251.5t-293.5 94.5q-193 0 -302.5 -95.5t-109.5 -250.5zM216 1050q0 -79 30.5 -140.5t81.5 -98t112 -55t128 -18.5t128 18.5t112 55
t81.5 98t30.5 140.5q0 145 -95.5 230.5t-256.5 85.5t-256.5 -85.5t-95.5 -230.5z" />
    <glyph glyph-name="nine" unicode="9" horiz-adv-x="1086" 
d="M810 620q-126 -96 -270 -96q-183 0 -311.5 128.5t-128.5 311.5q0 186 128 313t314 127q187 0 315.5 -126.5t128.5 -311.5q0 -118 -70 -240l-422 -726h-42zM140 962q0 -168 117 -285t285 -117t285 117t117 287q0 171 -115.5 286.5t-286.5 115.5q-168 0 -285 -117
t-117 -287z" />
    <glyph glyph-name="colon" unicode=":" horiz-adv-x="380" 
d="M190 1000q-16 0 -28 12t-12 28t12 28t28 12t28 -12t12 -28t-12 -28t-28 -12zM150 12q0 16 12 28t28 12t28 -12t12 -28t-12 -28t-28 -12t-28 12t-12 28z" />
    <glyph glyph-name="semicolon" unicode=";" horiz-adv-x="448" 
d="M134 -232l92 280h46l2 -10l-102 -270h-38zM218 1040q0 16 12 28t28 12t28 -12t12 -28t-12 -28t-28 -12t-28 12t-12 28z" />
    <glyph glyph-name="less" unicode="&#x3c;" horiz-adv-x="1014" 
d="M908 120l-802 390v40l802 390v-50l-742 -360l742 -360v-50z" />
    <glyph glyph-name="equal" unicode="=" horiz-adv-x="1092" 
d="M126 794v42h840v-42h-840zM126 434v42h840v-42h-840z" />
    <glyph glyph-name="greater" unicode="&#x3e;" horiz-adv-x="1014" 
d="M106 120v50l742 360l-742 360v50l802 -390v-40z" />
    <glyph glyph-name="question" unicode="?" horiz-adv-x="1020" 
d="M458 220q1 117 16.5 185t60.5 135.5t143 163.5q88 86 129 169.5t41 178.5q0 147 -91 230.5t-243 83.5q-167 0 -264.5 -102t-109.5 -276h-44q8 187 123.5 303.5t294.5 116.5q181 0 281.5 -100.5t100.5 -255.5q0 -198 -186 -374q-134 -128 -173 -215.5t-39 -242.5h-40z
M440 12q0 16 12 28t28 12t28 -12t12 -28t-12 -28t-28 -12t-28 12t-12 28z" />
    <glyph glyph-name="at" unicode="@" horiz-adv-x="1692" 
d="M778 -208q-101 0 -196.5 26.5t-181.5 83.5t-150 137.5t-102 196t-38 252.5q0 153 47.5 288.5t128.5 235t185.5 172t221.5 108.5t235 36q192 0 341.5 -82.5t231 -231t81.5 -338.5q0 -126 -30.5 -227.5t-82.5 -166t-117.5 -98.5t-137.5 -34q-39 0 -73 9.5t-64 31t-47.5 61
t-17.5 94.5l-36 -76q-101 -136 -242 -136q-35 0 -67.5 8t-65.5 29.5t-57.5 54.5t-40 87t-15.5 123q0 140 55 261.5t153 195t216 73.5q101 0 150 -68l42 -104l32 136h50l-100 -418q-26 -116 -26 -176q0 -68 42.5 -106t115.5 -38q134 0 225 131.5t91 342.5q0 287 -170 453.5
t-448 166.5q-105 0 -212 -34t-204.5 -102.5t-174 -161.5t-122 -221.5t-45.5 -272.5q0 -157 51.5 -285t138.5 -208.5t197.5 -123.5t232.5 -43q160 0 283 38t265 136l24 -38q-159 -106 -284 -142t-288 -36zM536 444q0 -134 55 -201t151 -67q100 0 182.5 92t127.5 290l18 80
q27 119 -20 202.5t-146 83.5q-146 0 -257 -141t-111 -339z" />
    <glyph glyph-name="A" unicode="A" horiz-adv-x="1124" 
d="M50 0l486 1394h50l488 -1394h-46l-166 480h-600l-166 -480h-46zM274 518h576l-288 832z" />
    <glyph glyph-name="B" unicode="B" horiz-adv-x="1220" 
d="M180 0v1394h492q184 0 288 -90.5t104 -251.5q0 -118 -57 -201.5t-159 -118.5q133 -20 207.5 -113.5t74.5 -246.5q0 -184 -110.5 -278t-325.5 -94h-514zM220 38h474q396 0 396 334q0 157 -84 244.5t-236 87.5h-550v-666zM220 742h506q136 0 217 83.5t81 222.5
q0 146 -93 227t-259 81h-452v-614z" />
    <glyph glyph-name="C" unicode="C" horiz-adv-x="1342" 
d="M700 -12q-274 0 -442 191.5t-168 516.5q0 327 168 518.5t442 191.5h20q187 0 327.5 -91t214.5 -255l-38 -14q-68 153 -198 236.5t-306 83.5h-20q-261 0 -415.5 -181.5t-154.5 -488.5q0 -306 154.5 -487t415.5 -181h20q176 0 306 83.5t198 236.5l38 -14
q-74 -164 -214.5 -255t-327.5 -91h-20z" />
    <glyph glyph-name="D" unicode="D" horiz-adv-x="1248" 
d="M180 0v1394h278q334 0 517 -185t183 -523q0 -332 -181 -509t-521 -177h-276zM220 38h232q324 0 493 165t169 483q0 324 -171 497t-487 173h-236v-1318z" />
    <glyph glyph-name="E" unicode="E" 
d="M180 0v1394h864v-38h-824v-634h754v-38h-754v-646h824v-38h-864z" />
    <glyph glyph-name="F" unicode="F" 
d="M180 0v1394h864v-38h-824v-634h754v-38h-754v-684h-40z" />
    <glyph glyph-name="G" unicode="G" horiz-adv-x="1316" 
d="M700 -12q-274 0 -442 191.5t-168 518.5q0 325 168 516.5t442 191.5q191 0 331 -94t205 -262l-36 -14q-60 153 -189 241.5t-311 88.5q-261 0 -415.5 -181t-154.5 -487q0 -307 154.5 -488.5t415.5 -181.5q181 0 309.5 87t188.5 237v298h-498v38h536v-688h-38v264
q-74 -131 -203.5 -203.5t-294.5 -72.5z" />
    <glyph glyph-name="H" unicode="H" horiz-adv-x="1224" 
d="M180 0v1394h40v-668h782v668h42v-1394h-42v688h-782v-688h-40z" />
    <glyph glyph-name="I" unicode="I" horiz-adv-x="400" 
d="M180 0v1394h40v-1394h-40z" />
    <glyph glyph-name="J" unicode="J" horiz-adv-x="1158" 
d="M80 492v14h40q0 -135 46 -240.5t119.5 -159t162.5 -78.5t178 2t162.5 82.5t119.5 162t46 241.5v878h40v-880q0 -258 -151 -407q-119 -117 -286 -127q-165 -10 -294 90q-153 118 -178 340q-5 40 -5 82z" />
    <glyph glyph-name="K" unicode="K" horiz-adv-x="1148" 
d="M180 0v1394h40v-844l812 844h56l-568 -590l568 -804h-50l-546 776l-272 -282v-494h-40z" />
    <glyph glyph-name="L" unicode="L" horiz-adv-x="1094" 
d="M180 0v1394h40v-1356h824v-38h-864z" />
    <glyph glyph-name="M" unicode="M" horiz-adv-x="1586" 
d="M180 0v1394h66l548 -1236l548 1236h64v-1394h-40v1350h-2l-550 -1240h-42l-550 1240h-2v-1350h-40z" />
    <glyph glyph-name="N" unicode="N" horiz-adv-x="1272" 
d="M180 0v1394h56l816 -1346v1346h40v-1394h-58l-814 1342v-1342h-40z" />
    <glyph glyph-name="O" unicode="O" horiz-adv-x="1422" 
d="M700 -12q-274 0 -442 191.5t-168 516.5q0 327 168 518.5t442 191.5h20q278 0 445 -194t167 -516q0 -321 -166.5 -514.5t-445.5 -193.5h-20zM130 696q0 -306 154.5 -487t415.5 -181h20q263 0 417.5 181.5t154.5 486.5q0 307 -154.5 488.5t-417.5 181.5h-20
q-261 0 -415.5 -181.5t-154.5 -488.5z" />
    <glyph glyph-name="P" unicode="P" 
d="M180 0v1394h458q215 0 325.5 -93t110.5 -277v-2q0 -184 -110.5 -277t-325.5 -93h-418v-652h-40zM220 690h418q396 0 396 334q0 332 -396 332h-418v-666z" />
    <glyph glyph-name="Q" unicode="Q" horiz-adv-x="1406" 
d="M700 -12q-274 0 -442 191.5t-168 516.5q0 327 168 518.5t442 191.5h20q278 0 445 -194t167 -516q0 -320 -164 -512l160 -158l-26 -26l-158 158q-164 -170 -424 -170h-20zM130 696q0 -306 154.5 -487t415.5 -181h20q243 0 396 156l-308 306l26 28l306 -306
q152 180 152 484q0 307 -154.5 488.5t-417.5 181.5h-20q-261 0 -415.5 -181.5t-154.5 -488.5z" />
    <glyph glyph-name="R" unicode="R" horiz-adv-x="1154" 
d="M180 0v1394h458q215 0 325.5 -93t110.5 -277v-2q0 -173 -98.5 -266t-289.5 -102l374 -654h-46l-374 652h-420v-652h-40zM220 690h418q396 0 396 334q0 332 -396 332h-418v-666z" />
    <glyph glyph-name="S" unicode="S" 
d="M592 -28q-125 0 -228 40.5t-175 130t-85 217.5h44q19 -163 144.5 -254.5t301.5 -91.5q171 0 284.5 89t113.5 227q0 143 -88.5 216t-309.5 136q-117 33 -192.5 65t-130.5 76.5t-79 102t-24 136.5q0 98 59 178t156 124t211 44q184 0 292.5 -107.5t129.5 -272.5h-44
q-27 157 -130 247.5t-250 90.5q-54 0 -107 -12t-101.5 -37t-86 -59.5t-59.5 -84.5t-22 -107q0 -59 16 -104t44 -78t80 -61t110 -49.5t148 -47.5q113 -32 188.5 -65.5t131 -79.5t81 -106.5t25.5 -140.5q0 -154 -127.5 -258t-320.5 -104z" />
    <glyph glyph-name="T" unicode="T" horiz-adv-x="1194" 
d="M576 0v1356h-526v38h1094v-38h-526v-1356h-42z" />
    <glyph glyph-name="U" unicode="U" horiz-adv-x="1242" 
d="M164 492v902h40v-888q0 -135 46 -240.5t119.5 -159t162.5 -78.5t178 2t162.5 82.5t119.5 162t46 241.5v878h40v-880q0 -258 -151 -407q-119 -117 -286 -127q-165 -10 -294 90q-153 118 -178 340q-5 40 -5 82z" />
    <glyph glyph-name="V" unicode="V" horiz-adv-x="1220" 
d="M588 0l-548 1394h44l526 -1348l526 1348h44l-546 -1394h-46z" />
    <glyph glyph-name="W" unicode="W" horiz-adv-x="1766" 
d="M428 0l-388 1394h44l372 -1342l404 1272h46l406 -1272l372 1342h42l-388 -1394h-52l-402 1264l-404 -1264h-52z" />
    <glyph glyph-name="X" unicode="X" horiz-adv-x="1180" 
d="M60 0l502 708l-488 686h50l464 -654l468 654h48l-488 -686l504 -708h-50l-482 674l-480 -674h-48z" />
    <glyph glyph-name="Y" unicode="Y" horiz-adv-x="1092" 
d="M526 0l-4 412l-492 982h48l464 -938l472 938h48l-500 -982l4 -412h-40z" />
    <glyph glyph-name="Z" unicode="Z" horiz-adv-x="1064" 
d="M76 0v48l870 1308h-870v38h912v-46l-872 -1310h872v-38h-912z" />
    <glyph glyph-name="bracketleft" unicode="[" horiz-adv-x="526" 
d="M180 -160v1720h306v-42h-262v-1636h262v-42h-306z" />
    <glyph glyph-name="backslash" unicode="\" horiz-adv-x="674" 
d="M580 -60l-502 1500h44l502 -1500h-44z" />
    <glyph glyph-name="bracketright" unicode="]" horiz-adv-x="526" 
d="M40 -160v42h262v1636h-262v42h306v-1720h-306z" />
    <glyph glyph-name="asciicircum" unicode="^" horiz-adv-x="1058" 
d="M160 430l344 802h54l340 -802h-50l-318 760l-322 -760h-48z" />
    <glyph glyph-name="underscore" unicode="_" horiz-adv-x="920" 
d="M60 -160v42h800v-42h-800z" />
    <glyph glyph-name="grave" unicode="`" horiz-adv-x="824" 
d="M364 1610l-138 220h56l120 -220h-38z" />
    <glyph glyph-name="a" unicode="a" horiz-adv-x="1076" 
d="M454 -10q-156 0 -245 75.5t-89 206.5q0 139 98 210q51 37 118.5 51t175.5 19l372 16v40q0 171 -98.5 261.5t-265.5 90.5q-108 0 -187.5 -41.5t-146.5 -134.5l-30 24q73 100 159 144t205 44q184 0 294 -100.5t110 -287.5v-608h-40v264q-41 -122 -164.5 -198t-265.5 -76z
M160 272q0 -113 80 -180.5t218 -67.5q108 0 205.5 53t159 148.5t61.5 208.5v100l-368 -16q-196 -7 -270 -62q-86 -64 -86 -184z" />
    <glyph glyph-name="b" unicode="b" horiz-adv-x="1192" 
d="M624 -10q-143 0 -254.5 83.5t-157.5 226.5v-300h-40v1394h40v-712q45 146 156 230t256 84h28q194 0 322 -142.5t128 -359.5t-128 -360.5t-322 -143.5h-28zM210 494q0 -201 116 -333.5t294 -132.5h28q180 0 297 132.5t117 333.5t-117 332.5t-297 131.5h-28
q-179 0 -294.5 -131t-115.5 -333z" />
    <glyph glyph-name="c" unicode="c" horiz-adv-x="1036" 
d="M542 -10q-200 0 -326 140.5t-126 363.5q0 224 125 363t327 139h20q127 0 226.5 -57.5t157.5 -160.5l-38 -16q-53 94 -142.5 146t-203.5 52h-20q-184 0 -298 -129.5t-114 -336.5q0 -208 114 -338t298 -130h20q115 0 205 52.5t143 147.5l36 -16q-59 -104 -158.5 -162
t-225.5 -58h-20z" />
    <glyph glyph-name="d" unicode="d" horiz-adv-x="1192" 
d="M540 -10q-194 0 -322 143.5t-128 360.5t128 359.5t322 142.5h28q145 0 256 -84t156 -230v712h40v-1394h-40v300q-46 -143 -157.5 -226.5t-254.5 -83.5h-28zM130 494q0 -201 117 -333.5t297 -132.5h28q178 0 294 132.5t116 333.5q0 202 -115.5 333t-294.5 131h-28
q-180 0 -297 -131.5t-117 -332.5z" />
    <glyph glyph-name="e" unicode="e" horiz-adv-x="1062" 
d="M542 -10q-200 0 -326 140.5t-126 363.5q0 121 38 219t100 158t141 92.5t162 32.5t162 -32.5t141 -92.5t100 -158t38 -219h-842q0 -208 114 -338t298 -130h20q115 0 205 52.5t143 147.5l36 -16q-59 -104 -158.5 -162t-225.5 -58h-20zM130 526h802q-5 105 -41 189
t-91.5 136t-126 80t-142.5 28t-142.5 -28t-126 -80t-91.5 -136.5t-41 -188.5z" />
    <glyph glyph-name="f" unicode="f" horiz-adv-x="752" 
d="M318 0v952h-258v34h258v168q0 125 58.5 187.5t167.5 62.5h14q84 0 144 -34l-14 -30q-59 28 -128 28h-14q-91 0 -139.5 -53.5t-48.5 -160.5v-168h260v-34h-260v-952h-40z" />
    <glyph glyph-name="g" unicode="g" horiz-adv-x="1191" 
d="M558 -414q-164 0 -274 87t-140 241h40q30 -137 128 -212.5t246 -75.5h30q187 0 289.5 124t102.5 360v188q-46 -143 -157.5 -226.5t-254.5 -83.5h-10q-196 0 -332 144.5t-136 359.5q0 217 128 359.5t322 142.5h28q145 0 256 -84t156 -230v308h40v-890q0 -246 -116 -379
t-316 -133h-30zM130 492q0 -201 117 -333.5t297 -132.5h28q167 0 280 116.5t128 299.5v100q-15 183 -128 298.5t-280 115.5h-28q-180 0 -297 -131.5t-117 -332.5z" />
    <glyph glyph-name="h" unicode="h" horiz-adv-x="1108" 
d="M172 0v1394h40v-648q37 126 126 188t244 62q193 0 283.5 -100t90.5 -302v-594h-40v584q0 193 -79 284.5t-255 91.5q-370 0 -370 -478v-482h-40z" />
    <glyph glyph-name="i" unicode="i" horiz-adv-x="380" 
d="M172 0v986h40v-986h-40zM150 1267q0 17 12 28.5t28 11.5t28 -11.5t12 -28.5t-12 -28.5t-28 -11.5t-28 11.5t-12 28.5z" />
    <glyph glyph-name="j" unicode="j" horiz-adv-x="396" 
d="M-14 -418q-84 0 -144 34l14 30q59 -28 128 -28h14q91 0 139.5 53.5t48.5 160.5v1154h40v-1154q0 -125 -58.5 -187.5t-167.5 -62.5h-14zM166 1267q0 17 12 28.5t28 11.5t28 -11.5t12 -28.5t-12 -28.5t-28 -11.5t-28 11.5t-12 28.5z" />
    <glyph glyph-name="k" unicode="k" horiz-adv-x="952" 
d="M172 0v1394h40v-1004l578 596h54l-348 -358l396 -628h-48l-376 600l-256 -264v-336h-40z" />
    <glyph glyph-name="l" unicode="l" horiz-adv-x="388" 
d="M318 -10q-146 0 -146 196v1208h40v-1204q0 -153 104 -162z" />
    <glyph glyph-name="m" unicode="m" horiz-adv-x="1590" 
d="M172 0v986h40v-230q34 119 113.5 179.5t190.5 60.5q244 0 296 -260q38 128 118 194t198 66q310 0 310 -430v-566h-42v560q0 120 -24 210q-54 190 -252 190q-79 0 -146 -44q-70 -47 -110 -142.5t-40 -235.5v-538h-40v584q0 192 -68 284t-206 92q-75 0 -146 -46
q-150 -107 -150 -416v-498h-42z" />
    <glyph glyph-name="n" unicode="n" horiz-adv-x="1108" 
d="M172 0v986h40v-240q37 126 126 188t244 62q193 0 283.5 -100t90.5 -302v-594h-40v584q0 193 -79 284.5t-255 91.5q-370 0 -370 -478v-482h-40z" />
    <glyph glyph-name="o" unicode="o" horiz-adv-x="1104" 
d="M542 -10q-200 0 -326 140.5t-126 363.5q0 224 125 363t327 139h20q202 0 327 -139t125 -363t-125.5 -364t-326.5 -140h-20zM130 494q0 -208 114 -338t298 -130h20q185 0 298.5 130t113.5 338q0 207 -114 336.5t-298 129.5h-20q-184 0 -298 -129.5t-114 -336.5z" />
    <glyph glyph-name="p" unicode="p" horiz-adv-x="1192" 
d="M172 -408v1394h40v-300q46 143 157.5 226.5t254.5 83.5h28q194 0 322 -143.5t128 -360.5t-128 -359.5t-322 -142.5h-28q-145 0 -256 84t-156 230v-712h-40zM210 492q0 -202 115.5 -333t294.5 -131h28q180 0 297 131.5t117 332.5t-117 333.5t-297 132.5h-28
q-178 0 -294 -132.5t-116 -333.5z" />
    <glyph glyph-name="q" unicode="q" horiz-adv-x="1192" 
d="M980 304q-45 -146 -156 -230t-256 -84h-28q-194 0 -322 142.5t-128 359.5t128 360.5t322 143.5h28q143 0 254.5 -83.5t157.5 -226.5v300h40v-1394h-40v712zM130 492q0 -201 117 -332.5t297 -131.5h28q179 0 294.5 131t115.5 333q0 201 -116 333.5t-294 132.5h-28
q-180 0 -297 -132.5t-117 -333.5z" />
    <glyph glyph-name="r" unicode="r" horiz-adv-x="800" 
d="M172 0v986h40v-240q37 126 126 188t244 62q74 0 138 -16l-8 -36q-61 16 -130 16q-370 0 -370 -478v-482h-40z" />
    <glyph glyph-name="s" unicode="s" horiz-adv-x="966" 
d="M496 -14q-157 0 -264 76t-126 230h44q46 -268 350 -268q131 0 217.5 55.5t86.5 154.5q0 98 -72.5 149.5t-263.5 90.5q-68 14 -119.5 32.5t-97.5 47.5t-70.5 73.5t-24.5 102.5q0 110 92.5 183t235.5 73q155 0 244 -78.5t112 -205.5h-44q-33 125 -109.5 185.5t-204.5 60.5
q-116 0 -198 -58.5t-82 -157.5q0 -39 14 -71t38 -54.5t61.5 -41t78 -30.5t94.5 -23q190 -39 276 -100.5t86 -175.5q0 -113 -99 -181.5t-255 -68.5z" />
    <glyph glyph-name="t" unicode="t" horiz-adv-x="654" 
d="M530 -12q-109 0 -167.5 62.5t-58.5 187.5v714h-244v34h244v406h40v-406h250v-34h-250v-714q0 -107 48.5 -160.5t139.5 -53.5h14q20 0 48 4v-36q-32 -4 -50 -4h-14z" />
    <glyph glyph-name="u" unicode="u" horiz-adv-x="1088" 
d="M526 -10q-193 0 -283.5 100t-90.5 302v594h40v-584q0 -193 79 -284.5t255 -91.5q370 0 370 478v482h40v-986h-40v240q-37 -126 -126 -188t-244 -62z" />
    <glyph glyph-name="v" unicode="v" horiz-adv-x="970" 
d="M464 0l-404 986h46l378 -940l378 940h48l-404 -986h-42z" />
    <glyph glyph-name="w" unicode="w" horiz-adv-x="1452" 
d="M348 0l-274 986h44l256 -932l330 932h48l328 -930l256 930h42l-272 -986h-50l-328 938l-332 -938h-48z" />
    <glyph glyph-name="x" unicode="x" horiz-adv-x="916" 
d="M50 0l382 492l-382 494h50l358 -462l356 462h50l-382 -494l384 -492h-50l-358 462l-356 -462h-52z" />
    <glyph glyph-name="y" unicode="y" horiz-adv-x="972" 
d="M200 -364q99 -35 158 110l106 258l-404 982h46l378 -936l384 936h44l-518 -1258q-40 -95 -91 -125.5t-119 -0.5z" />
    <glyph glyph-name="z" unicode="z" horiz-adv-x="926" 
d="M76 0v44l734 902l2 4h-736v36h774v-50l-728 -900h728v-36h-774z" />
    <glyph glyph-name="braceleft" unicode="{" horiz-adv-x="562" 
d="M488 -160q-258 0 -258 222q0 59 22 208q20 145 20 220q0 74 -39 127t-123 61v44q84 8 123 61t39 127q0 75 -20 220q-22 149 -22 208q0 222 258 222h34v-42h-36q-101 0 -156.5 -41t-55.5 -137q0 -36 20 -190q22 -161 22 -240q0 -71 -34 -130t-114 -78q55 -14 90 -52
t46.5 -77.5t11.5 -82.5q0 -79 -22 -240q-20 -154 -20 -190q0 -96 55.5 -137t156.5 -41h36v-42h-34z" />
    <glyph glyph-name="bar" unicode="|" horiz-adv-x="484" 
d="M220 -400v2000h44v-2000h-44z" />
    <glyph glyph-name="braceright" unicode="}" horiz-adv-x="562" 
d="M40 -160v42h36q101 0 156.5 41t55.5 137q0 36 -20 190q-22 161 -22 240q0 71 34 130t114 78q-55 14 -90 52t-46.5 77.5t-11.5 82.5q0 79 22 240q20 154 20 190q0 96 -55.5 137t-156.5 41h-36v42h34q258 0 258 -222q0 -59 -22 -208q-20 -145 -20 -220q0 -74 39 -127
t123 -61v-44q-84 -8 -123 -61t-39 -127q0 -75 20 -220q22 -149 22 -208q0 -222 -258 -222h-34z" />
    <glyph glyph-name="asciitilde" unicode="~" horiz-adv-x="1108" 
d="M136 458q0 234 172 234q57 0 105 -17.5t155 -76.5q99 -55 144.5 -72.5t89.5 -17.5q130 0 130 192h42q0 -234 -174 -234q-56 0 -103.5 17t-154.5 77q-97 54 -143.5 72t-92.5 18q-128 0 -128 -192h-42z" />
    <glyph glyph-name="uni00A0" unicode="&#xa0;" horiz-adv-x="600" 
 />
    <glyph glyph-name="exclamdown" unicode="&#xa1;" horiz-adv-x="480" 
d="M212 -320l8 1160h40l8 -1160h-56zM200 1048q0 16 12 28t28 12t28 -12t12 -28t-12 -28t-28 -12t-28 12t-12 28z" />
    <glyph glyph-name="cent" unicode="&#xa2;" horiz-adv-x="1102" 
d="M544 -28q-192 9 -318 159.5t-126 398.5q0 237 127 389t317 167v154h44v-152q166 -1 278.5 -99t135.5 -255h-44q-26 144 -121.5 227.5t-248.5 86.5v-1036q135 6 234.5 85.5t127.5 216.5h44q-30 -152 -140 -244t-266 -98v-152h-44v152zM148 540q0 -124 33 -224t89.5 -163.5
t126 -99.5t147.5 -41v1034q-73 -7 -142 -42.5t-126.5 -96.5t-92.5 -156.5t-35 -210.5z" />
    <glyph glyph-name="sterling" unicode="&#xa3;" horiz-adv-x="1018" 
d="M80 40q61 17 114.5 47.5t99 75t72 108.5t26.5 139q0 72 -25 139.5t-79 154.5h-190v42h164q-94 153 -94 302q0 159 106.5 259.5t265.5 100.5q179 0 271 -106t105 -286h-44q-11 169 -96 259.5t-240 90.5q-132 0 -226 -88t-94 -228q0 -76 24.5 -147t75.5 -157h470v-42h-444
q98 -151 98 -294q0 -120 -66 -215t-192 -153h736v-42h-838v40z" />
    <glyph glyph-name="currency" unicode="&#xa4;" horiz-adv-x="1168" 
d="M236 214l-32 32l114 114q-86 99 -86 242t86 242l-114 114l32 32l114 -114q99 86 234 86t234 -86l114 114l32 -32l-114 -114q86 -99 86 -242t-86 -242l114 -114l-32 -32l-114 114q-99 -86 -234 -86t-234 86zM280 602q0 -136 86 -227t218 -91t218 91t86 227t-86 227
t-218 91t-218 -91t-86 -227z" />
    <glyph glyph-name="yen" unicode="&#xa5;" horiz-adv-x="1112" 
d="M536 0v442h-368v42h368v158h-368v42h344l-442 696h60l428 -690l428 690h56l-440 -696h346v-42h-368v-158h368v-42h-368v-442h-44z" />
    <glyph glyph-name="brokenbar" unicode="&#xa6;" horiz-adv-x="484" 
d="M220 700v680h44v-680h-44zM220 -320v680h44v-680h-44z" />
    <glyph glyph-name="section" unicode="&#xa7;" horiz-adv-x="1140" 
d="M560 -348q-318 0 -390 330h44q73 -288 350 -288q129 0 217.5 61.5t88.5 166.5q0 79 -31.5 131.5t-116.5 95t-238 75.5q-67 14 -128 40.5t-115.5 66t-87.5 98t-33 127.5q0 130 81 206.5t209 101.5q-190 82 -190 260q0 129 90.5 206.5t235.5 77.5q155 0 244 -84t116 -226
h-44q-35 136 -112.5 202t-205.5 66q-116 0 -196 -62t-80 -174q0 -214 336 -274q194 -35 305 -118t111 -220q0 -132 -87 -210.5t-223 -99.5q110 -46 159 -114t49 -168q0 -124 -100.5 -199t-257.5 -75zM168 562q0 -58 28.5 -109t77 -86.5t106.5 -60.5t124 -38q65 -11 124 -30
q51 1 99 11t93 31.5t78.5 53t53.5 78t20 102.5q0 117 -97.5 188t-292.5 110q-34 6 -106 26q-58 -6 -109 -22.5t-97.5 -47t-74 -83.5t-27.5 -123z" />
    <glyph glyph-name="dieresis" unicode="&#xa8;" horiz-adv-x="700" 
d="M185 1716q0 16 11.5 28t28.5 12t28.5 -12t11.5 -28t-11.5 -28t-28.5 -12t-28.5 12t-11.5 28zM437 1716q0 16 11.5 28t28.5 12t28.5 -12t11.5 -28t-11.5 -28t-28.5 -12t-28.5 12t-11.5 28z" />
    <glyph glyph-name="copyright" unicode="&#xa9;" horiz-adv-x="1692" 
d="M846 -32q-150 0 -284.5 58t-231 157t-153.5 236.5t-57 290.5t57 290.5t153.5 236.5t231 157t284.5 58t284.5 -58t231 -157t153.5 -236.5t57 -290.5t-57 -290.5t-153.5 -236.5t-231 -157t-284.5 -58zM164 710q0 -143 53.5 -272t144.5 -222t217.5 -147.5t266.5 -54.5
t266.5 54.5t217.5 147.5t144.5 222t53.5 272t-53.5 272.5t-144.5 222.5t-217.5 148t-266.5 55t-266.5 -55t-217.5 -148t-144.5 -222.5t-53.5 -272.5zM494 710q0 190 103 304t255 114q131 0 220 -71t106 -205h-44q-22 110 -93 172t-189 62q-95 0 -167.5 -53t-109.5 -137.5
t-37 -183.5q0 -159 86 -265.5t220 -106.5q237 0 288 232h44q-26 -135 -114.5 -204.5t-223.5 -69.5q-143 0 -243.5 113t-100.5 299z" />
    <glyph glyph-name="ordfeminine" unicode="&#xaa;" horiz-adv-x="756" 
d="M306 701q-108 0 -169 52t-61 143q0 96 67 145q35 25 81.5 34t122.5 13l256 12v28q0 118 -68 180.5t-183 62.5q-74 0 -129 -28.5t-102 -93.5l-20 16q50 69 109 99.5t142 30.5q127 0 202.5 -69t75.5 -198v-420h-27v182q-29 -84 -114 -136.5t-183 -52.5zM103 896
q0 -79 55 -125.5t151 -46.5q114 0 204 83t90 201v69l-254 -12q-134 -3 -187 -43q-59 -43 -59 -126z" />
    <glyph glyph-name="guillemotleft" unicode="&#xab;" horiz-adv-x="1084" 
d="M832 164l-274 332l274 332h58l-274 -332l274 -332h-58zM318 496l274 332h58l-274 -332l274 -332h-58z" />
    <glyph glyph-name="logicalnot" unicode="&#xac;" horiz-adv-x="978" 
d="M764 420v268h-658v42h702v-310h-44z" />
    <glyph glyph-name="registered" unicode="&#xae;" horiz-adv-x="1000" 
d="M500 688q-185 0 -302.5 118t-117.5 304q0 183 118 300.5t302 117.5t302 -117.5t118 -300.5q0 -186 -117.5 -304t-302.5 -118zM126 1110q0 -167 104.5 -273.5t269.5 -106.5t269.5 106.5t104.5 273.5q0 165 -104.5 270.5t-269.5 105.5t-269.5 -105.5t-104.5 -270.5z
M368 900v402h138q64 0 98 -29t34 -85q0 -96 -94 -112l102 -176h-50l-100 174h-86v-174h-42zM410 1116h96q48 0 69 16.5t21 55.5q0 38 -21 55t-69 17h-96v-144z" />
    <glyph glyph-name="macron" unicode="&#xaf;" horiz-adv-x="676" 
d="M198 1690v42h280v-42h-280z" />
    <glyph glyph-name="degree" unicode="&#xb0;" horiz-adv-x="668" 
d="M334 1004q-89 0 -146.5 57t-57.5 145t57.5 145t146.5 57t146.5 -57t57.5 -145t-57.5 -145t-146.5 -57zM176 1206q0 -72 43.5 -116t114.5 -44t114.5 44t43.5 116t-43.5 116t-114.5 44t-114.5 -44t-43.5 -116z" />
    <glyph glyph-name="plusminus" unicode="&#xb1;" horiz-adv-x="1012" 
d="M484 194v420h-378v42h378v420h44v-420h378v-42h-378v-420h-44zM106 0v42h800v-42h-800z" />
    <glyph glyph-name="uni00B2" unicode="&#xb2;" horiz-adv-x="868" 
d="M168 976v18l300 274q81 74 122.5 131.5t51.5 94.5t10 90q0 87 -56.5 142.5t-155.5 55.5q-98 0 -164 -59.5t-76 -158.5v-14h-28l2 14q12 109 85.5 175.5t180.5 66.5q116 0 179 -63t63 -159q0 -80 -41.5 -155.5t-148.5 -172.5l-282 -256h512v-24h-554z" />
    <glyph glyph-name="uni00B3" unicode="&#xb3;" horiz-adv-x="866" 
d="M426 968q-127 0 -201.5 68t-74.5 176h22q0 -101 68.5 -160.5t185.5 -59.5t186.5 59t69.5 155q0 92 -69.5 149t-186.5 57q-32 0 -54 -2v28l280 342h-486v26h526v-22l-284 -344h18q123 0 198.5 -66.5t75.5 -167.5q0 -106 -75 -172t-199 -66z" />
    <glyph glyph-name="acute" unicode="&#xb4;" horiz-adv-x="824" 
d="M422 1610l120 220h56l-138 -220h-38z" />
    <glyph glyph-name="paragraph" unicode="&#xb6;" horiz-adv-x="1106" 
d="M542 -220v860h-46q-78 0 -112 2q-147 9 -230.5 114t-83.5 254t83.5 254t230.5 114q34 2 112 2h390v-1600h-44v1558h-256v-1558h-44z" />
    <glyph glyph-name="periodcentered" unicode="&#xb7;" horiz-adv-x="388" 
d="M194 566q-20 0 -32 12t-12 32t12 32t32 12t32 -12t12 -32t-12 -32t-32 -12z" />
    <glyph glyph-name="cedilla" unicode="&#xb8;" horiz-adv-x="868" 
d="M371 -457q-66 0 -106 20v44q41 -22 106 -22q70 0 113 31.5t43 90.5q0 127 -196 118l95 189h50l-79 -153q176 -16 176 -154q0 -81 -60 -122.5t-142 -41.5z" />
    <glyph glyph-name="uni00B9" unicode="&#xb9;" horiz-adv-x="534" 
d="M302 986v784l-216 -134v36l216 132h32v-818h-32z" />
    <glyph glyph-name="ordmasculine" unicode="&#xba;" horiz-adv-x="788" 
d="M388 713q-138 0 -225 96.5t-87 250.5q0 153 86 249t226 96h12q140 0 226 -96t86 -249q0 -154 -86.5 -250.5t-225.5 -96.5h-12zM104 1060q0 -143 78.5 -232t205.5 -89h12q128 0 206 89t78 232t-78.5 231t-205.5 88h-12q-127 0 -205.5 -88t-78.5 -231z" />
    <glyph glyph-name="guillemotright" unicode="&#xbb;" horiz-adv-x="1084" 
d="M434 164l274 332l-274 332h58l274 -332l-274 -332h-58zM194 164l274 332l-274 332h58l274 -332l-274 -332h-58z" />
    <glyph glyph-name="questiondown" unicode="&#xbf;" horiz-adv-x="1020" 
d="M506 -358q-181 0 -281.5 100.5t-100.5 255.5q0 198 186 374q134 128 173 215.5t39 242.5h40q-1 -117 -16.5 -185t-60.5 -135.5t-143 -163.5q-88 -86 -129 -169.5t-41 -178.5q0 -147 91 -230.5t243 -83.5q167 0 264.5 102t109.5 276h44q-8 -187 -123.5 -303.5
t-294.5 -116.5zM500 1038q0 16 12 28t28 12t28 -12t12 -28t-12 -28t-28 -12t-28 12t-12 28z" />
    <glyph glyph-name="Agrave" unicode="&#xc0;" horiz-adv-x="1124" 
d="M50 0l486 1394h50l488 -1394h-46l-166 480h-600l-166 -480h-46zM274 518h576l-288 832zM419 1810h56l106 -188h-38z" />
    <glyph glyph-name="Aacute" unicode="&#xc1;" horiz-adv-x="1124" 
d="M50 0l486 1394h50l488 -1394h-46l-166 480h-600l-166 -480h-46zM274 518h576l-288 832zM539 1622l106 188h56l-124 -188h-38z" />
    <glyph glyph-name="Acircumflex" unicode="&#xc2;" horiz-adv-x="1124" 
d="M50 0l486 1394h50l488 -1394h-46l-166 480h-600l-166 -480h-46zM274 518h576l-288 832zM411 1622l130 188h46l130 -188h-48l-106 160l-106 -160h-46z" />
    <glyph glyph-name="Atilde" unicode="&#xc3;" horiz-adv-x="1124" 
d="M50 0l486 1394h50l488 -1394h-46l-166 480h-600l-166 -480h-46zM274 518h576l-288 832zM387 1680q0 82 72 82q36 0 114 -26q72 -24 94 -24q32 0 32 42h40q0 -82 -72 -82q-36 0 -114 26q-72 24 -94 24q-32 0 -32 -42h-40z" />
    <glyph glyph-name="Adieresis" unicode="&#xc4;" horiz-adv-x="1124" 
d="M50 0l486 1394h50l488 -1394h-46l-166 480h-600l-166 -480h-46zM274 518h576l-288 832zM402 1716q0 16 12 28t28 12t28 -12t12 -28t-12 -28t-28 -12t-28 12t-12 28zM654 1716q0 16 12 28t28 12t28 -12t12 -28t-12 -28t-28 -12t-28 12t-12 28z" />
    <glyph glyph-name="Aring" unicode="&#xc5;" horiz-adv-x="1124" 
d="M50 0l486 1394h50l488 -1394h-46l-166 480h-600l-166 -480h-46zM274 518h576l-288 832zM437 1716q0 55 36.5 88.5t89.5 33.5t89.5 -33.5t36.5 -88.5t-36.5 -88.5t-89.5 -33.5t-89.5 33.5t-36.5 88.5zM485 1716q0 -34 21 -57t57 -23t57 23t21 57t-21 57t-57 23t-57 -23
t-21 -57z" />
    <glyph glyph-name="AE" unicode="&#xc6;" horiz-adv-x="1645" 
d="M36 0l486 1394h1023v-38h-824v-634h754v-38h-754v-646h824v-38h-864v480h-433l-166 -480h-46zM260 518h421v832h-133z" />
    <glyph glyph-name="Ccedilla" unicode="&#xc7;" horiz-adv-x="1342" 
d="M656 -452q-66 0 -106 20v44q41 -22 106 -22q70 0 113 31.5t43 90.5q0 127 -196 118l76 158q-271 3 -436.5 194t-165.5 514q0 327 168 518.5t442 191.5h20q187 0 327.5 -91t214.5 -255l-38 -14q-68 153 -198 236.5t-306 83.5h-20q-261 0 -415.5 -181.5t-154.5 -488.5
q0 -306 154.5 -487t415.5 -181h20q176 0 306 83.5t198 236.5l38 -14q-72 -159 -206.5 -250t-314.5 -96l-59 -122q176 -16 176 -154q0 -81 -60 -122.5t-142 -41.5z" />
    <glyph glyph-name="Egrave" unicode="&#xc8;" 
d="M180 0v1394h864v-38h-824v-634h754v-38h-754v-646h824v-38h-864zM433 1810h56l106 -188h-38z" />
    <glyph glyph-name="Eacute" unicode="&#xc9;" 
d="M180 0v1394h864v-38h-824v-634h754v-38h-754v-646h824v-38h-864zM553 1622l106 188h56l-124 -188h-38z" />
    <glyph glyph-name="Ecircumflex" unicode="&#xca;" 
d="M180 0v1394h864v-38h-824v-634h754v-38h-754v-646h824v-38h-864zM425 1622l130 188h46l130 -188h-48l-106 160l-106 -160h-46z" />
    <glyph glyph-name="Edieresis" unicode="&#xcb;" 
d="M180 0v1394h864v-38h-824v-634h754v-38h-754v-646h824v-38h-864zM412 1716q0 16 12 28t28 12t28 -12t12 -28t-12 -28t-28 -12t-28 12t-12 28zM664 1716q0 16 12 28t28 12t28 -12t12 -28t-12 -28t-28 -12t-28 12t-12 28z" />
    <glyph glyph-name="Igrave" unicode="&#xcc;" horiz-adv-x="242" 
d="M36 0v1394h40v-1394h-40zM-88 1810h56l106 -188h-38z" />
    <glyph glyph-name="Iacute" unicode="&#xcd;" horiz-adv-x="240" 
d="M170 0v1394h40v-1394h-40zM166 1622l106 188h56l-124 -188h-38z" />
    <glyph glyph-name="Icircumflex" unicode="&#xce;" horiz-adv-x="120" 
d="M-92 1622l130 188h46l130 -188h-48l-106 160l-106 -160h-46zM40 0v1394h40v-1394h-40z" />
    <glyph glyph-name="Idieresis" unicode="&#xcf;" horiz-adv-x="200" 
d="M80 0v1394h40v-1394h-40zM-65 1716q0 16 11.5 28t28.5 12t28.5 -12t11.5 -28t-11.5 -28t-28.5 -12t-28.5 12t-11.5 28zM187 1716q0 16 11.5 28t28.5 12t28.5 -12t11.5 -28t-11.5 -28t-28.5 -12t-28.5 12t-11.5 28z" />
    <glyph glyph-name="Eth" unicode="&#xd0;" horiz-adv-x="1238" 
d="M170 0v646h-110v42h110v706h278q334 0 517 -185t183 -523q0 -332 -181 -509t-521 -177h-276zM210 38h232q324 0 493 165t169 483q0 324 -171 497t-487 173h-236v-668h382v-42h-382v-608z" />
    <glyph glyph-name="Ntilde" unicode="&#xd1;" horiz-adv-x="1272" 
d="M180 0v1394h56l816 -1346v1346h40v-1394h-58l-814 1342v-1342h-40zM460 1680q0 82 72 82q36 0 114 -26q72 -24 94 -24q32 0 32 42h40q0 -82 -72 -82q-36 0 -114 26q-72 24 -94 24q-32 0 -32 -42h-40z" />
    <glyph glyph-name="Ograve" unicode="&#xd2;" horiz-adv-x="1422" 
d="M700 -18q-274 0 -442 191.5t-168 516.5q0 327 168 518.5t442 191.5h20q278 0 445 -194t167 -516q0 -321 -166.5 -514.5t-445.5 -193.5h-20zM130 690q0 -306 154.5 -487t415.5 -181h20q263 0 417.5 181.5t154.5 486.5q0 307 -154.5 488.5t-417.5 181.5h-20
q-261 0 -415.5 -181.5t-154.5 -488.5zM572 1810h56l106 -188h-38z" />
    <glyph glyph-name="Oacute" unicode="&#xd3;" horiz-adv-x="1422" 
d="M700 -18q-274 0 -442 191.5t-168 516.5q0 327 168 518.5t442 191.5h20q278 0 445 -194t167 -516q0 -321 -166.5 -514.5t-445.5 -193.5h-20zM130 690q0 -306 154.5 -487t415.5 -181h20q263 0 417.5 181.5t154.5 486.5q0 307 -154.5 488.5t-417.5 181.5h-20
q-261 0 -415.5 -181.5t-154.5 -488.5zM692 1622l106 188h56l-124 -188h-38z" />
    <glyph glyph-name="Ocircumflex" unicode="&#xd4;" horiz-adv-x="1422" 
d="M700 -18q-274 0 -442 191.5t-168 516.5q0 327 168 518.5t442 191.5h20q278 0 445 -194t167 -516q0 -321 -166.5 -514.5t-445.5 -193.5h-20zM130 690q0 -306 154.5 -487t415.5 -181h20q263 0 417.5 181.5t154.5 486.5q0 307 -154.5 488.5t-417.5 181.5h-20
q-261 0 -415.5 -181.5t-154.5 -488.5zM564 1622l130 188h46l130 -188h-48l-106 160l-106 -160h-46z" />
    <glyph glyph-name="Otilde" unicode="&#xd5;" horiz-adv-x="1422" 
d="M700 -18q-274 0 -442 191.5t-168 516.5q0 327 168 518.5t442 191.5h20q278 0 445 -194t167 -516q0 -321 -166.5 -514.5t-445.5 -193.5h-20zM130 690q0 -306 154.5 -487t415.5 -181h20q263 0 417.5 181.5t154.5 486.5q0 307 -154.5 488.5t-417.5 181.5h-20
q-261 0 -415.5 -181.5t-154.5 -488.5zM540 1680q0 82 72 82q36 0 114 -26q72 -24 94 -24q32 0 32 42h40q0 -82 -72 -82q-36 0 -114 26q-72 24 -94 24q-32 0 -32 -42h-40z" />
    <glyph glyph-name="Odieresis" unicode="&#xd6;" horiz-adv-x="1422" 
d="M700 -18q-274 0 -442 191.5t-168 516.5q0 327 168 518.5t442 191.5h20q278 0 445 -194t167 -516q0 -321 -166.5 -514.5t-445.5 -193.5h-20zM130 690q0 -306 154.5 -487t415.5 -181h20q263 0 417.5 181.5t154.5 486.5q0 307 -154.5 488.5t-417.5 181.5h-20
q-261 0 -415.5 -181.5t-154.5 -488.5zM550 1716q0 16 12 28t28 12t28 -12t12 -28t-12 -28t-28 -12t-28 12t-12 28zM802 1716q0 16 12 28t28 12t28 -12t12 -28t-12 -28t-28 -12t-28 12t-12 28z" />
    <glyph glyph-name="multiply" unicode="&#xd7;" horiz-adv-x="958" 
d="M178 294l-30 30l302 302l-302 302l30 30l302 -302l302 302l30 -30l-302 -302l302 -302l-30 -30l-302 302z" />
    <glyph glyph-name="Oslash" unicode="&#xd8;" horiz-adv-x="1444" 
d="M706 -18q-141 0 -257 53.5t-198 153.5l-131 -131l-30 30l135 135q-129 187 -129 467q0 327 168 518.5t442 191.5h20q145 0 263 -55.5t199 -158.5l136 136l30 -30l-141 -141q125 -186 125 -461q0 -321 -166.5 -514.5t-445.5 -193.5h-20zM136 690q0 -264 118 -438l906 906
q-157 202 -434 202h-20q-261 0 -415.5 -181.5t-154.5 -488.5zM279 217q154 -195 427 -195h20q263 0 417.5 181.5t154.5 486.5q0 260 -113 433z" />
    <glyph glyph-name="Ugrave" unicode="&#xd9;" horiz-adv-x="1242" 
d="M164 492v902h40v-888q0 -135 46 -240.5t119.5 -159t162.5 -78.5t178 2t162.5 82.5t119.5 162t46 241.5v878h40v-880q0 -258 -151 -407q-119 -117 -286 -127q-165 -10 -294 90q-153 118 -178 340q-5 40 -5 82zM475 1810h56l106 -188h-38z" />
    <glyph glyph-name="Uacute" unicode="&#xda;" horiz-adv-x="1242" 
d="M164 492v902h40v-888q0 -135 46 -240.5t119.5 -159t162.5 -78.5t178 2t162.5 82.5t119.5 162t46 241.5v878h40v-880q0 -258 -151 -407q-119 -117 -286 -127q-165 -10 -294 90q-153 118 -178 340q-5 40 -5 82zM595 1622l106 188h56l-124 -188h-38z" />
    <glyph glyph-name="Ucircumflex" unicode="&#xdb;" horiz-adv-x="1242" 
d="M164 492v902h40v-888q0 -135 46 -240.5t119.5 -159t162.5 -78.5t178 2t162.5 82.5t119.5 162t46 241.5v878h40v-880q0 -258 -151 -407q-119 -117 -286 -127q-165 -10 -294 90q-153 118 -178 340q-5 40 -5 82zM467 1622l130 188h46l130 -188h-48l-106 160l-106 -160h-46z
" />
    <glyph glyph-name="Udieresis" unicode="&#xdc;" horiz-adv-x="1242" 
d="M164 492v902h40v-888q0 -135 46 -240.5t119.5 -159t162.5 -78.5t178 2t162.5 82.5t119.5 162t46 241.5v878h40v-880q0 -258 -151 -407q-119 -117 -286 -127q-165 -10 -294 90q-153 118 -178 340q-5 40 -5 82zM456 1716q0 16 12 28t28 12t28 -12t12 -28t-12 -28t-28 -12
t-28 12t-12 28zM708 1716q0 16 12 28t28 12t28 -12t12 -28t-12 -28t-28 -12t-28 12t-12 28z" />
    <glyph glyph-name="Yacute" unicode="&#xdd;" horiz-adv-x="1092" 
d="M526 0l-4 412l-492 982h48l464 -938l472 938h48l-500 -982l4 -412h-40zM521 1622l106 188h56l-124 -188h-38z" />
    <glyph glyph-name="Thorn" unicode="&#xde;" horiz-adv-x="1162" 
d="M180 0v1380h40v-229h416q215 0 325.5 -93t110.5 -277v-2q0 -184 -110.5 -277t-325.5 -93h-416v-409h-40zM220 447h416q396 0 396 334q0 332 -396 332h-416v-666z" />
    <glyph glyph-name="germandbls" unicode="&#xdf;" horiz-adv-x="1119" 
d="M673 -8q-217 0 -315 20v46q107 -24 315 -24q140 0 222 59t82 165q0 68 -36 127.5t-136 152.5q-86 79 -114 129.5t-28 118.5t28 118.5t114 129.5q100 93 136 152.5t36 127.5q0 106 -82 165t-222 59q-215 0 -328 -92.5t-125 -269.5q-4 -56 -4 -120v-1056h-44v1052
q0 56 4 128q11 192 138 295.5t362 104.5q165 1 257 -71t92 -201q0 -79 -47 -152.5t-149 -163.5q-67 -58 -92.5 -104t-25.5 -102t25.5 -102t92.5 -104q102 -90 149 -163.5t47 -152.5q0 -129 -92.5 -200.5t-259.5 -71.5z" />
    <glyph glyph-name="agrave" unicode="&#xe0;" horiz-adv-x="1012" 
d="M454 -10q-156 0 -245 75.5t-89 206.5q0 139 98 210q51 37 118.5 51t175.5 19l372 16v40q0 171 -98.5 261.5t-265.5 90.5q-108 0 -187.5 -41.5t-146.5 -134.5l-30 24q73 100 159 144t205 44q184 0 294 -100.5t110 -287.5v-608h-40v264q-41 -122 -164.5 -198t-265.5 -76z
M160 272q0 -113 80 -180.5t218 -67.5q108 0 205.5 53t159 148.5t61.5 208.5v100l-368 -16q-196 -7 -270 -62q-86 -64 -86 -184zM363 1530h56l120 -220h-38z" />
    <glyph glyph-name="aacute" unicode="&#xe1;" horiz-adv-x="1012" 
d="M454 -10q-156 0 -245 75.5t-89 206.5q0 139 98 210q51 37 118.5 51t175.5 19l372 16v40q0 171 -98.5 261.5t-265.5 90.5q-108 0 -187.5 -41.5t-146.5 -134.5l-30 24q73 100 159 144t205 44q184 0 294 -100.5t110 -287.5v-608h-40v264q-41 -122 -164.5 -198t-265.5 -76z
M160 272q0 -113 80 -180.5t218 -67.5q108 0 205.5 53t159 148.5t61.5 208.5v100l-368 -16q-196 -7 -270 -62q-86 -64 -86 -184zM521 1310l120 220h56l-138 -220h-38z" />
    <glyph glyph-name="acircumflex" unicode="&#xe2;" horiz-adv-x="1012" 
d="M454 -10q-156 0 -245 75.5t-89 206.5q0 139 98 210q51 37 118.5 51t175.5 19l372 16v40q0 171 -98.5 261.5t-265.5 90.5q-108 0 -187.5 -41.5t-146.5 -134.5l-30 24q73 100 159 144t205 44q184 0 294 -100.5t110 -287.5v-608h-40v264q-41 -122 -164.5 -198t-265.5 -76z
M160 272q0 -113 80 -180.5t218 -67.5q108 0 205.5 53t159 148.5t61.5 208.5v100l-368 -16q-196 -7 -270 -62q-86 -64 -86 -184zM393 1310l130 220h46l130 -220h-48l-106 188l-106 -188h-46z" />
    <glyph glyph-name="atilde" unicode="&#xe3;" horiz-adv-x="1012" 
d="M454 -10q-156 0 -245 75.5t-89 206.5q0 139 98 210q51 37 118.5 51t175.5 19l372 16v40q0 171 -98.5 261.5t-265.5 90.5q-108 0 -187.5 -41.5t-146.5 -134.5l-30 24q73 100 159 144t205 44q184 0 294 -100.5t110 -287.5v-608h-40v264q-41 -122 -164.5 -198t-265.5 -76z
M160 272q0 -113 80 -180.5t218 -67.5q108 0 205.5 53t159 148.5t61.5 208.5v100l-368 -16q-196 -7 -270 -62q-86 -64 -86 -184zM390 1410q0 82 72 82q36 0 114 -26q72 -24 94 -24q32 0 32 42h40q0 -82 -72 -82q-36 0 -114 26q-72 24 -94 24q-32 0 -32 -42h-40z" />
    <glyph glyph-name="adieresis" unicode="&#xe4;" horiz-adv-x="1012" 
d="M454 -10q-156 0 -245 75.5t-89 206.5q0 139 98 210q51 37 120 51.5t174 18.5l372 16v40q0 171 -98.5 261.5t-265.5 90.5q-108 0 -187.5 -41.5t-146.5 -134.5l-30 24q73 100 159 144t205 44q184 0 294 -100.5t110 -287.5v-608h-40v264q-41 -122 -164.5 -198t-265.5 -76z
M160 272q0 -113 80 -180.5t218 -67.5q108 0 205.5 53t159 148.5t61.5 208.5v100l-368 -16q-98 -4 -162.5 -17t-107.5 -45q-86 -64 -86 -184zM381 1418q0 16 11.5 28t28.5 12t28.5 -12t11.5 -28t-11.5 -28t-28.5 -12t-28.5 12t-11.5 28zM633 1418q0 16 11.5 28t28.5 12
t28.5 -12t11.5 -28t-11.5 -28t-28.5 -12t-28.5 12t-11.5 28z" />
    <glyph glyph-name="aring" unicode="&#xe5;" horiz-adv-x="1012" 
d="M454 -10q-156 0 -245 75.5t-89 206.5q0 139 98 210q51 37 118.5 51t175.5 19l372 16v40q0 171 -98.5 261.5t-265.5 90.5q-108 0 -187.5 -41.5t-146.5 -134.5l-30 24q73 100 159 144t205 44q184 0 294 -100.5t110 -287.5v-608h-40v264q-41 -122 -164.5 -198t-265.5 -76z
M160 272q0 -113 80 -180.5t218 -67.5q108 0 205.5 53t159 148.5t61.5 208.5v100l-368 -16q-196 -7 -270 -62q-86 -64 -86 -184zM432 1418q0 56 36 90t88 34t88 -34t36 -90t-36 -90t-88 -34t-88 34t-36 90zM478 1418q0 -35 21 -58.5t57 -23.5t57 23.5t21 58.5t-21 58.5
t-57 23.5t-57 -23.5t-21 -58.5z" />
    <glyph glyph-name="ae" unicode="&#xe6;" horiz-adv-x="1858" 
d="M160 272q0 -113 80 -180.5t218 -67.5q108 0 205.5 53t159 148.5t61.5 208.5v100l-368 -16q-98 -4 -162.5 -17t-107.5 -45q-86 -64 -86 -184zM120 272q0 139 98 210q51 37 120 51.5t174 18.5l372 16v40q0 171 -98.5 261.5t-265.5 90.5q-108 0 -187.5 -41.5t-146.5 -134.5
l-30 24q73 100 159 144t205 44q161 0 266.5 -77t130.5 -223q29 83 82 146.5t117.5 99t139 48t146.5 0.5t138.5 -51t117 -98.5t80.5 -149t30 -197.5h-842q0 -208 114 -338t298 -130h20q115 0 205 52.5t143 147.5l36 -16q-59 -104 -158.5 -162t-225.5 -58h-20q-157 0 -271 89
t-158 242q-58 -157 -184.5 -244t-270.5 -87q-156 0 -245 75.5t-89 206.5zM926 526h802q-5 105 -41 189t-91.5 136t-126 80t-142.5 28t-142.5 -28t-126 -80t-91.5 -136.5t-41 -188.5z" />
    <glyph glyph-name="ccedilla" unicode="&#xe7;" horiz-adv-x="1036" 
d="M462 -457q-66 0 -106 20v44q41 -22 106 -22q70 0 113 31.5t43 90.5q0 127 -196 118l85 166q-186 13 -301.5 151.5t-115.5 351.5q0 224 125 363t327 139h20q127 0 226.5 -57.5t157.5 -160.5l-38 -16q-53 94 -142.5 146t-203.5 52h-20q-184 0 -298 -129.5t-114 -336.5
q0 -208 114 -338t298 -130h20q115 0 205 52.5t143 147.5l36 -16q-59 -104 -158.5 -162t-225.5 -58h-7l-67 -129q176 -16 176 -154q0 -81 -60 -122.5t-142 -41.5z" />
    <glyph glyph-name="egrave" unicode="&#xe8;" horiz-adv-x="1062" 
d="M542 -10q-200 0 -326 140.5t-126 363.5q0 220 122 358.5t320 143.5q197 -5 318.5 -143.5t121.5 -358.5h-842q0 -208 114 -338t298 -130h20q115 0 205 52.5t143 147.5l36 -16q-59 -104 -158.5 -162t-225.5 -58h-20zM130 526h802q-9 191 -118.5 310.5t-281.5 123.5
q-172 -4 -282.5 -123.5t-119.5 -310.5zM388 1530h56l120 -220h-38z" />
    <glyph glyph-name="eacute" unicode="&#xe9;" horiz-adv-x="1062" 
d="M542 -10q-200 0 -326 140.5t-126 363.5q0 220 122 358.5t320 143.5q197 -5 318.5 -143.5t121.5 -358.5h-842q0 -208 114 -338t298 -130h20q115 0 205 52.5t143 147.5l36 -16q-59 -104 -158.5 -162t-225.5 -58h-20zM130 526h802q-9 191 -118.5 310.5t-281.5 123.5
q-172 -4 -282.5 -123.5t-119.5 -310.5zM508 1310l120 220h56l-138 -220h-38z" />
    <glyph glyph-name="ecircumflex" unicode="&#xea;" horiz-adv-x="1062" 
d="M542 -10q-200 0 -326 140.5t-126 363.5q0 220 122 358.5t320 143.5q197 -5 318.5 -143.5t121.5 -358.5h-842q0 -208 114 -338t298 -130h20q115 0 205 52.5t143 147.5l36 -16q-59 -104 -158.5 -162t-225.5 -58h-20zM130 526h802q-9 191 -118.5 310.5t-281.5 123.5
q-172 -4 -282.5 -123.5t-119.5 -310.5zM380 1310l130 220h46l130 -220h-48l-106 188l-106 -188h-46z" />
    <glyph glyph-name="edieresis" unicode="&#xeb;" horiz-adv-x="1062" 
d="M542 -10q-200 0 -326 140.5t-126 363.5q0 220 122 358.5t320 143.5q197 -5 318.5 -143.5t121.5 -358.5h-842q0 -208 114 -338t298 -130h20q115 0 205 52.5t143 147.5l36 -16q-59 -104 -158.5 -162t-225.5 -58h-20zM130 526h802q-9 191 -118.5 310.5t-281.5 123.5
q-172 -4 -282.5 -123.5t-119.5 -310.5zM368 1418q0 16 12 28t28 12t28 -12t12 -28t-12 -28t-28 -12t-28 12t-12 28zM620 1418q0 16 12 28t28 12t28 -12t12 -28t-12 -28t-28 -12t-28 12t-12 28z" />
    <glyph glyph-name="igrave" unicode="&#xec;" horiz-adv-x="352" 
d="M140 0v986h40v-986h-40zM-22 1530h56l120 -220h-38z" />
    <glyph glyph-name="iacute" unicode="&#xed;" horiz-adv-x="326" 
d="M172 0v986h40v-986h-40zM172 1310l120 220h56l-138 -220h-38z" />
    <glyph glyph-name="icircumflex" unicode="&#xee;" horiz-adv-x="122" 
d="M-92 1310l130 220h46l130 -220h-48l-106 188l-106 -188h-46zM40 0v986h40v-986h-40z" />
    <glyph glyph-name="idieresis" unicode="&#xef;" horiz-adv-x="204" 
d="M82 0v986h40v-986h-40zM-63 1418q0 16 11.5 28t28.5 12t28.5 -12t11.5 -28t-11.5 -28t-28.5 -12t-28.5 12t-11.5 28zM189 1418q0 16 11.5 28t28.5 12t28.5 -12t11.5 -28t-11.5 -28t-28.5 -12t-28.5 12t-11.5 28z" />
    <glyph glyph-name="eth" unicode="&#xf0;" horiz-adv-x="1114" 
d="M542 -10q-200 0 -326 140.5t-126 363.5q0 224 125 363t327 139h20q160 0 276 -91l-144 283l-173 -46l-10 41l164 44l-88 172h43l83 -162l149 40l11 -41l-141 -38l224 -437l-3 4q61 -119 61 -271q0 -224 -125.5 -364t-326.5 -140h-20zM130 494q0 -208 114 -338t298 -130
h20q185 0 298.5 130t113.5 338q0 207 -114 336.5t-298 129.5h-20q-184 0 -298 -129.5t-114 -336.5z" />
    <glyph glyph-name="ntilde" unicode="&#xf1;" horiz-adv-x="1108" 
d="M172 0v986h40v-240q37 126 126 188t244 62q193 0 283.5 -100t90.5 -302v-594h-40v584q0 193 -79 284.5t-255 91.5q-370 0 -370 -478v-482h-40zM374 1410q0 82 72 82q36 0 114 -26q72 -24 94 -24q32 0 32 42h40q0 -82 -72 -82q-36 0 -114 26q-72 24 -94 24q-32 0 -32 -42
h-40z" />
    <glyph glyph-name="ograve" unicode="&#xf2;" horiz-adv-x="1104" 
d="M542 -10q-200 0 -326 140.5t-126 363.5q0 224 125 363t327 139h20q202 0 327 -139t125 -363t-125.5 -364t-326.5 -140h-20zM130 494q0 -208 114 -338t298 -130h20q185 0 298.5 130t113.5 338q0 207 -114 336.5t-298 129.5h-20q-184 0 -298 -129.5t-114 -336.5zM407 1530
h56l120 -220h-38z" />
    <glyph glyph-name="oacute" unicode="&#xf3;" horiz-adv-x="1104" 
d="M542 -10q-200 0 -326 140.5t-126 363.5q0 224 125 363t327 139h20q202 0 327 -139t125 -363t-125.5 -364t-326.5 -140h-20zM130 494q0 -208 114 -338t298 -130h20q185 0 298.5 130t113.5 338q0 207 -114 336.5t-298 129.5h-20q-184 0 -298 -129.5t-114 -336.5zM527 1310
l120 220h56l-138 -220h-38z" />
    <glyph glyph-name="ocircumflex" unicode="&#xf4;" horiz-adv-x="1104" 
d="M542 -10q-200 0 -326 140.5t-126 363.5q0 224 125 363t327 139h20q202 0 327 -139t125 -363t-125.5 -364t-326.5 -140h-20zM130 494q0 -208 114 -338t298 -130h20q185 0 298.5 130t113.5 338q0 207 -114 336.5t-298 129.5h-20q-184 0 -298 -129.5t-114 -336.5zM399 1310
l130 220h46l130 -220h-48l-106 188l-106 -188h-46z" />
    <glyph glyph-name="otilde" unicode="&#xf5;" horiz-adv-x="1104" 
d="M542 -10q-200 0 -326 140.5t-126 363.5q0 224 125 363t327 139h20q202 0 327 -139t125 -363t-125.5 -364t-326.5 -140h-20zM130 494q0 -208 114 -338t298 -130h20q185 0 298.5 130t113.5 338q0 207 -114 336.5t-298 129.5h-20q-184 0 -298 -129.5t-114 -336.5zM375 1410
q0 82 72 82q36 0 114 -26q72 -24 94 -24q32 0 32 42h40q0 -82 -72 -82q-36 0 -114 26q-72 24 -94 24q-32 0 -32 -42h-40z" />
    <glyph glyph-name="odieresis" unicode="&#xf6;" horiz-adv-x="1104" 
d="M542 -10q-200 0 -326 140.5t-126 363.5q0 224 125 363t327 139h20q202 0 327 -139t125 -363t-125.5 -364t-326.5 -140h-20zM130 494q0 -208 114 -338t298 -130h20q185 0 298.5 130t113.5 338q0 207 -114 336.5t-298 129.5h-20q-184 0 -298 -129.5t-114 -336.5zM386 1418
q0 16 12 28t28 12t28 -12t12 -28t-12 -28t-28 -12t-28 12t-12 28zM638 1418q0 16 12 28t28 12t28 -12t12 -28t-12 -28t-28 -12t-28 12t-12 28z" />
    <glyph glyph-name="divide" unicode="&#xf7;" horiz-adv-x="1012" 
d="M106 614v42h800v-42h-800zM454 324q0 22 15 37t37 15t37 -15t15 -37t-15 -37t-37 -15t-37 15t-15 37zM454 944q0 22 15 37t37 15t37 -15t15 -37t-15 -37t-37 -15t-37 15t-15 37z" />
    <glyph glyph-name="oslash" unicode="&#xf8;" horiz-adv-x="1264" 
d="M120 -16l-30 30l169 169q-85 132 -85 311q0 224 125 363t327 139h20q186 0 307 -119l191 191l30 -30l-192 -192q116 -136 116 -352q0 -224 -125.5 -364t-326.5 -140h-20q-105 0 -192.5 41.5t-148.5 117.5zM214 494q0 -163 73 -283l639 639q-112 110 -280 110h-20
q-184 0 -298 -129.5t-114 -336.5zM312 176q55 -72 135.5 -111t178.5 -39h20q185 0 298.5 130t113.5 338q0 196 -104 324z" />
    <glyph glyph-name="ugrave" unicode="&#xf9;" horiz-adv-x="1088" 
d="M526 -10q-193 0 -283.5 100t-90.5 302v594h40v-584q0 -193 79 -284.5t255 -91.5q370 0 370 478v482h40v-986h-40v240q-37 -126 -126 -188t-244 -62zM369 1530h56l120 -220h-38z" />
    <glyph glyph-name="uacute" unicode="&#xfa;" horiz-adv-x="1088" 
d="M526 -10q-193 0 -283.5 100t-90.5 302v594h40v-584q0 -193 79 -284.5t255 -91.5q370 0 370 478v482h40v-986h-40v240q-37 -126 -126 -188t-244 -62zM519 1310l120 220h56l-138 -220h-38z" />
    <glyph glyph-name="ucircumflex" unicode="&#xfb;" horiz-adv-x="1088" 
d="M526 -10q-193 0 -283.5 100t-90.5 302v594h40v-584q0 -193 79 -284.5t255 -91.5q370 0 370 478v482h40v-986h-40v240q-37 -126 -126 -188t-244 -62zM391 1310l130 220h46l130 -220h-48l-106 188l-106 -188h-46z" />
    <glyph glyph-name="udieresis" unicode="&#xfc;" horiz-adv-x="1088" 
d="M526 -10q-193 0 -283.5 100t-90.5 302v594h40v-584q0 -193 79 -284.5t255 -91.5q370 0 370 478v482h40v-986h-40v240q-37 -126 -126 -188t-244 -62zM377 1418q0 16 11.5 28t28.5 12t28.5 -12t11.5 -28t-11.5 -28t-28.5 -12t-28.5 12t-11.5 28zM629 1418q0 16 11.5 28
t28.5 12t28.5 -12t11.5 -28t-11.5 -28t-28.5 -12t-28.5 12t-11.5 28z" />
    <glyph glyph-name="yacute" unicode="&#xfd;" horiz-adv-x="972" 
d="M200 -364q100 -35 158 110l106 258l-404 982h46l378 -936l384 936h44l-518 -1258q-75 -186 -210 -126zM463 1310l120 220h56l-138 -220h-38z" />
    <glyph glyph-name="thorn" unicode="&#xfe;" horiz-adv-x="1192" 
d="M172 -408v1802h40v-708q46 143 157.5 226.5t254.5 83.5h28q194 0 322 -143.5t128 -360.5t-128 -359.5t-322 -142.5h-28q-145 0 -256 84t-156 230v-712h-40zM210 492q0 -202 115.5 -333t294.5 -131h28q180 0 297 131.5t117 332.5t-117 333.5t-297 132.5h-28
q-178 0 -294 -132.5t-116 -333.5z" />
    <glyph glyph-name="ydieresis" unicode="&#xff;" horiz-adv-x="972" 
d="M200 -364q99 -35 158 110l106 258l-404 982h46l378 -936l384 936h44l-518 -1258q-40 -95 -91 -125.5t-119 -0.5zM323 1418q0 16 11.5 28t28.5 12t28.5 -12t11.5 -28t-11.5 -28t-28.5 -12t-28.5 12t-11.5 28zM575 1418q0 16 11.5 28t28.5 12t28.5 -12t11.5 -28t-11.5 -28
t-28.5 -12t-28.5 12t-11.5 28z" />
    <glyph glyph-name="Amacron" unicode="&#x100;" horiz-adv-x="1124" 
d="M50 0l486 1394h50l488 -1394h-46l-166 480h-600l-166 -480h-46zM274 518h576l-288 832zM423 1694v42h280v-42h-280z" />
    <glyph glyph-name="amacron" unicode="&#x101;" horiz-adv-x="1012" 
d="M454 -10q-156 0 -245 75.5t-89 206.5q0 139 98 210q51 37 118.5 51t175.5 19l372 16v40q0 171 -98.5 261.5t-265.5 90.5q-108 0 -187.5 -41.5t-146.5 -134.5l-30 24q73 100 159 144t205 44q184 0 294 -100.5t110 -287.5v-608h-40v264q-41 -122 -164.5 -198t-265.5 -76z
M160 272q0 -113 80 -180.5t218 -67.5q108 0 205.5 53t159 148.5t61.5 208.5v100l-368 -16q-196 -7 -270 -62q-86 -64 -86 -184zM405 1390v42h280v-42h-280z" />
    <glyph glyph-name="Abreve" unicode="&#x102;" horiz-adv-x="1124" 
d="M50 0l486 1394h50l488 -1394h-46l-166 480h-600l-166 -480h-46zM274 518h576l-288 832zM369 1810h36q1 -82 45 -128t113 -46t113 46t45 128h36q0 -99 -53.5 -157.5t-140.5 -58.5q-88 0 -141 58t-53 158z" />
    <glyph glyph-name="abreve" unicode="&#x103;" horiz-adv-x="1012" 
d="M454 -10q-156 0 -245 75.5t-89 206.5q0 139 98 210q51 37 120 51.5t174 18.5l372 16v40q0 171 -98.5 261.5t-265.5 90.5q-108 0 -187.5 -41.5t-146.5 -134.5l-30 24q73 100 159 144t205 44q184 0 294 -100.5t110 -287.5v-608h-40v264q-41 -122 -164.5 -198t-265.5 -76z
M160 272q0 -113 80 -180.5t218 -67.5q108 0 205.5 53t159 148.5t61.5 208.5v100l-368 -16q-98 -4 -162.5 -17t-107.5 -45q-86 -64 -86 -184zM351 1518h36q1 -82 45 -128t113 -46t113 46t45 128h36q0 -99 -53.5 -157.5t-140.5 -58.5q-88 0 -141 58t-53 158z" />
    <glyph glyph-name="Aogonek" unicode="&#x104;" horiz-adv-x="1124" 
d="M918 -446q-55 0 -91.5 32t-36.5 106q0 101 63 187t170 134l-161 467h-600l-166 -480h-46l486 1394h50l488 -1394q-108 -47 -174 -126t-66 -176q0 -104 92 -104q68 0 130 62v-46q-56 -56 -138 -56zM274 518h576l-288 832z" />
    <glyph glyph-name="aogonek" unicode="&#x105;" horiz-adv-x="1052" 
d="M764 -446q-55 0 -91.5 32t-36.5 106q0 107 68.5 199.5t179.5 130.5v242q-41 -122 -164.5 -198t-265.5 -76q-156 0 -245 75.5t-89 206.5q0 139 98 210q51 37 118.5 51t175.5 19l372 16v40q0 171 -98.5 261.5t-265.5 90.5q-108 0 -187.5 -41.5t-146.5 -134.5l-30 24
q73 100 159 144t205 44q184 0 294 -100.5t110 -287.5v-608q-107 -28 -175.5 -114t-68.5 -188q0 -104 92 -104q68 0 130 62v-46q-56 -56 -138 -56zM160 272q0 -113 80 -180.5t218 -67.5q108 0 205.5 53t159 148.5t61.5 208.5v100l-368 -16q-196 -7 -270 -62q-86 -64 -86 -184
z" />
    <glyph glyph-name="Cacute" unicode="&#x106;" horiz-adv-x="1342" 
d="M660 1622l106 188h56l-124 -188h-38zM90 696q0 327 168 518.5t442 191.5h20q187 0 327.5 -91t214.5 -255l-38 -14q-68 153 -198 236.5t-306 83.5h-20q-261 0 -415.5 -181.5t-154.5 -488.5q0 -306 154.5 -487t415.5 -181h20q176 0 306 83.5t198 236.5l38 -14
q-74 -164 -214.5 -255t-327.5 -91h-20q-274 0 -442 191.5t-168 516.5z" />
    <glyph glyph-name="cacute" unicode="&#x107;" horiz-adv-x="1036" 
d="M542 -10q-200 0 -326 140.5t-126 363.5q0 224 125 363t327 139h20q127 0 226.5 -57.5t157.5 -160.5l-38 -16q-53 94 -142.5 146t-203.5 52h-20q-184 0 -298 -129.5t-114 -336.5q0 -208 114 -338t298 -130h20q115 0 205 52.5t143 147.5l36 -16q-59 -104 -158.5 -162
t-225.5 -58h-20zM518 1310l120 220h56l-138 -220h-38z" />
    <glyph glyph-name="Ccircumflex" unicode="&#x108;" horiz-adv-x="1342" 
d="M561 1622l130 188h46l130 -188h-48l-106 160l-106 -160h-46zM90 696q0 327 168 518.5t442 191.5h20q187 0 327.5 -91t214.5 -255l-38 -14q-68 153 -198 236.5t-306 83.5h-20q-261 0 -415.5 -181.5t-154.5 -488.5q0 -306 154.5 -487t415.5 -181h20q176 0 306 83.5
t198 236.5l38 -14q-74 -164 -214.5 -255t-327.5 -91h-20q-274 0 -442 191.5t-168 516.5z" />
    <glyph glyph-name="ccircumflex" unicode="&#x109;" horiz-adv-x="1036" 
d="M542 -10q-200 0 -326 140.5t-126 363.5q0 224 125 363t327 139h20q127 0 226.5 -57.5t157.5 -160.5l-38 -16q-53 94 -142.5 146t-203.5 52h-20q-184 0 -298 -129.5t-114 -336.5q0 -208 114 -338t298 -130h20q115 0 205 52.5t143 147.5l36 -16q-59 -104 -158.5 -162
t-225.5 -58h-20zM399 1310l130 220h46l130 -220h-48l-106 188l-106 -188h-46z" />
    <glyph glyph-name="Cdotaccent" unicode="&#x10a;" horiz-adv-x="1342" 
d="M652 1716q0 16 12 28t28 12t28 -12t12 -28t-12 -28t-28 -12t-28 12t-12 28zM90 696q0 327 168 518.5t442 191.5h20q187 0 327.5 -91t214.5 -255l-38 -14q-68 153 -198 236.5t-306 83.5h-20q-261 0 -415.5 -181.5t-154.5 -488.5q0 -306 154.5 -487t415.5 -181h20
q176 0 306 83.5t198 236.5l38 -14q-74 -164 -214.5 -255t-327.5 -91h-20q-274 0 -442 191.5t-168 516.5z" />
    <glyph glyph-name="cdotaccent" unicode="&#x10b;" horiz-adv-x="1036" 
d="M542 -10q-200 0 -326 140.5t-126 363.5q0 224 125 363t327 139h20q127 0 226.5 -57.5t157.5 -160.5l-38 -16q-53 94 -142.5 146t-203.5 52h-20q-184 0 -298 -129.5t-114 -336.5q0 -208 114 -338t298 -130h20q115 0 205 52.5t143 147.5l36 -16q-59 -104 -158.5 -162
t-225.5 -58h-20zM502 1416q0 16 12 28t28 12t28 -12t12 -28t-12 -28t-28 -12t-28 12t-12 28z" />
    <glyph glyph-name="Ccaron" unicode="&#x10c;" horiz-adv-x="1342" 
d="M540 1810h48l106 -160l106 160h46l-130 -188h-46zM90 696q0 327 168 518.5t442 191.5h20q187 0 327.5 -91t214.5 -255l-38 -14q-68 153 -198 236.5t-306 83.5h-20q-261 0 -415.5 -181.5t-154.5 -488.5q0 -306 154.5 -487t415.5 -181h20q176 0 306 83.5t198 236.5l38 -14
q-74 -164 -214.5 -255t-327.5 -91h-20q-274 0 -442 191.5t-168 516.5z" />
    <glyph glyph-name="ccaron" unicode="&#x10d;" horiz-adv-x="1036" 
d="M542 -10q-200 0 -326 140.5t-126 363.5q0 224 125 363t327 139h20q127 0 226.5 -57.5t157.5 -160.5l-38 -16q-53 94 -142.5 146t-203.5 52h-20q-184 0 -298 -129.5t-114 -336.5q0 -208 114 -338t298 -130h20q115 0 205 52.5t143 147.5l36 -16q-59 -104 -158.5 -162
t-225.5 -58h-20zM390 1530h48l106 -188l106 188h46l-130 -220h-46z" />
    <glyph glyph-name="Dcaron" unicode="&#x10e;" horiz-adv-x="1248" 
d="M180 0v1394h278q334 0 517 -185t183 -523q0 -332 -181 -509t-521 -177h-276zM220 38h232q324 0 493 165t169 483q0 324 -171 497t-487 173h-236v-1318zM460 1810h48l106 -160l106 160h46l-130 -188h-46z" />
    <glyph glyph-name="dcaron" unicode="&#x10f;" horiz-adv-x="1312" 
d="M540 -10q-194 0 -322 143.5t-128 360.5t128 359.5t322 142.5h28q145 0 256 -84t156 -230v712h40v-1394h-40v300q-46 -143 -157.5 -226.5t-254.5 -83.5h-28zM130 494q0 -201 117 -333.5t297 -132.5h28q178 0 294 132.5t116 333.5q0 202 -115.5 333t-294.5 131h-28
q-180 0 -297 -131.5t-117 -332.5zM1182 1224l86 244h50v-10l-98 -234h-38z" />
    <glyph glyph-name="Dcroat" unicode="&#x110;" horiz-adv-x="1238" 
d="M170 0v646h-110v42h110v706h278q334 0 517 -185t183 -523q0 -332 -181 -509t-521 -177h-276zM210 38h232q324 0 493 165t169 483q0 324 -171 497t-487 173h-236v-668h382v-42h-382v-608z" />
    <glyph glyph-name="dcroat" unicode="&#x111;" horiz-adv-x="1146" 
d="M540 -10q-194 0 -322 143.5t-128 360.5t128 359.5t322 142.5h28q145 0 256 -84t156 -230v502h-230v42h230v168h40v-168h94v-42h-94v-1184h-40v300q-46 -143 -157.5 -226.5t-254.5 -83.5h-28zM130 494q0 -201 117 -333.5t297 -132.5h28q178 0 294 132.5t116 333.5
q0 202 -115.5 333t-294.5 131h-28q-180 0 -297 -131.5t-117 -332.5z" />
    <glyph glyph-name="Emacron" unicode="&#x112;" 
d="M180 0v1394h864v-38h-824v-634h754v-38h-754v-646h824v-38h-864zM437 1694v42h280v-42h-280z" />
    <glyph glyph-name="emacron" unicode="&#x113;" horiz-adv-x="1062" 
d="M542 -10q-200 0 -326 140.5t-126 363.5q0 220 122 358.5t320 143.5q197 -5 318.5 -143.5t121.5 -358.5h-842q0 -208 114 -338t298 -130h20q115 0 205 52.5t143 147.5l36 -16q-59 -104 -158.5 -162t-225.5 -58h-20zM130 526h802q-9 191 -118.5 310.5t-281.5 123.5
q-172 -4 -282.5 -123.5t-119.5 -310.5zM392 1390v42h280v-42h-280z" />
    <glyph glyph-name="Ebreve" unicode="&#x114;" 
d="M180 0v1394h864v-38h-824v-634h754v-38h-754v-646h824v-38h-864zM453 1864h36q1 -82 45 -128t113 -46t113 46t45 128h36q0 -99 -53.5 -157.5t-140.5 -58.5q-88 0 -141 58t-53 158z" />
    <glyph glyph-name="ebreve" unicode="&#x115;" horiz-adv-x="1062" 
d="M542 -10q-200 0 -326 140.5t-126 363.5q0 121 38 219t100 158t141 92.5t162 32.5t162 -32.5t141 -92.5t100 -158t38 -219h-842q0 -208 114 -338t298 -130h20q115 0 205 52.5t143 147.5l36 -16q-59 -104 -158.5 -162t-225.5 -58h-20zM130 526h802q-5 105 -41 189
t-91.5 136t-126 80t-142.5 28t-142.5 -28t-126 -80t-91.5 -136.5t-41 -188.5zM336 1518h36q1 -82 45 -128t113 -46t113 46t45 128h36q0 -99 -53.5 -157.5t-140.5 -58.5q-88 0 -141 58t-53 158z" />
    <glyph glyph-name="Edotaccent" unicode="&#x116;" 
d="M180 0v1394h864v-38h-824v-634h754v-38h-754v-646h824v-38h-864zM537 1716q0 16 11.5 28t28.5 12t28.5 -12t11.5 -28t-11.5 -28t-28.5 -12t-28.5 12t-11.5 28z" />
    <glyph glyph-name="edotaccent" unicode="&#x117;" horiz-adv-x="1062" 
d="M542 -10q-200 0 -326 140.5t-126 363.5q0 220 122 358.5t320 143.5q197 -5 318.5 -143.5t121.5 -358.5h-842q0 -208 114 -338t298 -130h20q115 0 205 52.5t143 147.5l36 -16q-59 -104 -158.5 -162t-225.5 -58h-20zM130 526h802q-9 191 -118.5 310.5t-281.5 123.5
q-172 -4 -282.5 -123.5t-119.5 -310.5zM492 1416q0 16 12 28t28 12t28 -12t12 -28t-12 -28t-28 -12t-28 12t-12 28z" />
    <glyph glyph-name="Eogonek" unicode="&#x118;" horiz-adv-x="1147" 
d="M891 -446q-55 0 -91.5 32t-36.5 106q0 95 55 176.5t149 131.5h-787v1394h864v-38h-824v-634h754v-38h-754v-646h827v-38q-108 -47 -174 -126t-66 -176q0 -104 92 -104q68 0 130 62v-46q-56 -56 -138 -56z" />
    <glyph glyph-name="eogonek" unicode="&#x119;" horiz-adv-x="1062" 
d="M530 -446q-55 0 -91.5 32t-36.5 106q0 85 44 166t120 132h-24q-200 0 -326 140.5t-126 363.5q0 220 122 358.5t320 143.5q197 -5 318.5 -143.5t121.5 -358.5h-842q0 -208 114 -338t298 -130h20q115 0 205 52.5t143 147.5l36 -16q-100 -174 -294 -212q-91 -37 -148.5 -122
t-57.5 -178q0 -104 92 -104q68 0 130 62v-46q-56 -56 -138 -56zM130 526h802q-9 191 -118.5 310.5t-281.5 123.5q-172 -4 -282.5 -123.5t-119.5 -310.5zM392 1390v42h280v-42h-280z" />
    <glyph glyph-name="Ecaron" unicode="&#x11a;" 
d="M180 0v1394h864v-38h-824v-634h754v-38h-754v-646h824v-38h-864zM425 1810h48l106 -160l106 160h46l-130 -188h-46z" />
    <glyph glyph-name="ecaron" unicode="&#x11b;" horiz-adv-x="1062" 
d="M542 -10q-200 0 -326 140.5t-126 363.5q0 220 122 358.5t320 143.5q197 -5 318.5 -143.5t121.5 -358.5h-842q0 -208 114 -338t298 -130h20q115 0 205 52.5t143 147.5l36 -16q-59 -104 -158.5 -162t-225.5 -58h-20zM130 526h802q-9 191 -118.5 310.5t-281.5 123.5
q-172 -4 -282.5 -123.5t-119.5 -310.5zM380 1530h48l106 -188l106 188h46l-130 -220h-46z" />
    <glyph glyph-name="Gcircumflex" unicode="&#x11c;" horiz-adv-x="1316" 
d="M700 -12q-274 0 -442 191.5t-168 518.5q0 325 168 516.5t442 191.5q191 0 331 -94t205 -262l-36 -14q-60 153 -189 241.5t-311 88.5q-261 0 -415.5 -181t-154.5 -487q0 -307 154.5 -488.5t415.5 -181.5q181 0 309.5 87t188.5 237v298h-498v38h536v-688h-38v264
q-74 -131 -203.5 -203.5t-294.5 -72.5zM542 1622l130 188h46l130 -188h-48l-106 160l-106 -160h-46z" />
    <glyph glyph-name="gcircumflex" unicode="&#x11d;" horiz-adv-x="1191" 
d="M558 -414q-164 0 -274 87t-140 241h40q30 -137 128 -212.5t246 -75.5h30q187 0 289.5 124t102.5 360v188q-46 -143 -157.5 -226.5t-254.5 -83.5h-10q-196 0 -332 144.5t-136 359.5q0 217 128 359.5t322 142.5h28q145 0 256 -84t156 -230v308h40v-890q0 -246 -116 -379
t-316 -133h-30zM130 492q0 -201 117 -333.5t297 -132.5h28q167 0 280 116.5t128 299.5v100q-15 183 -128 298.5t-280 115.5h-28q-180 0 -297 -131.5t-117 -332.5zM424 1310l130 220h46l130 -220h-48l-106 188l-106 -188h-46z" />
    <glyph glyph-name="Gbreve" unicode="&#x11e;" horiz-adv-x="1316" 
d="M700 -12q-274 0 -442 191.5t-168 518.5q0 325 168 516.5t442 191.5q191 0 331 -94t205 -262l-36 -14q-60 153 -189 241.5t-311 88.5q-261 0 -415.5 -181t-154.5 -487q0 -307 154.5 -488.5t415.5 -181.5q181 0 309.5 87t188.5 237v298h-498v38h536v-688h-38v264
q-74 -131 -203.5 -203.5t-294.5 -72.5zM507 1864h36q1 -82 45 -128t113 -46t113 46t45 128h36q0 -99 -53.5 -157.5t-140.5 -58.5q-88 0 -141 58t-53 158z" />
    <glyph glyph-name="gbreve" unicode="&#x11f;" horiz-adv-x="1191" 
d="M558 -414q-164 0 -274 87t-140 241h40q30 -137 128 -212.5t246 -75.5h30q187 0 289.5 124t102.5 360v188q-46 -143 -157.5 -226.5t-254.5 -83.5h-10q-196 0 -332 144.5t-136 359.5q0 217 128 359.5t322 142.5h28q145 0 256 -84t156 -230v308h40v-890q0 -246 -116 -379
t-316 -133h-30zM130 492q0 -201 117 -333.5t297 -132.5h28q167 0 280 116.5t128 299.5v100q-15 183 -128 298.5t-280 115.5h-28q-180 0 -297 -131.5t-117 -332.5zM367 1518h36q1 -82 45 -128t113 -46t113 46t45 128h36q0 -99 -53.5 -157.5t-140.5 -58.5q-88 0 -141 58
t-53 158z" />
    <glyph glyph-name="Gdotaccent" unicode="&#x120;" horiz-adv-x="1316" 
d="M700 -12q-274 0 -442 191.5t-168 518.5q0 325 168 516.5t442 191.5q191 0 331 -94t205 -262l-36 -14q-60 153 -189 241.5t-311 88.5q-261 0 -415.5 -181t-154.5 -487q0 -307 154.5 -488.5t415.5 -181.5q181 0 309.5 87t188.5 237v298h-498v38h536v-688h-38v264
q-74 -131 -203.5 -203.5t-294.5 -72.5zM661 1716q0 16 11.5 28t28.5 12t28.5 -12t11.5 -28t-11.5 -28t-28.5 -12t-28.5 12t-11.5 28z" />
    <glyph glyph-name="gdotaccent" unicode="&#x121;" horiz-adv-x="1191" 
d="M558 -414q-164 0 -274 87t-140 241h40q30 -137 128 -212.5t246 -75.5h30q187 0 289.5 124t102.5 360v188q-46 -143 -157.5 -226.5t-254.5 -83.5h-10q-196 0 -332 144.5t-136 359.5q0 217 128 359.5t322 142.5h28q145 0 256 -84t156 -230v308h40v-890q0 -246 -116 -379
t-316 -133h-30zM130 492q0 -201 117 -333.5t297 -132.5h28q167 0 280 116.5t128 299.5v100q-15 183 -128 298.5t-280 115.5h-28q-180 0 -297 -131.5t-117 -332.5zM544 1416q0 16 12 28t28 12t28 -12t12 -28t-12 -28t-28 -12t-28 12t-12 28z" />
    <glyph glyph-name="uni0122" unicode="&#x122;" horiz-adv-x="1524" 
d="M786 -12q-274 0 -442 191.5t-168 518.5q0 325 168 516.5t442 191.5q191 0 331 -94t205 -262l-36 -14q-60 153 -189 241.5t-311 88.5q-261 0 -415.5 -181t-154.5 -487q0 -307 154.5 -488.5t415.5 -181.5q181 0 309.5 87t188.5 237v298h-498v38h536v-688h-38v264
q-74 -131 -203.5 -203.5t-294.5 -72.5zM677 -396l86 244h50v-10l-98 -234h-38z" />
    <glyph glyph-name="uni0123" unicode="&#x123;" horiz-adv-x="1218" 
d="M612 -414q-164 0 -274 87t-140 241h40q30 -137 128 -212.5t246 -75.5h30q187 0 289.5 124t102.5 360v188q-46 -143 -157.5 -226.5t-254.5 -83.5h-10q-196 0 -332 144.5t-136 359.5q0 217 128 359.5t322 142.5h28q145 0 256 -84t156 -230v308h40v-890q0 -246 -116 -379
t-316 -133h-30zM184 492q0 -201 117 -333.5t297 -132.5h28q167 0 280 116.5t128 299.5v100q-15 183 -128 298.5t-280 115.5h-28q-180 0 -297 -131.5t-117 -332.5zM612 1312v10l98 234h38l-86 -244h-50z" />
    <glyph glyph-name="Hcircumflex" unicode="&#x124;" horiz-adv-x="1224" 
d="M180 0v1394h40v-668h782v668h42v-1394h-42v688h-782v-688h-40zM468 1622l130 188h46l130 -188h-48l-106 160l-106 -160h-46z" />
    <glyph glyph-name="hcircumflex" unicode="&#x125;" horiz-adv-x="966" 
d="M30 0v1394h40v-648q37 126 126 188t244 62q193 0 283.5 -100t90.5 -302v-594h-40v584q0 193 -79 284.5t-255 91.5q-370 0 -370 -478v-482h-40zM-100 1622l130 188h46l130 -188h-48l-106 160l-106 -160h-46z" />
    <glyph glyph-name="Hbar" unicode="&#x126;" horiz-adv-x="1141" 
d="M144 0v1040h-82v42h82v312h40v-312h782v312h42v-312h73v-42h-73v-1040h-42v688h-782v-688h-40zM184 726h782v314h-782v-314z" />
    <glyph glyph-name="hbar" unicode="&#x127;" horiz-adv-x="1074" 
d="M138 0v1184h-106v42h106v168h40v-168h218v-42h-218v-438q37 126 126 188t244 62q193 0 283.5 -100t90.5 -302v-594h-40v584q0 193 -79 284.5t-255 91.5q-370 0 -370 -478v-482h-40z" />
    <glyph glyph-name="Itilde" unicode="&#x128;" horiz-adv-x="176" 
d="M70 0v1394h40v-1394h-40zM-88 1680q0 82 72 82q36 0 114 -26q72 -24 94 -24q32 0 32 42h40q0 -82 -72 -82q-36 0 -114 26q-72 24 -94 24q-32 0 -32 -42h-40z" />
    <glyph glyph-name="itilde" unicode="&#x129;" horiz-adv-x="160" 
d="M44 0v986h40v-986h-40zM-96 1410q0 82 72 82q36 0 114 -26q72 -24 94 -24q32 0 32 42h40q0 -82 -72 -82q-36 0 -114 26q-72 24 -94 24q-32 0 -32 -42h-40z" />
    <glyph glyph-name="Imacron" unicode="&#x12a;" horiz-adv-x="196" 
d="M78 0v1394h40v-1394h-40zM-42 1694v42h280v-42h-280z" />
    <glyph glyph-name="imacron" unicode="&#x12b;" horiz-adv-x="180" 
d="M70 0v986h40v-986h-40zM-50 1390v42h280v-42h-280z" />
    <glyph glyph-name="Ibreve" unicode="&#x12c;" horiz-adv-x="234" 
d="M118 1648q-88 0 -141 58t-53 158h36q1 -82 45 -128t113 -46t113 46t45 128h36q0 -99 -53.5 -157.5t-140.5 -58.5zM98 0v1394h40v-1394h-40z" />
    <glyph glyph-name="ibreve" unicode="&#x12d;" horiz-adv-x="248" 
d="M124 1302q-88 0 -141 58t-53 158h36q1 -82 45 -128t113 -46t113 46t45 128h36q0 -99 -53.5 -157.5t-140.5 -58.5zM101 0v986h40v-986h-40z" />
    <glyph glyph-name="Iogonek" unicode="&#x12e;" horiz-adv-x="404" 
d="M134 -446q-55 0 -91.5 32t-36.5 106q0 104 64.5 191t175.5 135l2 -1v1377h40v-1393q-107 -48 -172.5 -127t-65.5 -176q0 -104 92 -104q68 0 130 62v-46q-56 -56 -138 -56z" />
    <glyph glyph-name="iogonek" unicode="&#x12f;" horiz-adv-x="430" 
d="M126 -442q-55 0 -91.5 32t-36.5 106q0 109 74.5 205t189.5 133v952h40v-986h-30q-101 -31 -165.5 -115.5t-64.5 -182.5q0 -104 92 -104q68 0 130 62v-46q-56 -56 -138 -56zM242 1270q0 16 12 28t28 12t28 -12t12 -28t-12 -28t-28 -12t-28 12t-12 28z" />
    <glyph glyph-name="Idotaccent" unicode="&#x130;" horiz-adv-x="396" 
d="M178 0v1394h40v-1394h-40zM158 1716q0 16 12 28t28 12t28 -12t12 -28t-12 -28t-28 -12t-28 12t-12 28z" />
    <glyph glyph-name="dotlessi" unicode="&#x131;" horiz-adv-x="480" 
d="M220 0v986h40v-986h-40z" />
    <glyph glyph-name="IJ" unicode="&#x132;" horiz-adv-x="1534" 
d="M456 492v14h40q0 -135 46 -240.5t119.5 -159t162.5 -78.5t178 2t162.5 82.5t119.5 162t46 241.5v878h40v-880q0 -258 -151 -407q-119 -117 -286 -127q-165 -10 -294 90q-153 118 -178 340q-5 40 -5 82zM164 0v1394h40v-1394h-40z" />
    <glyph glyph-name="ij" unicode="&#x133;" horiz-adv-x="704" 
d="M294 -418q-84 0 -144 34l14 30q59 -28 128 -28h14q91 0 139.5 53.5t48.5 160.5v1154h40v-1154q0 -125 -58.5 -187.5t-167.5 -62.5h-14zM162 1266q0 16 12 28t28 12t28 -12t12 -28t-12 -28t-28 -12t-28 12t-12 28zM182 0v986h40v-986h-40zM474 1267q0 17 12 28.5t28 11.5
t28 -11.5t12 -28.5t-12 -28.5t-28 -11.5t-28 11.5t-12 28.5z" />
    <glyph glyph-name="Jcircumflex" unicode="&#x134;" horiz-adv-x="1009" 
d="M80 492v14h40q0 -135 46 -240.5t119.5 -159t162.5 -78.5t178 2t162.5 82.5t119.5 162t46 241.5v878h40v-880q0 -258 -151 -407q-119 -117 -286 -127q-165 -10 -294 90q-153 118 -178 340q-5 40 -5 82zM815 1622l130 188h46l130 -188h-48l-106 160l-106 -160h-46z" />
    <glyph glyph-name="jcircumflex" unicode="&#x135;" horiz-adv-x="264" 
d="M-14 -418q-84 0 -144 34l14 30q59 -28 128 -28h14q91 0 139.5 53.5t48.5 160.5v1154h40v-1154q0 -125 -58.5 -187.5t-167.5 -62.5h-14zM50 1310l130 220h46l130 -220h-48l-106 188l-106 -188h-46z" />
    <glyph glyph-name="uni0136" unicode="&#x136;" horiz-adv-x="1260" 
d="M234 0v1394h40v-844l812 844h56l-568 -590l568 -804h-50l-546 776l-272 -282v-494h-40zM524 -396l86 244h50v-10l-98 -234h-38z" />
    <glyph glyph-name="uni0137" unicode="&#x137;" horiz-adv-x="1054" 
d="M216 0v1394h40v-1004l578 596h54l-348 -358l396 -628h-48l-376 600l-256 -264v-336h-40zM397 -396l86 244h50v-10l-98 -234h-38z" />
    <glyph glyph-name="kgreenlandic" unicode="&#x138;" horiz-adv-x="952" 
d="M172 0v990h40v-600l578 596h54l-348 -358l396 -628h-48l-376 600l-256 -264v-336h-40z" />
    <glyph glyph-name="Lacute" unicode="&#x139;" horiz-adv-x="1084" 
d="M170 0v1394h40v-1356h824v-38h-864zM166 1622l106 188h56l-124 -188h-38z" />
    <glyph glyph-name="lacute" unicode="&#x13a;" horiz-adv-x="388" 
d="M306 -10q-146 0 -146 196v1208h40v-1204q0 -153 104 -162zM158 1720l120 220h56l-138 -220h-38z" />
    <glyph glyph-name="uni013B" unicode="&#x13b;" horiz-adv-x="1226" 
d="M234 0v1394h40v-1356h824v-38h-864zM510 -396l86 244h50v-10l-98 -234h-38z" />
    <glyph glyph-name="uni013C" unicode="&#x13c;" horiz-adv-x="388" 
d="M318 -10q-146 0 -146 196v1208h40v-1204q0 -153 104 -162zM150 -396l86 244h50v-10l-98 -234h-38z" />
    <glyph glyph-name="Lcaron" unicode="&#x13d;" horiz-adv-x="1094" 
d="M180 0v1394h40v-1356h824v-38h-864zM510 1150l86 244h50v-10l-98 -234h-38z" />
    <glyph glyph-name="lcaron" unicode="&#x13e;" horiz-adv-x="388" 
d="M318 -10q-146 0 -146 196v1208h40v-1204q0 -153 104 -162zM289 1142l86 244h50v-10l-98 -234h-38z" />
    <glyph glyph-name="Ldot" unicode="&#x13f;" horiz-adv-x="1094" 
d="M180 0v1394h40v-1356h824v-38h-864zM606 800q0 16 12 28t28 12t28 -12t12 -28t-12 -28t-28 -12t-28 12t-12 28z" />
    <glyph glyph-name="ldot" unicode="&#x140;" horiz-adv-x="478" 
d="M318 -10q-146 0 -146 196v1208h40v-1204q0 -153 104 -162zM388 800q0 16 12 28t28 12t28 -12t12 -28t-12 -28t-28 -12t-28 12t-12 28z" />
    <glyph glyph-name="Lslash" unicode="&#x141;" horiz-adv-x="1171" 
d="M257 2v624l-229 -136v48l229 136v722h40v-698l371 220v-48l-371 -220v-610h824v-38h-864z" />
    <glyph glyph-name="lslash" unicode="&#x142;" horiz-adv-x="316" 
d="M283 -10q-146 0 -146 196v417l-115 -83v52l115 83v739h40v-710l117 84v-52l-117 -84v-442q0 -153 104 -162z" />
    <glyph glyph-name="Nacute" unicode="&#x143;" horiz-adv-x="1272" 
d="M180 0v1394h56l816 -1346v1346h40v-1394h-58l-814 1342v-1342h-40zM612 1622l106 188h56l-124 -188h-38z" />
    <glyph glyph-name="nacute" unicode="&#x144;" horiz-adv-x="1108" 
d="M172 0v986h40v-240q37 126 126 188t244 62q193 0 283.5 -100t90.5 -302v-594h-40v584q0 193 -79 284.5t-255 91.5q-370 0 -370 -478v-482h-40zM526 1310l120 220h56l-138 -220h-38z" />
    <glyph glyph-name="uni0145" unicode="&#x145;" horiz-adv-x="1380" 
d="M234 0v1394h56l816 -1346v1346h40v-1394h-58l-814 1342v-1342h-40zM580 -396l86 244h50v-10l-98 -234h-38z" />
    <glyph glyph-name="uni0146" unicode="&#x146;" horiz-adv-x="1206" 
d="M216 0v986h40v-240q37 126 126 188t244 62q193 0 283.5 -100t90.5 -302v-594h-40v584q0 193 -79 284.5t-255 91.5q-370 0 -370 -478v-482h-40zM484 -396l86 244h50v-10l-98 -234h-38z" />
    <glyph glyph-name="Ncaron" unicode="&#x147;" horiz-adv-x="1272" 
d="M180 0v1394h56l816 -1346v1346h40v-1394h-58l-814 1342v-1342h-40zM484 1810h48l106 -160l106 160h46l-130 -188h-46z" />
    <glyph glyph-name="ncaron" unicode="&#x148;" horiz-adv-x="1108" 
d="M172 0v986h40v-240q37 126 126 188t244 62q193 0 283.5 -100t90.5 -302v-594h-40v584q0 193 -79 284.5t-255 91.5q-370 0 -370 -478v-482h-40zM398 1530h48l106 -188l106 188h46l-130 -220h-46z" />
    <glyph glyph-name="napostrophe" unicode="&#x149;" horiz-adv-x="1227" 
d="M291 0v986h40v-240q37 126 126 188t244 62q193 0 283.5 -100t90.5 -302v-594h-40v584q0 193 -79 284.5t-255 91.5q-370 0 -370 -478v-482h-40zM118 992l148 478h40l-140 -488h-46z" />
    <glyph glyph-name="Eng" unicode="&#x14a;" horiz-adv-x="1272" 
d="M816 -404q121 0 176.5 52.5t55.5 185.5v166h-14l-814 1342v-1342h-40v1394h56l816 -1346v1346h40v-1528q0 -54 -2 -82q-9 -119 -75 -172t-199 -58v42z" />
    <glyph glyph-name="eng" unicode="&#x14b;" horiz-adv-x="1108" 
d="M714 -418q-84 0 -144 34l14 30q59 -28 128 -28h14q184 0 188 214l2 752q0 193 -79 284.5t-255 91.5q-370 0 -370 -478v-482h-40v986h40v-240q37 126 126 188t244 62q193 0 283.5 -100t90.5 -302l-2 -762q-1 -126 -59.5 -188t-166.5 -62h-14z" />
    <glyph glyph-name="Omacron" unicode="&#x14c;" horiz-adv-x="1422" 
d="M700 -18q-274 0 -442 191.5t-168 516.5q0 327 168 518.5t442 191.5h20q278 0 445 -194t167 -516q0 -321 -166.5 -514.5t-445.5 -193.5h-20zM130 690q0 -306 154.5 -487t415.5 -181h20q263 0 417.5 181.5t154.5 486.5q0 307 -154.5 488.5t-417.5 181.5h-20
q-261 0 -415.5 -181.5t-154.5 -488.5zM576 1694v42h280v-42h-280z" />
    <glyph glyph-name="omacron" unicode="&#x14d;" horiz-adv-x="1104" 
d="M542 -10q-200 0 -326 140.5t-126 363.5q0 224 125 363t327 139h20q202 0 327 -139t125 -363t-125.5 -364t-326.5 -140h-20zM130 494q0 -208 114 -338t298 -130h20q185 0 298.5 130t113.5 338q0 207 -114 336.5t-298 129.5h-20q-184 0 -298 -129.5t-114 -336.5zM411 1390
v42h280v-42h-280z" />
    <glyph glyph-name="Obreve" unicode="&#x14e;" horiz-adv-x="1422" 
d="M700 -12q-274 0 -442 191.5t-168 516.5q0 327 168 518.5t442 191.5h20q278 0 445 -194t167 -516q0 -321 -166.5 -514.5t-445.5 -193.5h-20zM130 696q0 -306 154.5 -487t415.5 -181h20q263 0 417.5 181.5t154.5 486.5q0 307 -154.5 488.5t-417.5 181.5h-20
q-261 0 -415.5 -181.5t-154.5 -488.5zM514 1864h36q1 -82 45 -128t113 -46t113 46t45 128h36q0 -99 -53.5 -157.5t-140.5 -58.5q-88 0 -141 58t-53 158z" />
    <glyph glyph-name="obreve" unicode="&#x14f;" horiz-adv-x="1104" 
d="M394 1518q1 -82 45 -128t113 -46t113 46t45 128h36q0 -99 -53.5 -157.5t-140.5 -58.5q-88 0 -141 58t-53 158h36zM90 494q0 224 125 363t327 139h20q202 0 327 -139t125 -363t-125.5 -364t-326.5 -140h-20q-200 0 -326 140.5t-126 363.5zM130 494q0 -208 114 -338
t298 -130h20q185 0 298.5 130t113.5 338q0 207 -114 336.5t-298 129.5h-20q-184 0 -298 -129.5t-114 -336.5z" />
    <glyph glyph-name="Ohungarumlaut" unicode="&#x150;" horiz-adv-x="1422" 
d="M700 -18q-274 0 -442 191.5t-168 516.5q0 327 168 518.5t442 191.5h20q278 0 445 -194t167 -516q0 -321 -166.5 -514.5t-445.5 -193.5h-20zM130 690q0 -306 154.5 -487t415.5 -181h20q263 0 417.5 181.5t154.5 486.5q0 307 -154.5 488.5t-417.5 181.5h-20
q-261 0 -415.5 -181.5t-154.5 -488.5zM546 1622l106 188h56l-124 -188h-38zM830 1622l106 188h56l-124 -188h-38z" />
    <glyph glyph-name="ohungarumlaut" unicode="&#x151;" horiz-adv-x="1104" 
d="M542 -10q-200 0 -326 140.5t-126 363.5q0 224 125 363t327 139h20q202 0 327 -139t125 -363t-125.5 -364t-326.5 -140h-20zM130 494q0 -208 114 -338t298 -130h20q185 0 298.5 130t113.5 338q0 207 -114 336.5t-298 129.5h-20q-184 0 -298 -129.5t-114 -336.5zM384 1311
l106 188h56l-124 -188h-38zM668 1311l106 188h56l-124 -188h-38z" />
    <glyph glyph-name="OE" unicode="&#x152;" horiz-adv-x="2256" 
d="M700 -18q-274 0 -442 191.5t-168 516.5q0 327 168 518.5t442 191.5h20q210 0 359.5 -113.5t212.5 -315.5v423h864v-38h-824v-634h754v-38h-754v-646h824v-38h-864v409q-63 -201 -212.5 -314t-359.5 -113h-20zM130 690q0 -306 154.5 -487t415.5 -181h20q263 0 417.5 181.5
t154.5 486.5q0 307 -154.5 488.5t-417.5 181.5h-20q-261 0 -415.5 -181.5t-154.5 -488.5z" />
    <glyph glyph-name="oe" unicode="&#x153;" horiz-adv-x="1948" 
d="M542 -10q-200 0 -326 140.5t-126 363.5q0 224 125 363t327 139h20q163 0 278 -92.5t155 -251.5q40 156 152 248t271 96q197 -5 318.5 -143.5t121.5 -358.5h-842q0 -208 114 -338t298 -130h20q115 0 205 52.5t143 147.5l36 -16q-59 -104 -158.5 -162t-225.5 -58h-20
q-161 0 -276.5 93.5t-156.5 252.5q-40 -159 -155.5 -252.5t-277.5 -93.5h-20zM130 494q0 -208 114 -338t298 -130h20q185 0 298.5 130t113.5 338q0 207 -114 336.5t-298 129.5h-20q-184 0 -298 -129.5t-114 -336.5zM1016 526h802q-9 191 -118.5 310.5t-281.5 123.5
q-172 -4 -282.5 -123.5t-119.5 -310.5z" />
    <glyph glyph-name="Racute" unicode="&#x154;" horiz-adv-x="1154" 
d="M180 0v1394h458q215 0 325.5 -93t110.5 -277v-2q0 -173 -98.5 -266t-289.5 -102l374 -654h-46l-374 652h-420v-652h-40zM220 690h418q396 0 396 334q0 332 -396 332h-418v-666zM580 1622l106 188h56l-124 -188h-38z" />
    <glyph glyph-name="racute" unicode="&#x155;" horiz-adv-x="800" 
d="M172 0v986h40v-240q37 126 126 188t244 62q74 0 138 -16l-8 -36q-61 16 -130 16q-370 0 -370 -478v-482h-40zM370 1310l120 220h56l-138 -220h-38z" />
    <glyph glyph-name="uni0156" unicode="&#x156;" horiz-adv-x="1234" 
d="M234 0v1394h458q215 0 325.5 -93t110.5 -277v-2q0 -173 -98.5 -266t-289.5 -102l374 -654h-46l-374 652h-420v-652h-40zM274 690h418q396 0 396 334q0 332 -396 332h-418v-666zM528 -396l86 244h50v-10l-98 -234h-38z" />
    <glyph glyph-name="uni0157" unicode="&#x157;" horiz-adv-x="870" 
d="M216 0v986h40v-240q37 126 126 188t244 62q74 0 138 -16l-8 -36q-61 16 -130 16q-370 0 -370 -478v-482h-40zM127 -396l86 244h50v-10l-98 -234h-38z" />
    <glyph glyph-name="Rcaron" unicode="&#x158;" horiz-adv-x="1154" 
d="M180 0v1394h458q215 0 325.5 -93t110.5 -277v-2q0 -173 -98.5 -266t-289.5 -102l374 -654h-46l-374 652h-420v-652h-40zM220 690h418q396 0 396 334q0 332 -396 332h-418v-666zM452 1810h48l106 -160l106 160h46l-130 -188h-46z" />
    <glyph glyph-name="rcaron" unicode="&#x159;" horiz-adv-x="678" 
d="M94 0v986h40v-240q37 126 126 188t244 62q74 0 138 -16l-8 -36q-61 16 -130 16q-370 0 -370 -478v-482h-40zM164 1530h48l106 -188l106 188h46l-130 -220h-46z" />
    <glyph glyph-name="Sacute" unicode="&#x15a;" 
d="M592 -28q-125 0 -228 40.5t-175 130t-85 217.5h44q19 -163 144.5 -254.5t301.5 -91.5q171 0 284.5 89t113.5 227q0 143 -88.5 216t-309.5 136q-117 33 -192.5 65t-130.5 76.5t-79 102t-24 136.5q0 98 59 178t156 124t211 44q184 0 292.5 -107.5t129.5 -272.5h-44
q-27 157 -130 247.5t-250 90.5q-54 0 -107 -12t-101.5 -37t-86 -59.5t-59.5 -84.5t-22 -107q0 -59 16 -104t44 -78t80 -61t110 -49.5t148 -47.5q113 -32 188.5 -65.5t131 -79.5t81 -106.5t25.5 -140.5q0 -154 -127.5 -258t-320.5 -104zM562 1622l106 188h56l-124 -188h-38z
" />
    <glyph glyph-name="sacute" unicode="&#x15b;" horiz-adv-x="962" 
d="M494 -14q-157 0 -264 76t-126 230h44q46 -268 350 -268q131 0 217.5 55.5t86.5 154.5q0 98 -72.5 149.5t-263.5 90.5q-68 14 -119.5 32.5t-97.5 47.5t-70.5 73.5t-24.5 102.5q0 110 92.5 183t235.5 73q155 0 244 -78.5t112 -205.5h-44q-33 125 -109.5 185.5t-204.5 60.5
q-116 0 -198 -58.5t-82 -157.5q0 -39 14 -71t38 -54.5t61.5 -41t78 -30.5t94.5 -23q190 -39 276 -100.5t86 -175.5q0 -113 -99 -181.5t-255 -68.5zM449 1310l120 220h56l-138 -220h-38z" />
    <glyph glyph-name="Scircumflex" unicode="&#x15c;" 
d="M592 -28q-125 0 -228 40.5t-175 130t-85 217.5h44q19 -163 144.5 -254.5t301.5 -91.5q171 0 284.5 89t113.5 227q0 143 -88.5 216t-309.5 136q-117 33 -192.5 65t-130.5 76.5t-79 102t-24 136.5q0 98 59 178t156 124t211 44q184 0 292.5 -107.5t129.5 -272.5h-44
q-27 157 -130 247.5t-250 90.5q-54 0 -107 -12t-101.5 -37t-86 -59.5t-59.5 -84.5t-22 -107q0 -59 16 -104t44 -78t80 -61t110 -49.5t148 -47.5q113 -32 188.5 -65.5t131 -79.5t81 -106.5t25.5 -140.5q0 -154 -127.5 -258t-320.5 -104zM437 1622l130 188h46l130 -188h-48
l-106 160l-106 -160h-46z" />
    <glyph glyph-name="scircumflex" unicode="&#x15d;" horiz-adv-x="962" 
d="M494 -14q-157 0 -264 76t-126 230h44q46 -268 350 -268q131 0 217.5 55.5t86.5 154.5q0 98 -72.5 149.5t-263.5 90.5q-68 14 -119.5 32.5t-97.5 47.5t-70.5 73.5t-24.5 102.5q0 110 92.5 183t235.5 73q155 0 244 -78.5t112 -205.5h-44q-33 125 -109.5 185.5t-204.5 60.5
q-116 0 -198 -58.5t-82 -157.5q0 -39 14 -71t38 -54.5t61.5 -41t78 -30.5t94.5 -23q190 -39 276 -100.5t86 -175.5q0 -113 -99 -181.5t-255 -68.5zM321 1310l130 220h46l130 -220h-48l-106 188l-106 -188h-46z" />
    <glyph glyph-name="Scedilla" unicode="&#x15e;" 
d="M504 -463q-66 0 -106 20v44q41 -22 106 -22q70 0 113 31.5t43 90.5q0 127 -196 118l82 155q-178 11 -300.5 109.5t-141.5 276.5h44q19 -163 144.5 -254.5t301.5 -91.5q171 0 284.5 89t113.5 227q0 143 -88.5 216t-309.5 136q-117 33 -192.5 65t-130.5 76.5t-79 102
t-24 136.5q0 98 59 178t156 124t211 44q184 0 292.5 -107.5t129.5 -272.5h-44q-27 157 -130 247.5t-250 90.5q-54 0 -107 -12t-101.5 -37t-86 -59.5t-59.5 -84.5t-22 -107q0 -59 16 -104t44 -78t80 -61t110 -49.5t148 -47.5q113 -32 188.5 -65.5t131 -79.5t81 -106.5
t25.5 -140.5q0 -154 -127.5 -258t-318.5 -104l-64 -117q176 -16 176 -154q0 -81 -60 -122.5t-142 -41.5z" />
    <glyph glyph-name="scedilla" unicode="&#x15f;" horiz-adv-x="962" 
d="M422 -459q-66 0 -106 20v44q41 -22 106 -22q70 0 113 31.5t43 90.5q0 127 -196 118l75 164q-144 9 -240 85t-113 220h44q46 -268 350 -268q131 0 217.5 55.5t86.5 154.5q0 98 -72.5 149.5t-263.5 90.5q-68 14 -119.5 32.5t-97.5 47.5t-70.5 73.5t-24.5 102.5
q0 110 92.5 183t235.5 73q155 0 244 -78.5t112 -205.5h-44q-33 125 -109.5 185.5t-204.5 60.5q-116 0 -198 -58.5t-82 -157.5q0 -39 14 -71t38 -54.5t61.5 -41t78 -30.5t94.5 -23q190 -39 276 -100.5t86 -175.5q0 -110 -95.5 -178.5t-247.5 -71.5l-57 -127q176 -16 176 -154
q0 -81 -60 -122.5t-142 -41.5z" />
    <glyph glyph-name="Scaron" unicode="&#x160;" 
d="M592 -28q-125 0 -228 40.5t-175 130t-85 217.5h44q19 -163 144.5 -254.5t301.5 -91.5q171 0 284.5 89t113.5 227q0 143 -88.5 216t-309.5 136q-117 33 -192.5 65t-130.5 76.5t-79 102t-24 136.5q0 98 59 178t156 124t211 44q184 0 292.5 -107.5t129.5 -272.5h-44
q-27 157 -130 247.5t-250 90.5q-54 0 -107 -12t-101.5 -37t-86 -59.5t-59.5 -84.5t-22 -107q0 -59 16 -104t44 -78t80 -61t110 -49.5t148 -47.5q113 -32 188.5 -65.5t131 -79.5t81 -106.5t25.5 -140.5q0 -154 -127.5 -258t-320.5 -104zM434 1810h48l106 -160l106 160h46
l-130 -188h-46z" />
    <glyph glyph-name="scaron" unicode="&#x161;" horiz-adv-x="962" 
d="M494 -14q-157 0 -264 76t-126 230h44q46 -268 350 -268q131 0 217.5 55.5t86.5 154.5q0 98 -72.5 149.5t-263.5 90.5q-68 14 -119.5 32.5t-97.5 47.5t-70.5 73.5t-24.5 102.5q0 110 92.5 183t235.5 73q155 0 244 -78.5t112 -205.5h-44q-33 125 -109.5 185.5t-204.5 60.5
q-116 0 -198 -58.5t-82 -157.5q0 -39 14 -71t38 -54.5t61.5 -41t78 -30.5t94.5 -23q190 -39 276 -100.5t86 -175.5q0 -113 -99 -181.5t-255 -68.5zM321 1530h48l106 -188l106 188h46l-130 -220h-46z" />
    <glyph glyph-name="uni0162" unicode="&#x162;" horiz-adv-x="1276" 
d="M558 -460q-66 0 -106 20v44q41 -22 106 -22q70 0 113 31.5t43 90.5q0 127 -196 118l98 178v1356h-526v38h1094v-38h-526v-1356l-74 -142q176 -16 176 -154q0 -81 -60 -122.5t-142 -41.5z" />
    <glyph glyph-name="uni0163" unicode="&#x163;" horiz-adv-x="702" 
d="M371 -459q-66 0 -106 20v44q41 -22 106 -22q70 0 113 31.5t43 90.5q0 127 -196 118l81 190q-108 56 -108 225v714h-244v34h244v406h40v-406h250v-34h-250v-714q0 -107 48.5 -160.5t139.5 -53.5h14q20 0 48 4v-36q-32 -4 -50 -4h-14q-37 0 -72 8l-61 -137
q176 -16 176 -154q0 -81 -60 -122.5t-142 -41.5z" />
    <glyph glyph-name="Tcaron" unicode="&#x164;" horiz-adv-x="1194" 
d="M576 0v1356h-526v38h1094v-38h-526v-1356h-42zM445 1810h48l106 -160l106 160h46l-130 -188h-46z" />
    <glyph glyph-name="tcaron" unicode="&#x165;" horiz-adv-x="654" 
d="M530 -12q-109 0 -167.5 62.5t-58.5 187.5v714h-244v34h244v406h40v-406h250v-34h-250v-714q0 -107 48.5 -160.5t139.5 -53.5h14q20 0 48 4v-36q-32 -4 -50 -4h-14zM499 1224l86 244h50v-10l-98 -234h-38z" />
    <glyph glyph-name="Tbar" unicode="&#x166;" horiz-adv-x="1194" 
d="M576 0v646h-289v42h289v668h-526v38h1094v-38h-526v-668h289v-42h-289v-646h-42z" />
    <glyph glyph-name="tbar" unicode="&#x167;" horiz-adv-x="654" 
d="M530 -12q-109 0 -167.5 62.5t-58.5 187.5v331h-127v34h127v349h-244v34h244v406h40v-406h250v-34h-250v-349h133v-34h-133v-331q0 -107 48.5 -160.5t139.5 -53.5h14q20 0 48 4v-36q-32 -4 -50 -4h-14z" />
    <glyph glyph-name="Utilde" unicode="&#x168;" horiz-adv-x="1242" 
d="M164 492v902h40v-888q0 -135 46 -240.5t119.5 -159t162.5 -78.5t178 2t162.5 82.5t119.5 162t46 241.5v878h40v-880q0 -258 -151 -407q-119 -117 -286 -127q-165 -10 -294 90q-153 118 -178 340q-5 40 -5 82zM444 1680q0 82 72 82q36 0 114 -26q72 -24 94 -24q32 0 32 42
h40q0 -82 -72 -82q-36 0 -114 26q-72 24 -94 24q-32 0 -32 -42h-40z" />
    <glyph glyph-name="utilde" unicode="&#x169;" horiz-adv-x="1088" 
d="M526 -10q-193 0 -283.5 100t-90.5 302v594h40v-584q0 -193 79 -284.5t255 -91.5q370 0 370 478v482h40v-986h-40v240q-37 -126 -126 -188t-244 -62zM362 1410q0 82 72 82q36 0 114 -26q72 -24 94 -24q32 0 32 42h40q0 -82 -72 -82q-36 0 -114 26q-72 24 -94 24
q-32 0 -32 -42h-40z" />
    <glyph glyph-name="Umacron" unicode="&#x16a;" horiz-adv-x="1242" 
d="M164 492v902h40v-888q0 -135 46 -240.5t119.5 -159t162.5 -78.5t178 2t162.5 82.5t119.5 162t46 241.5v878h40v-880q0 -258 -151 -407q-119 -117 -286 -127q-165 -10 -294 90q-153 118 -178 340q-5 40 -5 82zM479 1694v42h280v-42h-280z" />
    <glyph glyph-name="umacron" unicode="&#x16b;" horiz-adv-x="1088" 
d="M526 -10q-193 0 -283.5 100t-90.5 302v594h40v-584q0 -193 79 -284.5t255 -91.5q370 0 370 478v482h40v-986h-40v240q-37 -126 -126 -188t-244 -62zM403 1390v42h280v-42h-280z" />
    <glyph glyph-name="Ubreve" unicode="&#x16c;" horiz-adv-x="1242" 
d="M164 492v902h40v-888q0 -135 46 -240.5t119.5 -159t162.5 -78.5t178 2t162.5 82.5t119.5 162t46 241.5v878h40v-880q0 -258 -151 -407q-119 -117 -286 -127q-165 -10 -294 90q-153 118 -178 340q-5 40 -5 82zM425 1864h36q1 -82 45 -128t113 -46t113 46t45 128h36
q0 -99 -53.5 -157.5t-140.5 -58.5q-88 0 -141 58t-53 158z" />
    <glyph glyph-name="ubreve" unicode="&#x16d;" horiz-adv-x="1088" 
d="M526 -10q-193 0 -283.5 100t-90.5 302v594h40v-584q0 -193 79 -284.5t255 -91.5q370 0 370 478v482h40v-986h-40v240q-37 -126 -126 -188t-244 -62zM340 1518h36q1 -82 45 -128t113 -46t113 46t45 128h36q0 -99 -53.5 -157.5t-140.5 -58.5q-88 0 -141 58t-53 158z" />
    <glyph glyph-name="Uring" unicode="&#x16e;" horiz-adv-x="1242" 
d="M164 492v902h40v-888q0 -135 46 -240.5t119.5 -159t162.5 -78.5t178 2t162.5 82.5t119.5 162t46 241.5v878h40v-880q0 -258 -151 -407q-119 -117 -286 -127q-165 -10 -294 90q-153 118 -178 340q-5 40 -5 82zM493 1716q0 55 36.5 88.5t89.5 33.5t89.5 -33.5t36.5 -88.5
t-36.5 -88.5t-89.5 -33.5t-89.5 33.5t-36.5 88.5zM541 1716q0 -34 21 -57t57 -23t57 23t21 57t-21 57t-57 23t-57 -23t-21 -57z" />
    <glyph glyph-name="uring" unicode="&#x16f;" horiz-adv-x="1088" 
d="M526 -10q-193 0 -283.5 100t-90.5 302v594h40v-584q0 -193 79 -284.5t255 -91.5q370 0 370 478v482h40v-986h-40v240q-37 -126 -126 -188t-244 -62zM419 1418q0 56 36 90t88 34t88 -34t36 -90t-36 -90t-88 -34t-88 34t-36 90zM465 1418q0 -35 21 -58.5t57 -23.5t57 23.5
t21 58.5t-21 58.5t-57 23.5t-57 -23.5t-21 -58.5z" />
    <glyph glyph-name="Uhungarumlaut" unicode="&#x170;" horiz-adv-x="1242" 
d="M164 492v902h40v-888q0 -135 46 -240.5t119.5 -159t162.5 -78.5t178 2t162.5 82.5t119.5 162t46 241.5v878h40v-880q0 -258 -151 -407q-119 -117 -286 -127q-165 -10 -294 90q-153 118 -178 340q-5 40 -5 82zM459 1622l106 188h56l-124 -188h-38zM743 1622l106 188h56
l-124 -188h-38z" />
    <glyph glyph-name="uhungarumlaut" unicode="&#x171;" horiz-adv-x="1088" 
d="M526 -10q-193 0 -283.5 100t-90.5 302v594h40v-584q0 -193 79 -284.5t255 -91.5q370 0 370 478v482h40v-986h-40v240q-37 -126 -126 -188t-244 -62zM384 1311l106 188h56l-124 -188h-38zM668 1311l106 188h56l-124 -188h-38z" />
    <glyph glyph-name="Uogonek" unicode="&#x172;" horiz-adv-x="1242" 
d="M651 -422q82 0 138 56v46q-62 -62 -130 -62q-92 0 -92 104q0 90 57.5 165t153.5 124q133 52 216.5 181t83.5 322v880h-40v-878q0 -135 -46 -241.5t-119.5 -162t-162.5 -82.5t-178 -2t-162.5 78.5t-119.5 159t-46 240.5v888h-40v-902q0 -106 28.5 -195.5t77.5 -150
t113 -101t135.5 -56t144.5 -7.5q-140 -110 -140 -266q0 -74 36.5 -106t91.5 -32z" />
    <glyph glyph-name="uogonek" unicode="&#x173;" horiz-adv-x="1088" 
d="M763 -440q-55 0 -91.5 32t-36.5 106q0 111 72 204.5t189 129.5v208q-37 -126 -126 -188t-244 -62q-193 0 -283.5 100t-90.5 302v594h40v-584q0 -193 79 -284.5t255 -91.5q370 0 370 478v482h40v-986h-33q-99 -33 -161.5 -116t-62.5 -180q0 -104 92 -104q68 0 130 62v-46
q-56 -56 -138 -56z" />
    <glyph glyph-name="Wcircumflex" unicode="&#x174;" horiz-adv-x="1766" 
d="M428 0l-388 1394h44l372 -1342l404 1272h46l406 -1272l372 1342h42l-388 -1394h-52l-402 1264l-404 -1264h-52zM729 1622l130 188h46l130 -188h-48l-106 160l-106 -160h-46z" />
    <glyph glyph-name="wcircumflex" unicode="&#x175;" horiz-adv-x="1452" 
d="M348 0l-274 986h44l256 -932l330 932h48l328 -930l256 930h42l-272 -986h-50l-328 938l-332 -938h-48zM573 1310l130 220h46l130 -220h-48l-106 188l-106 -188h-46z" />
    <glyph glyph-name="Ycircumflex" unicode="&#x176;" horiz-adv-x="1092" 
d="M526 0l-4 412l-492 982h48l464 -938l472 938h48l-500 -982l4 -412h-40zM393 1622l130 188h46l130 -188h-48l-106 160l-106 -160h-46z" />
    <glyph glyph-name="ycircumflex" unicode="&#x177;" horiz-adv-x="972" 
d="M200 -364q100 -35 158 110l106 258l-404 982h46l378 -936l384 936h44l-518 -1258q-75 -186 -210 -126zM335 1310l130 220h46l130 -220h-48l-106 188l-106 -188h-46z" />
    <glyph glyph-name="Ydieresis" unicode="&#x178;" horiz-adv-x="1092" 
d="M526 0l-4 412l-492 982h48l464 -938l472 938h48l-500 -982l4 -412h-40zM381 1716q0 16 11.5 28t28.5 12t28.5 -12t11.5 -28t-11.5 -28t-28.5 -12t-28.5 12t-11.5 28zM633 1716q0 16 11.5 28t28.5 12t28.5 -12t11.5 -28t-11.5 -28t-28.5 -12t-28.5 12t-11.5 28z" />
    <glyph glyph-name="Zacute" unicode="&#x179;" horiz-adv-x="1064" 
d="M76 0v48l870 1308h-870v38h912v-46l-872 -1310h872v-38h-912zM508 1622l106 188h56l-124 -188h-38z" />
    <glyph glyph-name="zacute" unicode="&#x17a;" horiz-adv-x="926" 
d="M76 0v44l734 902l2 4h-736v36h774v-50l-728 -900h728v-36h-774zM423 1310l120 220h56l-138 -220h-38z" />
    <glyph glyph-name="Zdotaccent" unicode="&#x17b;" horiz-adv-x="1064" 
d="M76 0v48l870 1308h-870v38h912v-46l-872 -1310h872v-38h-912zM492 1716q0 16 12 28t28 12t28 -12t12 -28t-12 -28t-28 -12t-28 12t-12 28z" />
    <glyph glyph-name="zdotaccent" unicode="&#x17c;" horiz-adv-x="926" 
d="M76 0v44l734 902l2 4h-736v36h774v-50l-728 -900h728v-36h-774zM407 1416q0 16 11.5 28t28.5 12t28.5 -12t11.5 -28t-11.5 -28t-28.5 -12t-28.5 12t-11.5 28z" />
    <glyph glyph-name="Zcaron" unicode="&#x17d;" horiz-adv-x="1064" 
d="M76 0v48l870 1308h-870v38h912v-46l-872 -1310h872v-38h-912zM380 1810h48l106 -160l106 160h46l-130 -188h-46z" />
    <glyph glyph-name="zcaron" unicode="&#x17e;" horiz-adv-x="926" 
d="M76 0v44l734 902l2 4h-736v36h774v-50l-728 -900h728v-36h-774zM295 1530h48l106 -188l106 188h46l-130 -220h-46z" />
    <glyph glyph-name="uni0218" unicode="&#x218;" horiz-adv-x="1172" 
d="M606 -28q-125 0 -228 40.5t-175 130t-85 217.5h44q19 -163 144.5 -254.5t301.5 -91.5q171 0 284.5 89t113.5 227q0 143 -88.5 216t-309.5 136q-117 33 -192.5 65t-130.5 76.5t-79 102t-24 136.5q0 98 59 178t156 124t211 44q184 0 292.5 -107.5t129.5 -272.5h-44
q-27 157 -130 247.5t-250 90.5q-54 0 -107 -12t-101.5 -37t-86 -59.5t-59.5 -84.5t-22 -107q0 -59 16 -104t44 -78t80 -61t110 -49.5t148 -47.5q113 -32 188.5 -65.5t131 -79.5t81 -106.5t25.5 -140.5q0 -154 -127.5 -258t-320.5 -104zM490 -396l86 244h50v-10l-98 -234h-38
z" />
    <glyph glyph-name="uni0219" unicode="&#x219;" horiz-adv-x="984" 
d="M510 -14q-157 0 -264 76t-126 230h44q46 -268 350 -268q131 0 217.5 55.5t86.5 154.5q0 98 -72.5 149.5t-263.5 90.5q-68 14 -119.5 32.5t-97.5 47.5t-70.5 73.5t-24.5 102.5q0 110 92.5 183t235.5 73q155 0 244 -78.5t112 -205.5h-44q-33 125 -109.5 185.5t-204.5 60.5
q-116 0 -198 -58.5t-82 -157.5q0 -39 14 -71t38 -54.5t61.5 -41t78 -30.5t94.5 -23q190 -39 276 -100.5t86 -175.5q0 -113 -99 -181.5t-255 -68.5zM399 -396l86 244h50v-10l-98 -234h-38z" />
    <glyph glyph-name="uni021A" unicode="&#x21a;" horiz-adv-x="1276" 
d="M616 0v1356h-526v38h1094v-38h-526v-1356h-42zM526 -396l86 244h50v-10l-98 -234h-38z" />
    <glyph glyph-name="uni021B" unicode="&#x21b;" horiz-adv-x="702" 
d="M530 -12q-109 0 -167.5 62.5t-58.5 187.5v714h-244v34h244v406h40v-406h250v-34h-250v-714q0 -107 48.5 -160.5t139.5 -53.5h14q20 0 48 4v-36q-32 -4 -50 -4h-14zM324 -396l86 244h50v-10l-98 -234h-38z" />
    <glyph glyph-name="uni0237" unicode="&#x237;" horiz-adv-x="474" 
d="M22 -418q-84 0 -144 34l14 30q59 -28 128 -28h14q91 0 139.5 53.5t48.5 160.5v1154h40v-1154q0 -125 -58.5 -187.5t-167.5 -62.5h-14z" />
    <glyph glyph-name="circumflex" unicode="&#x2c6;" horiz-adv-x="618" 
d="M156 1610l130 220h46l130 -220h-48l-106 188l-106 -188h-46z" />
    <glyph glyph-name="caron" unicode="&#x2c7;" horiz-adv-x="618" 
d="M286 1610l-130 220h48l106 -188l106 188h46l-130 -220h-46z" />
    <glyph glyph-name="breve" unicode="&#x2d8;" horiz-adv-x="744" 
d="M372 1602q-88 0 -141 58t-53 158h36q1 -82 45 -128t113 -46t113 46t45 128h36q0 -99 -53.5 -157.5t-140.5 -58.5z" />
    <glyph glyph-name="dotaccent" unicode="&#x2d9;" horiz-adv-x="876" 
d="M438 1676q-16 0 -28 12t-12 28t12 28t28 12t28 -12t12 -28t-12 -28t-28 -12z" />
    <glyph glyph-name="ring" unicode="&#x2da;" horiz-adv-x="820" 
d="M410 1594q-52 0 -88 34t-36 90t36 90t88 34t88 -34t36 -90t-36 -90t-88 -34zM332 1718q0 -35 21 -58.5t57 -23.5t57 23.5t21 58.5t-21 58.5t-57 23.5t-57 -23.5t-21 -58.5z" />
    <glyph glyph-name="ogonek" unicode="&#x2db;" horiz-adv-x="890" 
d="M314 -446q-55 0 -91.5 32t-36.5 106q0 111 72.5 204.5t189.5 129.5l26 -26q-107 -28 -175.5 -114t-68.5 -188q0 -104 92 -104q68 0 130 62v-46q-56 -56 -138 -56z" />
    <glyph glyph-name="tilde" unicode="&#x2dc;" horiz-adv-x="656" 
d="M432 1702q-36 0 -114 26q-72 24 -94 24q-32 0 -32 -42h-40q0 82 72 82q36 0 114 -26q72 -24 94 -24q32 0 32 42h40q0 -82 -72 -82z" />
    <glyph glyph-name="hungarumlaut" unicode="&#x2dd;" horiz-adv-x="778" 
d="M228 1610l106 188h56l-124 -188h-38zM512 1610l106 188h56l-124 -188h-38z" />
    <glyph glyph-name="uni0326" unicode="&#x326;" horiz-adv-x="0" 
d="M230 -346l86 244h50v-10l-98 -234h-38z" />
    <glyph glyph-name="Wgrave" unicode="&#x1e80;" horiz-adv-x="1766" 
d="M428 0l-388 1394h44l372 -1342l404 1272h46l406 -1272l372 1342h42l-388 -1394h-52l-402 1264l-404 -1264h-52zM741 1810h56l106 -188h-38z" />
    <glyph glyph-name="wgrave" unicode="&#x1e81;" horiz-adv-x="1452" 
d="M348 0l-274 986h44l256 -932l330 932h48l328 -930l256 930h42l-272 -986h-50l-328 938l-332 -938h-48zM577 1530h56l120 -220h-38z" />
    <glyph glyph-name="Wacute" unicode="&#x1e82;" horiz-adv-x="1766" 
d="M428 0l-388 1394h44l372 -1342l404 1272h46l406 -1272l372 1342h42l-388 -1394h-52l-402 1264l-404 -1264h-52zM842 1622l106 188h56l-124 -188h-38z" />
    <glyph glyph-name="wacute" unicode="&#x1e83;" horiz-adv-x="1452" 
d="M348 0l-274 986h44l256 -932l330 932h48l328 -930l256 930h42l-272 -986h-50l-328 938l-332 -938h-48zM701 1310l120 220h56l-138 -220h-38z" />
    <glyph glyph-name="Wdieresis" unicode="&#x1e84;" horiz-adv-x="1766" 
d="M428 0l-388 1394h44l372 -1342l404 1272h46l406 -1272l372 1342h42l-388 -1394h-52l-402 1264l-404 -1264h-52zM720 1716q0 16 12 28t28 12t28 -12t12 -28t-12 -28t-28 -12t-28 12t-12 28zM972 1716q0 16 12 28t28 12t28 -12t12 -28t-12 -28t-28 -12t-28 12t-12 28z" />
    <glyph glyph-name="wdieresis" unicode="&#x1e85;" horiz-adv-x="1452" 
d="M348 0l-274 986h44l256 -932l330 932h48l328 -930l256 930h42l-272 -986h-50l-328 938l-332 -938h-48zM561 1418q0 16 11.5 28t28.5 12t28.5 -12t11.5 -28t-11.5 -28t-28.5 -12t-28.5 12t-11.5 28zM813 1418q0 16 11.5 28t28.5 12t28.5 -12t11.5 -28t-11.5 -28t-28.5 -12
t-28.5 12t-11.5 28z" />
    <glyph glyph-name="uni1E9E" unicode="&#x1e9e;" horiz-adv-x="1255" 
d="M723 -8q-119 0 -216 20v46q107 -24 216 -24q140 0 222 59t82 165q0 68 -36 127.5t-136 152.5q-86 79 -114 129.5t-28 118.5t28 118.5t114 129.5q100 93 136 152.5t36 127.5q0 106 -82 165t-222 59h-445v-1538h-44v1580h492q165 0 257 -72t92 -200q0 -79 -47 -152.5
t-149 -163.5q-67 -58 -92.5 -104t-25.5 -102t25.5 -102t92.5 -104q102 -90 149 -163.5t47 -152.5q0 -129 -92.5 -200.5t-259.5 -71.5z" />
    <glyph glyph-name="Ygrave" unicode="&#x1ef2;" horiz-adv-x="1092" 
d="M526 0l-4 412l-492 982h48l464 -938l472 938h48l-500 -982l4 -412h-40zM401 1810h56l106 -188h-38z" />
    <glyph glyph-name="ygrave" unicode="&#x1ef3;" horiz-adv-x="972" 
d="M200 -364q100 -35 158 110l106 258l-404 982h46l378 -936l384 936h44l-518 -1258q-75 -186 -210 -126zM339 1530h56l120 -220h-38z" />
    <glyph glyph-name="endash" unicode="&#x2013;" horiz-adv-x="1040" 
d="M160 560v42h720v-42h-720z" />
    <glyph glyph-name="emdash" unicode="&#x2014;" horiz-adv-x="1900" 
d="M90 560v42h1720v-42h-1720z" />
    <glyph glyph-name="quoteleft" unicode="&#x2018;" horiz-adv-x="420" 
d="M116 982l-2 10l148 478h40l-140 -488h-46z" />
    <glyph glyph-name="quoteright" unicode="&#x2019;" horiz-adv-x="420" 
d="M118 982l140 488h46l2 -10l-148 -478h-40z" />
    <glyph glyph-name="quotesinglbase" unicode="&#x201a;" horiz-adv-x="384" 
d="M114 -232l92 280h46l2 -10l-102 -270h-38z" />
    <glyph glyph-name="quotedblleft" unicode="&#x201c;" horiz-adv-x="600" 
d="M296 982l-2 10l148 478h40l-140 -488h-46zM114 992l148 478h40l-140 -488h-46z" />
    <glyph glyph-name="quotedblright" unicode="&#x201d;" horiz-adv-x="600" 
d="M298 982l140 488h46l2 -10l-148 -478h-40zM118 982l140 488h46l2 -10l-148 -478h-40z" />
    <glyph glyph-name="quotedblbase" unicode="&#x201e;" horiz-adv-x="524" 
d="M254 -232l92 280h46l2 -10l-102 -270h-38zM114 -232l92 280h46l2 -10l-102 -270h-38z" />
    <glyph glyph-name="dagger" unicode="&#x2020;" horiz-adv-x="1076" 
d="M516 -320l-2 1128l-374 -2v46l374 -2l-2 530h52l-2 -530l374 2v-46l-374 2l2 -1128h-48z" />
    <glyph glyph-name="daggerdbl" unicode="&#x2021;" horiz-adv-x="1076" 
d="M516 -320l-2 526l-374 -2v46l374 -2v560l-374 -2v46l374 -2l-2 530h52l-2 -530l374 2v-46l-374 2v-560l374 2v-46l-374 2l2 -526h-48z" />
    <glyph glyph-name="bullet" unicode="&#x2022;" horiz-adv-x="520" 
d="M260 520q-39 0 -64.5 25.5t-25.5 64.5t25.5 64.5t64.5 25.5t64.5 -25.5t25.5 -64.5t-25.5 -64.5t-64.5 -25.5z" />
    <glyph glyph-name="ellipsis" unicode="&#x2026;" horiz-adv-x="740" 
d="M570 -28q-16 0 -28 12t-12 28t12 28t28 12t28 -12t12 -28t-12 -28t-28 -12zM130 12q0 16 12 28t28 12t28 -12t12 -28t-12 -28t-28 -12t-28 12t-12 28zM330 12q0 16 12 28t28 12t28 -12t12 -28t-12 -28t-28 -12t-28 12t-12 28z" />
    <glyph glyph-name="perthousand" unicode="&#x2030;" horiz-adv-x="1908" 
d="M174 0l894 1380h52l-894 -1380h-52zM90 1090q0 138 69.5 228t186.5 90t186.5 -90t69.5 -228q0 -136 -69.5 -227t-186.5 -91t-186.5 91t-69.5 227zM138 1090q0 -124 54.5 -200t153.5 -76t153.5 76t54.5 200q0 125 -54 200.5t-154 75.5t-154 -75.5t-54 -200.5zM692 290
q0 138 69.5 228t186.5 90t186.5 -90t69.5 -228q0 -136 -69.5 -227t-186.5 -91t-186.5 91t-69.5 227zM740 290q0 -124 54.5 -200t153.5 -76t153.5 76t54.5 200q0 125 -54 200.5t-154 75.5t-154 -75.5t-54 -200.5zM1306 290q0 138 69.5 228t186.5 90t186.5 -90t69.5 -228
q0 -136 -69.5 -227t-186.5 -91t-186.5 91t-69.5 227zM1354 290q0 -124 54.5 -200t153.5 -76t153.5 76t54.5 200q0 125 -54 200.5t-154 75.5t-154 -75.5t-54 -200.5z" />
    <glyph glyph-name="guilsinglleft" unicode="&#x2039;" horiz-adv-x="522" 
d="M364 164l-274 332l274 332h58l-274 -332l274 -332h-58z" />
    <glyph glyph-name="guilsinglright" unicode="&#x203a;" horiz-adv-x="522" 
d="M100 164l274 332l-274 332h58l274 -332l-274 -332h-58z" />
    <glyph glyph-name="fraction" unicode="&#x2044;" horiz-adv-x="80" 
d="M-270 -61l509 1492l37 6l-509 -1492z" />
    <glyph glyph-name="Euro" unicode="&#x20ac;" horiz-adv-x="1140" 
d="M698 -28q-476 0 -520 588h-175l20 42h153q-2 26 -2 82q0 36 4 96h-125l20 42h107q29 287 170.5 436.5t355.5 149.5q111 0 185.5 -27.5t140.5 -92.5l-30 -32q-62 61 -130.5 85.5t-169.5 24.5q-85 0 -161.5 -30t-142.5 -92.5t-111 -170.5t-59 -251h740l-22 -42h-722
q-2 -28 -2 -88q0 -62 2 -90h662l-18 -42h-642q24 -279 145 -412.5t337 -133.5q154 0 280 80v-48q-130 -74 -290 -74z" />
    <glyph glyph-name="trademark" unicode="&#x2122;" horiz-adv-x="1038" 
d="M494 912v406h62l142 -368l142 368h58v-406h-40l4 370l-142 -366h-48l-140 364l2 -368h-40zM60 1282v38h380v-38h-168v-370h-44v370h-168z" />
    <glyph glyph-name="partialdiff" unicode="&#x2202;" horiz-adv-x="1080" 
d="M512 -28q-175 0 -283.5 123t-108.5 319q0 229 124.5 364.5t317.5 135.5q115 0 203.5 -55.5t136.5 -144.5q-2 129 -15.5 238.5t-44 207.5t-75 166.5t-112.5 108t-153 39.5q-82 0 -147 -23.5t-129 -76.5l-26 32q71 59 144.5 84.5t163.5 25.5q442 0 442 -870
q0 -323 -106.5 -498.5t-331.5 -175.5zM168 418q0 -185 97 -294.5t247 -109.5q190 0 288 149.5t102 474.5q-52 118 -144 176t-194 58q-181 0 -288.5 -126.5t-107.5 -327.5z" />
    <glyph glyph-name="emptyset" unicode="&#x2205;" horiz-adv-x="1756" 
d="M878 -30q-144 0 -275 53.5t-231 150.5l-166 -166l-30 30l168 168q-92 100 -143 229t-51 275q0 155 58.5 293t157 235.5t232 154.5t280.5 57q144 0 275 -53.5t231 -150.5l166 166l30 -30l-168 -168q92 -100 143 -229t51 -275q0 -155 -58.5 -293t-157 -235.5t-232 -154.5
t-280.5 -57zM198 710q0 -137 47 -257.5t131 -214.5l976 976q-94 93 -216.5 143.5t-257.5 50.5q-137 0 -262 -53.5t-217 -145.5t-146.5 -222.5t-54.5 -276.5zM404 206q94 -93 216.5 -143.5t257.5 -50.5q137 0 262 53.5t217 145.5t146.5 222.5t54.5 276.5q0 137 -47 257.5
t-131 214.5z" />
    <glyph glyph-name="product" unicode="&#x220f;" horiz-adv-x="1088" 
d="M212 -220v1558h-112v42h888v-42h-112v-1558h-44v1558h-576v-1558h-44z" />
    <glyph glyph-name="summation" unicode="&#x2211;" horiz-adv-x="1086" 
d="M60 -220v40l576 782l-516 738v40h866v-42h-812l516 -738l-574 -778h882v-42h-938z" />
    <glyph glyph-name="minus" unicode="&#x2212;" horiz-adv-x="1012" 
d="M106 614v42h800v-42h-800z" />
    <glyph glyph-name="radical" unicode="&#x221a;" horiz-adv-x="1094" 
d="M514 -320l-264 898h-132v42h164l264 -906l426 1846h46l-438 -1880h-66z" />
    <glyph glyph-name="infinity" unicode="&#x221e;" horiz-adv-x="2068" 
d="M564 -28q-207 0 -335.5 153.5t-128.5 402.5q0 250 128.5 405t335.5 155q179 0 299.5 -114t172.5 -338q40 218 163.5 335t304.5 117q207 0 335.5 -155t128.5 -405q0 -249 -128.5 -402.5t-335.5 -153.5q-180 0 -300 114.5t-172 339.5q-44 -224 -165.5 -339t-302.5 -115z
M148 528q0 -127 35.5 -228t95 -162t132.5 -92.5t153 -31.5q60 0 116.5 16t112.5 54.5t99 96t74 147.5t40 202q-19 140 -63.5 243.5t-106 161t-129 84.5t-143.5 27q-80 0 -153 -32t-132.5 -93.5t-95 -163t-35.5 -229.5zM1062 530q18 -140 62.5 -243.5t106 -161t129.5 -84.5
t144 -27q80 0 153 31.5t132.5 92.5t95 162t35.5 228q0 128 -35.5 229.5t-95 163t-132.5 93.5t-153 32q-76 0 -146.5 -27t-134.5 -84.5t-107 -161.5t-54 -243z" />
    <glyph glyph-name="integral" unicode="&#x222b;" horiz-adv-x="570" 
d="M202 -320q-75 0 -122 56l28 30q39 -44 96 -44q59 0 94.5 69t35.5 215q0 152 -72 582q-44 266 -59 387.5t-15 222.5q0 164 52.5 237t127.5 73t122 -56l-28 -30q-39 44 -96 44q-59 0 -94.5 -69t-35.5 -215q0 -152 72 -582q44 -266 59 -387.5t15 -222.5q0 -164 -52.5 -237
t-127.5 -73z" />
    <glyph glyph-name="approxequal" unicode="&#x2248;" 
d="M780 700q-49 0 -92.5 15.5t-125.5 58.5q-77 40 -113.5 53t-82.5 13q-69 0 -111.5 -27.5t-88.5 -96.5l-30 24q81 142 230 142q49 0 92.5 -15.5t125.5 -58.5q77 -40 113.5 -53t82.5 -13q69 0 111.5 27.5t88.5 96.5l30 -24q-81 -142 -230 -142zM136 380q81 142 230 142
q49 0 92.5 -15.5t125.5 -58.5q77 -40 113.5 -53t82.5 -13q69 0 111.5 27.5t88.5 96.5l30 -24q-81 -142 -230 -142q-49 0 -92.5 15.5t-125.5 58.5q-77 40 -113.5 53t-82.5 13q-69 0 -111.5 -27.5t-88.5 -96.5z" />
    <glyph glyph-name="notequal" unicode="&#x2260;" horiz-adv-x="1092" 
d="M270 206l134 228h-278v42h302l186 318h-488v42h512l134 230h48l-134 -230h280v-42h-304l-186 -318h490v-42h-514l-134 -228h-48z" />
    <glyph glyph-name="lessequal" unicode="&#x2264;" horiz-adv-x="1012" 
d="M906 180l-800 350v40l800 350v-48l-744 -322l744 -322v-48zM106 0v42h800v-42h-800z" />
    <glyph glyph-name="greaterequal" unicode="&#x2265;" horiz-adv-x="1012" 
d="M106 180v48l744 322l-744 322v48l800 -350v-40zM106 0v42h800v-42h-800z" />
    <glyph glyph-name="lozenge" unicode="&#x25ca;" horiz-adv-x="912" 
d="M434 0l-334 690l334 690h44l334 -690l-334 -690h-44zM148 690l308 -642l308 642l-308 640z" />
    <glyph glyph-name="uniF8FF" unicode="&#xf8ff;" horiz-adv-x="1622" 
d="M798 253q-151 0 -279.5 75.5t-203 204.5t-74.5 280q0 152 75 280.5t203.5 203t280.5 74.5q151 0 279.5 -75t203.5 -203.5t75 -279.5q0 -152 -74.5 -281t-203.5 -204t-282 -75zM240 29v146h59q26 0 44 -9q37 -17 37 -64q0 -23 -10 -39q-21 -34 -71 -34h-59zM275 56h22
q18 0 26 4q22 10 22 42q0 18 -5 27q-12 20 -43 20h-22v-93zM308 814q0 -205 144 -350t348 -145q203 0 347.5 144.5t144.5 347.5q0 100 -39 191.5t-104.5 157.5t-156 105t-190.5 40q-134 0 -248 -65.5t-180 -178.5t-66 -247zM392 84q0 16 8 29q16 27 52 27q26 0 42 -14
q18 -15 18 -42v-8h-85q0 -8 3 -13q7 -13 25 -13q7 0 10 1q9 3 14 12l31 -3q-2 -10 -10 -17q-14 -16 -45 -16q-17 0 -33 7q-30 14 -30 50zM427 95h52l-3 10q-6 12 -23 12q-10 0 -14 -3q-10 -6 -12 -19zM482 912q10 -2 12 -4q52 -21 98 -27q41 -3 72 2q43 11 47 12
q3 0 8.5 2.5t7.5 3.5q-5 2 -16.5 8t-17 9t-13 8.5t-13.5 12.5h19q39 0 75 19q65 40 136 61q24 8 58 11q4 0 19.5 1t23.5 0q54 -2 89 -33q10 -11 28 -33v-2l-6 2q-45 17 -83 3.5t-62 -53.5q-7 -13 -25 -55q-9 -21 -27 -63.5t-20 -48.5q-33 -64 -65 -101q-27 -33 -66 -58
q-45 -34 -116 -55h-5l24 22q12 11 25 44q41 116 45 127q24 73 57 131v3q-2 -4 -11 -13q-8 -10 -10 -12q-23 -36 -31 -57q-2 -6 -8 -6q-99 3 -177 67q-40 38 -59 55q-1 1 -5 7t-8 10zM521 61l33 2q5 -14 23 -14q20 0 20 11q0 8 -16 11l-21 4q-36 6 -36 31q0 10 6 18
q13 16 46 16q48 0 53 -32l-31 -3q-4 14 -21 14q-19 0 -19 -11q0 -8 16 -12l22 -3q36 -6 36 -30q0 -9 -7 -18q-13 -18 -48 -18q-51 0 -56 34zM645 168q0 15 19 15q18 0 18 -15t-18 -15q-19 0 -19 15zM647 29v109h34v-109h-34zM696 84q0 20 7 31q13 25 43 25q10 0 18 -3
q12 -5 18 -17h1v18h35v-110q0 -14 -9 -23q-15 -19 -52 -19q-50 0 -57 31l31 3l6 -6q5 -6 21 -6q25 0 25 21v19h-1q-2 -3 -7 -8q-11 -9 -29 -9q-13 0 -25 5q-25 13 -25 48zM731 84q0 -10 3 -16q6 -14 24 -14q25 0 25 30q0 10 -3 17q-6 15 -22 15q-7 0 -15 -4q-12 -7 -12 -28z
M838 29v109h34v-19q10 21 37 21q13 0 23 -5q20 -10 20 -36v-70h-35v64q0 22 -21 22q-7 0 -13 -3q-11 -6 -11 -19v-64h-34zM967 84q0 15 7 29q16 27 54 27q20 0 33 -7q28 -16 28 -49q0 -17 -7 -30q-16 -27 -54 -27q-16 0 -33 7q-28 16 -28 50zM1002 84q0 -9 3 -18
q7 -15 23 -15q10 0 15 4q12 9 12 29q0 2 -3 17q-8 16 -24 16q-7 0 -14 -5q-12 -7 -12 -28zM1091 138h36l26 -78h1l26 78h36l-43 -109h-39zM1217 60q0 17 15 25q13 8 32 8l17 3q13 0 13 7v1q0 14 -19 14q-17 0 -22 -13l-32 3q3 10 10 17q15 15 45 15q20 0 37 -9q15 -8 15 -28
v-74h-33v16q-5 -7 -9 -9q-9 -9 -27 -9q-13 0 -21 4q-21 8 -21 29zM1250 60q0 -12 18 -12q8 0 14 3q12 5 12 18v11q-4 -2 -23 -5q-7 0 -12 -3q-9 -3 -9 -12zM1307 177q0 16 11 26.5t27 10.5t26.5 -10.5t10.5 -26.5t-10.5 -27t-26.5 -11t-27 11t-11 27zM1319 177
q0 -11 7.5 -19t18.5 -8t18.5 8t7.5 19t-7.5 18.5t-18.5 7.5t-18.5 -7.5t-7.5 -18.5zM1332 160v35h14q12 0 12 -11q0 -5 -5 -10l8 -14h-10l-6 11h-5v-11h-8zM1340 180h6q5 0 5 3t-5 3h-6v-6z" />
    <glyph glyph-name="_Designova" horiz-adv-x="1772" 
d="M884 41q-174 0 -322.5 87t-235 235.5t-86.5 323.5q1 131 52 250.5t137.5 205.5t206 137t250.5 51q175 0 323.5 -86t235.5 -234.5t87 -323.5q0 -176 -87 -324.5t-236 -235t-325 -86.5zM318 687q0 -116 45 -221.5t120.5 -181.5t181 -121t221.5 -45q154 0 285 76t207 207
t76 285q0 116 -45 221.5t-120.5 181.5t-180.5 121t-221 45t-221 -45t-181.5 -120.5t-121.5 -181t-45 -221.5zM520 800q7 0 13 -4q58 -22 115 -31q45 -5 81 3q29 4 53 14q5 0 11.5 3t8.5 4q-5 3 -22.5 11.5t-27.5 15.5t-19 17h21q39 0 86 20q85 53 158 73q37 10 66 10
q6 0 24.5 1.5t26.5 0.5q66 -4 102 -39q6 -5 33 -37v-2q-3 2 -7 2q-53 20 -95.5 4.5t-71.5 -59.5q-5 -9 -10 -20.5t-11 -25t-9 -21.5q-6 -14 -25 -59t-30 -68q-36 -74 -74 -119q-20 -27 -74 -66q-52 -38 -136 -63h-7l28 24q18 17 30 51q7 20 25 71t27 78q31 90 65 150v1
q-3 -3 -11 -13q-9 -7 -11 -16q-23 -27 -38 -65q-3 -5 -9 -5q-117 5 -204 78q-10 10 -32.5 31t-33.5 32q-12 14 -16 18z" />
    <glyph glyph-name="_Origin" horiz-adv-x="2275" 
d="M160 1055v50h1955v-50h-1955zM160 236v50h1955v-50h-1955zM238 437v177h42v-177h-42zM270 734v177h148v-32h-107v-39h97v-31h-97v-42h107v-33h-148zM308 437v177h34l89 -107v107h40v-177h-33l-88 109v-109h-42zM448 734v177h34l88 -107v107h40v-177h-33l-88 109v-109h-41
zM564 437v177h87q72 0 72 -45q0 -28 -26 -40q3 0 3 -2q28 -12 28 -42q0 -48 -71 -48h-93zM606 468h48q32 0 32 22t-32 22h-48v-44zM606 545h42q33 0 33 20q0 22 -33 22h-42v-42zM639 879v32h156v-32h-57v-145h-41v145h-58zM748 437v177h148v-33h-107v-38h96v-31h-96v-41h105
v-34h-146zM813 911h44l40 -124l42 124h38l40 -126l42 126h39l-57 -177h-45l-39 121l-41 -121h-43zM924 437v177h81q28 0 42 -6q36 -19 36 -57q0 -21 -10 -35q-15 -18 -29 -23l37 -56h-43l-35 50h-37v-50h-42zM966 520h37q38 0 38 31q0 30 -38 30h-37v-61zM1103 437v177h40
v-143h106v-34h-146zM1106 823q0 39 28 65q26 26 69 26t69 -26q28 -25 28 -65q0 -39 -28 -65q-26 -27 -68 -27q-44 0 -70 27q-28 28 -28 65zM1148 823q0 -25 15.5 -40.5t39.5 -15.5t39.5 15.5t15.5 40.5t-15.5 41.5t-39.5 16.5t-39.5 -16.5t-15.5 -41.5zM1278 437v177h41
v-177h-41zM1323 734v177h81q28 0 41 -6q36 -17 36 -57q0 -21 -10 -35q-9 -15 -29 -23l39 -56h-45l-33 50h-39v-50h-41zM1348 437v177h35l87 -107v107h42v-177h-34l-89 109v-109h-41zM1364 817h37q38 0 38 31t-38 31h-37v-62zM1501 734v177h148v-32h-107v-39h96v-31h-96v-75
h-41zM1538 461q0 24 25 24q10 0 17 -7t7 -17q0 -11 -7 -25l-14 -38h-26l12 41q-14 5 -14 22zM1665 734v177h147v-32h-106v-39h95v-31h-95v-42h106v-33h-147zM1688 437v177h80q30 0 52 -11q46 -21 46 -77q0 -28 -12 -47q-23 -42 -86 -42h-80zM1730 471h37q17 0 31 7
q26 14 26 48q0 21 -6 29q-14 26 -51 26h-37v-110zM1842 734v177h33l90 -107v107h40v-177h-34l-89 109v-109h-40zM1890 437v177h147v-33h-107v-38h97v-31h-97v-41h106v-34h-146z" />
    <glyph glyph-name="_VendorID" horiz-adv-x="1196" 
d="M113 154v1187h974v-1187h-974zM116 63q0 13 7.5 20.5t18.5 7.5q9 0 12 -3l4 -5v26h13v-72h-13v9l-4 -7q-8 -5 -15 -5q-23 0 -23 29zM130 63q0 -17 13 -17q15 0 15 17v1q0 18 -13 18q-15 0 -15 -19zM166 205h869v1084h-869v-1084zM181 63q0 13 7.5 20.5t19.5 7.5
q11 0 18.5 -7.5t7.5 -19.5q0 -2 -2 -5h-37q1 -13 13 -13q10 0 12 9h12q-4 -21 -24 -21q-27 0 -27 29zM195 67h25q-3 15 -12 15q-12 0 -13 -15zM238 52h14q3 -9 9 -9q9 0 9 7q0 3 -12 9q-18 5 -18 16q0 16 21 16t21 -16h-14q-1 7 -7 7q-7 0 -7 -6q0 -4 12 -9q17 -5 17 -15
q0 -18 -22 -18q-20 0 -23 18zM280 455q0 59 46 125l97 137h64l-84 -120q10 3 23 3q62 0 102.5 -41.5t40.5 -103.5q0 -61 -41.5 -103.5t-101.5 -42.5q-61 0 -103.5 42.5t-42.5 103.5zM280 926q0 56 46 123l97 142h64l-84 -122q7 2 23 2q63 0 103 -41t40 -104
q0 -61 -41 -102.5t-102 -41.5t-103.5 42t-42.5 102zM291 102q0 7 8 7t8 -7q0 -8 -8 -8t-8 8zM292 37v54h14v-54h-14zM316 63q0 28 26 28q9 0 12 -3l4 -5v8h14v-41q0 -8 -2 -11q0 -24 -27 -24q-26 0 -26 18v1h14v-1q0 -8 12 -8q11 0 15 13v8l-4 -7q-8 -2 -14 -2q-24 0 -24 26
zM331 64q0 -18 12 -18q15 0 15 17v1q0 18 -15 18q-12 0 -12 -18zM334 455q0 -42 25.5 -68t66.5 -26q39 0 64.5 26t25.5 68q0 40 -25.5 65t-64.5 25q-41 0 -66.5 -25t-25.5 -65zM334 926q0 -41 25.5 -67t66.5 -26q39 0 64.5 26.5t25.5 66.5t-25.5 66t-64.5 26
q-41 0 -66.5 -25t-25.5 -67zM383 37v54h14v-10l4 7q5 3 13 3q17 0 20 -15q1 -3 1 -9v-30h-15v34q0 11 -10 11q-13 0 -13 -21v-24h-14zM442 63q0 13 7.5 20.5t19.5 7.5q28 0 28 -28q0 -29 -28 -29q-12 0 -19.5 8t-7.5 21zM456 63q0 -17 13 -17q15 0 15 17q0 19 -15 19
q-13 0 -13 -19zM502 91h14l14 -45l13 45h14l-19 -54h-18zM562 52q0 16 30 16h3v7q0 7 -9 7q-11 0 -11 -9h-13q0 18 24 18q19 0 21 -15v-39h-12v6l-3 -5q-8 -4 -14 -4q-16 0 -16 18zM575 52q0 -6 8 -6q12 0 12 9v6q-20 2 -20 -9zM616 80v9h6v8q0 15 19 15h6v-11q-11 2 -11 -5
v-7h11v-9h-11v-43h-14v43h-6zM629 455q0 62 44 125l97 137h66l-86 -120q10 3 25 3q61 0 102 -41.5t41 -103.5q0 -61 -41.5 -103.5t-101.5 -42.5q-61 0 -103.5 42.5t-42.5 103.5zM629 926q0 57 44 123l97 142h66l-87 -122q8 2 26 2q61 0 102 -41.5t41 -103.5
q0 -61 -41.5 -102.5t-101.5 -41.5q-61 0 -103.5 41.5t-42.5 102.5zM651 63q0 28 28 28q27 0 27 -28q0 -29 -27 -29q-28 0 -28 29zM665 63q0 -17 14 -17q13 0 13 17q0 19 -13 19q-14 0 -14 -19zM682 455q0 -42 26 -68t67 -26q38 0 62.5 26t24.5 68q0 40 -24.5 65t-62.5 25
q-41 0 -67 -25t-26 -65zM682 926q0 -41 26 -67t67 -26q38 0 62.5 26t24.5 67q0 40 -24.5 66t-62.5 26q-41 0 -67 -25.5t-26 -66.5zM715 37v54h12v-10l6 7q4 3 13 3q16 0 19 -15v-39h-14v34q-4 11 -9 11q-15 0 -15 -21v-24h-12zM772 80v9h8v13h14v-13h10v-9h-10v-28
q2 -10 9 -6v-10h-8q-15 0 -15 10v34h-8zM808 52h15q1 -9 10 -9q8 0 8 7q0 3 -12 9q-17 5 -17 16q0 16 20 16q19 0 24 -16h-16q0 7 -9 7q-5 0 -5 -6q0 -5 11 -9q19 -6 19 -15q0 -18 -23 -18q-21 0 -25 18zM860 42q0 10 9 10t9 -10q0 -8 -9 -8t-9 8zM884 63q0 13 8 20.5
t18 7.5q25 0 25 -20h-13q-3 11 -12 11q-12 0 -12 -19q0 -17 12 -17q10 0 12 9h13q-1 -21 -25 -21q-26 0 -26 29zM940 63q0 28 29 28q26 0 26 -28q0 -29 -26 -29q-29 0 -29 29zM954 63q0 -17 15 -17q13 0 13 17q0 19 -13 19q-15 0 -15 -19zM1005 37v54h14v-9l5 6q3 3 9 3
q13 0 18 -10l5 7q3 3 11 3q17 0 17 -12q1 -4 1 -12v-30h-13v27q0 2 -0.5 5t-0.5 4q0 9 -10 9q-9 0 -9 -18v-27h-13v36q-5 9 -10 9q-10 0 -10 -18v-27h-14z" />
    </font>
</defs>
</svg>
