<?xml version="1.0" standalone="no"?>
<!DOCTYPE svg PUBLIC "-//W3C//DTD SVG 1.1//EN" "http://www.w3.org/Graphics/SVG/1.1/DTD/svg11.dtd" >
<svg xmlns="http://www.w3.org/2000/svg" xmlns:xlink="http://www.w3.org/1999/xlink" version="1.1">
<metadata>
Created by FontForge 20201107 at Tue Feb 27 18:51:08 2024
 By 
Copyright (c) 2024 by Designova. All rights reserved.
</metadata>
<defs>
<font id="RovelleUno-Regular" horiz-adv-x="1077" >
  <font-face 
    font-family="Rovelle Uno"
    font-weight="400"
    font-stretch="normal"
    units-per-em="2048"
    panose-1="0 0 0 0 0 0 0 0 0 0"
    ascent="1638"
    descent="-410"
    x-height="1022"
    cap-height="1394"
    bbox="-285 -422 2100 1892"
    underline-thickness="100"
    underline-position="-255"
    unicode-range="U+0020-F8FF"
  />
<missing-glyph horiz-adv-x="1240" 
d="M157 19v1342h926v-1342h-926zM268 253l287 444l-287 443v-887zM315 129h609l-304 469zM325 1252l295 -456l295 456h-590zM685 697l287 -444v887z" />
    <glyph glyph-name=".notdef" horiz-adv-x="1240" 
d="M157 19v1342h926v-1342h-926zM268 253l287 444l-287 443v-887zM315 129h609l-304 469zM325 1252l295 -456l295 456h-590zM685 697l287 -444v887z" />
    <glyph glyph-name=".null" horiz-adv-x="0" 
 />
    <glyph glyph-name="nonmarkingreturn" horiz-adv-x="682" 
 />
    <glyph glyph-name="space" unicode=" " horiz-adv-x="543" 
 />
    <glyph glyph-name="exclam" unicode="!" horiz-adv-x="564" 
d="M202 236l-8 1180h174l-7 -1180h-159zM185 77q0 40 28 68.5t69 28.5q40 0 68.5 -28.5t28.5 -68.5q0 -41 -28.5 -69t-68.5 -28q-41 0 -69 28t-28 69z" />
    <glyph glyph-name="quotedbl" unicode="&#x22;" horiz-adv-x="651" 
d="M152 896l-7 568h164l-8 -568h-149zM344 1464h162l-6 -568h-150z" />
    <glyph glyph-name="numbersign" unicode="#" horiz-adv-x="1060" 
d="M182 0l94 447h-191v160h226l35 167h-205v160h239l96 447h162l-94 -447h77l95 447h163l-94 -447h190v-160h-226l-34 -167h205v-160h-240l-95 -447h-163l94 447h-77l-95 -447h-162zM474 607h78l35 167h-77z" />
    <glyph glyph-name="dollar" unicode="$" horiz-adv-x="1107" 
d="M489 -20q-81 12 -150 47t-123.5 91.5t-85.5 142t-31 190.5h163q1 -266 227 -308v481q-55 19 -100 41t-89.5 56t-75 75t-49 98.5t-18.5 124.5q0 151 93.5 253t238.5 128v145h163v-144q88 -13 157 -57t111 -108t64 -139.5t24 -158.5h-163q-5 132 -52 205t-141 94v-485
q348 -119 348 -408q0 -137 -92.5 -240t-255.5 -124v-144h-163v144zM323 1019q0 -87 40 -136t126 -83v436q-166 -42 -166 -217zM652 141q183 31 183 199q0 86 -43 140t-140 94v-433z" />
    <glyph glyph-name="percent" unicode="%" horiz-adv-x="1288" 
d="M100 0l894 1381h194l-895 -1381h-193zM75 1056q0 149 79.5 249.5t214.5 100.5t215 -100.5t80 -249.5q0 -148 -80 -250t-215 -102q-134 0 -214 102t-80 250zM241 1056q0 -97 31 -144t97 -47q67 0 98 46.5t31 144.5t-30.5 144t-98.5 46q-66 0 -97 -46t-31 -144zM624 326
q0 149 79.5 250t214.5 101t215 -101t80 -250q0 -147 -80 -249t-215 -102t-214.5 102t-79.5 249zM790 326q0 -98 31 -145t97 -47q68 0 99 47t31 145t-31 144t-99 46q-66 0 -97 -46.5t-31 -143.5z" />
    <glyph glyph-name="ampersand" unicode="&#x26;" horiz-adv-x="1274" 
d="M934 126q-150 -144 -386 -162q-130 -8 -227 28q-103 37 -164.5 115.5t-70.5 189.5q-12 178 119 308q65 62 155 120q-21 25 -44 55q-98 127 -107 253q-11 152 86 256.5t261 115.5q160 12 255 -66.5t104 -208.5q8 -122 -50 -212q-83 -123 -261 -223l316 -327q76 147 77 363
h157q-2 -238 -78 -406q-21 -43 -42 -77l195 -202l-113 -107zM246 308q13 -205 290 -187q178 13 289 118l-357 369q-18 -11 -75 -51q-81 -56 -117 -113t-30 -136zM367 1044q4 -45 25 -88q27 -58 103 -148q54 33 133 89q72 53 103 102.5t26 117.5q-4 75 -47.5 108.5
t-143.5 26.5q-104 -7 -154.5 -61.5t-44.5 -146.5z" />
    <glyph glyph-name="quotesingle" unicode="'" horiz-adv-x="454" 
d="M152 896l-7 568h164l-8 -568h-149z" />
    <glyph glyph-name="parenleft" unicode="(" horiz-adv-x="618" 
d="M366 -147q-109 152 -175 382.5t-66 464.5t66 464t175 381h187q-125 -166 -193.5 -384t-68.5 -461t68.5 -461t193.5 -386h-187z" />
    <glyph glyph-name="parenright" unicode=")" horiz-adv-x="619" 
d="M66 -147q125 168 193.5 386t68.5 461q0 244 -68.5 461.5t-194.5 383.5h189q108 -151 174 -381.5t66 -463.5t-66 -463.5t-174 -383.5h-188z" />
    <glyph glyph-name="asterisk" unicode="*" horiz-adv-x="942" 
d="M289 159l-139 97l192 254l-267 86l50 159l267 -95l-5 327h167l-4 -327l266 95l51 -159l-267 -86l192 -254l-139 -97l-183 259z" />
    <glyph glyph-name="plus" unicode="+" horiz-adv-x="1035" 
d="M436 158v402h-345v161h345v401h162v-401h346v-161h-346v-402h-162z" />
    <glyph glyph-name="comma" unicode="," horiz-adv-x="489" 
d="M99 -212l124 378h138l13 -75l-113 -303h-162z" />
    <glyph glyph-name="hyphen" unicode="-" horiz-adv-x="695" 
d="M95 495v160h505v-160h-505z" />
    <glyph glyph-name="period" unicode="." horiz-adv-x="425" 
d="M213 -25q-40 0 -69 28.5t-29 68.5t29 68.5t69 28.5t68.5 -28.5t28.5 -68.5t-28.5 -68.5t-68.5 -28.5z" />
    <glyph glyph-name="slash" unicode="/" horiz-adv-x="767" 
d="M35 -54l499 1491h170l-499 -1491h-170z" />
    <glyph glyph-name="zero" unicode="0" horiz-adv-x="1168" 
d="M584 -25q-102 0 -183 36t-136 100t-91.5 154.5t-52.5 196t-16 228.5q0 156 26.5 283t82 225.5t149.5 153t221 54.5q102 0 183 -36t136 -100t91.5 -154.5t52.5 -196t16 -229.5t-16.5 -229.5t-52.5 -196t-91 -154t-136 -99.5t-183 -36zM271 690q0 -131 16 -229.5
t51.5 -173.5t97 -114t148.5 -39t148.5 38.5t97 113.5t51.5 173.5t16 230.5q0 104 -10 187.5t-32.5 153.5t-58 116.5t-89 72.5t-123.5 26q-87 0 -148.5 -38.5t-97 -113.5t-51.5 -173.5t-16 -230.5z" />
    <glyph glyph-name="one" unicode="1" horiz-adv-x="765" 
d="M493 0v1166l-346 -214v188l392 241h117v-1381h-163z" />
    <glyph glyph-name="two" unicode="2" horiz-adv-x="1067" 
d="M75 0v116l454 441q85 83 135.5 144t75 114t31 91.5t6.5 96.5q0 115 -61.5 179t-186.5 64q-122 0 -197 -73t-88 -209l-8 -74h-161l7 86q21 193 145 311.5t302 118.5q132 0 228 -56t141.5 -146t45.5 -201q0 -140 -66 -268.5t-229 -284.5l-300 -289h653v-161h-927z" />
    <glyph glyph-name="three" unicode="3" horiz-adv-x="1134" 
d="M569 -10q-238 0 -371 138t-110 351l161 8q-23 -164 60 -251.5t260 -87.5q156 0 239 70t83 194q0 123 -83 193t-239 70q-63 0 -145 -17v128l360 447h-675v161h927v-113l-372 -455q175 -26 280 -139t105 -275q0 -185 -133 -303.5t-347 -118.5zM454 780l7 -8l2 8h-9z" />
    <glyph glyph-name="four" unicode="4" horiz-adv-x="1190" 
d="M750 0v309h-675v118l693 967h141v-929h210v-156h-210v-309h-159zM295 465h455v637z" />
    <glyph glyph-name="five" unicode="5" 
d="M523 -14q-76 0 -146.5 23.5t-133 71t-104.5 128t-53 184.5l-7 85h161l8 -73q12 -122 82.5 -189.5t194.5 -67.5q130 0 216 76.5t86 232.5q0 148 -72.5 227t-201.5 79h-26q-212 0 -265 -212h-161l109 843h753v-161h-611l-48 -364q98 54 219 54h33q198 0 317 -132t119 -332
q0 -143 -65.5 -252.5t-171 -165t-232.5 -55.5z" />
    <glyph glyph-name="six" unicode="6" horiz-adv-x="1101" 
d="M552 -10q-195 0 -331 134t-136 327q0 126 73 250l403 693h179l-282 -488q49 11 96 11q126 0 232.5 -61.5t168 -168.5t61.5 -234q0 -194 -135 -328.5t-329 -134.5zM247 453q0 -136 84.5 -220.5t220.5 -84.5q135 0 220.5 85.5t85.5 221.5q0 134 -86 220t-220 86
t-219.5 -85.5t-85.5 -222.5z" />
    <glyph glyph-name="seven" unicode="7" horiz-adv-x="1125" 
d="M184 0l681 1237h-830v157h1025v-121l-696 -1273h-180z" />
    <glyph glyph-name="eight" unicode="8" horiz-adv-x="1118" 
d="M559 -27q-134 0 -240 46t-170 139.5t-64 222.5q0 110 51.5 199t145.5 143q-65 50 -99.5 127t-34.5 169q0 164 115 275.5t311 111.5q103 0 185 -31t134 -84.5t79.5 -123t27.5 -148.5q0 -94 -37.5 -171.5t-106.5 -127.5q87 -54 132 -141.5t45 -197.5q0 -97 -39 -176
t-105.5 -129t-151 -76.5t-178.5 -26.5zM251 381q0 -65 25 -113.5t69 -77t98.5 -42.5t119.5 -14q60 0 112.5 14t96.5 42.5t69.5 77.5t25.5 113q0 255 -301 255q-157 0 -236 -67t-79 -188zM314 1019q0 -115 72 -169.5t188 -54.5q115 0 188 55t73 169q0 112 -66 169.5
t-195 57.5t-194.5 -57.5t-65.5 -169.5z" />
    <glyph glyph-name="nine" unicode="9" horiz-adv-x="1101" 
d="M644 488q-49 -11 -95 -11q-126 0 -233 62t-169 168.5t-62 232.5q0 195 135.5 329.5t330.5 134.5q194 0 329.5 -134t135.5 -328q0 -120 -71 -250l-403 -692h-180zM245 939q0 -135 85.5 -220.5t220.5 -85.5q134 0 219.5 85.5t85.5 221.5q0 137 -84.5 221.5t-220.5 84.5
q-135 0 -220.5 -85.5t-85.5 -221.5z" />
    <glyph glyph-name="colon" unicode=":" horiz-adv-x="466" 
d="M232 912q-40 0 -68.5 29t-28.5 69t28.5 69t68.5 29t69.5 -29t29.5 -69q0 -41 -29 -69.5t-70 -28.5zM135 72q0 40 28.5 68.5t68.5 28.5q41 0 70 -28t29 -69t-29 -69t-70 -28q-40 0 -68.5 28.5t-28.5 68.5z" />
    <glyph glyph-name="semicolon" unicode=";" horiz-adv-x="549" 
d="M119 -212l124 378h137l15 -75l-115 -303h-161zM219 1010q0 40 29 69t68 29q40 0 69 -29t29 -69q0 -41 -29 -69.5t-69 -28.5q-39 0 -68 28.5t-29 69.5z" />
    <glyph glyph-name="less" unicode="&#x3c;" horiz-adv-x="1036" 
d="M945 73l-854 415v113l854 415v-182l-597 -289l597 -291v-181z" />
    <glyph glyph-name="equal" unicode="=" horiz-adv-x="1110" 
d="M111 724v161h888v-161h-888zM111 396v161h888v-161h-888z" />
    <glyph glyph-name="greater" unicode="&#x3e;" horiz-adv-x="1036" 
d="M91 73v181l598 291l-598 289v182l854 -415v-113z" />
    <glyph glyph-name="question" unicode="?" horiz-adv-x="1043" 
d="M412 226q0 88 3 139t14 106t36 98.5t64.5 92.5t102.5 111q74 73 105.5 135t31.5 138q0 225 -244 225q-287 0 -282 -345h-161q-13 219 113 362.5t330 143.5q127 0 221.5 -52.5t141 -139t46.5 -194.5q0 -209 -189 -386q-45 -42 -73 -72t-48.5 -63.5t-30.5 -57t-15.5 -65.5
t-6.5 -76t0 -100h-159zM396 72q0 40 28.5 68.5t69.5 28.5q40 0 69 -28.5t29 -68.5t-29 -68.5t-69 -28.5q-41 0 -69.5 28.5t-28.5 68.5z" />
    <glyph glyph-name="at" unicode="@" horiz-adv-x="1655" 
d="M766 -190q-100 0 -195.5 27t-182 83.5t-151.5 137t-103.5 196.5t-38.5 252q0 151 47 284.5t127 231.5t183.5 169.5t219 107t231.5 35.5q290 0 473.5 -184t183.5 -472q0 -127 -33 -231.5t-88 -171t-126.5 -102.5t-149.5 -36q-66 0 -128 22.5t-84 60.5q-98 -98 -226 -98
q-38 0 -75 9t-76 33t-68 61t-47.5 97.5t-18.5 136.5q0 143 57 267.5t161 201t229 76.5q25 0 51 -4t42.5 -7t22.5 -1l29 -71l12 50h171l-110 -456q-21 -94 -21 -148q0 -41 17 -55.5t66 -14.5q100 0 163.5 98t63.5 274q0 242 -133.5 373t-369.5 131q-90 0 -179.5 -28
t-170.5 -84t-143.5 -133.5t-99.5 -185.5t-37 -230q0 -133 40 -238t110 -170.5t160.5 -99t194.5 -33.5q152 0 262 38.5t254 146.5l87 -139q-171 -123 -304 -165t-299 -42zM605 467q0 -105 29.5 -144.5t98.5 -39.5q74 0 130 67.5t93 233.5l16 73q21 90 -3 138t-89 48
q-112 0 -193.5 -107t-81.5 -269zM980 1048l23 -56q14 4 -16 46q-3 5 -7 10z" />
    <glyph glyph-name="A" unicode="A" horiz-adv-x="1176" 
d="M35 0l486 1394h132l488 -1394h-172l-151 438h-460l-152 -438h-171zM410 595h355l-177 511z" />
    <glyph glyph-name="B" unicode="B" horiz-adv-x="1230" 
d="M165 0v1394h510q193 0 306 -100.5t113 -272.5q0 -174 -113 -278q83 -48 128.5 -136t45.5 -207q0 -194 -119 -297t-340 -103h-531zM325 157h371q163 0 231.5 56t68.5 187q0 125 -56 183.5t-175 58.5h-440v-485zM325 799h399q105 0 158.5 55.5t53.5 162.5q0 112 -63.5 166
t-197.5 54h-350v-438z" />
    <glyph glyph-name="C" unicode="C" horiz-adv-x="1349" 
d="M692 -12q-276 0 -446.5 193t-170.5 515q0 323 170.5 516.5t446.5 193.5h19q206 0 356.5 -110t216.5 -303l-149 -56q-104 309 -424 309h-19q-217 0 -337.5 -143.5t-120.5 -406.5q0 -262 120.5 -405t337.5 -143h19q320 0 424 309l149 -56q-66 -192 -216.5 -302.5
t-356.5 -110.5h-19z" />
    <glyph glyph-name="D" unicode="D" horiz-adv-x="1255" 
d="M165 0v1394h315q330 0 515 -187.5t185 -520.5q0 -327 -183 -506.5t-518 -179.5h-314zM325 157h150q277 0 410 129.5t133 399.5q0 551 -539 551h-154v-1080z" />
    <glyph glyph-name="E" unicode="E" horiz-adv-x="1161" 
d="M165 0v1394h911v-157h-751v-456h688v-157h-688v-467h751v-157h-911z" />
    <glyph glyph-name="F" unicode="F" horiz-adv-x="1161" 
d="M165 0v1394h911v-157h-751v-456h688v-157h-688v-624h-160z" />
    <glyph glyph-name="G" unicode="G" horiz-adv-x="1323" 
d="M692 -12q-276 0 -446.5 193.5t-170.5 516.5q0 322 170.5 515t446.5 193q209 0 359 -113t207 -309l-147 -58q-90 320 -419 320q-217 0 -337.5 -143.5t-120.5 -404.5q0 -263 120 -406.5t338 -143.5q288 0 393 246v199h-454v157h612v-750h-158v130q-159 -142 -393 -142z" />
    <glyph glyph-name="H" unicode="H" horiz-adv-x="1241" 
d="M165 0v1394h160v-609h590v609h161v-1394h-161v628h-590v-628h-160z" />
    <glyph glyph-name="I" unicode="I" horiz-adv-x="490" 
d="M165 0v1394h160v-1394h-160z" />
    <glyph glyph-name="J" unicode="J" horiz-adv-x="1169" 
d="M65 510v74h161q-19 -233 97 -363q87 -96 212 -97q124 -2 215 91q112 114 112 317v862h158v-864q0 -262 -155 -415q-123 -120 -296 -132q-171 -12 -306 87q-158 116 -191 335q-7 51 -7 105z" />
    <glyph glyph-name="K" unicode="K" horiz-adv-x="1243" 
d="M165 0v1394h160v-680l653 680h220l-582 -606l558 -788h-196l-474 673l-179 -186v-487h-160z" />
    <glyph glyph-name="L" unicode="L" horiz-adv-x="1111" 
d="M165 0v1394h160v-1237h751v-157h-911z" />
    <glyph glyph-name="M" unicode="M" horiz-adv-x="1571" 
d="M165 0v1394h161l460 -1038l461 1038h159v-1394h-158v1008l-402 -908h-119l-402 908v-1008h-160z" />
    <glyph glyph-name="N" unicode="N" horiz-adv-x="1286" 
d="M165 0v1394h147l649 -1070v1070h160v-1394h-149l-647 1067v-1067h-160z" />
    <glyph glyph-name="O" unicode="O" horiz-adv-x="1405" 
d="M692 -12q-276 0 -446.5 193t-170.5 515q0 323 170.5 516.5t446.5 193.5h19q280 0 449.5 -195.5t169.5 -514.5q0 -318 -169.5 -513t-449.5 -195h-19zM234 696q0 -262 120.5 -405t337.5 -143h19q219 0 339.5 143t120.5 405q0 263 -120.5 406.5t-339.5 143.5h-19
q-217 0 -337.5 -143.5t-120.5 -406.5z" />
    <glyph glyph-name="P" unicode="P" horiz-adv-x="1158" 
d="M165 0v1394h479q221 0 340 -102t119 -297v-2q0 -194 -119 -296t-340 -102h-319v-595h-160zM325 752h319q164 0 232.5 56t68.5 187q0 130 -68.5 186t-232.5 56h-319v-485z" />
    <glyph glyph-name="Q" unicode="Q" horiz-adv-x="1411" 
d="M1096 121q-159 -133 -385 -133h-19q-276 0 -446.5 193t-170.5 515q0 323 170.5 516.5t446.5 193.5h19q280 0 449.5 -195.5t169.5 -514.5q0 -277 -130 -462l152 -148l-111 -112zM234 696q0 -262 120.5 -405t337.5 -143h19q162 0 271 83l-276 275l107 116l273 -274
q85 134 85 348q0 263 -120.5 406.5t-339.5 143.5h-19q-217 0 -337.5 -143.5t-120.5 -406.5z" />
    <glyph glyph-name="R" unicode="R" horiz-adv-x="1201" 
d="M165 0v1394h479q221 0 340 -102t119 -297v-2q0 -159 -81.5 -257t-233.5 -128l348 -608h-184l-340 595h-287v-595h-160zM325 752h319q164 0 232.5 56t68.5 187q0 130 -68.5 186t-232.5 56h-319v-485z" />
    <glyph glyph-name="S" unicode="S" horiz-adv-x="1156" 
d="M598 -25q-101 0 -191.5 29t-163 85.5t-114 149.5t-40.5 212h162q-4 -155 92 -236t256 -81q139 0 221 62t82 166q0 108 -64.5 158.5t-255.5 104.5q-114 32 -189 65t-132.5 80t-84 110.5t-26.5 149.5q0 108 63 195t165.5 134t220.5 47q110 0 197.5 -39.5t141.5 -106
t82.5 -149t29.5 -173.5h-160q-10 151 -86.5 229.5t-205.5 78.5q-76 0 -138.5 -22.5t-103 -71.5t-40.5 -118q0 -44 10.5 -75t30 -54.5t60.5 -44.5t89 -37.5t129 -39.5q222 -64 327 -157t105 -261q0 -166 -135 -278t-334 -112z" />
    <glyph glyph-name="T" unicode="T" horiz-adv-x="1189" 
d="M514 0v1237h-479v157h1119v-157h-479v-1237h-161z" />
    <glyph glyph-name="U" unicode="U" horiz-adv-x="1253" 
d="M149 510v884h157v-871q0 -111 35.5 -197t91.5 -130t124.5 -64t137 1.5t124.5 67.5t91.5 133t35.5 198v862h158v-864q0 -262 -155 -415q-123 -120 -296 -132q-171 -12 -306 87q-158 116 -191 335q-7 51 -7 105z" />
    <glyph glyph-name="V" unicode="V" horiz-adv-x="1269" 
d="M573 0l-548 1394h172l438 -1123l438 1123h171l-546 -1394h-125z" />
    <glyph glyph-name="W" unicode="W" horiz-adv-x="1749" 
d="M413 0l-388 1394h167l296 -1071l320 1008h132l321 -1008l297 1071h166l-388 -1394h-140l-321 1013l-324 -1013h-138z" />
    <glyph glyph-name="X" unicode="X" horiz-adv-x="1294" 
d="M45 0l502 708l-490 686h196l392 -553l396 553h193l-489 -686l504 -708h-196l-408 570l-406 -570h-194z" />
    <glyph glyph-name="Y" unicode="Y" horiz-adv-x="1170" 
d="M506 0l-4 422l-487 972h180l387 -780l391 780h182l-496 -972l5 -422h-158z" />
    <glyph glyph-name="Z" unicode="Z" horiz-adv-x="1075" 
d="M61 0v123l740 1114h-740v157h953v-122l-741 -1115h741v-157h-953z" />
    <glyph glyph-name="bracketleft" unicode="[" horiz-adv-x="593" 
d="M165 -147v1692h403v-161h-240v-1369h240v-162h-403z" />
    <glyph glyph-name="backslash" unicode="\" horiz-adv-x="765" 
d="M561 -54l-498 1491h168l499 -1491h-169z" />
    <glyph glyph-name="bracketright" unicode="]" horiz-adv-x="591" 
d="M25 -147v162h239v1369h-239v161h401v-1692h-401z" />
    <glyph glyph-name="asciicircum" unicode="^" horiz-adv-x="1148" 
d="M145 393l366 853h129l363 -853h-180l-248 596l-254 -596h-176z" />
    <glyph glyph-name="underscore" unicode="_" horiz-adv-x="943" 
d="M45 -147v162h853v-162h-853z" />
    <glyph glyph-name="grave" unicode="`" horiz-adv-x="992" 
d="M414 1469l-203 323h198l176 -323h-171z" />
    <glyph glyph-name="a" unicode="a" horiz-adv-x="1097" 
d="M471 -10q-166 0 -266 87t-100 232q0 160 115 241q56 40 128.5 55.5t172.5 19.5l281 13q-10 238 -272 238q-99 0 -161.5 -41t-127.5 -149l-124 100q80 128 179 186.5t234 58.5q193 0 311.5 -109t118.5 -307v-615h-157v112q-68 -58 -155.5 -90t-176.5 -32zM264 309
q0 -83 51 -124t160 -41q135 0 231.5 88.5t96.5 224.5v27l-274 -11q-82 -2 -131 -12t-81 -33q-29 -22 -41 -47.5t-12 -71.5z" />
    <glyph glyph-name="b" unicode="b" horiz-adv-x="1202" 
d="M631 -10q-185 0 -315 130v-120h-159v1394h159v-491q128 128 315 128h25q203 0 337 -148t134 -371q0 -222 -134 -372t-337 -150h-25zM314 512q0 -166 85.5 -265t227.5 -99h26q144 0 230.5 99t86.5 265q0 165 -86.5 263.5t-230.5 98.5h-26q-143 0 -228 -98t-85 -264z" />
    <glyph glyph-name="c" unicode="c" horiz-adv-x="1074" 
d="M549 -10q-208 0 -341 147t-133 375q0 229 131.5 374t342.5 145h17q151 0 265.5 -78t167.5 -214l-146 -63q-83 200 -287 200h-17q-148 0 -231.5 -96t-83.5 -268t83.5 -269t231.5 -97h17q205 0 289 201l144 -64q-56 -135 -170 -214t-263 -79h-17z" />
    <glyph glyph-name="d" unicode="d" horiz-adv-x="1203" 
d="M547 -10q-134 0 -242 69t-169 188.5t-61 264.5q0 223 134.5 371t337.5 148h25q187 0 315 -128v491h159v-1394h-159v119q-132 -129 -315 -129h-25zM234 512q0 -166 86 -265t230 -99h26q142 0 227.5 99t85.5 265t-85 264t-228 98h-26q-144 0 -230 -98t-86 -264z" />
    <glyph glyph-name="e" unicode="e" 
d="M549 -10q-208 0 -341 147t-133 375q0 251 152 396q120 114 290 121q168 8 299 -93q156 -120 182 -343q8 -68 2 -143h-763q15 -144 96.5 -224t215.5 -80h17q205 0 289 201l144 -64q-56 -135 -170 -214t-263 -79h-17zM241 602h595q-16 92 -62.5 158.5t-106.5 96.5
t-128.5 30t-128.5 -30t-106.5 -96.5t-62.5 -158.5z" />
    <glyph glyph-name="f" unicode="f" horiz-adv-x="804" 
d="M281 0v868h-236v154h236v92q0 139 71.5 214.5t195.5 75.5h13q125 0 208 -74l-60 -129q-7 3 -23.5 11.5t-21 10.5t-16.5 7.5t-16.5 7t-14.5 4.5t-17 3.5t-17 1.5t-21 1h-12q-63 0 -87 -28t-24 -106v-92h238v-154h-238v-868h-158z" />
    <glyph glyph-name="g" unicode="g" horiz-adv-x="1202" 
d="M562 -377q-190 0 -312 114t-133 307h156q31 -264 289 -264h28q140 0 213.5 80.5t82.5 250.5q-41 -49 -128.5 -86t-185.5 -37h-10q-133 0 -245 68t-177 188.5t-65 265.5q0 223 134.5 371t337.5 148h25q187 0 315 -128v123h159v-873q0 -249 -123.5 -388.5t-332.5 -139.5
h-28zM234 510q0 -166 86 -265t230 -99h26q132 0 215 86t96 235v85q-13 149 -96 234.5t-215 85.5h-26q-144 0 -230 -98t-86 -264z" />
    <glyph glyph-name="h" unicode="h" horiz-adv-x="1131" 
d="M157 0v1394h159v-445q103 82 276 82q202 0 302 -109.5t100 -317.5v-604h-157v594q0 159 -52.5 220.5t-192.5 61.5q-143 0 -209.5 -86.5t-66.5 -288.5v-501h-159z" />
    <glyph glyph-name="i" unicode="i" horiz-adv-x="466" 
d="M155 0v1022h159v-1022h-159zM135 1217q0 40 28.5 68.5t68.5 28.5q41 0 70 -28t29 -69t-29 -69t-70 -28q-40 0 -68.5 28.5t-28.5 68.5z" />
    <glyph glyph-name="j" unicode="j" horiz-adv-x="468" 
d="M35 -381q-131 0 -208 73l62 131q42 -23 56 -30t36.5 -13t51.5 -6h13q63 0 86.5 27.5t23.5 106.5v1114h159v-1114q0 -140 -71.5 -214.5t-195.5 -74.5h-13zM139 1217q0 40 28.5 68.5t68.5 28.5t68.5 -28.5t28.5 -68.5t-28.5 -68.5t-68.5 -28.5t-68.5 28.5t-28.5 68.5z" />
    <glyph glyph-name="k" unicode="k" horiz-adv-x="1031" 
d="M157 0v1394h159v-827l440 455h220l-385 -397l395 -625h-188l-320 510l-162 -167v-343h-159z" />
    <glyph glyph-name="l" unicode="l" horiz-adv-x="471" 
d="M416 -3q-121 -24 -190 36t-69 197v1164h159v-1160q0 -25 0.5 -38.5t3.5 -25t7.5 -15.5t13.5 -6.5t21 -2t31 1.5q9 1 14 1z" />
    <glyph glyph-name="m" unicode="m" horiz-adv-x="1572" 
d="M157 0v1022h159v-64q89 73 216 73q189 0 277 -142q100 142 281 142q75 0 134 -23t98 -63.5t65 -98.5t37 -124.5t11 -144.5v-577h-161v573q0 103 -20 174t-56.5 100t-114.5 29q-54 0 -99 -30q-109 -74 -109 -295v-551h-160v594q0 159 -42.5 220.5t-145.5 61.5
q-50 0 -99 -32q-110 -78 -110 -329v-515h-161z" />
    <glyph glyph-name="n" unicode="n" horiz-adv-x="1131" 
d="M157 0v1022h159v-73q103 82 276 82q202 0 302 -109.5t100 -317.5v-604h-157v594q0 159 -52.5 220.5t-192.5 61.5q-143 0 -209.5 -86.5t-66.5 -288.5v-501h-159z" />
    <glyph glyph-name="o" unicode="o" horiz-adv-x="1115" 
d="M549 -10q-208 0 -341 147t-133 375q0 229 131.5 374t342.5 145h17q211 0 342.5 -145t131.5 -374t-132.5 -375.5t-341.5 -146.5h-17zM234 512q0 -172 83.5 -269t231.5 -97h17q148 0 231.5 97t83.5 269t-83.5 268t-231.5 96h-17q-148 0 -231.5 -96t-83.5 -268z" />
    <glyph glyph-name="p" unicode="p" horiz-adv-x="1202" 
d="M157 -372v1394h159v-120q129 129 315 129h25q203 0 337 -149.5t134 -371.5q0 -146 -61 -265t-169 -187t-241 -68h-25q-185 0 -315 128v-490h-159zM314 510q0 -166 85 -264t228 -98h26q144 0 230.5 98.5t86.5 263.5t-86.5 264.5t-230.5 99.5h-26q-142 0 -227.5 -99
t-85.5 -265z" />
    <glyph glyph-name="q" unicode="q" horiz-adv-x="1203" 
d="M887 118q-130 -128 -315 -128h-25q-203 0 -337.5 149t-134.5 371q0 145 61 264.5t169 188t242 68.5h25q184 0 315 -128v119h159v-1394h-159v490zM234 510q0 -166 86 -264t230 -98h26q143 0 228 98t85 264t-85.5 265t-227.5 99h-26q-144 0 -230 -99t-86 -265z" />
    <glyph glyph-name="r" unicode="r" horiz-adv-x="855" 
d="M157 0v1022h159v-73q103 82 276 82q119 0 198 -36l-34 -150q-93 31 -164 31q-143 0 -209.5 -86.5t-66.5 -288.5v-501h-159z" />
    <glyph glyph-name="s" unicode="s" horiz-adv-x="996" 
d="M511 -14q-85 0 -159 23.5t-133.5 70.5t-94 126.5t-33.5 182.5h159q9 -139 72.5 -192t192.5 -53q216 0 216 131q0 46 -20 71t-72 44.5t-166 43.5q-68 14 -121.5 34t-104.5 53t-79 85.5t-28 120.5q0 128 103 211.5t257 83.5q96 0 172 -31.5t122.5 -86t71 -121.5t26.5 -143
h-157q-23 127 -74.5 175.5t-162.5 48.5q-90 0 -142 -34.5t-52 -100.5q0 -59 47.5 -88t164.5 -53q190 -39 284.5 -109t94.5 -202q0 -131 -109.5 -211t-274.5 -80z" />
    <glyph glyph-name="t" unicode="t" horiz-adv-x="700" 
d="M655 4q-175 -43 -281 29.5t-106 244.5v590h-223v154h223v370h159v-370h228v-154h-228v-590q0 -72 19.5 -101t70 -32.5t138.5 8.5v-149z" />
    <glyph glyph-name="u" unicode="u" horiz-adv-x="1112" 
d="M539 -10q-202 0 -302 110t-100 318v604h159v-594q0 -159 52 -220.5t191 -61.5q145 0 210.5 86t65.5 289v501h160v-1022h-160v72q-102 -82 -276 -82z" />
    <glyph glyph-name="v" unicode="v" horiz-adv-x="1047" 
d="M463 0l-418 1022h174l303 -755l304 755h176l-418 -1022h-121z" />
    <glyph glyph-name="w" unicode="w" horiz-adv-x="1469" 
d="M343 0l-284 1022h168l194 -707l251 707h129l249 -705l195 705h165l-282 -1022h-136l-256 733l-260 -733h-133z" />
    <glyph glyph-name="x" unicode="x" horiz-adv-x="1063" 
d="M35 0l395 510l-395 512h199l297 -383l294 383h201l-395 -512l397 -510h-201l-295 383l-296 -383h-201z" />
    <glyph glyph-name="y" unicode="y" horiz-adv-x="1049" 
d="M235 -187q54 -35 72 -30.5t45 70.5l87 211l-394 958h174l304 -753l309 753h172l-507 -1232q-52 -128 -137.5 -158.5t-189.5 41.5z" />
    <glyph glyph-name="z" unicode="z" horiz-adv-x="950" 
d="M61 0v123l604 743h-604v156h828v-129l-597 -737h597v-156h-828z" />
    <glyph glyph-name="braceleft" unicode="{" horiz-adv-x="619" 
d="M501 -147q-62 0 -113.5 14.5t-93.5 44.5t-65.5 82.5t-23.5 123.5q0 55 19 199q19 122 19 191q0 64 -30.5 90.5t-117.5 19.5v163q87 -7 117.5 19.5t30.5 90.5q0 70 -19 192q-19 143 -19 199q0 137 82.5 200t213.5 63h93v-161h-95q-77 0 -105 -19t-28 -81q0 -16 18 -166
q21 -151 21 -227q0 -120 -73 -190q73 -74 73 -193q0 -76 -21 -227q-18 -149 -18 -165q0 -62 28 -81.5t105 -19.5h95v-162h-93z" />
    <glyph glyph-name="bar" unicode="|" horiz-adv-x="572" 
d="M205 -365v1946h162v-1946h-162z" />
    <glyph glyph-name="braceright" unicode="}" horiz-adv-x="619" 
d="M25 -147v162h94q77 0 104.5 19.5t27.5 81.5q0 36 -17 165q-22 149 -22 227q0 120 73 190q-73 74 -73 193q0 78 22 227q17 131 17 166q0 62 -27 81t-105 19h-94v161h92q131 0 214 -63t83 -200q0 -59 -21 -199q-17 -125 -17 -192q0 -64 30.5 -90.5t117.5 -19.5v-163
q-87 7 -117.5 -19t-30.5 -91q0 -66 17 -191q21 -141 21 -199q0 -71 -23.5 -123.5t-65.5 -82.5t-94 -44.5t-114 -14.5h-92z" />
    <glyph glyph-name="asciitilde" unicode="~" horiz-adv-x="1126" 
d="M124 418q-15 166 44 251t171 85q60 0 111.5 -18.5t154.5 -75.5q87 -48 119.5 -61t64.5 -13q42 0 51.5 31t3.5 143h161q14 -166 -45 -250.5t-173 -84.5q-59 0 -109.5 18t-155.5 76q-85 47 -118.5 60.5t-66.5 13.5q-28 0 -39.5 -12.5t-16 -51.5t1.5 -111h-159z" />
    <glyph glyph-name="uni00A0" unicode="&#xa0;" horiz-adv-x="516" 
 />
    <glyph glyph-name="exclamdown" unicode="&#xa1;" horiz-adv-x="564" 
d="M194 -310l8 1180h159l7 -1180h-174zM185 1030q0 41 28 69.5t69 28.5q40 0 68.5 -29t28.5 -69t-28.5 -68.5t-68.5 -28.5q-41 0 -69 28t-28 69z" />
    <glyph glyph-name="cent" unicode="&#xa2;" horiz-adv-x="1122" 
d="M491 -20q-178 31 -292 182.5t-114 382.5q0 221 114.5 372.5t291.5 187.5v148h163v-142q169 -21 274.5 -143t108.5 -299h-162q-18 246 -221 282v-809q197 44 216 266h162q-10 -172 -114.5 -287t-263.5 -141v-144h-163v144zM251 553q0 -175 65.5 -276.5t174.5 -131.5v796
q-106 -34 -173 -131.5t-67 -256.5z" />
    <glyph glyph-name="sterling" unicode="&#xa3;" horiz-adv-x="1036" 
d="M65 146q58 12 106.5 33t89.5 55t64.5 85.5t23.5 115.5q0 91 -68 207h-200v161h110q-46 107 -46 214q0 170 115 279.5t286 109.5q106 0 186 -38t127 -105t70 -151.5t22 -184.5h-162q1 169 -56.5 244t-190.5 75q-103 0 -167 -59.5t-64 -167.5q0 -99 65 -216h455v-161h-363
q48 -107 48 -207q0 -158 -107 -274h542v-161h-886v146z" />
    <glyph glyph-name="currency" unicode="&#xa4;" horiz-adv-x="1243" 
d="M304 170l-114 116l109 110q-59 93 -59 214t59 216l-110 109l116 115l109 -109q96 59 208 59t208 -59l109 109l115 -115l-109 -110q59 -96 59 -215q0 -118 -59 -214l109 -110l-115 -116l-109 110q-96 -59 -208 -59t-208 59zM406 610q0 -106 57.5 -167.5t158.5 -61.5
t158 61.5t57 167.5t-57 167.5t-158 61.5t-158.5 -61.5t-57.5 -167.5z" />
    <glyph glyph-name="yen" unicode="&#xa5;" horiz-adv-x="1219" 
d="M530 0v369h-335v160h335v56h-335v161h263l-403 635h200l357 -574l356 574h196l-401 -635h266v-161h-336v-56h336v-160h-336v-369h-163z" />
    <glyph glyph-name="brokenbar" unicode="&#xa6;" horiz-adv-x="572" 
d="M205 -292v743h162v-743h-162zM205 639v742h162v-742h-162z" />
    <glyph glyph-name="section" unicode="&#xa7;" horiz-adv-x="1154" 
d="M567 -317q-181 0 -291 105t-136 318h162q26 -145 87.5 -204t181.5 -59q103 0 160.5 37.5t57.5 109.5q0 61 -21 95.5t-86 63.5t-196 57q-67 14 -130 41.5t-121.5 70.5t-94 108t-35.5 143q0 105 50.5 180t135.5 118q-95 88 -95 220q0 144 101 231.5t258 87.5q96 0 171 -33
t121.5 -90.5t72.5 -128t32 -153.5h-158q-27 138 -79.5 191.5t-161.5 53.5q-90 0 -140.5 -37.5t-50.5 -115.5q0 -83 66.5 -126t189.5 -64q74 -14 136.5 -34.5t118 -52t94 -71.5t60.5 -94t22 -117q0 -107 -53.5 -183t-142.5 -119q102 -89 102 -238q0 -141 -110.5 -226
t-277.5 -85zM271 574q0 -80 70.5 -132t185.5 -76q72 -14 111 -27q109 4 176.5 50t67.5 141q0 84 -70 131.5t-235 80.5q-42 7 -91 22q-100 -12 -157.5 -55t-57.5 -135z" />
    <glyph glyph-name="dieresis" unicode="&#xa8;" horiz-adv-x="764" 
d="M498 1529q-41 0 -69.5 28.5t-28.5 68.5t28.5 69t69.5 29q40 0 69 -29t29 -69t-29 -68.5t-69 -28.5zM170 1626q0 40 28.5 69t68.5 29q41 0 69.5 -29t28.5 -69t-29 -68.5t-69 -28.5t-68.5 28.5t-28.5 68.5z" />
    <glyph glyph-name="copyright" unicode="&#xa9;" horiz-adv-x="1657" 
d="M829 -29q-199 0 -365.5 98.5t-262.5 268.5t-96 372t96 371t262.5 267t365.5 98q198 0 364.5 -98t262.5 -267t96 -371t-96 -372t-262.5 -268.5t-364.5 -98.5zM268 710q0 -163 73 -295t201.5 -206.5t286.5 -74.5q240 0 400 164t160 412q0 162 -73 293.5t-201 206.5t-286 75
t-286.5 -75t-201.5 -206.5t-73 -293.5zM446 710q0 131 53 233t141 155t194 53q157 0 260 -98t101 -276h-157q-11 112 -57 163t-147 51q-106 0 -166 -78t-60 -201q0 -129 59 -204t160 -75q100 0 148.5 47.5t61.5 163.5h162q-12 -180 -114 -276t-264 -96q-156 0 -265.5 121
t-109.5 317z" />
    <glyph glyph-name="ordfeminine" unicode="&#xaa;" horiz-adv-x="800" 
d="M332 640q-123 0 -197 64.5t-74 173.5q0 118 86 182q41 30 93.5 40.5t125.5 13.5l174 9q-7 69 -47 98.5t-119 29.5q-68 0 -107.5 -28.5t-89.5 -112.5l-112 92q58 101 132 147t177 46q139 0 227 -80.5t88 -223.5v-446h-148v58q-94 -63 -209 -63zM208 878q0 -51 28.5 -73
t98.5 -22q86 0 145.5 55t60.5 142l-167 -9q-105 -3 -137 -27q-18 -13 -23.5 -25.5t-5.5 -40.5z" />
    <glyph glyph-name="guillemotleft" unicode="&#xab;" horiz-adv-x="1282" 
d="M604 150l-301 364l301 364h212l-302 -364l300 -364h-210zM593 514l298 364h212l-300 -364l300 -364h-212z" />
    <glyph glyph-name="logicalnot" unicode="&#xac;" horiz-adv-x="1009" 
d="M692 383v245h-601v159h763v-404h-162z" />
    <glyph glyph-name="registered" unicode="&#xae;" horiz-adv-x="1015" 
d="M508 646q-191 0 -314.5 123.5t-123.5 315.5q0 189 123.5 311.5t314.5 122.5q190 0 313.5 -123t123.5 -311q0 -192 -123 -315.5t-314 -123.5zM200 1085q0 -144 83.5 -229t224.5 -85t224.5 85t83.5 229q0 141 -83.5 225t-224.5 84t-224.5 -84t-83.5 -225zM341 845v462h173
q75 0 120.5 -39t45.5 -110q0 -88 -68 -128l107 -185h-146l-93 163h-14v-163h-125zM466 1134h48q31 0 36 3t5 21t-5 21t-36 3h-48v-48z" />
    <glyph glyph-name="macron" unicode="&#xaf;" horiz-adv-x="743" 
d="M183 1542v160h377v-160h-377z" />
    <glyph glyph-name="degree" unicode="&#xb0;" horiz-adv-x="724" 
d="M362 916q-105 0 -176 70t-71 176q0 105 71 174.5t176 69.5q106 0 176.5 -69.5t70.5 -174.5q0 -106 -70 -176t-177 -70zM279 1162q0 -47 18.5 -66t64.5 -19t65 19t19 66q0 46 -19 65t-65 19q-45 0 -64 -19t-19 -65z" />
    <glyph glyph-name="plusminus" unicode="&#xb1;" horiz-adv-x="1035" 
d="M436 213v382h-345v161h345v383h162v-383h346v-161h-346v-382h-162zM91 -13v161h853v-161h-853z" />
    <glyph glyph-name="uni00B2" unicode="&#xb2;" horiz-adv-x="919" 
d="M161 890v104l292 268q99 91 124.5 136t25.5 108q0 61 -31 90t-102 29q-141 0 -157 -140v-71h-160l14 82q13 122 97.5 197.5t205.5 75.5q132 0 206.5 -75.5t74.5 -187.5q0 -87 -43 -167.5t-150 -176.5l-139 -128h369v-144h-627z" />
    <glyph glyph-name="uni00B3" unicode="&#xb3;" horiz-adv-x="910" 
d="M448 884q-160 0 -246.5 98.5t-60.5 245.5h142q-20 -103 19.5 -152t145.5 -49q172 0 172 135q0 126 -172 126q-43 0 -111 -10v117l187 228h-375v146h602v-102l-201 -244q95 -26 152 -97t57 -164q0 -123 -87 -200.5t-224 -77.5z" />
    <glyph glyph-name="acute" unicode="&#xb4;" horiz-adv-x="992" 
d="M407 1469l176 323h198l-201 -323h-173z" />
    <glyph glyph-name="paragraph" unicode="&#xb6;" horiz-adv-x="1127" 
d="M486 584q-34 0 -86 2q-161 9 -253 124t-92 273q0 101 38.5 187.5t118.5 144.5t188 64q32 2 105 2h417v-1582h-162v1422h-111v-1422h-163v785z" />
    <glyph glyph-name="periodcentered" unicode="&#xb7;" horiz-adv-x="472" 
d="M236 516q-43 0 -72 29.5t-29 71.5q0 43 29 72.5t72 29.5q44 0 72.5 -29.5t28.5 -72.5t-28.5 -72t-72.5 -29z" />
    <glyph glyph-name="cedilla" unicode="&#xb8;" horiz-adv-x="934" 
d="M408 -416q-104 0 -158 47v136q62 -32 119 -37t89 14t32 51q1 39 -38 46t-184 -10l154 303h182l-80 -157q66 -24 98.5 -72.5t31.5 -110.5q0 -71 -40 -120.5t-93.5 -69.5t-112.5 -20z" />
    <glyph glyph-name="uni00B9" unicode="&#xb9;" horiz-adv-x="604" 
d="M267 899v667l-196 -123v179l240 145h108v-868h-152z" />
    <glyph glyph-name="ordmasculine" unicode="&#xba;" horiz-adv-x="825" 
d="M407 650q-152 0 -249 106.5t-97 271.5t96.5 271t249.5 106h11q153 0 249.5 -106.5t96.5 -270.5q0 -165 -97 -271.5t-249 -106.5h-11zM209 1028q0 -113 51 -172.5t147 -59.5h11q97 0 147.5 59.5t50.5 172.5q0 112 -51 171t-147 59h-11q-96 0 -147 -59t-51 -171z" />
    <glyph glyph-name="guillemotright" unicode="&#xbb;" horiz-adv-x="1281" 
d="M466 150l302 364l-302 364h212l300 -364l-300 -364h-212zM179 150l300 364l-300 364h211l299 -364l-299 -364h-211z" />
    <glyph glyph-name="questiondown" unicode="&#xbf;" horiz-adv-x="1042" 
d="M519 -340q-192 0 -301 110t-109 276q0 208 189 385q45 43 72.5 72.5t48.5 63t31 57.5t15.5 65.5t6.5 76.5t0 100h159q0 -73 -2 -117.5t-9.5 -94.5t-21 -84t-39 -76t-60.5 -82.5t-88 -92.5q-74 -72 -105 -134t-31 -139q0 -226 244 -226q285 0 282 345h159
q13 -218 -112 -361.5t-329 -143.5zM452 1020q0 40 28.5 68.5t69.5 28.5q40 0 68.5 -28.5t28.5 -68.5t-28.5 -69t-68.5 -29t-69 29t-29 69z" />
    <glyph glyph-name="Agrave" unicode="&#xc0;" horiz-adv-x="1176" 
d="M35 0l486 1394h132l488 -1394h-172l-151 438h-460l-152 -438h-171zM344 1773h200l166 -293h-172zM410 595h355l-177 511z" />
    <glyph glyph-name="Aacute" unicode="&#xc1;" horiz-adv-x="1176" 
d="M35 0l486 1394h132l488 -1394h-172l-151 438h-460l-152 -438h-171zM410 595h355l-177 511zM461 1480l166 293h202l-194 -293h-174z" />
    <glyph glyph-name="Acircumflex" unicode="&#xc2;" horiz-adv-x="1176" 
d="M35 0l486 1394h132l488 -1394h-172l-151 438h-460l-152 -438h-171zM333 1480l203 293h106l205 -293h-193l-65 97l-64 -97h-192zM410 595h355l-177 511z" />
    <glyph glyph-name="Atilde" unicode="&#xc3;" horiz-adv-x="1176" 
d="M35 0l486 1394h132l488 -1394h-172l-151 438h-460l-152 -438h-171zM378 1539q-17 76 14 129.5t101 53.5q45 0 124 -29q20 -6 48 -14q0 11 2 35h134q21 -83 -12 -133t-100 -50q-45 0 -125 27q-32 12 -48 16q0 -11 -2 -35h-136zM410 595h355l-177 511z" />
    <glyph glyph-name="Adieresis" unicode="&#xc4;" horiz-adv-x="1176" 
d="M35 0l486 1394h132l488 -1394h-172l-151 438h-460l-152 -438h-171zM381 1626q0 40 28.5 69t68.5 29q41 0 70 -29t29 -69t-29.5 -68.5t-69.5 -28.5t-68.5 28.5t-28.5 68.5zM410 595h355l-177 511zM611 1626q0 40 28.5 69t68.5 29q41 0 70 -29t29 -69t-29 -68.5t-70 -28.5
q-40 0 -68.5 28.5t-28.5 68.5z" />
    <glyph glyph-name="Aring" unicode="&#xc5;" horiz-adv-x="1176" 
d="M35 0l486 1394h132l488 -1394h-172l-151 438h-460l-152 -438h-171zM410 595h355l-177 511zM413 1626q0 77 52 124.5t124 47.5t124 -47.5t52 -124.5q0 -76 -52 -124t-124 -48t-124 48t-52 124zM547 1626q0 -19 11.5 -29.5t30.5 -10.5t30.5 10.5t11.5 29.5q0 40 -42 40
t-42 -40z" />
    <glyph glyph-name="AE" unicode="&#xc6;" horiz-adv-x="1631" 
d="M21 0l486 1394h1039v-157h-752v-456h688v-157h-688v-467h752v-157h-911v438h-290l-151 -438h-173zM399 595h236v637h-16z" />
    <glyph glyph-name="Ccedilla" unicode="&#xc7;" horiz-adv-x="1349" 
d="M652 -412q-104 0 -158 47v136q62 -32 119 -37t89 14t32 51q0 27 -15 38t-61.5 10.5t-144.5 -13.5l79 162q-236 36 -376.5 223t-140.5 477q0 323 170.5 516.5t446.5 193.5h19q206 0 356.5 -110t216.5 -303l-149 -56q-104 309 -424 309h-19q-217 0 -337.5 -143.5
t-120.5 -406.5q0 -262 120.5 -405t337.5 -143h19q320 0 424 309l149 -56q-62 -178 -196 -286t-319 -124l-4 -8q133 -48 133 -184q0 -54 -22.5 -96.5t-60 -66.5t-79 -36t-84.5 -12z" />
    <glyph glyph-name="Egrave" unicode="&#xc8;" horiz-adv-x="1161" 
d="M165 0v1394h911v-157h-751v-456h688v-157h-688v-467h751v-157h-911zM343 1773h201l166 -293h-171z" />
    <glyph glyph-name="Eacute" unicode="&#xc9;" horiz-adv-x="1161" 
d="M165 0v1394h911v-157h-751v-456h688v-157h-688v-467h751v-157h-911zM462 1480l166 293h200l-193 -293h-173z" />
    <glyph glyph-name="Ecircumflex" unicode="&#xca;" horiz-adv-x="1161" 
d="M165 0v1394h911v-157h-751v-456h688v-157h-688v-467h751v-157h-911zM334 1480l203 293h106l203 -293h-194l-63 96l-64 -96h-191z" />
    <glyph glyph-name="Edieresis" unicode="&#xcb;" horiz-adv-x="1161" 
d="M165 0v1394h911v-157h-751v-456h688v-157h-688v-467h751v-157h-911zM378 1626q0 40 28.5 69t68.5 29t68.5 -29t28.5 -69t-28.5 -68.5t-68.5 -28.5t-68.5 28.5t-28.5 68.5zM607 1626q0 40 29 69t69 29t68.5 -29t28.5 -69t-28.5 -68.5t-68.5 -28.5t-69 28.5t-29 68.5z" />
    <glyph glyph-name="Igrave" unicode="&#xcc;" horiz-adv-x="414" 
d="M63 0v1394h158v-1394h-158zM-103 1773h200l166 -293h-172z" />
    <glyph glyph-name="Iacute" unicode="&#xcd;" horiz-adv-x="414" 
d="M198 0v1394h158v-1394h-158zM151 1480l166 293h200l-195 -293h-171z" />
    <glyph glyph-name="Icircumflex" unicode="&#xce;" horiz-adv-x="297" 
d="M69 0v1394h159v-1394h-159zM-107 1480l203 293h107l203 -293h-193l-65 96l-63 -96h-192z" />
    <glyph glyph-name="Idieresis" unicode="&#xcf;" horiz-adv-x="263" 
d="M52 0v1394h158v-1394h-158zM-80 1626q0 40 28 69t69 29q40 0 69 -29t29 -69t-29 -68.5t-69 -28.5t-68.5 28.5t-28.5 68.5zM149 1626q0 40 28.5 69t68.5 29q41 0 70 -28.5t29 -69.5q0 -40 -29 -68.5t-70 -28.5q-40 0 -68.5 28.5t-28.5 68.5z" />
    <glyph glyph-name="Eth" unicode="&#xd0;" horiz-adv-x="1235" 
d="M146 0v589h-101v161h101v644h314q330 0 515 -187.5t185 -520.5q0 -327 -183 -506.5t-519 -179.5h-312zM304 157h151q277 0 409.5 129.5t132.5 399.5q0 551 -539 551h-154v-487h350v-161h-350v-432z" />
    <glyph glyph-name="Ntilde" unicode="&#xd1;" horiz-adv-x="1286" 
d="M165 0v1394h147l649 -1070v1070h160v-1394h-149l-647 1067v-1067h-160zM429 1539q-17 76 14 129.5t101 53.5q45 0 124 -29q20 -6 48 -14q0 11 2 35h134q21 -83 -12 -133t-100 -50q-46 0 -125 27q-32 12 -48 16q0 -11 -2 -35h-136z" />
    <glyph glyph-name="Ograve" unicode="&#xd2;" horiz-adv-x="1405" 
d="M692 -16q-276 0 -446.5 192.5t-170.5 513.5q0 323 170.5 516.5t446.5 193.5h19q280 0 449.5 -195.5t169.5 -514.5q0 -317 -169.5 -511.5t-449.5 -194.5h-19zM234 690q0 -261 120.5 -404.5t337.5 -143.5h19q219 0 339.5 143.5t120.5 404.5q0 263 -120.5 406.5
t-339.5 143.5h-19q-218 0 -338 -143.5t-120 -406.5zM462 1773h200l166 -293h-172z" />
    <glyph glyph-name="Oacute" unicode="&#xd3;" horiz-adv-x="1405" 
d="M692 -16q-276 0 -446.5 192.5t-170.5 513.5q0 323 170.5 516.5t446.5 193.5h19q280 0 449.5 -195.5t169.5 -514.5q0 -317 -169.5 -511.5t-449.5 -194.5h-19zM234 690q0 -261 120.5 -404.5t337.5 -143.5h19q219 0 339.5 143.5t120.5 404.5q0 263 -120.5 406.5
t-339.5 143.5h-19q-218 0 -338 -143.5t-120 -406.5zM580 1480l166 293h201l-194 -293h-173z" />
    <glyph glyph-name="Ocircumflex" unicode="&#xd4;" horiz-adv-x="1405" 
d="M692 -16q-276 0 -446.5 192.5t-170.5 513.5q0 323 170.5 516.5t446.5 193.5h19q280 0 449.5 -195.5t169.5 -514.5q0 -317 -169.5 -511.5t-449.5 -194.5h-19zM234 690q0 -261 120.5 -404.5t337.5 -143.5h19q219 0 339.5 143.5t120.5 404.5q0 263 -120.5 406.5
t-339.5 143.5h-19q-218 0 -338 -143.5t-120 -406.5zM451 1480l203 293h106l204 -293h-193l-64 96l-64 -96h-192z" />
    <glyph glyph-name="Otilde" unicode="&#xd5;" horiz-adv-x="1405" 
d="M692 -16q-276 0 -446.5 192.5t-170.5 513.5q0 323 170.5 516.5t446.5 193.5h19q280 0 449.5 -195.5t169.5 -514.5q0 -317 -169.5 -511.5t-449.5 -194.5h-19zM234 690q0 -261 120.5 -404.5t337.5 -143.5h19q219 0 339.5 143.5t120.5 404.5q0 263 -120.5 406.5
t-339.5 143.5h-19q-218 0 -338 -143.5t-120 -406.5zM497 1539q-17 76 14 129.5t101 53.5q45 0 124 -29q20 -6 48 -14q0 11 2 35h134q21 -83 -12 -133t-100 -50q-46 0 -125 27q-32 12 -48 16q0 -11 -2 -35h-136z" />
    <glyph glyph-name="Odieresis" unicode="&#xd6;" horiz-adv-x="1405" 
d="M692 -16q-276 0 -446.5 192.5t-170.5 513.5q0 323 170.5 516.5t446.5 193.5h19q280 0 449.5 -195.5t169.5 -514.5q0 -317 -169.5 -511.5t-449.5 -194.5h-19zM234 690q0 -261 120.5 -404.5t337.5 -143.5h19q219 0 339.5 143.5t120.5 404.5q0 263 -120.5 406.5
t-339.5 143.5h-19q-218 0 -338 -143.5t-120 -406.5zM494 1626q0 40 28.5 69t69.5 29q40 0 69 -29t29 -69t-29 -68.5t-69 -28.5t-69 28.5t-29 68.5zM725 1626q0 40 28 69t69 29q40 0 68.5 -29t28.5 -69t-28.5 -68.5t-68.5 -28.5t-68.5 28.5t-28.5 68.5z" />
    <glyph glyph-name="multiply" unicode="&#xd7;" horiz-adv-x="1043" 
d="M798 243l-275 275l-275 -274l-115 112l276 276l-276 275l115 115l275 -275l277 275l111 -115l-274 -275l275 -275z" />
    <glyph glyph-name="Oslash" unicode="&#xd8;" horiz-adv-x="1474" 
d="M722 -16q-250 0 -417 161l-118 -118l-112 115l130 131q-100 177 -100 417q0 323 170 516.5t447 193.5h18q257 0 425 -168l121 121l113 -114l-136 -137q97 -175 97 -412q0 -317 -170 -511.5t-450 -194.5h-18zM264 690q0 -174 59 -300l730 730q-118 120 -313 120h-18
q-218 0 -338 -143.5t-120 -406.5zM417 256q117 -114 305 -114h18q220 0 341 143.5t121 404.5q0 169 -57 295z" />
    <glyph glyph-name="Ugrave" unicode="&#xd9;" horiz-adv-x="1253" 
d="M149 510v884h157v-871q0 -111 35.5 -197t91.5 -130t124.5 -64t137 1.5t124.5 67.5t91.5 133t35.5 198v862h158v-864q0 -262 -155 -415q-123 -120 -296 -132q-171 -12 -306 87q-158 116 -191 335q-7 51 -7 105zM379 1773h201l166 -293h-173z" />
    <glyph glyph-name="Uacute" unicode="&#xda;" horiz-adv-x="1253" 
d="M149 510v884h157v-871q0 -111 35.5 -197t91.5 -130t124.5 -64t137 1.5t124.5 67.5t91.5 133t35.5 198v862h158v-864q0 -262 -155 -415q-123 -120 -296 -132q-171 -12 -306 87q-158 116 -191 335q-7 51 -7 105zM498 1480l166 293h200l-195 -293h-171z" />
    <glyph glyph-name="Ucircumflex" unicode="&#xdb;" horiz-adv-x="1253" 
d="M149 510v884h157v-871q0 -111 35.5 -197t91.5 -130t124.5 -64t137 1.5t124.5 67.5t91.5 133t35.5 198v862h158v-864q0 -262 -155 -415q-123 -120 -296 -132q-171 -12 -306 87q-158 116 -191 335q-7 51 -7 105zM369 1480l204 293h106l203 -293h-194l-64 96l-64 -96h-191z
" />
    <glyph glyph-name="Udieresis" unicode="&#xdc;" horiz-adv-x="1253" 
d="M149 510v884h157v-871q0 -111 35.5 -197t91.5 -130t124.5 -64t137 1.5t124.5 67.5t91.5 133t35.5 198v862h158v-864q0 -262 -155 -415q-123 -120 -296 -132q-171 -12 -306 87q-158 116 -191 335q-7 51 -7 105zM415 1626q0 40 28.5 69t68.5 29q41 0 69 -29t28 -69
t-28 -68.5t-69 -28.5q-40 0 -68.5 28.5t-28.5 68.5zM644 1626q0 40 29 69t69 29t69 -29t29 -69t-29 -68.5t-69 -28.5t-69 28.5t-29 68.5z" />
    <glyph glyph-name="Yacute" unicode="&#xdd;" horiz-adv-x="1170" 
d="M506 0l-4 422l-487 972h180l387 -780l391 780h182l-496 -972l5 -422h-158zM457 1480l166 293h200l-194 -293h-172z" />
    <glyph glyph-name="Thorn" unicode="&#xde;" horiz-adv-x="1176" 
d="M165 0v1381h160v-209h317q221 0 340 -102t119 -296v-2q0 -195 -119 -297t-340 -102h-317v-373h-160zM325 530h317q163 0 232 56.5t69 187.5q0 130 -69 186t-232 56h-317v-486z" />
    <glyph glyph-name="germandbls" unicode="&#xdf;" horiz-adv-x="1136" 
d="M675 -8q-105 0 -223 9.5t-126 32.5v131q218 -3 373 -11q100 4 146.5 38t46.5 104q0 50 -26 91t-111 120q-88 80 -119 137.5t-31 133.5t30.5 133t119.5 138q85 79 111 120t26 91q0 74 -52.5 108.5t-164.5 34.5q-179 0 -260 -65.5t-92 -208.5q-3 -75 -3 -105v-1024h-163
v1021q0 20 3 119q12 201 146 312t372 112q174 1 276.5 -82t102.5 -227q0 -87 -49.5 -166.5t-150.5 -168.5q-54 -47 -70 -74.5t-16 -67.5t16 -67t70 -74q101 -89 150.5 -168.5t49.5 -166.5q0 -145 -103 -227.5t-279 -82.5z" />
    <glyph glyph-name="agrave" unicode="&#xe0;" horiz-adv-x="1033" 
d="M471 -10q-166 0 -266 87t-100 232q0 160 115 241q56 40 128.5 55.5t172.5 19.5l281 13q-10 238 -272 238q-99 0 -161.5 -41t-127.5 -149l-124 100q80 128 179 186.5t234 58.5q193 0 311.5 -109t118.5 -307v-615h-157v112q-68 -58 -155.5 -90t-176.5 -32zM264 309
q0 -83 51 -124t160 -41q135 0 231.5 88.5t96.5 224.5v27l-274 -11q-82 -2 -131 -12t-81 -33q-29 -22 -41 -47.5t-12 -71.5zM277 1518h199l175 -323h-171z" />
    <glyph glyph-name="aacute" unicode="&#xe1;" horiz-adv-x="1033" 
d="M471 -10q-166 0 -266 87t-100 232q0 160 115 241q56 40 128.5 55.5t172.5 19.5l281 13q-10 238 -272 238q-99 0 -161.5 -41t-127.5 -149l-124 100q80 128 179 186.5t234 58.5q193 0 311.5 -109t118.5 -307v-615h-157v112q-68 -58 -155.5 -90t-176.5 -32zM264 309
q0 -83 51 -124t160 -41q135 0 231.5 88.5t96.5 224.5v27l-274 -11q-82 -2 -131 -12t-81 -33q-29 -22 -41 -47.5t-12 -71.5zM429 1195l175 323h199l-202 -323h-172z" />
    <glyph glyph-name="acircumflex" unicode="&#xe2;" horiz-adv-x="1033" 
d="M471 -10q-166 0 -266 87t-100 232q0 160 115 241q56 40 128.5 55.5t172.5 19.5l281 13q-10 238 -272 238q-99 0 -161.5 -41t-127.5 -149l-124 100q80 128 179 186.5t234 58.5q193 0 311.5 -109t118.5 -307v-615h-157v112q-68 -58 -155.5 -90t-176.5 -32zM264 309
q0 -83 51 -124t160 -41q135 0 231.5 88.5t96.5 224.5v27l-274 -11q-82 -2 -131 -12t-81 -33q-29 -22 -41 -47.5t-12 -71.5zM309 1195l190 323h112l190 -323h-187l-60 108l-61 -108h-184z" />
    <glyph glyph-name="atilde" unicode="&#xe3;" horiz-adv-x="1033" 
d="M471 -10q-166 0 -266 87t-100 232q0 160 115 241q55 40 126.5 55.5t174.5 19.5l281 13q-10 238 -272 238q-99 0 -161.5 -41t-127.5 -149l-124 100q80 128 179 186.5t234 58.5q193 0 311.5 -109t118.5 -307v-615h-157v112q-68 -58 -155.5 -90t-176.5 -32zM264 309
q0 -83 51 -124t160 -41q135 0 231.5 88.5t96.5 224.5v27l-274 -11q-83 -3 -131.5 -12.5t-80.5 -32.5q-29 -22 -41 -47.5t-12 -71.5zM360 1287q-17 76 14 129.5t101 53.5q45 0 124 -29q20 -6 48 -14q0 11 2 35h134q21 -83 -12 -133t-100 -50q-45 0 -125 27q-32 12 -48 16
q0 -11 -2 -35h-136z" />
    <glyph glyph-name="adieresis" unicode="&#xe4;" horiz-adv-x="1033" 
d="M471 -10q-166 0 -266 87t-100 232q0 160 115 241q96 70 302 75l280 13q-10 238 -272 238q-99 0 -161.5 -41t-127.5 -149l-124 100q80 128 179 186.5t234 58.5q193 0 311.5 -109t118.5 -307v-615h-157v112q-68 -58 -155.5 -90t-176.5 -32zM264 309q0 -83 51 -124t160 -41
q135 0 231.5 88.5t96.5 224.5v27l-273 -11q-84 -3 -133 -12.5t-80 -32.5q-29 -22 -41 -47.5t-12 -71.5zM344 1355q0 40 28.5 68.5t68.5 28.5t68.5 -28.5t28.5 -68.5t-28.5 -69t-68.5 -29q-41 0 -69 29t-28 69zM573 1355q0 40 28.5 68.5t68.5 28.5q41 0 69.5 -28.5
t28.5 -68.5t-28.5 -69t-69.5 -29q-40 0 -68.5 29t-28.5 69z" />
    <glyph glyph-name="aring" unicode="&#xe5;" horiz-adv-x="1033" 
d="M471 -10q-166 0 -266 87t-100 232q0 160 115 241q56 40 128.5 55.5t172.5 19.5l281 13q-10 238 -272 238q-99 0 -161.5 -41t-127.5 -149l-124 100q80 128 179 186.5t234 58.5q193 0 311.5 -109t118.5 -307v-615h-157v112q-68 -58 -155.5 -90t-176.5 -32zM264 309
q0 -83 51 -124t160 -41q135 0 231.5 88.5t96.5 224.5v27l-274 -11q-82 -2 -131 -12t-81 -33q-29 -22 -41 -47.5t-12 -71.5zM390 1355q0 77 52 124.5t123 47.5q72 0 124 -47.5t52 -124.5q0 -76 -52 -124t-124 -48t-123.5 48t-51.5 124zM524 1355q0 -40 41 -40q42 0 42 40
t-42 40q-41 0 -41 -40z" />
    <glyph glyph-name="ae" unicode="&#xe6;" horiz-adv-x="1805" 
d="M471 -10q-166 0 -266 87t-100 232q0 160 115 241q96 70 302 75l280 13q-10 238 -272 238q-99 0 -161.5 -41t-127.5 -149l-124 100q80 128 179 186.5t234 58.5q124 0 221.5 -47t151.5 -138q46 63 109.5 105.5t132 61.5t141.5 16t140.5 -27.5t126.5 -73t100.5 -115
t62 -160.5t12.5 -203h-762q15 -144 96.5 -224t214.5 -80h18q206 0 288 200l145 -63q-55 -135 -169 -214t-264 -79h-18q-127 0 -230.5 59t-165.5 163q-73 -107 -183 -164.5t-227 -57.5zM264 309q0 -83 51 -124t160 -41q135 0 231.5 88.5t96.5 224.5v27l-273 -11
q-84 -3 -133 -12.5t-80 -32.5q-29 -22 -41 -47.5t-12 -71.5zM969 602h596q-16 92 -62.5 158.5t-106.5 96.5t-128.5 30t-129 -30t-107 -96.5t-62.5 -158.5z" />
    <glyph glyph-name="ccedilla" unicode="&#xe7;" horiz-adv-x="1074" 
d="M475 -417q-104 0 -158 47v136q62 -32 119 -37t89 14t32 51q0 21 -7 31.5t-31.5 15.5t-67 2t-118.5 -12l90 175q-158 41 -253 178t-95 328q0 229 131.5 374t342.5 145h17q151 0 265.5 -78t167.5 -214l-146 -63q-83 200 -287 200h-17q-148 0 -231.5 -96t-83.5 -268
t83.5 -269t231.5 -97h17q205 0 289 201l144 -64q-101 -243 -374 -238l-35 -68q131 -47 131 -183q0 -54 -22.5 -96.5t-60 -66.5t-79 -36t-84.5 -12z" />
    <glyph glyph-name="egrave" unicode="&#xe8;" 
d="M549 -10q-208 0 -341 147t-133 375q0 225 128.5 370t335.5 149q221 -5 350.5 -168.5t110.5 -412.5h-763q15 -144 96.5 -224t215.5 -80h17q205 0 289 201l144 -64q-56 -135 -170 -214t-263 -79h-17zM241 602h595q-22 128 -98.5 199t-198.5 75q-122 -5 -199.5 -76
t-98.5 -198zM298 1518h197l177 -323h-173z" />
    <glyph glyph-name="eacute" unicode="&#xe9;" 
d="M549 -10q-208 0 -341 147t-133 375q0 225 128.5 370t335.5 149q221 -5 350.5 -168.5t110.5 -412.5h-763q15 -144 96.5 -224t215.5 -80h17q205 0 289 201l144 -64q-56 -135 -170 -214t-263 -79h-17zM241 602h595q-22 128 -98.5 199t-198.5 75q-122 -5 -199.5 -76
t-98.5 -198zM414 1195l177 323h197l-202 -323h-172z" />
    <glyph glyph-name="ecircumflex" unicode="&#xea;" 
d="M549 -10q-208 0 -341 147t-133 375q0 225 128.5 370t335.5 149q221 -5 350.5 -168.5t110.5 -412.5h-763q15 -144 96.5 -224t215.5 -80h17q205 0 289 201l144 -64q-56 -135 -170 -214t-263 -79h-17zM241 602h595q-22 128 -98.5 199t-198.5 75q-122 -5 -199.5 -76
t-98.5 -198zM293 1195l190 323h113l191 -323h-187l-61 108l-61 -108h-185z" />
    <glyph glyph-name="edieresis" unicode="&#xeb;" 
d="M549 -10q-208 0 -341 147t-133 375q0 225 128.5 370t335.5 149q221 -5 350.5 -168.5t110.5 -412.5h-763q15 -144 96.5 -224t215.5 -80h17q205 0 289 201l144 -64q-56 -135 -170 -214t-263 -79h-17zM241 602h595q-22 128 -98.5 199t-198.5 75q-122 -5 -199.5 -76
t-98.5 -198zM328 1355q0 40 28.5 68.5t68.5 28.5t69.5 -28t29.5 -69q0 -40 -29 -69t-70 -29q-40 0 -68.5 29t-28.5 69zM559 1355q0 40 28 68.5t69 28.5q40 0 69 -28t29 -69q0 -40 -29 -69t-69 -29q-41 0 -69 29t-28 69z" />
    <glyph glyph-name="igrave" unicode="&#xec;" horiz-adv-x="494" 
d="M160 0v1022h159v-1022h-159zM-37 1518h198l176 -323h-170z" />
    <glyph glyph-name="iacute" unicode="&#xed;" horiz-adv-x="494" 
d="M199 0v1022h159v-1022h-159zM157 1195l177 323h197l-202 -323h-172z" />
    <glyph glyph-name="icircumflex" unicode="&#xee;" horiz-adv-x="281" 
d="M61 0v1022h158v-1022h-158zM-107 1195l192 323h111l192 -323h-187l-61 108l-61 -108h-186z" />
    <glyph glyph-name="idieresis" unicode="&#xef;" horiz-adv-x="266" 
d="M54 0v1022h158v-1022h-158zM-78 1355q0 40 28 68.5t69 28.5q40 0 69 -28t29 -69q0 -40 -29 -69t-69 -29q-41 0 -69 29t-28 69zM151 1355q0 40 28.5 68.5t68.5 28.5t69 -28t29 -69q0 -40 -28.5 -69t-69.5 -29q-40 0 -68.5 29t-28.5 69z" />
    <glyph glyph-name="eth" unicode="&#xf0;" horiz-adv-x="1125" 
d="M549 -10q-208 0 -341 147t-133 375q0 229 131.5 374t342.5 145h17q59 0 117 -14l-29 56l-170 -45l-38 155l135 37l-91 179h176l70 -137l148 39l40 -156l-114 -31l202 -393h-2q8 -17 19 -80t11 -129q0 -229 -132.5 -375.5t-341.5 -146.5h-17zM234 512q0 -172 83.5 -269
t231.5 -97h17q148 0 231.5 97t83.5 269t-83.5 268t-231.5 96h-17q-148 0 -231.5 -96t-83.5 -268z" />
    <glyph glyph-name="ntilde" unicode="&#xf1;" horiz-adv-x="1131" 
d="M157 0v1022h159v-73q103 82 276 82q202 0 302 -109.5t100 -317.5v-604h-157v594q0 159 -52.5 220.5t-192.5 61.5q-143 0 -209.5 -86.5t-66.5 -288.5v-501h-159zM351 1287q-17 76 14 129.5t101 53.5q45 0 124 -29q20 -6 48 -14q0 11 2 35h134q21 -83 -12 -133t-100 -50
q-46 0 -125 27q-32 12 -48 16q0 -11 -2 -35h-136z" />
    <glyph glyph-name="ograve" unicode="&#xf2;" horiz-adv-x="1115" 
d="M549 -10q-208 0 -341 147t-133 375q0 229 131.5 374t342.5 145h17q211 0 342.5 -145t131.5 -374t-132.5 -375.5t-341.5 -146.5h-17zM234 512q0 -172 83.5 -269t231.5 -97h17q148 0 231.5 97t83.5 269t-83.5 268t-231.5 96h-17q-148 0 -231.5 -96t-83.5 -268zM314 1518
h198l177 -323h-171z" />
    <glyph glyph-name="oacute" unicode="&#xf3;" horiz-adv-x="1115" 
d="M549 -10q-208 0 -341 147t-133 375q0 229 131.5 374t342.5 145h17q211 0 342.5 -145t131.5 -374t-132.5 -375.5t-341.5 -146.5h-17zM234 512q0 -172 83.5 -269t231.5 -97h17q148 0 231.5 97t83.5 269t-83.5 268t-231.5 96h-17q-148 0 -231.5 -96t-83.5 -268zM432 1195
l175 323h199l-203 -323h-171z" />
    <glyph glyph-name="ocircumflex" unicode="&#xf4;" horiz-adv-x="1115" 
d="M549 -10q-208 0 -341 147t-133 375q0 229 131.5 374t342.5 145h17q211 0 342.5 -145t131.5 -374t-132.5 -375.5t-341.5 -146.5h-17zM234 512q0 -172 83.5 -269t231.5 -97h17q148 0 231.5 97t83.5 269t-83.5 268t-231.5 96h-17q-148 0 -231.5 -96t-83.5 -268zM310 1195
l192 323h111l190 -323h-186l-60 108l-61 -108h-186z" />
    <glyph glyph-name="otilde" unicode="&#xf5;" horiz-adv-x="1115" 
d="M549 -10q-208 0 -341 147t-133 375q0 229 131.5 374t342.5 145h17q211 0 342.5 -145t131.5 -374t-132.5 -375.5t-341.5 -146.5h-17zM234 512q0 -172 83.5 -269t231.5 -97h17q148 0 231.5 97t83.5 269t-83.5 268t-231.5 96h-17q-148 0 -231.5 -96t-83.5 -268zM351 1287
q-17 76 14 129.5t101 53.5q45 0 124 -29q20 -6 48 -14q0 11 2 35h134q21 -83 -12 -133t-100 -50q-46 0 -125 27q-32 12 -48 16q0 -11 -2 -35h-136z" />
    <glyph glyph-name="odieresis" unicode="&#xf6;" horiz-adv-x="1115" 
d="M549 -10q-208 0 -341 147t-133 375q0 229 131.5 374t342.5 145h17q211 0 342.5 -145t131.5 -374t-132.5 -375.5t-341.5 -146.5h-17zM234 512q0 -172 83.5 -269t231.5 -97h17q148 0 231.5 97t83.5 269t-83.5 268t-231.5 96h-17q-148 0 -231.5 -96t-83.5 -268zM345 1355
q0 41 29 69t69 28t68.5 -28.5t28.5 -68.5t-28.5 -69t-68.5 -29q-41 0 -69.5 29t-28.5 69zM574 1355q0 41 29 69t69 28q41 0 69.5 -28.5t28.5 -68.5t-28.5 -69t-69.5 -29q-40 0 -69 29t-29 69z" />
    <glyph glyph-name="divide" unicode="&#xf7;" horiz-adv-x="1035" 
d="M91 560v161h853v-161h-853zM409 357q0 46 31.5 77t77.5 31q45 0 77 -31.5t32 -76.5q0 -46 -32 -77.5t-77 -31.5q-46 0 -77.5 32t-31.5 77zM409 922q0 46 31.5 77.5t77.5 31.5q45 0 77 -31.5t32 -77.5t-32 -77t-77 -31q-46 0 -77.5 31t-31.5 77z" />
    <glyph glyph-name="oslash" unicode="&#xf8;" horiz-adv-x="1310" 
d="M187 -40l-112 114l164 164q-64 125 -64 274q0 228 132 373.5t342 145.5h19q159 0 276 -87l178 178l113 -114l-180 -181q85 -131 85 -315q0 -229 -132 -375.5t-340 -146.5h-19q-184 0 -312 120zM335 512q0 -85 23 -154l474 473q-69 45 -164 45h-19q-147 0 -230.5 -96.5
t-83.5 -267.5zM447 220q78 -74 202 -74h19q148 0 231.5 97t83.5 269q0 116 -44 199z" />
    <glyph glyph-name="ugrave" unicode="&#xf9;" horiz-adv-x="1112" 
d="M539 -10q-202 0 -302 110t-100 318v604h159v-594q0 -159 52 -220.5t191 -61.5q145 0 210.5 86t65.5 289v501h160v-1022h-160v72q-102 -82 -276 -82zM285 1518h199l175 -323h-170z" />
    <glyph glyph-name="uacute" unicode="&#xfa;" horiz-adv-x="1112" 
d="M539 -10q-202 0 -302 110t-100 318v604h159v-594q0 -159 52 -220.5t191 -61.5q145 0 210.5 86t65.5 289v501h160v-1022h-160v72q-102 -82 -276 -82zM430 1195l175 323h199l-202 -323h-172z" />
    <glyph glyph-name="ucircumflex" unicode="&#xfb;" horiz-adv-x="1112" 
d="M539 -10q-202 0 -302 110t-100 318v604h159v-594q0 -159 52 -220.5t191 -61.5q145 0 210.5 86t65.5 289v501h160v-1022h-160v72q-102 -82 -276 -82zM310 1195l190 323h112l191 -323h-188l-60 108l-61 -108h-184z" />
    <glyph glyph-name="udieresis" unicode="&#xfc;" horiz-adv-x="1112" 
d="M539 -10q-202 0 -302 110t-100 318v604h159v-594q0 -159 52 -220.5t191 -61.5q145 0 210.5 86t65.5 289v501h160v-1022h-160v72q-102 -82 -276 -82zM343 1355q0 40 28.5 68.5t68.5 28.5t68.5 -28.5t28.5 -68.5t-28.5 -69t-68.5 -29q-41 0 -69 29t-28 69zM572 1355
q0 40 29 68.5t69 28.5t69 -28.5t29 -68.5t-29 -69t-69 -29t-69 29t-29 69z" />
    <glyph glyph-name="yacute" unicode="&#xfd;" horiz-adv-x="1049" 
d="M235 -187q54 -35 72 -30.5t45 70.5l87 211l-394 958h174l304 -753l309 753h172l-507 -1232q-52 -128 -137.5 -158.5t-189.5 41.5zM401 1195l176 323h198l-203 -323h-171z" />
    <glyph glyph-name="thorn" unicode="&#xfe;" horiz-adv-x="1202" 
d="M157 -372v1766h159v-492q129 129 315 129h25q203 0 337 -149.5t134 -371.5q0 -146 -61 -265t-169 -187t-241 -68h-25q-185 0 -315 128v-490h-159zM314 510q0 -166 85 -264t228 -98h26q144 0 230.5 98.5t86.5 263.5t-86.5 264.5t-230.5 99.5h-26q-142 0 -227.5 -99
t-85.5 -265z" />
    <glyph glyph-name="ydieresis" unicode="&#xff;" horiz-adv-x="1049" 
d="M234 -188q56 -34 73.5 -29.5t44.5 70.5l87 211l-394 958h174l304 -753l309 753h172l-507 -1232q-53 -128 -137.5 -158.5t-189.5 41.5zM314 1355q0 41 29 69t69 28q41 0 70 -28.5t29 -68.5t-29 -69t-70 -29q-40 0 -69 29t-29 69zM545 1355q0 41 28.5 69t68.5 28t69 -28
t29 -69q0 -40 -29 -69t-69 -29t-68.5 29t-28.5 69z" />
    <glyph glyph-name="Amacron" unicode="&#x100;" horiz-adv-x="1176" 
d="M35 0l486 1394h132l488 -1394h-172l-151 438h-460l-152 -438h-171zM400 1545v161h378v-161h-378zM410 595h355l-177 511z" />
    <glyph glyph-name="amacron" unicode="&#x101;" horiz-adv-x="1033" 
d="M471 -10q-166 0 -266 87t-100 232q0 160 115 241q56 40 128.5 55.5t172.5 19.5l281 13q-10 238 -272 238q-99 0 -161.5 -41t-127.5 -149l-124 100q80 128 179 186.5t234 58.5q193 0 311.5 -109t118.5 -307v-615h-157v112q-68 -58 -155.5 -90t-176.5 -32zM264 309
q0 -83 51 -124t160 -41q135 0 231.5 88.5t96.5 224.5v27l-274 -11q-82 -2 -131 -12t-81 -33q-29 -22 -41 -47.5t-12 -71.5zM365 1267v162h377v-162h-377z" />
    <glyph glyph-name="Abreve" unicode="&#x102;" horiz-adv-x="1176" 
d="M35 0l486 1394h132l488 -1394h-172l-151 438h-460l-152 -438h-171zM355 1773h155q-12 -90 6 -124.5t73 -34.5q54 0 72 34.5t6 124.5h155q22 -139 -46 -229t-187 -90q-121 0 -188 89.5t-46 229.5zM410 595h355l-177 511z" />
    <glyph glyph-name="abreve" unicode="&#x103;" horiz-adv-x="1033" 
d="M471 -10q-166 0 -266 87t-100 232q0 160 115 241q96 70 302 75l280 13q-10 238 -272 238q-99 0 -161.5 -41t-127.5 -149l-124 100q80 128 179 186.5t234 58.5q193 0 311.5 -109t118.5 -307v-615h-157v112q-68 -58 -155.5 -90t-176.5 -32zM264 309q0 -83 51 -124t160 -41
q135 0 231.5 88.5t96.5 224.5v27l-273 -11q-84 -3 -133 -12.5t-80 -32.5q-29 -22 -41 -47.5t-12 -71.5zM321 1507h155q-12 -90 6 -124.5t72 -34.5t72 34.5t6 124.5h156q21 -139 -47.5 -229t-186.5 -90q-120 0 -187 89.5t-46 229.5z" />
    <glyph glyph-name="Aogonek" unicode="&#x104;" horiz-adv-x="1167" 
d="M913 -407q-71 0 -124.5 44.5t-53.5 142.5t53.5 183t145.5 140l-116 335h-460l-152 -438h-171l486 1394h132l479 -1368q-235 -80 -235 -240q0 -26 3 -30t21 -4q35 0 64 27t115 137v-235q-74 -88 -187 -88zM410 595h355l-177 511z" />
    <glyph glyph-name="aogonek" unicode="&#x105;" horiz-adv-x="1073" 
d="M753 -407q-31 0 -60.5 9.5t-57 29.5t-44 58.5t-16.5 89.5q0 145 104 255q-102 -45 -208 -45q-166 0 -266 87t-100 232q0 160 115 241q56 40 128.5 55.5t172.5 19.5l281 13q-10 238 -272 238q-99 0 -161.5 -41t-127.5 -149l-124 100q80 128 179 186.5t234 58.5
q193 0 311.5 -109t118.5 -307v-605q-101 -10 -161.5 -73t-60.5 -151q0 -26 3 -30t20 -4q36 0 65 27.5t115 136.5v-235q-76 -88 -188 -88zM264 309q0 -83 51 -124t160 -41q135 0 231.5 88.5t96.5 224.5v27l-274 -11q-82 -2 -131 -12t-81 -33q-29 -22 -41 -47.5t-12 -71.5z
" />
    <glyph glyph-name="Cacute" unicode="&#x106;" horiz-adv-x="1349" 
d="M692 -12q-276 0 -446.5 193t-170.5 515q0 323 170.5 516.5t446.5 193.5h19q206 0 356.5 -110t216.5 -303l-149 -56q-104 309 -424 309h-19q-217 0 -337.5 -143.5t-120.5 -406.5q0 -262 120.5 -405t337.5 -143h19q320 0 424 309l149 -56q-66 -192 -216.5 -302.5
t-356.5 -110.5h-19zM551 1480l166 293h201l-194 -293h-173z" />
    <glyph glyph-name="cacute" unicode="&#x107;" horiz-adv-x="1074" 
d="M549 -10q-208 0 -341 147t-133 375q0 229 131.5 374t342.5 145h17q151 0 265.5 -78t167.5 -214l-146 -63q-83 200 -287 200h-17q-148 0 -231.5 -96t-83.5 -268t83.5 -269t231.5 -97h17q205 0 289 201l144 -64q-56 -135 -170 -214t-263 -79h-17zM423 1195l177 323h197
l-202 -323h-172z" />
    <glyph glyph-name="Ccircumflex" unicode="&#x108;" horiz-adv-x="1349" 
d="M692 -12q-276 0 -446.5 193t-170.5 515q0 323 170.5 516.5t446.5 193.5h19q206 0 356.5 -110t216.5 -303l-149 -56q-104 309 -424 309h-19q-217 0 -337.5 -143.5t-120.5 -406.5q0 -262 120.5 -405t337.5 -143h19q320 0 424 309l149 -56q-66 -192 -216.5 -302.5
t-356.5 -110.5h-19zM449 1480l202 293h106l205 -293h-194l-64 96l-64 -96h-191z" />
    <glyph glyph-name="ccircumflex" unicode="&#x109;" horiz-adv-x="1074" 
d="M549 -10q-208 0 -341 147t-133 375q0 229 131.5 374t342.5 145h17q151 0 265.5 -78t167.5 -214l-146 -63q-83 200 -287 200h-17q-148 0 -231.5 -96t-83.5 -268t83.5 -269t231.5 -97h17q205 0 289 201l144 -64q-56 -135 -170 -214t-263 -79h-17zM310 1195l192 323h111
l190 -323h-186l-60 108l-61 -108h-186z" />
    <glyph glyph-name="Cdotaccent" unicode="&#x10a;" horiz-adv-x="1349" 
d="M692 -12q-276 0 -446.5 193t-170.5 515q0 323 170.5 516.5t446.5 193.5h19q206 0 356.5 -110t216.5 -303l-149 -56q-104 309 -424 309h-19q-217 0 -337.5 -143.5t-120.5 -406.5q0 -262 120.5 -405t337.5 -143h19q320 0 424 309l149 -56q-66 -192 -216.5 -302.5
t-356.5 -110.5h-19zM588 1626q0 40 28 69t69 29q40 0 69 -29t29 -69t-29 -68.5t-69 -28.5q-41 0 -69 28.5t-28 68.5z" />
    <glyph glyph-name="cdotaccent" unicode="&#x10b;" horiz-adv-x="1074" 
d="M549 -10q-208 0 -341 147t-133 375q0 229 131.5 374t342.5 145h17q151 0 265.5 -78t167.5 -214l-146 -63q-83 200 -287 200h-17q-148 0 -231.5 -96t-83.5 -268t83.5 -269t231.5 -97h17q205 0 289 201l144 -64q-56 -135 -170 -214t-263 -79h-17zM451 1353q0 41 29 69
t69 28t68.5 -28.5t28.5 -68.5t-28.5 -69t-68.5 -29q-41 0 -69.5 29t-28.5 69z" />
    <glyph glyph-name="Ccaron" unicode="&#x10c;" horiz-adv-x="1349" 
d="M692 -12q-276 0 -446.5 193t-170.5 515q0 323 170.5 516.5t446.5 193.5h19q206 0 356.5 -110t216.5 -303l-149 -56q-104 309 -424 309h-19q-217 0 -337.5 -143.5t-120.5 -406.5q0 -262 120.5 -405t337.5 -143h19q320 0 424 309l149 -56q-66 -192 -216.5 -302.5
t-356.5 -110.5h-19zM430 1773h193l64 -96l63 96h192l-203 -293h-106z" />
    <glyph glyph-name="ccaron" unicode="&#x10d;" horiz-adv-x="1074" 
d="M549 -10q-208 0 -341 147t-133 375q0 229 131.5 374t342.5 145h17q151 0 265.5 -78t167.5 -214l-146 -63q-83 200 -287 200h-17q-148 0 -231.5 -96t-83.5 -268t83.5 -269t231.5 -97h17q205 0 289 201l144 -64q-56 -135 -170 -214t-263 -79h-17zM303 1518h186l61 -108
l60 108h186l-191 -323h-112z" />
    <glyph glyph-name="Dcaron" unicode="&#x10e;" horiz-adv-x="1255" 
d="M165 0v1394h315q330 0 515 -187.5t185 -520.5q0 -327 -183 -506.5t-518 -179.5h-314zM325 157h150q277 0 410 129.5t133 399.5q0 551 -539 551h-154v-1080zM366 1773h192l65 -96l63 96h192l-203 -293h-106z" />
    <glyph glyph-name="dcaron" unicode="&#x10f;" horiz-adv-x="1296" 
d="M547 -10q-134 0 -242 69t-169 188.5t-61 264.5q0 223 134.5 371t337.5 148h25q187 0 315 -128v491h159v-274l121 342h150v-83l-110 -262h-161v-1117h-159v119q-132 -129 -315 -129h-25zM234 512q0 -166 86 -265t230 -99h26q142 0 227.5 99t85.5 265t-85 264t-228 98h-26
q-144 0 -230 -98t-86 -264z" />
    <glyph glyph-name="Dcroat" unicode="&#x110;" horiz-adv-x="1235" 
d="M146 0v589h-101v161h101v644h314q330 0 515 -187.5t185 -520.5q0 -327 -183 -506.5t-519 -179.5h-312zM304 157h151q277 0 409.5 129.5t132.5 399.5q0 551 -539 551h-154v-487h350v-161h-350v-432z" />
    <glyph glyph-name="dcroat" unicode="&#x111;" horiz-adv-x="1148" 
d="M547 -10q-134 0 -242 69t-169 188.5t-61 264.5q0 223 134.5 371t337.5 148h25q187 0 315 -128v177h-211v161h211v153h159v-153h85v-161h-85v-1080h-159v119q-132 -129 -315 -129h-25zM234 512q0 -166 86 -265t230 -99h26q142 0 227.5 99t85.5 265t-85 264t-228 98h-26
q-144 0 -230 -98t-86 -264z" />
    <glyph glyph-name="Emacron" unicode="&#x112;" horiz-adv-x="1161" 
d="M165 0v1394h911v-157h-751v-456h688v-157h-688v-467h751v-157h-911zM400 1545v161h377v-161h-377z" />
    <glyph glyph-name="emacron" unicode="&#x113;" 
d="M549 -10q-208 0 -341 147t-133 375q0 225 128.5 370t335.5 149q221 -5 350.5 -168.5t110.5 -412.5h-763q15 -144 96.5 -224t215.5 -80h17q205 0 289 201l144 -64q-56 -135 -170 -214t-263 -79h-17zM241 602h595q-22 128 -98.5 199t-198.5 75q-122 -5 -199.5 -76
t-98.5 -198zM350 1267v162h378v-162h-378z" />
    <glyph glyph-name="Ebreve" unicode="&#x114;" horiz-adv-x="1161" 
d="M165 0v1394h911v-157h-751v-456h688v-157h-688v-467h751v-157h-911zM419 1822h156q-12 -91 5.5 -124.5t72.5 -33.5q54 0 72 34t6 124h155q21 -139 -46.5 -228.5t-186.5 -89.5q-121 0 -188 89t-46 229z" />
    <glyph glyph-name="ebreve" unicode="&#x115;" 
d="M549 -10q-208 0 -341 147t-133 375q0 251 152 396q120 114 290 121q168 8 299 -93q156 -120 182 -343q8 -68 2 -143h-763q15 -144 96.5 -224t215.5 -80h17q205 0 289 201l144 -64q-56 -135 -170 -214t-263 -79h-17zM241 602h595q-16 92 -62.5 158.5t-106.5 96.5
t-128.5 30t-128.5 -30t-106.5 -96.5t-62.5 -158.5zM303 1507h156q-12 -91 6 -125t72 -34q55 0 73 34.5t5 124.5h155q22 -139 -46 -229t-187 -90q-120 0 -187.5 90t-46.5 229z" />
    <glyph glyph-name="Edotaccent" unicode="&#x116;" horiz-adv-x="1161" 
d="M165 0v1394h911v-157h-751v-456h688v-157h-688v-467h751v-157h-911zM491 1626q0 40 29 69t69 29t69 -29t29 -69t-29 -68.5t-69 -28.5t-69 28.5t-29 68.5z" />
    <glyph glyph-name="edotaccent" unicode="&#x117;" 
d="M549 -10q-208 0 -341 147t-133 375q0 225 128.5 370t335.5 149q221 -5 350.5 -168.5t110.5 -412.5h-763q15 -144 96.5 -224t215.5 -80h17q205 0 289 201l144 -64q-56 -135 -170 -214t-263 -79h-17zM241 602h595q-22 128 -98.5 199t-198.5 75q-122 -5 -199.5 -76
t-98.5 -198zM442 1353q0 40 28.5 68.5t68.5 28.5t68.5 -28.5t28.5 -68.5t-28 -69t-69 -29q-40 0 -68.5 29t-28.5 69z" />
    <glyph glyph-name="Eogonek" unicode="&#x118;" horiz-adv-x="1164" 
d="M876 -407q-72 0 -125 44.5t-53 142.5q0 120 78 220h-611v1394h911v-157h-751v-456h688v-157h-688v-467h754v-138q-219 -76 -219 -233q0 -26 3 -30t20 -4q36 0 65 27.5t114 138.5v-236q-74 -89 -186 -89z" />
    <glyph glyph-name="eogonek" unicode="&#x119;" 
d="M537 -407q-71 0 -124.5 44.5t-53.5 142.5q0 118 69 225q-160 41 -256.5 178t-96.5 329q0 225 128.5 370t335.5 149q221 -5 350.5 -168.5t110.5 -412.5h-763q15 -144 96.5 -224t215.5 -80h17q205 0 289 201l144 -64q-45 -110 -131.5 -184t-200.5 -98q-68 -30 -106.5 -88
t-38.5 -127q0 -26 3 -30t20 -4q36 0 65 28t114 138v-236q-74 -89 -187 -89zM241 602h595q-22 128 -98.5 199t-198.5 75q-122 -5 -199.5 -76t-98.5 -198zM350 1267v162h378v-162h-378z" />
    <glyph glyph-name="Ecaron" unicode="&#x11a;" horiz-adv-x="1161" 
d="M165 0v1394h911v-157h-751v-456h688v-157h-688v-467h751v-157h-911zM334 1773h193l64 -96l63 96h192l-203 -293h-106z" />
    <glyph glyph-name="ecaron" unicode="&#x11b;" 
d="M549 -10q-208 0 -341 147t-133 375q0 225 128.5 370t335.5 149q221 -5 350.5 -168.5t110.5 -412.5h-763q15 -144 96.5 -224t215.5 -80h17q205 0 289 201l144 -64q-56 -135 -170 -214t-263 -79h-17zM241 602h595q-22 128 -98.5 199t-198.5 75q-122 -5 -199.5 -76
t-98.5 -198zM293 1518h187l61 -109l61 109h185l-191 -323h-113z" />
    <glyph glyph-name="Gcircumflex" unicode="&#x11c;" horiz-adv-x="1323" 
d="M692 -12q-276 0 -446.5 193.5t-170.5 516.5q0 322 170.5 515t446.5 193q209 0 359 -113t207 -309l-147 -58q-90 320 -419 320q-217 0 -337.5 -143.5t-120.5 -404.5q0 -263 120 -406.5t338 -143.5q288 0 393 246v199h-454v157h612v-750h-158v130q-159 -142 -393 -142z
M431 1480l204 293h106l203 -293h-193l-64 96l-64 -96h-192z" />
    <glyph glyph-name="gcircumflex" unicode="&#x11d;" horiz-adv-x="1202" 
d="M562 -377q-190 0 -312 114t-133 307h156q31 -264 289 -264h28q140 0 213.5 80.5t82.5 250.5q-41 -49 -128.5 -86t-185.5 -37h-10q-133 0 -245 68t-177 188.5t-65 265.5q0 223 134.5 371t337.5 148h25q187 0 315 -128v123h159v-873q0 -249 -123.5 -388.5t-332.5 -139.5
h-28zM234 510q0 -166 86 -265t230 -99h26q132 0 215 86t96 235v85q-13 149 -96 234.5t-215 85.5h-26q-144 0 -230 -98t-86 -264zM334 1195l190 323h112l190 -323h-186l-61 108l-61 -108h-184z" />
    <glyph glyph-name="Gbreve" unicode="&#x11e;" horiz-adv-x="1323" 
d="M692 -12q-276 0 -446.5 193.5t-170.5 516.5q0 322 170.5 515t446.5 193q209 0 359 -113t207 -309l-147 -58q-90 320 -419 320q-217 0 -337.5 -143.5t-120.5 -404.5q0 -263 120 -406.5t338 -143.5q288 0 393 246v199h-454v157h612v-750h-158v130q-159 -142 -393 -142z
M460 1822h154q-12 -90 6.5 -124t72.5 -34q55 0 73 34t6 124h154q22 -139 -46 -228.5t-187 -89.5q-120 0 -187 89.5t-46 228.5z" />
    <glyph glyph-name="gbreve" unicode="&#x11f;" horiz-adv-x="1202" 
d="M562 -377q-190 0 -312 114t-133 307h156q31 -264 289 -264h28q140 0 213.5 80.5t82.5 250.5q-41 -49 -128.5 -86t-185.5 -37h-10q-133 0 -245 68t-177 188.5t-65 265.5q0 223 134.5 371t337.5 148h25q187 0 315 -128v123h159v-873q0 -249 -123.5 -388.5t-332.5 -139.5
h-28zM234 510q0 -166 86 -265t230 -99h26q132 0 215 86t96 235v85q-13 149 -96 234.5t-215 85.5h-26q-144 0 -230 -98t-86 -264zM333 1507h154q-12 -90 6 -124.5t72 -34.5q55 0 73 34.5t5 124.5h155q22 -139 -46 -229t-187 -90t-186.5 90t-45.5 229z" />
    <glyph glyph-name="Gdotaccent" unicode="&#x120;" horiz-adv-x="1323" 
d="M692 -12q-276 0 -446.5 193.5t-170.5 516.5q0 322 170.5 515t446.5 193q209 0 359 -113t207 -309l-147 -58q-90 320 -419 320q-217 0 -337.5 -143.5t-120.5 -404.5q0 -263 120 -406.5t338 -143.5q288 0 393 246v199h-454v157h612v-750h-158v130q-159 -142 -393 -142z
M596 1626q0 40 28.5 69t68.5 29t69 -29t29 -69t-29 -68.5t-69 -28.5t-68.5 28.5t-28.5 68.5z" />
    <glyph glyph-name="gdotaccent" unicode="&#x121;" horiz-adv-x="1202" 
d="M562 -377q-190 0 -312 114t-133 307h156q31 -264 289 -264h28q140 0 213.5 80.5t82.5 250.5q-41 -49 -128.5 -86t-185.5 -37h-10q-133 0 -245 68t-177 188.5t-65 265.5q0 223 134.5 371t337.5 148h25q187 0 315 -128v123h159v-873q0 -249 -123.5 -388.5t-332.5 -139.5
h-28zM234 510q0 -166 86 -265t230 -99h26q132 0 215 86t96 235v85q-13 149 -96 234.5t-215 85.5h-26q-144 0 -230 -98t-86 -264zM489 1353q0 40 28.5 68.5t68.5 28.5t69 -28t29 -69q0 -40 -29 -69t-69 -29t-68.5 29t-28.5 69z" />
    <glyph glyph-name="uni0122" unicode="&#x122;" horiz-adv-x="1533" 
d="M779 -12q-275 0 -446.5 193.5t-171.5 516.5q0 321 171.5 514.5t446.5 193.5q209 0 359.5 -113.5t207.5 -309.5l-149 -57q-87 320 -418 320q-217 0 -337.5 -143.5t-120.5 -404.5q0 -263 120 -406.5t338 -143.5q290 0 393 246v199h-454v157h612v-750h-158v129
q-160 -141 -393 -141zM593 -417l123 345h149v-82l-110 -263h-162z" />
    <glyph glyph-name="uni0123" unicode="&#x123;" horiz-adv-x="1228" 
d="M617 -377q-191 0 -313.5 114t-133.5 307h158q28 -264 289 -264h27q140 0 213.5 80.5t82.5 251.5q-42 -50 -129 -87t-185 -37h-9q-204 0 -346 150.5t-142 371.5q0 223 134.5 371t336.5 148h26q185 0 315 -127v122h158v-873q0 -249 -123 -388.5t-332 -139.5h-27zM287 510
q0 -166 86.5 -265t230.5 -99h26q132 0 215 86t96 235v85q-13 149 -96 234.5t-215 85.5h-26q-144 0 -230.5 -98.5t-86.5 -263.5zM556 1197v82l109 263h162l-121 -345h-150z" />
    <glyph glyph-name="Hcircumflex" unicode="&#x124;" horiz-adv-x="1241" 
d="M165 0v1394h160v-609h590v609h161v-1394h-161v628h-590v-628h-160zM373 1480l203 293h106l204 -293h-194l-64 96l-64 -96h-191z" />
    <glyph glyph-name="hcircumflex" unicode="&#x125;" horiz-adv-x="1035" 
d="M60 0v1394h159v-445q102 82 276 82q202 0 302.5 -109.5t100.5 -317.5v-604h-159v594q0 159 -52.5 220.5t-191.5 61.5q-143 0 -209.5 -86.5t-66.5 -288.5v-501h-159zM-115 1480l204 293h106l203 -293h-192l-64 96l-64 -96h-193z" />
    <glyph glyph-name="Hbar" unicode="&#x126;" horiz-adv-x="1144" 
d="M122 0v949h-75v161h75v284h159v-284h591v284h161v-284h66v-161h-66v-949h-161v628h-591v-628h-159zM281 785h591v164h-591v-164z" />
    <glyph glyph-name="hbar" unicode="&#x127;" horiz-adv-x="1089" 
d="M114 0v1080h-97v161h97v153h159v-153h199v-161h-199v-131q103 82 277 82q202 0 302 -109.5t100 -317.5v-604h-158v594q0 159 -52.5 220.5t-191.5 61.5q-144 0 -210.5 -86.5t-66.5 -288.5v-501h-159z" />
    <glyph glyph-name="Itilde" unicode="&#x128;" horiz-adv-x="237" 
d="M40 0v1394h160v-1394h-160zM-91 1539q-17 76 14 129.5t101 53.5q45 0 124 -29q20 -6 48 -14q0 11 2 35h134q21 -83 -12 -133t-100 -50q-46 0 -125 27q-32 12 -48 16q0 -11 -2 -35h-136z" />
    <glyph glyph-name="itilde" unicode="&#x129;" horiz-adv-x="222" 
d="M17 0v1022h159v-1022h-159zM-94 1287q-17 76 14 129.5t101 53.5q45 0 124 -29q20 -6 48 -14q0 11 2 35h134q21 -83 -12 -133t-100 -50q-45 0 -125 27q-32 12 -48 16q0 -11 -2 -35h-136z" />
    <glyph glyph-name="Imacron" unicode="&#x12a;" horiz-adv-x="264" 
d="M53 0v1394h159v-1394h-159zM-57 1545v161h378v-161h-378z" />
    <glyph glyph-name="imacron" unicode="&#x12b;" horiz-adv-x="248" 
d="M44 0v1022h160v-1022h-160zM-65 1267v162h378v-162h-378z" />
    <glyph glyph-name="Ibreve" unicode="&#x12c;" horiz-adv-x="293" 
d="M68 0v1394h159v-1394h-159zM-86 1822h156q-12 -91 5.5 -124.5t71.5 -33.5q55 0 73 34t5 124h156q21 -139 -47 -228.5t-187 -89.5q-120 0 -187 89.5t-46 228.5z" />
    <glyph glyph-name="ibreve" unicode="&#x12d;" horiz-adv-x="306" 
d="M70 0v1022h160v-1022h-160zM-80 1507h154q-12 -90 6.5 -124.5t72.5 -34.5q55 0 72.5 34.5t5.5 124.5h156q21 -140 -47 -229.5t-187 -89.5q-120 0 -187 89.5t-46 229.5z" />
    <glyph glyph-name="Iogonek" unicode="&#x12e;" horiz-adv-x="472" 
d="M169 -407q-72 0 -125 44.5t-53 142.5q0 106 61.5 196.5t165.5 143.5l-7 4v1270h160v-1372q-217 -81 -217 -236q0 -25 3 -29.5t19 -4.5q36 0 65 27.5t115 136.5v-235q-76 -88 -187 -88z" />
    <glyph glyph-name="iogonek" unicode="&#x12f;" horiz-adv-x="494" 
d="M161 -403q-32 0 -61.5 9.5t-56.5 29.5t-43.5 58t-16.5 90q0 108 67 204.5t174 144.5v889h158v-1022h-78q-75 -26 -117 -82t-42 -129q0 -25 3 -29.5t20 -4.5q35 0 64 27t116 137v-234q-74 -88 -187 -88zM206 1220q0 40 28.5 68.5t69.5 28.5q40 0 68.5 -28.5t28.5 -68.5
t-28.5 -68.5t-68.5 -28.5q-41 0 -69.5 28.5t-28.5 68.5z" />
    <glyph glyph-name="Idotaccent" unicode="&#x130;" horiz-adv-x="480" 
d="M160 0v1394h160v-1394h-160zM143 1626q0 40 28.5 69t68.5 29q41 0 69 -29t28 -69t-28.5 -68.5t-68.5 -28.5t-68.5 28.5t-28.5 68.5z" />
    <glyph glyph-name="dotlessi" unicode="&#x131;" horiz-adv-x="569" 
d="M205 0v1022h159v-1022h-159z" />
    <glyph glyph-name="IJ" unicode="&#x132;" horiz-adv-x="1519" 
d="M415 510v74h162q-20 -232 96 -362q86 -96 210.5 -98t216.5 90q112 115 112 318v862h158v-864q0 -262 -155 -415q-123 -120 -296 -132q-171 -12 -306 87q-158 116 -191 335q-7 51 -7 105zM149 0v1394h157v-1394h-157z" />
    <glyph glyph-name="ij" unicode="&#x133;" horiz-adv-x="777" 
d="M342 -381q-128 0 -207 73l60 131q41 -23 56 -30.5t37.5 -13t52.5 -5.5h12q64 0 87.5 27.5t23.5 106.5v1114h158v-1114q0 -140 -71 -214.5t-196 -74.5h-13zM161 1216q0 40 29 68.5t69 28.5t68.5 -28.5t28.5 -68.5t-28.5 -68.5t-68.5 -28.5t-69 28.5t-29 68.5zM179 0v1022
h159v-1022h-159zM445 1217q0 40 28.5 68.5t68.5 28.5q41 0 70.5 -28t29.5 -69t-29.5 -69t-70.5 -28q-40 0 -68.5 28.5t-28.5 68.5z" />
    <glyph glyph-name="Jcircumflex" unicode="&#x134;" horiz-adv-x="1065" 
d="M65 510v74h161q-19 -233 97 -363q87 -96 212 -97q124 -2 215 91q112 114 112 317v862h158v-864q0 -262 -155 -415q-123 -120 -296 -132q-171 -12 -306 87q-158 116 -191 335q-7 51 -7 105zM680 1480l203 293h106l203 -293h-194l-63 96l-64 -96h-191z" />
    <glyph glyph-name="jcircumflex" unicode="&#x135;" horiz-adv-x="373" 
d="M35 -381q-131 0 -208 73l62 131q42 -23 56 -30t36.5 -13t51.5 -6h13q63 0 86.5 27.5t23.5 106.5v1114h159v-1114q0 -140 -71.5 -214.5t-195.5 -74.5h-13zM-14 1195l192 323h111l191 -323h-187l-61 108l-62 -108h-184z" />
    <glyph glyph-name="uni0136" unicode="&#x136;" horiz-adv-x="1355" 
d="M219 0v1394h158v-680l654 680h221l-582 -606l556 -788h-195l-474 673l-180 -186v-487h-158zM458 -409l122 345h150v-82l-110 -263h-162z" />
    <glyph glyph-name="uni0137" unicode="&#x137;" horiz-adv-x="1134" 
d="M201 0v1394h160v-827l439 455h221l-386 -397l396 -625h-189l-320 510l-161 -167v-343h-160zM341 -417l121 345h150v-82l-109 -263h-162z" />
    <glyph glyph-name="kgreenlandic" unicode="&#x138;" horiz-adv-x="1031" 
d="M157 0v1025h159v-458l440 455h220l-385 -397l395 -625h-188l-320 510l-162 -167v-343h-159z" />
    <glyph glyph-name="Lacute" unicode="&#x139;" horiz-adv-x="1143" 
d="M198 0v1394h158v-1237h752v-157h-910zM151 1480l166 293h200l-195 -293h-171z" />
    <glyph glyph-name="lacute" unicode="&#x13a;" horiz-adv-x="556" 
d="M445 -3q-122 -24 -190.5 35.5t-68.5 197.5v1164h159v-1160q0 -25 0.5 -38.5t3.5 -25t7.5 -15.5t13.5 -6.5t21 -2t31 1.5q9 1 14 1zM143 1569l175 323h199l-203 -323h-171z" />
    <glyph glyph-name="uni013B" unicode="&#x13b;" horiz-adv-x="1241" 
d="M219 0v1394h158v-1237h751v-157h-909zM446 -412l120 345h151v-82l-110 -263h-161z" />
    <glyph glyph-name="uni013C" unicode="&#x13c;" horiz-adv-x="495" 
d="M440 -3q-121 -24 -190.5 36t-69.5 197v1164h160v-1160q0 -25 0.5 -38.5t3.5 -25t7.5 -15.5t13.5 -6.5t21 -2t31 1.5q9 1 14 1zM135 -416l122 345h150v-82l-110 -263h-162z" />
    <glyph glyph-name="Lcaron" unicode="&#x13d;" horiz-adv-x="1111" 
d="M165 0v1394h160v-1237h751v-157h-911zM487 1060l117 334h140l-125 -334h-132z" />
    <glyph glyph-name="lcaron" unicode="&#x13e;" horiz-adv-x="471" 
d="M416 -3q-121 -24 -190 36t-69 197v1164h159v-1160q0 -25 0.5 -38.5t3.5 -25t7.5 -15.5t13.5 -6.5t21 -2t31 1.5q9 1 14 1zM375 1039v20l116 325h149v-83l-109 -262h-156z" />
    <glyph glyph-name="Ldot" unicode="&#x13f;" horiz-adv-x="1111" 
d="M165 0v1394h160v-1237h751v-157h-911zM554 791q0 40 29 68.5t69 28.5t68.5 -28.5t28.5 -68.5t-28.5 -68.5t-68.5 -28.5t-69 28.5t-29 68.5z" />
    <glyph glyph-name="ldot" unicode="&#x140;" horiz-adv-x="545" 
d="M416 -3q-121 -24 -190 36t-69 197v1164h159v-1160q0 -25 0.5 -38.5t3.5 -25t7.5 -15.5t13.5 -6.5t21 -2t31 1.5q9 1 14 1zM354 791q0 40 29 68.5t69 28.5q41 0 69.5 -28.5t28.5 -68.5t-28.5 -68.5t-69.5 -28.5q-40 0 -69 28.5t-29 68.5z" />
    <glyph glyph-name="Lslash" unicode="&#x141;" horiz-adv-x="1168" 
d="M222 2v523l-209 -124v185l209 125v685h159v-591l338 201v-186l-338 -201v-460h752v-157h-911z" />
    <glyph glyph-name="lslash" unicode="&#x142;" horiz-adv-x="385" 
d="M370 -3q-121 -24 -190 36t-69 197v262l-104 -76v197l104 76v705h160v-590l107 77v-199l-107 -76v-372q0 -25 0.5 -38.5t3.5 -25t8 -15.5t13.5 -6.5t21.5 -2t31 1.5q8 1 13 1z" />
    <glyph glyph-name="Nacute" unicode="&#x143;" horiz-adv-x="1286" 
d="M165 0v1394h147l649 -1070v1070h160v-1394h-149l-647 1067v-1067h-160zM516 1480l166 293h200l-193 -293h-173z" />
    <glyph glyph-name="nacute" unicode="&#x144;" horiz-adv-x="1131" 
d="M157 0v1022h159v-73q103 82 276 82q202 0 302 -109.5t100 -317.5v-604h-157v594q0 159 -52.5 220.5t-192.5 61.5q-143 0 -209.5 -86.5t-66.5 -288.5v-501h-159zM439 1195l175 323h199l-203 -323h-171z" />
    <glyph glyph-name="uni0145" unicode="&#x145;" horiz-adv-x="1392" 
d="M219 0v1394h147l648 -1070v1070h159v-1394h-149l-647 1067v-1067h-158zM509 -415l122 345h149v-82l-109 -263h-162z" />
    <glyph glyph-name="uni0146" unicode="&#x146;" horiz-adv-x="1230" 
d="M201 0v1022h160v-73q102 82 276 82q202 0 302 -109.5t100 -317.5v-604h-159v594q0 159 -52.5 220.5t-190.5 61.5q-144 0 -210 -86t-66 -289v-501h-160zM421 -416l121 345h150v-82l-110 -263h-161z" />
    <glyph glyph-name="Ncaron" unicode="&#x147;" horiz-adv-x="1286" 
d="M165 0v1394h147l649 -1070v1070h160v-1394h-149l-647 1067v-1067h-160zM387 1773h194l63 -96l64 96h192l-204 -293h-106z" />
    <glyph glyph-name="ncaron" unicode="&#x148;" horiz-adv-x="1131" 
d="M157 0v1022h159v-73q103 82 276 82q202 0 302 -109.5t100 -317.5v-604h-157v594q0 159 -52.5 220.5t-192.5 61.5q-143 0 -209.5 -86.5t-66.5 -288.5v-501h-159zM318 1518h187l60 -108l61 108h184l-190 -323h-111z" />
    <glyph glyph-name="napostrophe" unicode="&#x149;" horiz-adv-x="1237" 
d="M263 0v920l-7 -24h-138l-15 73l154 495h162l-127 -442h130v-73q102 82 276 82q202 0 302 -109.5t100 -317.5v-604h-158v594q0 159 -52 220.5t-192 61.5q-144 0 -210 -86t-66 -289v-501h-159z" />
    <glyph glyph-name="Eng" unicode="&#x14a;" horiz-adv-x="1286" 
d="M745 -245q65 -1 106.5 -0.5t65 17.5t32 48t8.5 90v129h-9l-623 1028v-1067h-160v1394h147l649 -1070v1070h160v-1455q0 -51 -2 -79q-12 -149 -106 -211t-268 -56v162z" />
    <glyph glyph-name="eng" unicode="&#x14b;" horiz-adv-x="1131" 
d="M713 -381q-129 0 -208 73l60 131q72 -39 95 -44q20 -5 51 -5h12q64 0 87 27t25 107l2 686q0 159 -52.5 220.5t-192.5 61.5q-143 0 -209.5 -86.5t-66.5 -288.5v-501h-159v1022h159v-73q103 82 276 82q202 0 302 -109.5t100 -317.5l-2 -696q-1 -140 -72 -214.5t-195 -74.5
h-12z" />
    <glyph glyph-name="Omacron" unicode="&#x14c;" horiz-adv-x="1405" 
d="M692 -16q-276 0 -446.5 192.5t-170.5 513.5q0 323 170.5 516.5t446.5 193.5h19q280 0 449.5 -195.5t169.5 -514.5q0 -317 -169.5 -511.5t-449.5 -194.5h-19zM234 690q0 -261 120.5 -404.5t337.5 -143.5h19q219 0 339.5 143.5t120.5 404.5q0 263 -120.5 406.5
t-339.5 143.5h-19q-218 0 -338 -143.5t-120 -406.5zM518 1545v161h378v-161h-378z" />
    <glyph glyph-name="omacron" unicode="&#x14d;" horiz-adv-x="1115" 
d="M549 -10q-208 0 -341 147t-133 375q0 229 131.5 374t342.5 145h17q211 0 342.5 -145t131.5 -374t-132.5 -375.5t-341.5 -146.5h-17zM234 512q0 -172 83.5 -269t231.5 -97h17q148 0 231.5 97t83.5 269t-83.5 268t-231.5 96h-17q-148 0 -231.5 -96t-83.5 -268zM368 1267
v162h377v-162h-377z" />
    <glyph glyph-name="Obreve" unicode="&#x14e;" horiz-adv-x="1405" 
d="M692 -12q-276 0 -446.5 193t-170.5 515q0 323 170.5 516.5t446.5 193.5h19q280 0 449.5 -195.5t169.5 -514.5q0 -318 -169.5 -513t-449.5 -195h-19zM234 696q0 -262 120.5 -405t337.5 -143h19q219 0 339.5 143t120.5 405q0 263 -120.5 406.5t-339.5 143.5h-19
q-217 0 -337.5 -143.5t-120.5 -406.5zM466 1822h155q-12 -91 6 -124.5t73 -33.5t73 34t6 124h153q22 -139 -46 -228.5t-186 -89.5q-120 0 -187.5 89.5t-46.5 228.5z" />
    <glyph glyph-name="obreve" unicode="&#x14f;" horiz-adv-x="1115" 
d="M549 -10q-208 0 -341 147t-133 375q0 229 131.5 374t342.5 145h17q211 0 342.5 -145t131.5 -374t-132.5 -375.5t-341.5 -146.5h-17zM234 512q0 -172 83.5 -269t231.5 -97h17q148 0 231.5 97t83.5 269t-83.5 268t-231.5 96h-17q-148 0 -231.5 -96t-83.5 -268zM324 1507
h154q-11 -90 7.5 -124.5t71.5 -34.5q54 0 72.5 34.5t6.5 124.5h154q22 -139 -46 -229t-187 -90q-120 0 -187 90t-46 229z" />
    <glyph glyph-name="Ohungarumlaut" unicode="&#x150;" horiz-adv-x="1405" 
d="M692 -16q-276 0 -446.5 192.5t-170.5 513.5q0 323 170.5 516.5t446.5 193.5h19q280 0 449.5 -195.5t169.5 -514.5q0 -317 -169.5 -511.5t-449.5 -194.5h-19zM234 690q0 -261 120.5 -404.5t337.5 -143.5h19q219 0 339.5 143.5t120.5 404.5q0 263 -120.5 406.5
t-339.5 143.5h-19q-218 0 -338 -143.5t-120 -406.5zM446 1480l166 293h202l-194 -293h-174zM706 1480l166 293h200l-194 -293h-172z" />
    <glyph glyph-name="ohungarumlaut" unicode="&#x151;" horiz-adv-x="1115" 
d="M549 -10q-208 0 -341 147t-133 375q0 229 131.5 374t342.5 145h17q211 0 342.5 -145t131.5 -374t-132.5 -375.5t-341.5 -146.5h-17zM234 512q0 -172 83.5 -269t231.5 -97h17q148 0 231.5 97t83.5 269t-83.5 268t-231.5 96h-17q-148 0 -231.5 -96t-83.5 -268zM300 1196
l166 294h200l-195 -294h-171zM558 1196l166 294h201l-195 -294h-172z" />
    <glyph glyph-name="OE" unicode="&#x152;" horiz-adv-x="2167" 
d="M692 -16q-276 0 -446.5 192.5t-170.5 513.5q0 323 170.5 516.5t446.5 193.5h19q142 0 260 -54.5t200 -154.5v203h911v-157h-752v-456h688v-157h-688v-467h752v-157h-911v190q-82 -99 -200 -152.5t-260 -53.5h-19zM234 690q0 -261 120.5 -404.5t337.5 -143.5h19
q219 0 339.5 143.5t120.5 404.5q0 263 -120.5 406.5t-339.5 143.5h-19q-218 0 -338 -143.5t-120 -406.5z" />
    <glyph glyph-name="oe" unicode="&#x153;" horiz-adv-x="1885" 
d="M549 -10q-208 0 -341 147t-133 375q0 229 131.5 374t342.5 145h17q128 0 231 -57t165 -160q61 100 161 157t224 60q221 -5 350.5 -168.5t109.5 -412.5h-763q16 -144 97.5 -224t215.5 -80h17q206 0 288 200l146 -63q-56 -135 -170 -214t-264 -79h-17q-127 0 -230 58
t-165 162q-63 -104 -165.5 -162t-230.5 -58h-17zM234 512q0 -172 83.5 -269t231.5 -97h17q148 0 231.5 97t83.5 269t-83.5 268t-231.5 96h-17q-148 0 -231.5 -96t-83.5 -268zM1049 602h595q-21 128 -97.5 199t-199.5 75q-122 -5 -199.5 -76t-98.5 -198z" />
    <glyph glyph-name="Racute" unicode="&#x154;" horiz-adv-x="1201" 
d="M165 0v1394h479q221 0 340 -102t119 -297v-2q0 -159 -81.5 -257t-233.5 -128l348 -608h-184l-340 595h-287v-595h-160zM325 752h319q164 0 232.5 56t68.5 187q0 130 -68.5 186t-232.5 56h-319v-485zM487 1480l165 293h202l-194 -293h-173z" />
    <glyph glyph-name="racute" unicode="&#x155;" horiz-adv-x="855" 
d="M157 0v1022h159v-73q103 82 276 82q119 0 198 -36l-34 -150q-93 31 -164 31q-143 0 -209.5 -86.5t-66.5 -288.5v-501h-159zM297 1195l174 323h200l-204 -323h-170z" />
    <glyph glyph-name="uni0156" unicode="&#x156;" horiz-adv-x="1279" 
d="M219 0v1394h479q221 0 340 -102.5t119 -296.5v-2q0 -159 -82 -257.5t-235 -127.5l348 -608h-183l-341 595h-287v-595h-158zM377 752h321q163 0 231.5 56t68.5 187q0 130 -68.5 186t-231.5 56h-321v-485zM461 -418l123 345h150v-82l-111 -263h-162z" />
    <glyph glyph-name="uni0157" unicode="&#x157;" horiz-adv-x="941" 
d="M218 0v1022h158v-73q103 82 277 82q120 0 197 -36l-32 -150q-98 31 -165 31q-143 0 -210 -86.5t-67 -288.5v-501h-158zM112 -414l121 345h150v-82l-109 -263h-162z" />
    <glyph glyph-name="Rcaron" unicode="&#x158;" horiz-adv-x="1201" 
d="M165 0v1394h479q221 0 340 -102t119 -297v-2q0 -159 -81.5 -257t-233.5 -128l348 -608h-184l-340 595h-287v-595h-160zM325 752h319q164 0 232.5 56t68.5 187q0 130 -68.5 186t-232.5 56h-319v-485zM358 1773h194l63 -96l64 96h192l-204 -293h-106z" />
    <glyph glyph-name="rcaron" unicode="&#x159;" horiz-adv-x="734" 
d="M79 0v1022h159v-73q102 82 277 82q114 0 198 -35l-35 -151q-93 31 -163 31q-145 0 -211 -86t-66 -289v-501h-159zM97 1518h187l61 -108l60 108h186l-191 -323h-112z" />
    <glyph glyph-name="Sacute" unicode="&#x15a;" horiz-adv-x="1156" 
d="M598 -25q-101 0 -191.5 29t-163 85.5t-114 149.5t-40.5 212h162q-4 -155 92 -236t256 -81q139 0 221 62t82 166q0 108 -64.5 158.5t-255.5 104.5q-114 32 -189 65t-132.5 80t-84 110.5t-26.5 149.5q0 108 63 195t165.5 134t220.5 47q110 0 197.5 -39.5t141.5 -106
t82.5 -149t29.5 -173.5h-160q-10 151 -86.5 229.5t-205.5 78.5q-76 0 -138.5 -22.5t-103 -71.5t-40.5 -118q0 -44 10.5 -75t30 -54.5t60.5 -44.5t89 -37.5t129 -39.5q222 -64 327 -157t105 -261q0 -166 -135 -278t-334 -112zM466 1480l166 293h200l-195 -293h-171z" />
    <glyph glyph-name="sacute" unicode="&#x15b;" horiz-adv-x="992" 
d="M509 -14q-85 0 -159 23.5t-133.5 70.5t-94 126.5t-33.5 182.5h159q9 -139 73 -192t192 -53q216 0 216 131q0 46 -20 71t-72 44.5t-166 43.5q-68 14 -121.5 34t-104.5 53t-79 85.5t-28 120.5q0 128 103 211.5t257 83.5q97 0 172.5 -31.5t122 -86t71 -121.5t27.5 -143h-158
q-23 127 -74.5 175.5t-162.5 48.5q-90 0 -141.5 -34.5t-51.5 -100.5q0 -59 47 -88t164 -53q190 -39 284.5 -109t94.5 -202t-109 -211.5t-275 -79.5zM365 1195l176 323h198l-203 -323h-171z" />
    <glyph glyph-name="Scircumflex" unicode="&#x15c;" horiz-adv-x="1156" 
d="M598 -25q-101 0 -191.5 29t-163 85.5t-114 149.5t-40.5 212h162q-4 -155 92 -236t256 -81q139 0 221 62t82 166q0 108 -64.5 158.5t-255.5 104.5q-114 32 -189 65t-132.5 80t-84 110.5t-26.5 149.5q0 108 63 195t165.5 134t220.5 47q110 0 197.5 -39.5t141.5 -106
t82.5 -149t29.5 -173.5h-160q-10 151 -86.5 229.5t-205.5 78.5q-76 0 -138.5 -22.5t-103 -71.5t-40.5 -118q0 -44 10.5 -75t30 -54.5t60.5 -44.5t89 -37.5t129 -39.5q222 -64 327 -157t105 -261q0 -166 -135 -278t-334 -112zM339 1480l205 293h106l202 -293h-193l-64 96
l-64 -96h-192z" />
    <glyph glyph-name="scircumflex" unicode="&#x15d;" horiz-adv-x="992" 
d="M509 -14q-85 0 -159 23.5t-133.5 70.5t-94 126.5t-33.5 182.5h159q9 -139 73 -192t192 -53q216 0 216 131q0 46 -20 71t-72 44.5t-166 43.5q-68 14 -121.5 34t-104.5 53t-79 85.5t-28 120.5q0 128 103 211.5t257 83.5q97 0 172.5 -31.5t122 -86t71 -121.5t27.5 -143h-158
q-23 127 -74.5 175.5t-162.5 48.5q-90 0 -141.5 -34.5t-51.5 -100.5q0 -59 47 -88t164 -53q190 -39 284.5 -109t94.5 -202t-109 -211.5t-275 -79.5zM245 1195l190 323h112l190 -323h-186l-61 108l-61 -108h-184z" />
    <glyph glyph-name="Scedilla" unicode="&#x15e;" horiz-adv-x="1156" 
d="M516 -422q-104 0 -158 47v136q62 -32 119 -37t89 14t32 51l1 -1q0 21 -7 31.5t-32 15.5t-67.5 2t-119.5 -12l88 164q-166 34 -270 152.5t-102 309.5h162q-4 -155 92 -236t256 -81q139 0 221 62t82 166q0 108 -64.5 158.5t-255.5 104.5q-114 32 -189 65t-132.5 80
t-84 110.5t-26.5 149.5q0 108 63 195t165.5 134t220.5 47q110 0 197.5 -39.5t141.5 -106t82.5 -149t29.5 -173.5h-160q-10 151 -86.5 229.5t-205.5 78.5q-76 0 -138.5 -22.5t-103 -71.5t-40.5 -118q0 -44 10.5 -75t30 -54.5t60.5 -44.5t89 -37.5t129 -39.5q222 -64 327 -157
t105 -261q0 -158 -122.5 -268t-307.5 -122l-3 -4q129 -48 129 -183q0 -71 -40.5 -120.5t-94 -69.5t-112.5 -20z" />
    <glyph glyph-name="scedilla" unicode="&#x15f;" horiz-adv-x="992" 
d="M443 -419q-104 0 -158 47v136q62 -32 119 -37t89 14t32 51q0 27 -15 38t-60.5 11t-141.5 -12l78 171q-134 30 -216 128t-81 261h159q9 -139 73 -192t192 -53q216 0 216 131q0 46 -20 71t-72 44.5t-166 43.5q-68 14 -121.5 34t-104.5 53t-79 85.5t-28 120.5
q0 128 103 211.5t257 83.5q97 0 172.5 -31.5t122 -86t71 -121.5t27.5 -143h-158q-23 127 -74.5 175.5t-162.5 48.5q-90 0 -141.5 -34.5t-51.5 -100.5q0 -59 47 -88t164 -53q190 -39 284.5 -109t94.5 -202q0 -121 -93.5 -198t-239.5 -90l-6 -13q135 -46 135 -184
q0 -54 -22.5 -96.5t-60 -66.5t-79 -36t-84.5 -12z" />
    <glyph glyph-name="Scaron" unicode="&#x160;" horiz-adv-x="1156" 
d="M598 -25q-101 0 -191.5 29t-163 85.5t-114 149.5t-40.5 212h162q-4 -155 92 -236t256 -81q139 0 221 62t82 166q0 108 -64.5 158.5t-255.5 104.5q-114 32 -189 65t-132.5 80t-84 110.5t-26.5 149.5q0 108 63 195t165.5 134t220.5 47q110 0 197.5 -39.5t141.5 -106
t82.5 -149t29.5 -173.5h-160q-10 151 -86.5 229.5t-205.5 78.5q-76 0 -138.5 -22.5t-103 -71.5t-40.5 -118q0 -44 10.5 -75t30 -54.5t60.5 -44.5t89 -37.5t129 -39.5q222 -64 327 -157t105 -261q0 -166 -135 -278t-334 -112zM336 1773h194l64 -96l64 96h191l-202 -293h-106z
" />
    <glyph glyph-name="scaron" unicode="&#x161;" horiz-adv-x="992" 
d="M509 -14q-85 0 -159 23.5t-133.5 70.5t-94 126.5t-33.5 182.5h159q9 -139 73 -192t192 -53q216 0 216 131q0 46 -20 71t-72 44.5t-166 43.5q-68 14 -121.5 34t-104.5 53t-79 85.5t-28 120.5q0 128 103 211.5t257 83.5q97 0 172.5 -31.5t122 -86t71 -121.5t27.5 -143h-158
q-23 127 -74.5 175.5t-162.5 48.5q-90 0 -141.5 -34.5t-51.5 -100.5q0 -59 47 -88t164 -53q190 -39 284.5 -109t94.5 -202t-109 -211.5t-275 -79.5zM245 1518h186l61 -109l61 109h184l-190 -323h-112z" />
    <glyph glyph-name="uni0162" unicode="&#x162;" horiz-adv-x="1272" 
d="M562 -420q-104 0 -158 47v136q62 -32 119 -37t89 14t32 51q0 21 -7 31.5t-32 15t-68 1.5t-121 -13l139 251v1160h-480v157h1120v-157h-480v-1190l-38 -72q131 -47 131 -184q0 -54 -22.5 -96.5t-60 -66.5t-79 -36t-84.5 -12z" />
    <glyph glyph-name="uni0163" unicode="&#x163;" horiz-adv-x="748" 
d="M390 -419q-104 0 -158 47v136q62 -32 119 -37t89 14t32 51q0 27 -14.5 38t-59.5 11t-141 -12l95 222q-84 76 -84 227v590h-223v154h223v370h159v-370h228v-154h-228v-590q0 -72 19.5 -101t70 -32.5t138.5 8.5v-149q-68 -16 -107 -16h-22q-4 0 -10.5 0.5t-9.5 0.5l-5 -13
q134 -46 135 -184q0 -54 -22.5 -96.5t-60 -66.5t-79 -36t-84.5 -12z" />
    <glyph glyph-name="Tcaron" unicode="&#x164;" horiz-adv-x="1189" 
d="M514 0v1237h-479v157h1119v-157h-479v-1237h-161zM339 1773h193l64 -96l65 96h191l-204 -293h-106z" />
    <glyph glyph-name="tcaron" unicode="&#x165;" horiz-adv-x="696" 
d="M655 4q-175 -43 -281 29.5t-106 244.5v590h-223v154h223v370h159v-370h228v-154h-228v-590q0 -72 19.5 -101t70 -32.5t138.5 8.5v-149zM502 1117v20l116 325h149v-83l-109 -262h-156z" />
    <glyph glyph-name="Tbar" unicode="&#x166;" horiz-adv-x="1189" 
d="M514 0v589h-264v161h264v487h-479v157h1119v-157h-479v-487h264v-161h-264v-589h-161z" />
    <glyph glyph-name="tbar" unicode="&#x167;" horiz-adv-x="700" 
d="M655 4q-175 -43 -281 29.5t-106 244.5v241h-116v154h116v195h-223v154h223v370h159v-370h228v-154h-228v-195h121v-154h-121v-241q0 -72 19.5 -101t70 -32.5t138.5 8.5v-149z" />
    <glyph glyph-name="Utilde" unicode="&#x168;" horiz-adv-x="1253" 
d="M149 510v884h157v-871q0 -111 35.5 -197t91.5 -130t124.5 -64t137 1.5t124.5 67.5t91.5 133t35.5 198v862h158v-864q0 -262 -155 -415q-123 -120 -296 -132q-171 -12 -306 87q-158 116 -191 335q-7 51 -7 105zM400 1539q-17 76 14 129.5t101 53.5q45 0 124 -29
q20 -6 48 -14q0 11 2 35h134q21 -83 -12 -133t-100 -50q-45 0 -125 27q-32 12 -48 16q0 -11 -2 -35h-136z" />
    <glyph glyph-name="utilde" unicode="&#x169;" horiz-adv-x="1112" 
d="M539 -10q-202 0 -302 110t-100 318v604h159v-594q0 -159 52 -220.5t191 -61.5q145 0 210.5 86t65.5 289v501h160v-1022h-160v72q-102 -82 -276 -82zM351 1287q-17 76 14 129.5t101 53.5q45 0 124 -29q20 -6 48 -14q0 11 2 35h134q21 -83 -12 -133t-100 -50q-46 0 -125 27
q-32 12 -48 16q0 -11 -2 -35h-136z" />
    <glyph glyph-name="Umacron" unicode="&#x16a;" horiz-adv-x="1253" 
d="M149 510v884h157v-871q0 -111 35.5 -197t91.5 -130t124.5 -64t137 1.5t124.5 67.5t91.5 133t35.5 198v862h158v-864q0 -262 -155 -415q-123 -120 -296 -132q-171 -12 -306 87q-158 116 -191 335q-7 51 -7 105zM435 1545v161h378v-161h-378z" />
    <glyph glyph-name="umacron" unicode="&#x16b;" horiz-adv-x="1112" 
d="M539 -10q-202 0 -302 110t-100 318v604h159v-594q0 -159 52 -220.5t191 -61.5q145 0 210.5 86t65.5 289v501h160v-1022h-160v72q-102 -82 -276 -82zM366 1267v162h377v-162h-377z" />
    <glyph glyph-name="Ubreve" unicode="&#x16c;" horiz-adv-x="1253" 
d="M149 510v884h157v-871q0 -111 35.5 -197t91.5 -130t124.5 -64t137 1.5t124.5 67.5t91.5 133t35.5 198v862h158v-864q0 -262 -155 -415q-123 -120 -296 -132q-171 -12 -306 87q-158 116 -191 335q-7 51 -7 105zM391 1822h153q-10 -90 8 -124t72 -34q55 0 73 34t5 124h156
q21 -139 -47.5 -228.5t-186.5 -89.5q-120 0 -187 89.5t-46 228.5z" />
    <glyph glyph-name="ubreve" unicode="&#x16d;" horiz-adv-x="1112" 
d="M539 -10q-202 0 -302 110t-100 318v604h159v-594q0 -159 52 -220.5t191 -61.5q145 0 210.5 86t65.5 289v501h160v-1022h-160v72q-102 -82 -276 -82zM313 1507h156q-13 -90 5 -124.5t73 -34.5q53 0 72 34.5t7 124.5h154q21 -140 -46.5 -229.5t-186.5 -89.5
q-120 0 -187.5 89.5t-46.5 229.5z" />
    <glyph glyph-name="Uring" unicode="&#x16e;" horiz-adv-x="1253" 
d="M149 510v884h157v-871q0 -111 35.5 -197t91.5 -130t124.5 -64t137 1.5t124.5 67.5t91.5 133t35.5 198v862h158v-864q0 -262 -155 -415q-123 -120 -296 -132q-171 -12 -306 87q-158 116 -191 335q-7 51 -7 105zM447 1626q0 77 52 124.5t124 47.5t124 -47.5t52 -124.5
q0 -76 -52 -124t-124 -48t-124 48t-52 124zM581 1626q0 -19 11.5 -29.5t30.5 -10.5t30.5 10.5t11.5 29.5q0 40 -42 40t-42 -40z" />
    <glyph glyph-name="uring" unicode="&#x16f;" horiz-adv-x="1112" 
d="M539 -10q-202 0 -302 110t-100 318v604h159v-594q0 -159 52 -220.5t191 -61.5q145 0 210.5 86t65.5 289v501h160v-1022h-160v72q-102 -82 -276 -82zM382 1355q0 77 52 124.5t124 47.5t124 -47.5t52 -124.5q0 -76 -52 -124t-124 -48t-124 48t-52 124zM516 1355
q0 -40 42 -40t42 40t-42 40t-42 -40z" />
    <glyph glyph-name="Uhungarumlaut" unicode="&#x170;" horiz-adv-x="1253" 
d="M149 510v884h157v-871q0 -111 35.5 -197t91.5 -130t124.5 -64t137 1.5t124.5 67.5t91.5 133t35.5 198v862h158v-864q0 -262 -155 -415q-123 -120 -296 -132q-171 -12 -306 87q-158 116 -191 335q-7 51 -7 105zM374 1480l166 293h200l-194 -293h-172zM633 1480l166 293
h199l-194 -293h-171z" />
    <glyph glyph-name="uhungarumlaut" unicode="&#x171;" horiz-adv-x="1112" 
d="M539 -10q-202 0 -302 110t-100 318v604h159v-594q0 -159 52 -220.5t191 -61.5q145 0 210.5 86t65.5 289v501h160v-1022h-160v72q-102 -82 -276 -82zM306 1196l166 294h200l-195 -294h-171zM564 1196l166 294h201l-195 -294h-172z" />
    <glyph glyph-name="Uogonek" unicode="&#x172;" horiz-adv-x="1253" 
d="M603 -407q-71 0 -124 44.5t-53 142.5q0 120 76 216q-153 40 -253 173.5t-100 340.5v884h157v-871q0 -111 35.5 -197t91.5 -130t124.5 -64t137 1.5t124.5 67.5t91.5 133t35.5 198v862h158v-864q0 -201 -91.5 -336t-233.5 -186q-191 -78 -191 -222q0 -26 3 -30t20 -4
q35 0 65 28.5t115 138.5v-236q-75 -90 -188 -90z" />
    <glyph glyph-name="uogonek" unicode="&#x173;" horiz-adv-x="1112" 
d="M755 -401q-31 0 -60.5 9.5t-57 29.5t-44 58t-16.5 90q0 115 74 214q-49 -10 -112 -10q-202 0 -302 110t-100 318v604h159v-594q0 -159 52 -220.5t191 -61.5q145 0 210.5 86t65.5 289v501h160v-1022h-80q-74 -27 -114.5 -82.5t-40.5 -126.5q0 -26 3 -30t20 -4
q35 0 64.5 27.5t115.5 137.5v-236q-76 -87 -188 -87z" />
    <glyph glyph-name="Wcircumflex" unicode="&#x174;" horiz-adv-x="1749" 
d="M413 0l-388 1394h167l296 -1071l320 1008h132l321 -1008l297 1071h166l-388 -1394h-140l-321 1013l-324 -1013h-138zM617 1480l203 293h107l203 -293h-194l-64 97l-65 -97h-190z" />
    <glyph glyph-name="wcircumflex" unicode="&#x175;" horiz-adv-x="1469" 
d="M343 0l-284 1022h168l194 -707l251 707h129l249 -705l195 705h165l-282 -1022h-136l-256 733l-260 -733h-133zM488 1195l191 323h112l190 -323h-187l-60 108l-61 -108h-185z" />
    <glyph glyph-name="Ycircumflex" unicode="&#x176;" horiz-adv-x="1170" 
d="M506 0l-4 422l-487 972h180l387 -780l391 780h182l-496 -972l5 -422h-158zM329 1480l203 293h105l203 -293h-193l-64 96l-64 -96h-190z" />
    <glyph glyph-name="ycircumflex" unicode="&#x177;" horiz-adv-x="1049" 
d="M235 -187q54 -35 72 -30.5t45 70.5l87 211l-394 958h174l304 -753l309 753h172l-507 -1232q-52 -128 -137.5 -158.5t-189.5 41.5zM279 1195l192 323h112l190 -323h-186l-62 108l-60 -108h-186z" />
    <glyph glyph-name="Ydieresis" unicode="&#x178;" horiz-adv-x="1170" 
d="M506 0l-4 422l-487 972h180l387 -780l391 780h182l-496 -972l5 -422h-158zM373 1626q0 40 28.5 69t68.5 29t69 -29t29 -69t-29 -68.5t-69 -28.5t-68.5 28.5t-28.5 68.5zM603 1626q0 40 28.5 69t68.5 29q41 0 69 -29t28 -69t-28.5 -68.5t-68.5 -28.5t-68.5 28.5
t-28.5 68.5z" />
    <glyph glyph-name="Zacute" unicode="&#x179;" horiz-adv-x="1075" 
d="M61 0v123l740 1114h-740v157h953v-122l-741 -1115h741v-157h-953zM411 1480l166 293h201l-194 -293h-173z" />
    <glyph glyph-name="zacute" unicode="&#x17a;" horiz-adv-x="950" 
d="M61 0v123l604 743h-604v156h828v-129l-597 -737h597v-156h-828zM335 1195l177 323h197l-202 -323h-172z" />
    <glyph glyph-name="Zdotaccent" unicode="&#x17b;" horiz-adv-x="1075" 
d="M61 0v123l740 1114h-740v157h953v-122l-741 -1115h741v-157h-953zM441 1626q0 40 28.5 69t68.5 29q41 0 69 -29t28 -69t-28.5 -68.5t-68.5 -28.5t-68.5 28.5t-28.5 68.5z" />
    <glyph glyph-name="zdotaccent" unicode="&#x17c;" horiz-adv-x="950" 
d="M61 0v123l604 743h-604v156h828v-129l-597 -737h597v-156h-828zM363 1353q0 40 28.5 68.5t68.5 28.5t69.5 -28t29.5 -69q0 -40 -29.5 -69t-69.5 -29t-68.5 29t-28.5 69z" />
    <glyph glyph-name="Zcaron" unicode="&#x17d;" horiz-adv-x="1075" 
d="M61 0v123l740 1114h-740v157h953v-122l-741 -1115h741v-157h-953zM282 1773h194l64 -96l64 96h192l-204 -293h-106z" />
    <glyph glyph-name="zcaron" unicode="&#x17e;" horiz-adv-x="950" 
d="M61 0v123l604 743h-604v156h828v-129l-597 -737h597v-156h-828zM214 1518h187l61 -109l62 109h184l-190 -323h-112z" />
    <glyph glyph-name="uni0218" unicode="&#x218;" horiz-adv-x="1186" 
d="M612 -25q-101 0 -191 29t-162.5 85.5t-114.5 149.5t-41 212h163q-4 -155 92 -236t256 -81q139 0 220.5 61.5t81.5 166.5q0 108 -64 158.5t-255 104.5q-113 32 -188.5 65t-133.5 80t-84.5 110.5t-26.5 149.5q0 108 63 195t165.5 134t221.5 47q109 0 196.5 -39.5
t142 -105.5t82.5 -149t28 -174h-159q-10 151 -86.5 229.5t-205.5 78.5q-118 0 -199.5 -55t-81.5 -157q0 -44 10.5 -75t30 -54.5t60.5 -44.5t89.5 -37.5t128.5 -39.5q109 -32 184.5 -66.5t134 -83.5t86.5 -115t28 -153q0 -166 -135.5 -278t-335.5 -112zM420 -418l122 345h150
v-82l-110 -263h-162z" />
    <glyph glyph-name="uni0219" unicode="&#x219;" horiz-adv-x="1014" 
d="M525 -14q-85 0 -159 23.5t-134 70.5t-94 126.5t-33 182.5h159q9 -139 72.5 -192t192.5 -53q215 0 215 131q0 46 -19.5 71t-72 44.5t-165.5 43.5q-68 14 -121.5 34t-104.5 53t-79 85.5t-28 120.5q0 128 103 211.5t257 83.5q97 0 173 -31.5t122 -85.5t70.5 -121.5
t26.5 -143.5h-156q-25 127 -76 175.5t-162 48.5q-90 0 -142 -34t-52 -101q0 -59 47.5 -88t165.5 -53q190 -39 284 -109t94 -202q0 -131 -109.5 -211t-274.5 -80zM337 -414l121 345h150v-82l-109 -263h-162z" />
    <glyph glyph-name="uni021A" unicode="&#x21a;" horiz-adv-x="1272" 
d="M555 0v1237h-480v157h1120v-157h-480v-1237h-160zM448 -414l121 345h150v-82l-110 -263h-161z" />
    <glyph glyph-name="uni021B" unicode="&#x21b;" horiz-adv-x="748" 
d="M655 4q-175 -43 -281 29.5t-106 244.5v590h-223v154h223v370h159v-370h228v-154h-228v-590q0 -72 19.5 -101t70 -32.5t138.5 8.5v-149zM261 -415l121 345h150v-82l-109 -263h-162z" />
    <glyph glyph-name="uni0237" unicode="&#x237;" horiz-adv-x="548" 
d="M71 -381q-131 0 -208 73l62 131q68 -38 92 -44q20 -5 52 -5h13q63 0 86.5 27.5t23.5 106.5v1114h159v-1114q0 -140 -71.5 -214.5t-195.5 -74.5h-13z" />
    <glyph glyph-name="circumflex" unicode="&#x2c6;" horiz-adv-x="775" 
d="M141 1469l191 323h112l190 -323h-186l-61 108l-62 -108h-184z" />
    <glyph glyph-name="caron" unicode="&#x2c7;" horiz-adv-x="775" 
d="M332 1469l-191 323h186l62 -109l61 109h184l-190 -323h-112z" />
    <glyph glyph-name="breve" unicode="&#x2d8;" horiz-adv-x="803" 
d="M401 1461q-120 0 -187 90t-46 230h155q-12 -91 6.5 -125t71.5 -34q55 0 73.5 34t6.5 125h154q22 -140 -46 -230t-188 -90z" />
    <glyph glyph-name="dotaccent" unicode="&#x2d9;" horiz-adv-x="962" 
d="M480 1529q-40 0 -68.5 28.5t-28.5 68.5t28.5 69t68.5 29q41 0 70 -29t29 -69t-29.5 -68.5t-69.5 -28.5z" />
    <glyph glyph-name="ring" unicode="&#x2da;" horiz-adv-x="894" 
d="M447 1457q-72 0 -124 48t-52 124q0 77 52 124.5t124 47.5t124 -47.5t52 -124.5q0 -76 -52 -124t-124 -48zM405 1629q0 -40 42 -40t42 40t-42 40t-42 -40z" />
    <glyph glyph-name="ogonek" unicode="&#x2db;" horiz-adv-x="1018" 
d="M349 -407q-71 0 -124.5 44.5t-53.5 142.5q0 130 89.5 237t229.5 137l127 -130q-140 -17 -211.5 -81t-71.5 -157q0 -26 3 -30t20 -4q35 0 64 27t115 137v-235q-74 -88 -187 -88z" />
    <glyph glyph-name="tilde" unicode="&#x2dc;" horiz-adv-x="716" 
d="M462 1554q-46 0 -125 27q-32 12 -48 16q0 -11 -2 -35h-136q-17 76 14 129.5t101 53.5q45 0 124 -29q20 -6 48 -14q0 11 2 35h134q21 -83 -12 -133t-100 -50z" />
    <glyph glyph-name="hungarumlaut" unicode="&#x2dd;" horiz-adv-x="928" 
d="M213 1469l166 294h201l-194 -294h-173zM473 1469l166 294h200l-194 -294h-172z" />
    <glyph glyph-name="uni0326" unicode="&#x326;" horiz-adv-x="0" 
d="M215 -315l121 344h150v-83l-110 -261h-161z" />
    <glyph glyph-name="Wgrave" unicode="&#x1e80;" horiz-adv-x="1749" 
d="M413 0l-388 1394h167l296 -1071l320 1008h132l321 -1008l297 1071h166l-388 -1394h-140l-321 1013l-324 -1013h-138zM631 1773h201l166 -293h-174z" />
    <glyph glyph-name="wgrave" unicode="&#x1e81;" horiz-adv-x="1469" 
d="M343 0l-284 1022h168l194 -707l251 707h129l249 -705l195 705h165l-282 -1022h-136l-256 733l-260 -733h-133zM488 1518h198l176 -323h-171z" />
    <glyph glyph-name="Wacute" unicode="&#x1e82;" horiz-adv-x="1749" 
d="M413 0l-388 1394h167l296 -1071l320 1008h132l321 -1008l297 1071h166l-388 -1394h-140l-321 1013l-324 -1013h-138zM732 1480l165 293h202l-194 -293h-173z" />
    <glyph glyph-name="wacute" unicode="&#x1e83;" horiz-adv-x="1469" 
d="M343 0l-284 1022h168l194 -707l251 707h129l249 -705l195 705h165l-282 -1022h-136l-256 733l-260 -733h-133zM609 1195l176 323h198l-202 -323h-172z" />
    <glyph glyph-name="Wdieresis" unicode="&#x1e84;" horiz-adv-x="1749" 
d="M413 0l-388 1394h167l296 -1071l320 1008h132l321 -1008l297 1071h166l-388 -1394h-140l-321 1013l-324 -1013h-138zM664 1626q0 40 28.5 69t68.5 29q41 0 69.5 -29t28.5 -69t-29 -68.5t-69 -28.5t-68.5 28.5t-28.5 68.5zM894 1626q0 40 28.5 69t68.5 29q41 0 70 -29
t29 -69t-29.5 -68.5t-69.5 -28.5t-68.5 28.5t-28.5 68.5z" />
    <glyph glyph-name="wdieresis" unicode="&#x1e85;" horiz-adv-x="1469" 
d="M343 0l-284 1022h168l194 -707l251 707h129l249 -705l195 705h165l-282 -1022h-136l-256 733l-260 -733h-133zM523 1355q0 40 29 68.5t69 28.5t68.5 -28.5t28.5 -68.5t-28.5 -69t-68.5 -29t-69 29t-29 69zM753 1355q0 40 29 68.5t69 28.5t68.5 -28.5t28.5 -68.5
t-28.5 -69t-68.5 -29q-41 0 -69.5 29t-28.5 69z" />
    <glyph glyph-name="uni1E9E" unicode="&#x1e9e;" horiz-adv-x="1273" 
d="M726 -8q-138 0 -259 31v170q131 -39 259 -39q112 0 164.5 34.5t52.5 107.5q0 50 -26 91t-112 120q-88 81 -119 138.5t-31 132.5t31 132.5t119 138.5q86 79 112 120t26 91q0 74 -52.5 108.5t-164.5 34.5h-345v-1403h-162v1564h509q175 0 277.5 -82.5t102.5 -226.5
q0 -87 -49 -166.5t-150 -169.5q-55 -47 -71 -74t-16 -67t16 -67t71 -74q101 -89 150 -168.5t49 -166.5q0 -145 -103 -227.5t-279 -82.5z" />
    <glyph glyph-name="Ygrave" unicode="&#x1ef2;" horiz-adv-x="1170" 
d="M506 0l-4 422l-487 972h180l387 -780l391 780h182l-496 -972l5 -422h-158zM337 1773h201l166 -293h-172z" />
    <glyph glyph-name="ygrave" unicode="&#x1ef3;" horiz-adv-x="1049" 
d="M235 -187q54 -35 72 -30.5t45 70.5l87 211l-394 958h174l304 -753l309 753h172l-507 -1232q-52 -128 -137.5 -158.5t-189.5 41.5zM280 1518h197l177 -323h-171z" />
    <glyph glyph-name="endash" unicode="&#x2013;" horiz-adv-x="1069" 
d="M145 510v162h779v-162h-779z" />
    <glyph glyph-name="emdash" unicode="&#x2014;" horiz-adv-x="1841" 
d="M75 510v162h1691v-162h-1691z" />
    <glyph glyph-name="quoteleft" unicode="&#x2018;" horiz-adv-x="518" 
d="M115 896l-16 73l154 495h162l-162 -568h-138z" />
    <glyph glyph-name="quoteright" unicode="&#x2019;" horiz-adv-x="517" 
d="M103 896l161 568h139l15 -74l-153 -494h-162z" />
    <glyph glyph-name="quotesinglbase" unicode="&#x201a;" horiz-adv-x="489" 
d="M99 -212l124 378h138l13 -75l-113 -303h-162z" />
    <glyph glyph-name="quotedblleft" unicode="&#x201c;" horiz-adv-x="723" 
d="M321 896l-17 73l155 495h161l-161 -568h-138zM99 969l154 495h162l-162 -568h-138z" />
    <glyph glyph-name="quotedblright" unicode="&#x201d;" horiz-adv-x="726" 
d="M311 896l162 568h138l16 -73l-154 -495h-162zM103 896l161 568h139l15 -74l-153 -494h-162z" />
    <glyph glyph-name="quotedblbase" unicode="&#x201e;" horiz-adv-x="683" 
d="M292 -212l124 378h137l15 -75l-115 -303h-161zM99 -212l123 378h137l15 -75l-115 -303h-160z" />
    <glyph glyph-name="dagger" unicode="&#x2020;" horiz-adv-x="1099" 
d="M468 -292l-2 1029l-341 -2v164l341 -1l-2 483h170l-1 -483l341 1v-164l-341 2l1 -1029h-166z" />
    <glyph glyph-name="daggerdbl" unicode="&#x2021;" horiz-adv-x="1099" 
d="M468 -292l-2 479l-341 -1v165l341 -2v388l-341 -2v164l341 -1l-2 483h170l-1 -483l341 1v-164l-342 2v-388l342 2v-165l-341 1l1 -479h-166z" />
    <glyph glyph-name="bullet" unicode="&#x2022;" horiz-adv-x="596" 
d="M297 474q-60 0 -101 41.5t-41 101.5q0 61 41 102t101 41q62 0 103 -41t41 -102q0 -60 -41 -101.5t-103 -41.5z" />
    <glyph glyph-name="ellipsis" unicode="&#x2026;" horiz-adv-x="842" 
d="M421 -25q-41 0 -70 28.5t-29 68.5t29 68.5t70 28.5q40 0 69 -28.5t29 -68.5t-29 -68.5t-69 -28.5zM115 72q0 40 29 68.5t69 28.5t68.5 -28.5t28.5 -68.5t-28.5 -68.5t-68.5 -28.5t-69 28.5t-29 68.5zM531 72q0 40 28.5 68.5t69.5 28.5q40 0 69 -28.5t29 -68.5t-29 -68.5
t-69 -28.5q-41 0 -69.5 28.5t-28.5 68.5z" />
    <glyph glyph-name="perthousand" unicode="&#x2030;" horiz-adv-x="1848" 
d="M100 0l894 1381h194l-895 -1381h-193zM75 1056q0 149 79.5 249.5t214.5 100.5t215 -100.5t80 -249.5q0 -148 -80 -250t-215 -102q-134 0 -214 102t-80 250zM241 1056q0 -97 31 -144t97 -47q67 0 98 46.5t31 144.5t-30.5 144t-98.5 46q-66 0 -97 -46t-31 -144zM624 326
q0 149 79.5 250t214.5 101q106 0 180 -65t101 -171q27 107 100 171.5t180 64.5q135 0 214.5 -101t79.5 -250q0 -147 -80 -249t-214 -102q-106 0 -179.5 65.5t-100.5 171.5q-27 -106 -100.5 -171.5t-180.5 -65.5q-135 0 -214.5 102t-79.5 249zM790 326q0 -98 31 -145t97 -47
q68 0 99 47t31 145t-31 144t-99 46q-66 0 -97 -46.5t-31 -143.5zM1350 326q0 -98 31 -145t98 -47q66 0 97 47t31 145t-30.5 144t-97.5 46t-98 -46.5t-31 -143.5z" />
    <glyph glyph-name="guilsinglleft" unicode="&#x2039;" horiz-adv-x="672" 
d="M375 150l-300 364l300 364h212l-300 -364l300 -364h-212z" />
    <glyph glyph-name="guilsinglright" unicode="&#x203a;" horiz-adv-x="672" 
d="M85 150l300 364l-300 364h211l301 -364l-301 -364h-211z" />
    <glyph glyph-name="fraction" unicode="&#x2044;" horiz-adv-x="184" 
d="M-285 -71l509 1492l171 29l-509 -1494z" />
    <glyph glyph-name="Euro" unicode="&#x20ac;" horiz-adv-x="1200" 
d="M719 -25q-226 0 -362 134.5t-168 400.5h-201l77 162h114v13q0 18 1 27h-146l75 160h83q40 259 183 396.5t351 137.5q128 0 215.5 -39t165.5 -131l-111 -119q-67 78 -121 103.5t-153 25.5q-65 0 -121 -19.5t-105 -61.5t-84 -116.5t-52 -176.5h707l-85 -160h-636v-40h636
l-68 -162h-557q28 -202 116.5 -289t254.5 -87q90 0 163 32t153 108v-205q-141 -94 -325 -94z" />
    <glyph glyph-name="trademark" unicode="&#x2122;" horiz-adv-x="1052" 
d="M457 855v348h-122v-348h-128v348h-157v122h443v-2h95l103 -269l104 269h127v-468h-124l2 154l-59 -150h-103l-58 150l1 -154h-124z" />
    <glyph glyph-name="partialdiff" unicode="&#x2202;" horiz-adv-x="1099" 
d="M524 -25q-185 0 -302 130.5t-117 333.5q0 234 131.5 375t332.5 141q136 0 241 -74q-45 464 -295 464q-80 0 -134.5 -25.5t-123.5 -94.5l-102 125q84 83 171.5 119t193.5 36q464 0 464 -855q0 -153 -26.5 -274.5t-80.5 -212.5t-143.5 -139.5t-209.5 -48.5zM271 442
q0 -150 67.5 -229t185.5 -79q99 0 161 46t96 156t37 295q-78 165 -247 165q-144 0 -222 -94t-78 -260z" />
    <glyph glyph-name="emptyset" unicode="&#x2205;" horiz-adv-x="1723" 
d="M861 -27q-259 0 -459 162l-153 -153l-114 113l157 157q-156 202 -156 458q0 154 58.5 291t156.5 233.5t231 153t279 56.5q260 0 460 -162l153 153l114 -113l-157 -157q155 -199 155 -455q0 -154 -58 -291.5t-156 -235t-231.5 -154t-279.5 -56.5zM303 710q0 -193 105 -340
l797 796q-148 119 -344 119q-116 0 -219 -43t-177.5 -118.5t-118 -183t-43.5 -230.5zM518 252q149 -118 343 -118q156 0 283.5 73t202 205t74.5 298q0 190 -106 338z" />
    <glyph glyph-name="product" unicode="&#x220f;" horiz-adv-x="1102" 
d="M187 -201v1422h-102v160h932v-160h-101v-1422h-162v1422h-403v-1422h-164z" />
    <glyph glyph-name="summation" unicode="&#x2211;" horiz-adv-x="1096" 
d="M45 -201v118l512 695l-457 652v117h912v-160h-684l428 -614l-477 -647h744v-161h-978z" />
    <glyph glyph-name="minus" unicode="&#x2212;" horiz-adv-x="1035" 
d="M91 560v161h853v-161h-853z" />
    <glyph glyph-name="radical" unicode="&#x221a;" horiz-adv-x="1123" 
d="M480 -292l-241 820h-136v160h256l189 -646l347 1503h167l-428 -1837h-154z" />
    <glyph glyph-name="infinity" unicode="&#x221e;" horiz-adv-x="1997" 
d="M570 -25q-215 0 -350 158.5t-135 409.5q0 252 135 411.5t350 159.5q144 0 252.5 -70.5t175.5 -207.5q64 135 175 206.5t255 71.5q215 0 349.5 -159t134.5 -412q0 -252 -134.5 -410t-349.5 -158q-292 0 -429 281q-63 -138 -173.5 -209.5t-255.5 -71.5zM251 543
q0 -206 90.5 -307.5t228.5 -101.5q63 0 117 20t102 65t80.5 127.5t42.5 196.5q-58 412 -342 412q-65 0 -121.5 -24t-101.5 -71.5t-70.5 -129t-25.5 -187.5zM1087 546q53 -412 341 -412q65 0 121 23.5t101 71t70.5 128.5t25.5 186q0 106 -25.5 187.5t-70.5 129t-101 71.5
t-121 24q-50 0 -94 -12t-86.5 -41t-75 -74.5t-55.5 -117.5t-30 -164z" />
    <glyph glyph-name="integral" unicode="&#x222b;" horiz-adv-x="656" 
d="M253 -292q-57 0 -109 30.5t-79 88.5l111 120q30 -54 42.5 -66t36.5 -12q19 0 30.5 14t19 58.5t7.5 124.5q0 132 -65 522q-41 252 -54.5 362t-13.5 204q0 93 19.5 162t53 107.5t71.5 56.5t80 18q58 0 110.5 -31t77.5 -91l-110 -115q-33 55 -44 65.5t-36 10.5
q-19 0 -30 -13.5t-18.5 -58.5t-7.5 -126q0 -131 65 -521q39 -240 53 -354.5t14 -211.5q0 -178 -65.5 -261t-158.5 -83z" />
    <glyph glyph-name="approxequal" unicode="&#x2248;" horiz-adv-x="1190" 
d="M121 719q90 207 285 207q55 0 103.5 -17t124.5 -57q67 -35 92.5 -44t58.5 -9q56 0 81 22.5t87 120.5l118 -96q-91 -207 -286 -207q-54 0 -101.5 17t-125.5 58q-67 34 -92.5 43t-59.5 9q-55 0 -80 -22.5t-86 -119.5zM121 391q90 207 285 207q55 0 103.5 -17t124.5 -57
q67 -35 92.5 -44.5t58.5 -9.5q55 0 80.5 22.5t87.5 120.5l118 -95q-91 -208 -286 -208q-54 0 -101.5 17t-125.5 58q-66 35 -92 44t-60 9q-55 0 -80 -22.5t-86 -119.5z" />
    <glyph glyph-name="notequal" unicode="&#x2260;" horiz-adv-x="1110" 
d="M196 188l122 208h-207v161h301l98 167h-399v161h493l121 209h186l-122 -209h210v-161h-304l-98 -167h402v-161h-495l-122 -208h-186z" />
    <glyph glyph-name="lessequal" unicode="&#x2264;" horiz-adv-x="1035" 
d="M944 221l-853 372v116l853 372v-176l-586 -254l586 -253v-177zM91 25v162h853v-162h-853z" />
    <glyph glyph-name="greaterequal" unicode="&#x2265;" horiz-adv-x="1035" 
d="M91 221v177l586 253l-586 254v176l853 -372v-115zM91 25v162h853v-162h-853z" />
    <glyph glyph-name="lozenge" unicode="&#x25ca;" horiz-adv-x="957" 
d="M420 0l-335 690l335 691h117l335 -691l-335 -690h-117zM265 690l214 -444l213 444l-213 443z" />
    <glyph glyph-name="uniF8FF" unicode="&#xf8ff;" horiz-adv-x="1592" 
d="M783 253q-151 0 -279.5 75.5t-203 204.5t-74.5 280q0 152 75 280.5t203.5 203t280.5 74.5q151 0 279.5 -75t203.5 -203.5t75 -279.5q0 -152 -74.5 -281t-203.5 -204t-282 -75zM225 29v146h59q26 0 44 -9q37 -17 37 -64q0 -23 -10 -39q-21 -34 -71 -34h-59zM260 56h22
q18 0 26 4q22 10 22 42q0 18 -5 27q-12 20 -43 20h-22v-93zM293 814q0 -205 144 -350t348 -145q203 0 347.5 144.5t144.5 347.5q0 100 -39 191.5t-104.5 157.5t-156 105t-190.5 40q-134 0 -248 -65.5t-180 -178.5t-66 -247zM377 84q0 16 8 29q16 27 52 27q26 0 42 -14
q18 -15 18 -42v-8h-85q0 -8 3 -13q7 -13 25 -13q7 0 10 1q9 3 14 12l31 -3q-2 -10 -10 -17q-14 -16 -45 -16q-17 0 -33 7q-30 14 -30 50zM412 95h52l-3 10q-6 12 -23 12q-10 0 -14 -3q-10 -6 -12 -19zM467 912q10 -2 12 -4q52 -21 98 -27q41 -3 72 2q43 11 47 12
q3 0 8.5 2.5t7.5 3.5q-5 2 -16.5 8t-17 9t-13 8.5t-13.5 12.5h19q39 0 75 19q65 40 136 61q24 8 58 11q4 0 19.5 1t23.5 0q54 -2 89 -33q10 -11 28 -33v-2l-6 2q-45 17 -83 3.5t-62 -53.5q-7 -13 -25 -55q-9 -21 -27 -63.5t-20 -48.5q-33 -64 -65 -101q-27 -33 -66 -58
q-45 -34 -116 -55h-5l24 22q12 11 25 44q41 116 45 127q24 73 57 131v3q-2 -4 -11 -13q-8 -10 -10 -12q-23 -36 -31 -57q-2 -6 -8 -6q-99 3 -177 67q-40 38 -59 55q-1 1 -5 7t-8 10zM506 61l33 2q5 -14 23 -14q20 0 20 11q0 8 -16 11l-21 4q-36 6 -36 31q0 10 6 18
q13 16 46 16q48 0 53 -32l-31 -3q-3 14 -21 14q-19 0 -19 -11q0 -8 16 -12l22 -3q36 -6 36 -30q0 -9 -7 -18q-14 -18 -48 -18q-51 0 -56 34zM630 168q0 15 19 15q18 0 18 -15t-18 -15q-19 0 -19 15zM632 29v109h34v-109h-34zM681 84q0 20 7 31q13 25 43 25q11 0 18 -3
q12 -5 18 -17h1v18h35v-110q0 -14 -9 -23q-15 -19 -52 -19q-50 0 -57 31l31 3l6 -6q4 -6 21 -6q25 0 25 21v19h-1q-2 -3 -7 -8q-11 -9 -29 -9q-13 0 -25 5q-25 13 -25 48zM716 84q0 -10 3 -16q6 -14 24 -14q25 0 25 30q0 10 -3 17q-6 15 -22 15q-7 0 -15 -4q-12 -7 -12 -28z
M823 29v109h34v-19q10 21 37 21q13 0 23 -5q20 -10 20 -36v-70h-35v64q0 22 -21 22q-7 0 -13 -3q-11 -6 -11 -19v-64h-34zM952 84q0 15 7 29q16 27 54 27q20 0 33 -7q28 -16 28 -49q0 -17 -7 -30q-16 -27 -54 -27q-15 0 -33 7q-28 16 -28 50zM987 84q0 -9 3 -18
q7 -15 23 -15q10 0 15 4q12 9 12 29q0 2 -3 17q-8 16 -24 16q-7 0 -14 -5q-12 -7 -12 -28zM1076 138h36l26 -78h1l26 78h36l-43 -109h-39zM1202 60q0 17 15 25q13 8 32 8l17 3q13 0 13 7v1q0 14 -19 14q-17 0 -22 -13l-32 3q4 10 10 17q15 15 45 15q21 0 37 -9q15 -8 15 -28
v-74h-33v16q-5 -7 -9 -9q-9 -9 -27 -9q-13 0 -21 4q-21 8 -21 29zM1235 60q0 -12 18 -12q8 0 14 3q12 5 12 18v11q-3 -2 -23 -5q-8 0 -12 -3q-9 -3 -9 -12zM1292 177q0 16 11 26.5t27 10.5t26.5 -10.5t10.5 -26.5t-10.5 -27t-26.5 -11t-27 11t-11 27zM1304 177
q0 -11 7.5 -19t18.5 -8t18.5 8t7.5 19t-7.5 18.5t-18.5 7.5t-18.5 -7.5t-7.5 -18.5zM1317 160v35h14q12 0 12 -11q0 -5 -5 -10l8 -14h-10l-6 11h-5v-11h-8zM1325 180h6q5 0 5 3t-5 3h-6v-6z" />
    <glyph glyph-name="_Designova" horiz-adv-x="1742" 
d="M869 41q-174 0 -322.5 87t-235 235.5t-86.5 323.5q1 131 52 250.5t137.5 205.5t206 137t250.5 51q175 0 323.5 -86t235.5 -234.5t87 -323.5q0 -176 -87 -324.5t-236 -235t-325 -86.5zM303 687q0 -116 45 -221.5t120.5 -181.5t181 -121t221.5 -45q154 0 285 76t207 207
t76 285q0 116 -45 221.5t-120.5 181.5t-180.5 121t-221 45t-221 -45t-181.5 -120.5t-121.5 -181t-45 -221.5zM505 800q7 0 13 -4q58 -22 115 -31q45 -5 81 3q29 4 53 14q5 0 11.5 3t8.5 4q-5 3 -22.5 11.5t-27.5 15.5t-19 17h21q39 0 86 20q85 53 158 73q37 10 66 10
q7 0 25 1.5t26 0.5q66 -4 102 -39q6 -5 33 -37v-2q-3 2 -7 2q-53 20 -95.5 4.5t-71.5 -59.5q-5 -9 -10 -20.5t-11 -25t-9 -21.5q-6 -14 -25 -59t-30 -68q-36 -74 -74 -119q-20 -27 -74 -66q-52 -38 -136 -63h-7l28 24q18 17 30 51q7 20 25 71t27 78q31 90 65 150v1
q-3 -3 -11 -13q-9 -7 -11 -16q-23 -27 -38 -65q-3 -5 -9 -5q-117 5 -204 78q-10 10 -32.5 31t-33.5 32q-12 14 -16 18z" />
    <glyph glyph-name="_Origin" horiz-adv-x="2245" 
d="M145 1055v50h1955v-50h-1955zM145 236v50h1955v-50h-1955zM223 437v177h42v-177h-42zM255 734v177h148v-32h-107v-39h97v-31h-97v-42h107v-33h-148zM293 437v177h34l89 -107v107h40v-177h-33l-88 109v-109h-42zM433 734v177h34l88 -107v107h40v-177h-33l-88 109v-109h-41
zM549 437v177h87q72 0 72 -45q0 -28 -26 -40q3 0 3 -2q28 -12 28 -42q0 -48 -71 -48h-93zM591 468h48q32 0 32 22t-32 22h-48v-44zM591 545h42q33 0 33 20q0 22 -33 22h-42v-42zM624 879v32h156v-32h-57v-145h-41v145h-58zM733 437v177h148v-33h-107v-38h96v-31h-96v-41h105
v-34h-146zM798 911h44l40 -124l42 124h38l40 -126l42 126h39l-57 -177h-45l-39 121l-41 -121h-43zM909 437v177h81q28 0 42 -6q36 -19 36 -57q0 -21 -10 -35q-15 -18 -29 -23l37 -56h-43l-35 50h-37v-50h-42zM951 520h37q38 0 38 31q0 30 -38 30h-37v-61zM1088 437v177h40
v-143h106v-34h-146zM1091 823q0 39 28 65q26 26 69 26t69 -26q28 -25 28 -65q0 -39 -28 -65q-25 -27 -68 -27q-45 0 -70 27q-28 28 -28 65zM1133 823q0 -25 15.5 -40.5t39.5 -15.5t39.5 15.5t15.5 40.5t-15.5 41.5t-39.5 16.5t-39.5 -16.5t-15.5 -41.5zM1263 437v177h41
v-177h-41zM1308 734v177h81q28 0 41 -6q36 -17 36 -57q0 -21 -10 -35q-9 -15 -29 -23l39 -56h-45l-33 50h-39v-50h-41zM1333 437v177h35l87 -107v107h42v-177h-34l-89 109v-109h-41zM1349 817h37q38 0 38 31t-38 31h-37v-62zM1486 734v177h148v-32h-107v-39h96v-31h-96v-75
h-41zM1523 461q0 24 25 24q10 0 17 -7t7 -17q0 -11 -7 -25l-14 -38h-26l12 41q-14 5 -14 22zM1650 734v177h147v-32h-106v-39h95v-31h-95v-42h106v-33h-147zM1673 437v177h80q30 0 52 -11q46 -21 46 -77q0 -28 -12 -47q-23 -42 -86 -42h-80zM1715 471h37q17 0 31 7
q26 14 26 48q0 21 -6 29q-14 26 -51 26h-37v-110zM1827 734v177h33l90 -107v107h40v-177h-34l-89 109v-109h-40zM1875 437v177h147v-33h-107v-38h97v-31h-97v-41h106v-34h-146z" />
    <glyph glyph-name="_VendorID" horiz-adv-x="1166" 
d="M98 154v1187h974v-1187h-974zM101 63q0 13 7.5 20.5t18.5 7.5q9 0 12 -3l4 -5v26h13v-72h-13v9l-4 -7q-7 -5 -15 -5q-23 0 -23 29zM115 63q0 -17 13 -17q15 0 15 17v1q0 18 -13 18q-15 0 -15 -19zM151 205h869v1084h-869v-1084zM166 63q0 13 7.5 20.5t19.5 7.5
q11 0 18.5 -7.5t7.5 -19.5q0 -2 -2 -5h-37q1 -13 13 -13q10 0 12 9h12q-5 -21 -24 -21q-27 0 -27 29zM180 67h25q-3 15 -12 15q-11 0 -13 -15zM223 52h14q3 -9 9 -9q9 0 9 7q0 3 -12 9q-18 5 -18 16q0 16 21 16t21 -16h-14q-1 7 -7 7q-7 0 -7 -6q0 -4 12 -9q17 -5 17 -15
q0 -18 -22 -18q-20 0 -23 18zM265 455q0 59 46 125l97 137h64l-84 -120q10 3 23 3q62 0 102.5 -41.5t40.5 -103.5q0 -61 -41.5 -103.5t-101.5 -42.5q-61 0 -103.5 42.5t-42.5 103.5zM265 926q0 56 46 123l97 142h64l-84 -122q7 2 23 2q63 0 103 -41t40 -104
q0 -61 -41 -102.5t-102 -41.5t-103.5 42t-42.5 102zM276 102q0 7 8 7t8 -7q0 -8 -8 -8t-8 8zM277 37v54h14v-54h-14zM301 63q0 28 26 28q9 0 12 -3l4 -5v8h14v-41q0 -8 -2 -11q0 -24 -27 -24q-26 0 -26 18v1h14v-1q0 -8 12 -8q11 0 15 13v8l-4 -7q-8 -2 -14 -2q-24 0 -24 26
zM316 64q0 -18 12 -18q15 0 15 17v1q0 18 -15 18q-12 0 -12 -18zM319 455q0 -42 25.5 -68t66.5 -26q39 0 64.5 26t25.5 68q0 40 -25.5 65t-64.5 25q-41 0 -66.5 -25t-25.5 -65zM319 926q0 -41 25.5 -67t66.5 -26q39 0 64.5 26.5t25.5 66.5t-25.5 66t-64.5 26
q-41 0 -66.5 -25t-25.5 -67zM368 37v54h14v-10l4 7q5 3 13 3q17 0 20 -15q1 -3 1 -9v-30h-15v34q0 11 -10 11q-13 0 -13 -21v-24h-14zM427 63q0 13 7.5 20.5t19.5 7.5q28 0 28 -28q0 -29 -28 -29q-12 0 -19.5 8t-7.5 21zM441 63q0 -17 13 -17q15 0 15 17q0 19 -15 19
q-13 0 -13 -19zM487 91h14l14 -45l13 45h14l-19 -54h-18zM547 52q0 16 30 16h3v7q0 7 -9 7q-11 0 -11 -9h-13q0 18 24 18q19 0 21 -15v-39h-12v6l-3 -5q-8 -4 -14 -4q-16 0 -16 18zM560 52q0 -6 8 -6q12 0 12 9v6q-20 2 -20 -9zM601 80v9h6v8q0 15 19 15h6v-11q-11 2 -11 -5
v-7h11v-9h-11v-43h-14v43h-6zM614 455q0 62 44 125l97 137h66l-86 -120q11 3 25 3q61 0 102 -41.5t41 -103.5q0 -61 -41.5 -103.5t-101.5 -42.5q-61 0 -103.5 42.5t-42.5 103.5zM614 926q0 57 44 123l97 142h66l-87 -122q8 2 26 2q61 0 102 -41.5t41 -103.5
q0 -61 -41.5 -102.5t-101.5 -41.5q-61 0 -103.5 41.5t-42.5 102.5zM636 63q0 28 28 28q27 0 27 -28q0 -29 -27 -29q-28 0 -28 29zM650 63q0 -17 14 -17q13 0 13 17q0 19 -13 19q-14 0 -14 -19zM667 455q0 -42 26 -68t67 -26q38 0 62.5 26t24.5 68q0 40 -24.5 65t-62.5 25
q-41 0 -67 -25t-26 -65zM667 926q0 -41 26 -67t67 -26q38 0 62.5 26t24.5 67q0 40 -24.5 66t-62.5 26q-41 0 -67 -25.5t-26 -66.5zM700 37v54h12v-10l6 7q4 3 13 3q16 0 19 -15v-39h-14v34q-4 11 -9 11q-15 0 -15 -21v-24h-12zM757 80v9h8v13h14v-13h10v-9h-10v-28
q2 -10 9 -6v-10h-8q-15 0 -15 10v34h-8zM793 52h15q2 -9 10 -9t8 7q0 3 -12 9q-17 5 -17 16q0 16 20 16q19 0 24 -16h-16q0 7 -9 7q-5 0 -5 -6q0 -5 11 -9q19 -6 19 -15q0 -18 -23 -18q-20 0 -25 18zM845 42q0 10 9 10t9 -10q0 -8 -9 -8t-9 8zM869 63q0 13 8 20.5t18 7.5
q25 0 25 -20h-13q-3 11 -12 11q-12 0 -12 -19q0 -17 12 -17q10 0 12 9h13q-2 -21 -25 -21q-26 0 -26 29zM925 63q0 28 29 28q26 0 26 -28q0 -29 -26 -29q-29 0 -29 29zM939 63q0 -17 15 -17q13 0 13 17q0 19 -13 19q-15 0 -15 -19zM990 37v54h14v-9l5 6q3 3 9 3q13 0 18 -10
l5 7q3 3 11 3q17 0 17 -12q1 -4 1 -12v-30h-13v27q0 2 -0.5 5t-0.5 4q0 9 -10 9q-9 0 -9 -18v-27h-13v36q-4 9 -10 9q-10 0 -10 -18v-27h-14z" />
    </font>
</defs>
</svg>
