<?xml version="1.0" standalone="no"?>
<!DOCTYPE svg PUBLIC "-//W3C//DTD SVG 1.1//EN" "http://www.w3.org/Graphics/SVG/1.1/DTD/svg11.dtd" >
<svg xmlns="http://www.w3.org/2000/svg" xmlns:xlink="http://www.w3.org/1999/xlink" version="1.1">
<metadata>
Created by FontForge 20201107 at Tue Feb 27 19:21:34 2024
 By 
Copyright (c) 2024 by Designova. All rights reserved.
</metadata>
<defs>
<font id="RovelleUno-MediumItalic" horiz-adv-x="1097" >
  <font-face 
    font-family="Rovelle Uno Medium Italic"
    font-weight="500"
    font-style="italic"
    font-stretch="normal"
    units-per-em="2048"
    panose-1="0 0 0 0 0 0 0 0 0 0"
    ascent="1638"
    descent="-410"
    x-height="1032"
    cap-height="1394"
    bbox="-312 -410 2271 1878"
    underline-thickness="100"
    underline-position="-255"
    unicode-range="U+0020-F8FF"
  />
<missing-glyph horiz-adv-x="1223" 
d="M145 18l213 1344h939l-213 -1344h-939zM341 331l294 366l-178 365zM377 164h520l-196 401zM554 1217l189 -388l313 388h-502zM808 697l178 -366l116 731z" />
    <glyph glyph-name=".notdef" horiz-adv-x="1223" 
d="M145 18l213 1344h939l-213 -1344h-939zM341 331l294 366l-178 365zM377 164h520l-196 401zM554 1217l189 -388l313 388h-502zM808 697l178 -366l116 731z" />
    <glyph glyph-name=".null" horiz-adv-x="0" 
 />
    <glyph glyph-name="nonmarkingreturn" horiz-adv-x="682" 
 />
    <glyph glyph-name="space" unicode=" " horiz-adv-x="368" 
 />
    <glyph glyph-name="exclam" unicode="!" horiz-adv-x="568" 
d="M223 229l180 1186h208l-195 -1186h-193zM178 52q8 47 46 80.5t86 33.5q47 0 75 -34t21 -80q-7 -48 -46 -80.5t-86 -32.5q-48 0 -75.5 32.5t-20.5 80.5z" />
    <glyph glyph-name="quotedbl" unicode="&#x22;" horiz-adv-x="714" 
d="M561 1462l-102 -591h-183l86 591h199zM531 871l86 591h199l-102 -591h-183z" />
    <glyph glyph-name="numbersign" unicode="#" horiz-adv-x="1044" 
d="M160 0l160 434h-181l31 195h224l44 123h-194l31 195h236l162 434h197l-160 -434h35l161 434h198l-160 -434h180l-31 -195h-223l-44 -123h195l-31 -195h-237l-162 -434h-198l161 434h-36l-161 -434h-197zM592 629h36l45 123h-36z" />
    <glyph glyph-name="dollar" unicode="$" horiz-adv-x="1090" 
d="M460 -16q-78 15 -140 51.5t-107 98t-58.5 146.5t5.5 197h197q-24 -128 10.5 -199t124.5 -95l68 429q-305 117 -260 398q24 150 131 253t253 133l23 145h197l-23 -143q69 -13 122.5 -47t85.5 -81.5t51 -106t19.5 -122t-9.5 -129.5h-197q18 124 -7 192t-97 92l-68 -432
q318 -121 273 -410q-22 -137 -128.5 -241.5t-268.5 -129.5l-22 -142h-197zM500 1010q-12 -72 11 -113t83 -71l58 369q-130 -44 -152 -185zM689 180q144 32 165 170q12 73 -12.5 118t-94.5 80z" />
    <glyph glyph-name="percent" unicode="%" horiz-adv-x="1461" 
d="M398 0h-234l1114 1381h235zM226 1046q24 152 123.5 256t239.5 104t206.5 -104t42.5 -256q-24 -151 -124.5 -256.5t-239.5 -105.5q-93 0 -156 51t-85.5 132.5t-6.5 178.5zM427 1046q-14 -90 3.5 -128t74.5 -38t87.5 38t44.5 128t-4 127.5t-75 37.5t-87 -37.5t-44 -127.5z
M846 358q24 152 123.5 256t239.5 104t206.5 -104t42.5 -256q-24 -151 -124.5 -256.5t-239.5 -105.5q-93 0 -156 51t-85.5 132.5t-6.5 178.5zM1047 358q-14 -90 3.5 -128t74.5 -38t87.5 38t44.5 128t-4 127.5t-75 37.5t-87 -37.5t-44 -127.5z" />
    <glyph glyph-name="ampersand" unicode="&#x26;" horiz-adv-x="1259" 
d="M932 115q-170 -133 -397 -150q-131 -8 -224 28q-99 38 -149.5 119t-41.5 195q16 181 171 314q67 56 152 107l-23 38q-78 126 -67 256q13 156 130 263.5t285 118.5q166 13 251.5 -69t73.5 -216q-11 -123 -86 -218q-98 -119 -273 -210l227 -280q83 135 115 338h191
q-37 -246 -145 -422q-22 -35 -44 -64l161 -199l-159 -131zM316 320q-8 -93 48.5 -132.5t187.5 -31.5q157 12 269 97l-269 332q-11 -6 -32.5 -19.5t-33.5 -20.5q-84 -54 -124 -104t-46 -121zM547 1036q-3 -39 11 -79q16 -54 65 -127q65 37 127 77q76 49 110 92.5t38 104.5
q7 67 -24 93.5t-123 19.5q-188 -11 -204 -181z" />
    <glyph glyph-name="quotesingle" unicode="'" horiz-adv-x="459" 
d="M276 871l86 591h199l-102 -591h-183z" />
    <glyph glyph-name="parenleft" unicode="(" horiz-adv-x="635" 
d="M331 -143q-87 150 -117 379t7 464q37 233 140 463t237 378h231q-157 -162 -263 -378.5t-145 -462.5q-38 -251 -1.5 -465.5t142.5 -377.5h-231z" />
    <glyph glyph-name="parenright" unicode=")" horiz-adv-x="637" 
d="M28 -143q158 163 264 379.5t145 463.5q38 250 1 465t-144 376h234q85 -149 115.5 -377.5t-5.5 -463.5q-37 -232 -140.5 -462.5t-236.5 -380.5h-233z" />
    <glyph glyph-name="asterisk" unicode="*" horiz-adv-x="938" 
d="M320 147l-149 117l220 241l-238 81l90 192l238 -89l44 309h202l-53 -309l266 89l31 -192l-265 -81l145 -241l-187 -117l-134 245z" />
    <glyph glyph-name="plus" unicode="+" horiz-adv-x="1020" 
d="M435 154l62 390h-335l31 196h335l62 389h197l-62 -389h336l-31 -196h-336l-62 -390h-197z" />
    <glyph glyph-name="comma" unicode="," horiz-adv-x="499" 
d="M51 -206l199 406h164l2 -94l-167 -312h-198z" />
    <glyph glyph-name="hyphen" unicode="-" horiz-adv-x="690" 
d="M156 481l31 195h530l-31 -195h-530z" />
    <glyph glyph-name="period" unicode="." horiz-adv-x="429" 
d="M211 -24q-47 0 -75.5 33.5t-21.5 79.5q7 47 46.5 80.5t86.5 33.5t75.5 -33.5t20.5 -80.5t-46.5 -80t-85.5 -33z" />
    <glyph glyph-name="slash" unicode="/" horiz-adv-x="772" 
d="M12 -52l733 1488h206l-733 -1488h-206z" />
    <glyph glyph-name="zero" unicode="0" horiz-adv-x="1150" 
d="M571 -24q-86 0 -154 25t-113 72t-74 111t-40.5 145t-9 170.5t18.5 190.5q19 123 52.5 228t84.5 196t117 155t154 100.5t191 36.5t179.5 -36.5t121.5 -101t67.5 -155.5t22 -196t-19.5 -227q-24 -154 -71 -280t-119 -225t-176 -154t-232 -55zM399 690q-24 -163 -18 -278.5
t61 -179t160 -63.5q154 0 240 131.5t126 389.5q41 257 -3 389t-198 132q-155 0 -241 -131.5t-127 -389.5z" />
    <glyph glyph-name="one" unicode="1" horiz-adv-x="760" 
d="M469 0l177 1118l-370 -208l36 228l434 243h139l-219 -1381h-197z" />
    <glyph glyph-name="two" unicode="2" horiz-adv-x="1051" 
d="M61 0l22 140l517 435q94 79 150.5 136t87.5 106.5t42.5 85t20.5 91.5q35 217 -187 217q-113 0 -189.5 -65t-108.5 -192l-24 -89h-195l25 105q52 195 197.5 315.5t325.5 120.5q102 0 178 -33.5t118.5 -90.5t58 -130.5t2.5 -157.5q-22 -140 -108 -268.5t-272 -282.5
l-296 -248h606l-31 -195h-940z" />
    <glyph glyph-name="three" unicode="3" horiz-adv-x="1116" 
d="M558 -10q-121 0 -214 39t-143.5 108t-65.5 163t20 204l198 9q-55 -163 4.5 -246.5t231.5 -83.5q146 0 230 61.5t102 175.5t-46.5 175t-210.5 61q-62 0 -163 -21l24 155l393 408h-634l31 196h939l-22 -136l-411 -423q158 -33 237.5 -145.5t54.5 -269.5q-30 -188 -185 -309
t-370 -121zM507 664l85 94h-41z" />
    <glyph glyph-name="four" unicode="4" horiz-adv-x="1170" 
d="M717 0l48 300h-657l22 141l835 953h166l-143 -903h204l-30 -191h-204l-48 -300h-193zM410 491h385l85 539z" />
    <glyph glyph-name="five" unicode="5" horiz-adv-x="1059" 
d="M331 415q-14 -232 213 -232q121 0 208 68t110 213q22 137 -30 207.5t-171 70.5h-26q-101 0 -168.5 -50.5t-106.5 -155.5h-194l247 858h768l-31 -196h-596l-87 -300q93 38 194 38h32q134 0 226.5 -63.5t128.5 -169.5t15 -237q-23 -145 -107 -256t-200.5 -167.5
t-244.5 -56.5q-60 0 -116 14.5t-106 47t-86.5 79.5t-55.5 117.5t-15 155.5l5 62h196z" />
    <glyph glyph-name="six" unicode="6" horiz-adv-x="1084" 
d="M542 -10q-130 0 -229 62t-145 169.5t-25 236.5q20 127 114 253l505 683h219l-344 -468q24 4 55 4q128 0 226.5 -62.5t143.5 -171t25 -236.5q-32 -197 -190.5 -333.5t-354.5 -136.5zM340 460q-20 -127 43.5 -202t189.5 -75q125 0 213.5 76.5t108.5 202.5q19 124 -45.5 201
t-188.5 77t-212.5 -77t-108.5 -203z" />
    <glyph glyph-name="seven" unicode="7" horiz-adv-x="1105" 
d="M151 0l852 1202h-793l31 192h1035l-23 -142l-883 -1252h-219z" />
    <glyph glyph-name="eight" unicode="8" horiz-adv-x="1101" 
d="M546 -26q-134 0 -234 46.5t-150.5 142.5t-29.5 227q16 105 76.5 191.5t154.5 143.5q-100 108 -72 285q27 167 162.5 281.5t334.5 114.5q104 0 182.5 -32t123 -87t61 -125.5t3.5 -151.5q-14 -88 -59 -163t-113 -126q140 -115 107 -331q-21 -131 -105.5 -227.5t-199 -142.5
t-242.5 -46zM332 390q-18 -114 51.5 -167.5t197.5 -53.5q77 0 140 21t111 72t60 128q18 115 -37 171.5t-200 56.5q-287 0 -323 -228zM492 1010q-16 -104 39 -151t163 -47q107 0 178 47t87 151q17 102 -32.5 151.5t-169.5 49.5q-119 0 -183.5 -49.5t-81.5 -151.5z" />
    <glyph glyph-name="nine" unicode="9" horiz-adv-x="1084" 
d="M669 467q-27 -3 -55 -3q-128 0 -226.5 63t-144 171t-25.5 235q31 197 190 334t357 137q96 0 177.5 -36.5t135 -98.5t76.5 -149.5t8 -184.5q-19 -122 -112 -252l-505 -683h-220zM413 932q-20 -125 44.5 -201.5t189.5 -76.5q124 0 212.5 76.5t108.5 202.5
q20 127 -43.5 202.5t-189.5 75.5t-214.5 -76.5t-107.5 -202.5z" />
    <glyph glyph-name="colon" unicode=":" horiz-adv-x="469" 
d="M374 886q-47 0 -75 34t-20 81q7 47 46 81t86 34t75.5 -34t21.5 -81q-8 -48 -47.5 -81.5t-86.5 -33.5zM134 89q8 47 46.5 80.5t85.5 33.5t75.5 -33t21.5 -81q-7 -47 -46.5 -80t-86.5 -33t-75.5 33t-20.5 80z" />
    <glyph glyph-name="semicolon" unicode=";" horiz-adv-x="557" 
d="M71 -206l198 406h163l4 -94l-168 -312h-197zM367 1001q7 46 46.5 80.5t85.5 34.5t75 -34t22 -81q-8 -48 -47.5 -81.5t-86.5 -33.5q-46 0 -74.5 33.5t-20.5 81.5z" />
    <glyph glyph-name="less" unicode="&#x3c;" horiz-adv-x="1021" 
d="M954 59l-802 423l22 134l935 422l-34 -220l-598 -269l512 -271z" />
    <glyph glyph-name="equal" unicode="=" horiz-adv-x="1094" 
d="M208 704l30 195h902l-30 -195h-902zM157 385l31 195h902l-31 -195h-902z" />
    <glyph glyph-name="greater" unicode="&#x3e;" horiz-adv-x="1021" 
d="M85 59l35 219l599 271l-513 269l34 220l803 -422l-22 -134z" />
    <glyph glyph-name="question" unicode="?" horiz-adv-x="1028" 
d="M423 220q12 78 20 122.5t23.5 97.5t34.5 87t51 78t75 85.5t105 94.5q81 68 118.5 124.5t48.5 126.5q16 104 -29 151.5t-157 47.5q-139 0 -212.5 -82.5t-94.5 -252.5h-194q16 228 168.5 379.5t363.5 151.5q130 0 217.5 -54t120.5 -142.5t16 -198.5q-34 -213 -252 -389
q-50 -42 -80.5 -69t-55.5 -60t-37 -53.5t-23.5 -64.5t-17 -76t-15.5 -104h-194zM382 52q8 47 46 80.5t86 33.5q47 0 75 -34t21 -80q-7 -48 -46 -80.5t-86 -32.5q-48 0 -75.5 32.5t-20.5 80.5z" />
    <glyph glyph-name="at" unicode="@" horiz-adv-x="1623" 
d="M723 -185q-100 0 -191.5 27.5t-169.5 82.5t-130 138.5t-72.5 195t1.5 252.5q24 150 92 283.5t163 230.5t209.5 168.5t235.5 107t236 35.5q191 0 328 -84t196 -234t29 -340q-30 -193 -124 -326.5t-220 -187.5l63 -133q-196 -128 -338 -172t-308 -44zM362 517
q-20 -126 1.5 -224.5t77 -159t135 -91.5t178.5 -31q127 0 222 26t213 97q-10 -1 -31 -1q-59 0 -115 18.5t-82 52.5q-109 -85 -230 -85q-39 0 -75.5 10t-74.5 33.5t-61 63t-34.5 99t3.5 141.5q22 143 100 268.5t195.5 203t245.5 77.5q70 0 72 20l11 -20q17 -24 53 -62l-6 25
l2 5h207l-187 -467q-34 -89 -42 -140q-6 -33 2.5 -40.5t50.5 -7.5q90 0 160 88t96 254q36 229 -68 349.5t-327 120.5q-85 0 -173.5 -26t-173.5 -79t-155 -126t-121 -174.5t-69 -217.5zM689 473q-15 -96 2.5 -127.5t77.5 -31.5q66 0 123.5 60t118.5 217l27 71q31 83 19.5 120
t-65.5 37q-102 0 -190.5 -97t-112.5 -249z" />
    <glyph glyph-name="A" unicode="A" horiz-adv-x="1169" 
d="M20 0l707 1394h156l266 -1394h-208l-80 426h-419l-215 -426h-207zM537 617h290l-79 418z" />
    <glyph glyph-name="B" unicode="B" horiz-adv-x="1211" 
d="M150 0l221 1394h515q196 0 295 -103t71 -279q-26 -162 -140 -267q140 -107 104 -337q-31 -197 -169.5 -302.5t-360.5 -105.5h-536zM374 191h342q152 0 219.5 48t87.5 169q18 116 -22 166t-149 50h-409zM473 816h369q96 0 148.5 47t68.5 145q16 103 -31.5 148.5
t-172.5 45.5h-321z" />
    <glyph glyph-name="C" unicode="C" horiz-adv-x="1329" 
d="M678 -12q-276 0 -417.5 194t-90.5 514q26 160 92.5 293t162.5 224.5t219 142t259 50.5h18q211 0 346 -116t166 -317l-192 -68q-43 306 -351 306h-18q-205 0 -336.5 -132.5t-171.5 -382.5q-40 -249 50 -381t295 -132h18q306 0 448 306l171 -68q-95 -200 -267 -316.5
t-383 -116.5h-18z" />
    <glyph glyph-name="D" unicode="D" horiz-adv-x="1235" 
d="M150 0l221 1394h326q329 0 484.5 -188t102.5 -520q-52 -326 -264 -506t-545 -180h-325zM374 191h127q263 0 405 119.5t182 375.5q42 264 -62.5 390t-360.5 126h-131z" />
    <glyph glyph-name="E" unicode="E" horiz-adv-x="1144" 
d="M150 0l221 1394h924l-31 -192h-730l-64 -404h669l-30 -191h-669l-66 -416h730l-30 -191h-924z" />
    <glyph glyph-name="F" unicode="F" horiz-adv-x="1144" 
d="M150 0l221 1394h924l-31 -192h-730l-64 -404h669l-30 -191h-669l-96 -607h-194z" />
    <glyph glyph-name="G" unicode="G" horiz-adv-x="1303" 
d="M678 -12q-277 0 -417.5 194t-89.5 516q51 320 253.5 514t478.5 194q214 0 347.5 -119t155.5 -323l-191 -71q-28 318 -343 318q-205 0 -336.5 -132.5t-170.5 -380.5q-40 -250 49.5 -382.5t294.5 -132.5q266 0 397 223l27 170h-441l31 192h634l-122 -768h-193l17 105
q-172 -117 -381 -117z" />
    <glyph glyph-name="H" unicode="H" horiz-adv-x="1224" 
d="M150 0l221 1394h194l-94 -592h535l94 592h195l-221 -1394h-195l97 610h-535l-97 -610h-194z" />
    <glyph glyph-name="I" unicode="I" horiz-adv-x="494" 
d="M150 0l221 1394h194l-221 -1394h-194z" />
    <glyph glyph-name="J" unicode="J" horiz-adv-x="1151" 
d="M132 515l14 92h197q-62 -230 27 -358q62 -91 175 -95q116 -4 216 86q118 108 148 297l136 857h193l-136 -859q-42 -263 -222 -417q-145 -123 -325 -134q-173 -11 -293 87q-141 116 -139 336q0 52 9 108z" />
    <glyph glyph-name="K" unicode="K" horiz-adv-x="1249" 
d="M150 0l221 1394h194l-100 -632l707 632h268l-683 -611l431 -783h-238l-351 643l-178 -158l-77 -485h-194z" />
    <glyph glyph-name="L" unicode="L" horiz-adv-x="1094" 
d="M150 0l221 1394h194l-191 -1203h730l-30 -191h-924z" />
    <glyph glyph-name="M" unicode="M" horiz-adv-x="1545" 
d="M150 0l221 1394h189l278 -981l591 981h187l-221 -1394h-192l144 907l-488 -810h-141l-230 810l-144 -907h-194z" />
    <glyph glyph-name="N" unicode="N" horiz-adv-x="1268" 
d="M150 0l221 1394h173l444 -990l157 990h194l-221 -1394h-175l-443 987l-156 -987h-194z" />
    <glyph glyph-name="O" unicode="O" horiz-adv-x="1379" 
d="M678 -12q-276 0 -417.5 194t-90.5 514q26 160 92.5 293t162.5 224.5t219 142t259 50.5h18q186 0 313 -89.5t177.5 -250.5t17.5 -370q-50 -316 -251 -512t-482 -196h-18zM364 696q-40 -249 50 -381t295 -132h18q207 0 338.5 132.5t170.5 380.5q40 250 -50 382.5
t-296 132.5h-18q-205 0 -336.5 -132.5t-171.5 -382.5z" />
    <glyph glyph-name="P" unicode="P" horiz-adv-x="1141" 
d="M150 0l221 1394h485q223 0 327.5 -105t73.5 -302v-2q-31 -197 -169 -302t-361 -105h-291l-92 -578h-194zM466 770h291q154 0 221 48t86 169q20 120 -32.5 167.5t-206.5 47.5h-291z" />
    <glyph glyph-name="Q" unicode="Q" horiz-adv-x="1393" 
d="M1089 111q-177 -123 -393 -123h-18q-276 0 -417.5 194t-90.5 514q26 160 92.5 293t162.5 224.5t219 142t259 50.5h18q186 0 313 -89.5t177.5 -250.5t17.5 -370q-41 -261 -191 -447l127 -146l-157 -136zM364 696q-40 -249 50 -381t295 -132h18q137 0 244 63l-224 265
l153 141l221 -263q86 122 115 307q40 250 -50 382.5t-296 132.5h-18q-205 0 -336.5 -132.5t-171.5 -382.5z" />
    <glyph glyph-name="R" unicode="R" horiz-adv-x="1197" 
d="M150 0l221 1394h485q223 0 327.5 -105t73.5 -302v-2q-25 -155 -117 -254t-240 -134l247 -597h-224l-238 578h-249l-92 -578h-194zM466 770h291q154 0 221 48t86 169q20 120 -32.5 167.5t-206.5 47.5h-291z" />
    <glyph glyph-name="S" unicode="S" horiz-adv-x="1138" 
d="M584 -24q-82 0 -154.5 19t-133.5 58t-100 98.5t-53 140.5t8 185h196q-35 -153 39 -230.5t230 -77.5q130 0 211 54t96 148q4 26 4.5 46t-4 38t-13 32t-24 27.5t-35 24t-48.5 22.5t-62 23t-78 24q-107 32 -177 65.5t-121 81.5t-67.5 113t-2.5 153q17 110 96 199.5
t190.5 137.5t230.5 48q77 0 141 -19.5t108 -54t76 -81.5t46 -101.5t17.5 -115t-9.5 -122.5h-193q18 150 -38.5 224.5t-179.5 74.5q-110 0 -190 -48t-94 -139q-4 -24 -4 -43t4.5 -36t12.5 -30t24.5 -25.5t35 -22.5t48.5 -22t62 -22t78 -24q103 -31 173 -66t121 -85
t68.5 -117.5t3.5 -156.5q-27 -170 -182.5 -284t-356.5 -114z" />
    <glyph glyph-name="T" unicode="T" horiz-adv-x="1166" 
d="M485 0l190 1202h-465l31 192h1126l-31 -192h-465l-190 -1202h-196z" />
    <glyph glyph-name="U" unicode="U" horiz-adv-x="1236" 
d="M216 515l139 879h192l-137 -866q-32 -201 65 -304q74 -79 189 -68q121 12 213 117q91 103 117 264l136 857h193l-136 -859q-42 -264 -224 -417q-145 -123 -324 -134q-173 -11 -293 87q-141 116 -139 336q0 52 9 108z" />
    <glyph glyph-name="V" unicode="V" horiz-adv-x="1262" 
d="M558 0l-327 1394h209l244 -1058l581 1058h208l-767 -1394h-148z" />
    <glyph glyph-name="W" unicode="W" horiz-adv-x="1722" 
d="M398 0l-167 1394h202l118 -992l442 931h157l149 -931l433 992h201l-609 -1394h-165l-149 940l-449 -940h-163z" />
    <glyph glyph-name="X" unicode="X" horiz-adv-x="1306" 
d="M30 0l614 708l-381 686h238l288 -524l458 524h235l-598 -686l392 -708h-238l-301 540l-471 -540h-236z" />
    <glyph glyph-name="Y" unicode="Y" horiz-adv-x="1171" 
d="M490 0l63 425l-332 969h219l248 -734l484 734h220l-648 -969l-62 -425h-192z" />
    <glyph glyph-name="Z" unicode="Z" horiz-adv-x="1057" 
d="M46 0l23 145l869 1057h-702l31 192h965l-23 -144l-871 -1059h703l-30 -191h-965z" />
    <glyph glyph-name="bracketleft" unicode="[" horiz-adv-x="591" 
d="M127 -143l267 1684h431l-31 -196h-234l-205 -1292h234l-31 -196h-431z" />
    <glyph glyph-name="backslash" unicode="\" horiz-adv-x="771" 
d="M537 -52l-262 1488h205l263 -1488h-206z" />
    <glyph glyph-name="bracketright" unicode="]" horiz-adv-x="589" 
d="M-13 -143l31 196h232l205 1292h-232l31 196h429l-267 -1684h-429z" />
    <glyph glyph-name="asciicircum" unicode="^" horiz-adv-x="1153" 
d="M191 382l510 868h151l232 -868h-217l-142 549l-320 -549h-214z" />
    <glyph glyph-name="underscore" unicode="_" horiz-adv-x="928" 
d="M7 -143l31 196h868l-31 -196h-868z" />
    <glyph glyph-name="grave" unicode="`" horiz-adv-x="1019" 
d="M644 1428l-166 353h239l136 -353h-209z" />
    <glyph glyph-name="a" unicode="a" horiz-adv-x="1082" 
d="M463 -10q-169 0 -257.5 90t-64.5 240q13 83 55 147t104 103q105 69 315 76l256 12q7 103 -45.5 148t-168.5 45q-96 0 -159 -40t-147 -154l-133 122q103 136 216 199t253 63q195 0 298.5 -111.5t72.5 -312.5l-98 -617h-192l14 89q-152 -99 -319 -99zM334 320
q-12 -74 25 -107.5t138 -33.5q125 0 224.5 79.5t119.5 205.5l1 6l-247 -10q-78 -2 -124 -10.5t-77 -29.5q-29 -19 -41 -39t-19 -61z" />
    <glyph glyph-name="b" unicode="b" horiz-adv-x="1184" 
d="M620 -10q-162 0 -269 102l-15 -92h-194l221 1394h194l-72 -453q139 100 302 100h25q135 0 233.5 -68t141 -188t19.5 -268q-36 -223 -196 -375t-365 -152h-25zM416 517q-25 -155 37.5 -244.5t193.5 -89.5h26q133 0 224.5 89t116.5 245t-38 244.5t-197 88.5h-26
q-132 0 -222 -88.5t-115 -244.5z" />
    <glyph glyph-name="c" unicode="c" horiz-adv-x="1063" 
d="M539 -10q-139 0 -238 68t-141 188t-18 271q36 230 193 377t371 147h16q159 0 264 -84.5t132 -229.5l-190 -76q-22 104 -77.5 152t-158.5 48h-16q-138 0 -226.5 -86.5t-113.5 -247.5t36 -248.5t198 -87.5h16q103 0 174.5 49t128.5 153l162 -78q-76 -144 -208 -229.5
t-288 -85.5h-16z" />
    <glyph glyph-name="d" unicode="d" horiz-adv-x="1185" 
d="M537 -10q-136 0 -234.5 69.5t-141 190.5t-19.5 267q17 110 69 207.5t126.5 167t169.5 109.5t197 40h24q163 0 271 -100l72 453h193l-221 -1394h-193l15 92q-145 -102 -304 -102h-24zM336 517q-25 -156 38 -245t197 -89h25q132 0 222.5 89.5t115.5 244.5q25 156 -37 244.5
t-195 88.5h-25q-134 0 -225 -88.5t-116 -244.5z" />
    <glyph glyph-name="e" unicode="e" horiz-adv-x="1063" 
d="M539 -10q-139 0 -238 68t-141 188t-18 271q40 253 216 398q142 117 318 124q169 7 284 -93q139 -120 131 -343q-3 -79 -25 -166h-738q-1 -125 60.5 -190.5t181.5 -65.5h16q103 0 174.5 49t128.5 153l162 -78q-76 -144 -208 -229.5t-288 -85.5h-16zM364 624h531
q-5 78 -38 134.5t-81.5 82.5t-108 26t-116 -26t-107 -82.5t-80.5 -134.5z" />
    <glyph glyph-name="f" unicode="f" horiz-adv-x="797" 
d="M260 0l134 844h-230l29 188h230l12 70q22 144 110 223t216 79h12q139 0 213 -87l-98 -156q-14 7 -33.5 17.5t-27 14t-19.5 9t-20 7t-19 3t-25 1.5h-11q-55 0 -75 -20t-31 -91l-12 -70h231l-29 -188h-231l-134 -844h-192z" />
    <glyph glyph-name="g" unicode="g" horiz-adv-x="1184" 
d="M495 -366q-184 0 -290 107.5t-97 291.5h194q2 -107 56 -157.5t167 -50.5h27q124 0 204 66.5t137 216.5q-53 -50 -144.5 -85t-187.5 -35h-10q-143 0 -249 78l-20 16q-86 72 -123.5 185.5t-16.5 247.5q17 110 69 207.5t126.5 167t169.5 109.5t197 40h24q163 0 271 -100
l15 95h193l-138 -868q-39 -250 -187 -391t-360 -141h-27zM336 515q-25 -156 38 -245t197 -89h25q122 0 208.5 77t120.5 216l13 81q10 139 -52.5 216t-184.5 77h-25q-134 0 -224.5 -88.5t-115.5 -244.5z" />
    <glyph glyph-name="h" unicode="h" horiz-adv-x="1117" 
d="M142 0l221 1394h194l-66 -415q109 62 258 62q205 0 290.5 -112.5t51.5 -321.5l-96 -607h-192l95 597q23 149 -13 201.5t-166 52.5q-133 0 -203 -77t-100 -268l-80 -506h-194z" />
    <glyph glyph-name="i" unicode="i" horiz-adv-x="469" 
d="M139 0l163 1032h194l-163 -1032h-194zM316 1238q8 47 46.5 80.5t85.5 33.5t75.5 -33t21.5 -81q-7 -47 -46.5 -80t-86.5 -33t-75.5 33t-20.5 80z" />
    <glyph glyph-name="j" unicode="j" horiz-adv-x="467" 
d="M-21 -370q-144 0 -212 86l100 158l27.5 -16.5t23 -14t17 -9.5t17 -7.5t15.5 -4t19 -3t21 -0.5h13q55 0 74.5 20.5t30.5 90.5l174 1102h194l-174 -1102q-23 -144 -111 -222t-216 -78h-13zM316 1238q8 47 46.5 80.5t85.5 33.5t75.5 -33t21.5 -81q-7 -47 -46.5 -80
t-86.5 -33t-75.5 33t-20.5 80z" />
    <glyph glyph-name="k" unicode="k" horiz-adv-x="1034" 
d="M142 0l221 1394h194l-123 -775l465 413h268l-460 -408l296 -624h-229l-227 484l-156 -139l-55 -345h-194z" />
    <glyph glyph-name="l" unicode="l" horiz-adv-x="474" 
d="M434 1q-138 -31 -207.5 32t-46.5 210l183 1151h194l-182 -1147q-7 -44 5.5 -57t71.5 -5z" />
    <glyph glyph-name="m" unicode="m" horiz-adv-x="1545" 
d="M142 0l163 1032h194l-7 -44q90 53 199 53q178 0 250 -124q122 124 292 124q96 0 161 -36.5t94 -99.5t37 -147t-10 -178l-92 -580h-195l91 576q16 94 7 164q-8 65 -33.5 88t-95.5 23q-47 0 -90 -25q-54 -33 -88.5 -96.5t-51.5 -174.5l-88 -555h-194l95 597
q23 149 -3.5 201.5t-120.5 52.5q-44 0 -89 -27q-110 -71 -147 -304l-82 -520h-196z" />
    <glyph glyph-name="n" unicode="n" horiz-adv-x="1117" 
d="M142 0l163 1032h194l-8 -53q109 62 258 62q205 0 290.5 -112.5t51.5 -321.5l-96 -607h-192l95 597q23 149 -13 201.5t-166 52.5q-133 0 -203 -77t-100 -268l-80 -506h-194z" />
    <glyph glyph-name="o" unicode="o" 
d="M539 -10q-139 0 -238 68t-141 188t-18 271q36 230 193 377t371 147h16q213 0 323 -146.5t74 -377.5q-36 -230 -194 -378.5t-370 -148.5h-16zM336 517q-25 -161 36 -248.5t198 -87.5h16q138 0 226 87.5t114 248.5q25 161 -35.5 247.5t-198.5 86.5h-16q-138 0 -226.5 -86.5
t-113.5 -247.5z" />
    <glyph glyph-name="p" unicode="p" horiz-adv-x="1184" 
d="M85 -362l220 1394h194l-14 -92q140 101 302 101h25q136 0 234.5 -69.5t140.5 -189.5t19 -267q-35 -223 -195.5 -374t-365.5 -151h-25q-161 0 -270 101l-71 -453h-194zM416 515q-25 -156 37 -244t194 -88h26q133 0 224.5 88.5t116.5 243.5q25 156 -38.5 245.5t-196.5 89.5
h-26q-131 0 -221.5 -89.5t-115.5 -245.5z" />
    <glyph glyph-name="q" unicode="q" horiz-adv-x="1185" 
d="M864 91q-140 -101 -303 -101h-24q-135 0 -234 68.5t-142 189t-19 267.5q35 223 195.5 374.5t366.5 151.5h24q161 0 271 -101l14 92h193l-220 -1394h-193zM336 515q-25 -155 38 -243.5t197 -88.5h25q133 0 223 88t115 244t-37.5 245.5t-194.5 89.5h-25q-134 0 -225 -89.5
t-116 -245.5z" />
    <glyph glyph-name="r" unicode="r" horiz-adv-x="849" 
d="M142 0l163 1032h194l-8 -53q109 62 258 62q136 0 208 -44l-70 -181q-37 13 -56 19t-49 11t-63 5q-133 0 -203 -77t-100 -268l-80 -506h-194z" />
    <glyph glyph-name="s" unicode="s" horiz-adv-x="982" 
d="M502 -14q-88 0 -160.5 24.5t-127 77t-73 134t0.5 195.5h192q-11 -95 8.5 -147.5t65 -71.5t128.5 -19q191 0 207 108q5 15 2.5 28.5t-4 23.5t-13.5 19t-25.5 16t-40 15t-56.5 15.5t-76 17.5q-52 11 -94 25t-84.5 39t-69.5 56.5t-39.5 79t-3.5 104.5q21 133 140 219.5
t277 86.5q81 0 145.5 -23t104 -62t64.5 -91.5t28 -111.5t-5 -122h-189q-2 128 -38.5 173t-141.5 45q-170 0 -187 -112q-7 -49 29.5 -72t142.5 -46q184 -39 269 -111.5t64 -209.5q-22 -137 -147.5 -220t-292.5 -83z" />
    <glyph glyph-name="t" unicode="t" horiz-adv-x="692" 
d="M663 8q-193 -50 -296 25.5t-74 256.5l88 554h-217l29 188h217l57 360h193l-57 -360h222l-29 -188h-222l-88 -554q-10 -64 1.5 -86.5t60 -25t144.5 11.5z" />
    <glyph glyph-name="u" unicode="u" 
d="M530 -10q-204 0 -289 113t-52 323l96 606h193l-94 -597q-23 -149 13 -201.5t164 -52.5q134 0 203.5 76.5t99.5 268.5l80 506h194l-163 -1032h-194l8 52q-107 -62 -259 -62z" />
    <glyph glyph-name="v" unicode="v" horiz-adv-x="1048" 
d="M452 0l-259 1032h211l170 -701l394 701h213l-585 -1032h-144z" />
    <glyph glyph-name="w" unicode="w" horiz-adv-x="1452" 
d="M331 0l-124 1032h203l76 -642l328 642h153l125 -640l278 640h201l-448 -1032h-161l-128 673l-346 -673h-157z" />
    <glyph glyph-name="x" unicode="x" horiz-adv-x="1085" 
d="M20 0l481 515l-318 517h243l222 -360l333 360h245l-480 -517l319 -515h-245l-220 360l-335 -360h-245z" />
    <glyph glyph-name="y" unicode="y" horiz-adv-x="1050" 
d="M214 -135q25 -16 38 -23t22.5 -12t15 0t8.5 9t10 19t13 26l113 198l-241 950h211l173 -700l397 700h209l-697 -1224q-78 -138 -178.5 -167.5t-199.5 54.5z" />
    <glyph glyph-name="z" unicode="z" horiz-adv-x="936" 
d="M46 0l23 146l676 696h-566l30 190h844l-23 -151l-669 -690h559l-30 -191h-844z" />
    <glyph glyph-name="braceleft" unicode="{" horiz-adv-x="614" 
d="M471 -143q-134 0 -209.5 67t-53.5 210q10 55 49 196q38 119 48 183q5 31 3 47.5t-15.5 29t-41.5 12.5t-76 -3l32 201q89 -10 118.5 8t38.5 77q11 66 10 184q5 144 14 197q12 73 45 128t82 86t104.5 46t118.5 15h110l-31 -196h-112q-70 0 -92 -13t-30 -65q-3 -14 -7 -158
q-4 -151 -16 -224q-16 -111 -93 -185q53 -76 34 -187q-10 -72 -55 -223q-8 -30 -17 -60t-13 -43.5t-7.5 -28t-5.5 -26.5q-8 -52 9.5 -65.5t87.5 -13.5h112l-31 -196h-110z" />
    <glyph glyph-name="bar" unicode="|" horiz-adv-x="576" 
d="M134 -355l306 1931h196l-306 -1931h-196z" />
    <glyph glyph-name="braceright" unicode="}" horiz-adv-x="614" 
d="M-13 -143l31 196h111q70 0 92 13.5t30 65.5q6 39 8 158q2 144 14 223q18 112 94 185q-52 77 -35 187q13 79 57 224q36 126 42 158q8 52 -9 65t-88 13h-111l31 196h109q134 0 210.5 -66.5t54.5 -208.5q-10 -61 -53 -197q-34 -121 -45 -184q-10 -59 14 -77t117 -8l-32 -201
q-90 9 -119.5 -8.5t-38.5 -77.5q-9 -61 -13 -183q0 -139 -10 -196q-15 -98 -70 -162t-125.5 -89.5t-156.5 -25.5h-109z" />
    <glyph glyph-name="asciitilde" unicode="~" horiz-adv-x="1111" 
d="M175 406q8 179 85.5 272.5t199.5 93.5q61 0 111 -19t141 -75q77 -47 104 -58.5t55 -11.5q31 0 39.5 24.5t20.5 145.5h195q-10 -179 -87.5 -272t-200.5 -93q-60 0 -109 18.5t-143 75.5q-73 44 -101.5 56.5t-57.5 12.5q-30 0 -38 -24.5t-21 -145.5h-193z" />
    <glyph glyph-name="uni00A0" unicode="&#xa0;" horiz-adv-x="342" 
 />
    <glyph glyph-name="exclamdown" unicode="&#xa1;" horiz-adv-x="568" 
d="M131 -301l196 1186h193l-181 -1186h-208zM338 1061q8 47 46 80.5t86 33.5q47 0 75 -33.5t21 -80.5q-7 -48 -46 -81t-86 -33q-48 0 -76 33.5t-20 80.5z" />
    <glyph glyph-name="cent" unicode="&#xa2;" horiz-adv-x="1104" 
d="M462 -16q-168 36 -254.5 187.5t-50.5 377.5q34 217 169 368t315 192l23 148h197l-22 -141q165 -27 247.5 -155.5t50.5 -310.5h-195q13 117 -19 182.5t-115 87.5l-117 -737q169 49 212 252h196q-32 -177 -153 -298.5t-287 -152.5l-22 -143h-197zM358 557
q-47 -298 137 -370l113 719q-94 -36 -161 -123t-89 -226z" />
    <glyph glyph-name="sterling" unicode="&#xa3;" horiz-adv-x="1020" 
d="M78 178q283 48 318 264q13 82 -29 182h-203l31 195h98q-21 98 -6 189q27 174 163 286t310 112q89 0 156.5 -27t107 -74t61.5 -111t21 -138t-14 -155h-196q30 170 -7.5 240t-163.5 70q-95 0 -158.5 -51.5t-78.5 -149.5q-8 -52 -2 -94t27 -97h450l-31 -195h-343
q22 -93 8 -182q-21 -136 -121 -247h505l-31 -195h-900z" />
    <glyph glyph-name="currency" unicode="&#xa4;" horiz-adv-x="1244" 
d="M338 157l-116 140l126 110q-37 95 -19 205q19 116 85 207l-93 109l163 139l92 -109q101 53 207 53t191 -53l126 110l117 -140l-126 -110q37 -93 19 -206t-85 -205l92 -110l-161 -140l-92 110q-99 -52 -207 -52q-107 0 -191 52zM529 612q-16 -97 25 -150t134 -53
q92 0 148.5 53t72.5 150q16 98 -24.5 151t-132.5 53t-149.5 -53t-73.5 -151z" />
    <glyph glyph-name="yen" unicode="&#xa5;" horiz-adv-x="1229" 
d="M518 0l48 306h-326l31 194h326l11 69h-326l31 195h240l-294 617h241l250 -540l421 540h237l-488 -617h243l-31 -195h-327l-11 -69h327l-31 -194h-327l-48 -306h-197z" />
    <glyph glyph-name="brokenbar" unicode="&#xa6;" horiz-adv-x="576" 
d="M145 -284l121 761h196l-121 -761h-196zM288 621l121 760h196l-121 -760h-196z" />
    <glyph glyph-name="section" unicode="&#xa7;" horiz-adv-x="1136" 
d="M509 -308q-188 0 -283.5 112t-82.5 338h196q1 -146 46 -201t159 -55q191 0 212 124q9 55 -4.5 84.5t-68.5 54.5t-176 52q-65 14 -124 42t-111.5 71.5t-78 110.5t-12.5 148q30 194 214 294q-66 88 -47 209q24 148 143 239t278 91q81 0 145 -23.5t102.5 -65t63 -96.5
t28.5 -118t-1 -130h-190q-5 139 -41 188.5t-139 49.5q-83 0 -130 -30.5t-58 -98.5q-11 -72 42 -109t165 -57q90 -17 161 -46.5t125.5 -74t78 -110.5t10.5 -147q-16 -102 -76 -177t-148 -121q72 -86 50 -226q-23 -146 -150.5 -234t-297.5 -88zM381 577q-11 -70 44.5 -115.5
t159.5 -67.5q62 -12 103 -25q216 9 242 166q11 74 -45 115t-207 72q-35 5 -82 20q-93 -11 -147.5 -47.5t-67.5 -117.5z" />
    <glyph glyph-name="dieresis" unicode="&#xa8;" horiz-adv-x="797" 
d="M765 1486q-47 0 -75 33.5t-21 80.5q8 47 47 81t86 34t75 -34t20 -81q-7 -47 -46 -80.5t-86 -33.5zM408 1600q8 47 47 81t86 34t75 -34t20 -81q-7 -47 -46 -80.5t-86 -33.5t-75 33.5t-21 80.5z" />
    <glyph glyph-name="copyright" unicode="&#xa9;" horiz-adv-x="1587" 
d="M793 -9q-145 0 -267 56.5t-200.5 152.5t-112.5 229t-11 281q23 147 99.5 279.5t185.5 228t248.5 151.5t284.5 56q144 0 265.5 -56t200 -151.5t112.5 -228t11 -279.5q-31 -197 -150.5 -362.5t-296 -261t-369.5 -95.5zM360 710q-38 -241 93 -400.5t365 -159.5
q233 0 413.5 159.5t218.5 400.5q19 117 -6 221t-85.5 177.5t-154.5 116.5t-209 43q-154 0 -290.5 -72.5t-228 -200.5t-116.5 -285zM534 710q31 192 158.5 310t286.5 118q152 0 237.5 -95t56.5 -268h-153q6 109 -30.5 158.5t-134.5 49.5q-104 0 -174 -76t-89 -195
q-20 -126 26 -199t144 -73q97 0 151 46.5t85 158.5h157q-39 -175 -153 -268t-271 -93q-151 0 -239 117.5t-58 308.5z" />
    <glyph glyph-name="ordfeminine" unicode="&#xaa;" horiz-adv-x="869" 
d="M430 622q-127 0 -194.5 68t-49.5 183q20 125 122 192q14 10 32 18l-107 100q79 111 165 161.5t195 50.5q128 0 204.5 -67.5t75.5 -189.5l81 4l-81 -27q-1 -11 -5 -35l-72 -453h-183l7 41q-94 -46 -190 -46zM368 873q-7 -43 11.5 -58t81.5 -15q71 0 131.5 40.5
t103.5 113.5l-174 -10q-96 -3 -126 -23q-16 -11 -20 -17.5t-8 -30.5zM376 1098q61 20 165 24l148 7q-1 49 -30 68t-94 19q-60 0 -96.5 -22.5t-92.5 -95.5z" />
    <glyph glyph-name="guillemotleft" unicode="&#xab;" horiz-adv-x="1378" 
d="M620 146l-250 373l368 373h257l-369 -373l248 -373h-254zM734 519l365 373h256l-366 -373l248 -373h-256z" />
    <glyph glyph-name="logicalnot" unicode="&#xac;" horiz-adv-x="997" 
d="M719 372l38 238h-584l30 194h781l-68 -432h-197z" />
    <glyph glyph-name="registered" unicode="&#xae;" horiz-adv-x="975" 
d="M590 646q-191 0 -295 123.5t-73 315.5q30 189 173 311.5t334 122.5q190 0 294 -123t74 -311q-31 -192 -173.5 -315.5t-333.5 -123.5zM352 1085q-23 -144 47 -229t211 -85t238 85t120 229q23 141 -47.5 225t-211.5 84t-237.5 -84t-119.5 -225zM455 845l73 462h173
q75 0 114.5 -39t27.5 -110q-14 -89 -88 -128l78 -185h-146l-67 163h-14l-26 -163h-125zM626 1134h48q31 0 36.5 3t7.5 21q3 18 -1.5 21t-35.5 3h-48z" />
    <glyph glyph-name="macron" unicode="&#xaf;" horiz-adv-x="742" 
d="M405 1499l31 194h406l-31 -194h-406z" />
    <glyph glyph-name="degree" unicode="&#xb0;" horiz-adv-x="719" 
d="M501 890q-111 0 -174 74t-45 185q17 110 103.5 183.5t197.5 73.5t173 -73.5t45 -183.5q-18 -112 -103.5 -185.5t-196.5 -73.5zM481 1149q-6 -40 3.5 -51.5t47.5 -11.5q39 0 52.5 12t19.5 51q6 38 -4 50t-48 12t-51.5 -12t-19.5 -50z" />
    <glyph glyph-name="plusminus" unicode="&#xb1;" horiz-adv-x="1020" 
d="M444 207l59 371h-335l31 196h335l59 372h197l-59 -372h336l-31 -196h-336l-59 -371h-197zM70 -37l31 196h868l-31 -196h-868z" />
    <glyph glyph-name="uni00B2" unicode="&#xb2;" horiz-adv-x="913" 
d="M286 865l20 129l333 266q75 61 110.5 98t46.5 60.5t18 64.5q8 54 -12 75t-83 21t-98.5 -27t-52.5 -90l-14 -88h-198l33 102q34 125 134 203.5t224 78.5q137 0 202 -79.5t47 -195.5q-14 -89 -70.5 -171t-178.5 -177l-113 -91h328l-28 -179h-648z" />
    <glyph glyph-name="uni00B3" unicode="&#xb3;" horiz-adv-x="901" 
d="M579 859q-83 0 -146 29t-95.5 79.5t-38.5 118.5t25 146h178q-42 -105 -19 -150t124 -45q81 0 119 26.5t47 85.5q8 55 -21 79t-111 24q-42 0 -129 -13l23 143l191 196h-343l28 180h624l-19 -125l-216 -220q81 -32 121 -103t26 -161q-20 -128 -123.5 -209t-244.5 -81z" />
    <glyph glyph-name="acute" unicode="&#xb4;" horiz-adv-x="1019" 
d="M618 1428l248 353h239l-275 -353h-212z" />
    <glyph glyph-name="paragraph" unicode="&#xb6;" horiz-adv-x="1112" 
d="M549 568q-25 0 -65 2q-110 6 -182.5 65t-98 147.5t-9.5 192.5q12 76 46.5 146t87 126t126.5 91.5t158 40.5q32 2 104 2h425l-250 -1576h-197l219 1382h-69l-219 -1382h-197z" />
    <glyph glyph-name="periodcentered" unicode="&#xb7;" horiz-adv-x="475" 
d="M317 502q-49 0 -78 34t-21 83q8 50 47.5 84.5t88.5 34.5q51 0 79 -34.5t20 -84.5q-8 -49 -46.5 -83t-89.5 -34z" />
    <glyph glyph-name="cedilla" unicode="&#xb8;" horiz-adv-x="931" 
d="M344 -404q-116 0 -164 56l27 174q35 -24 70 -37t62.5 -15t49.5 3t35 16.5t15 26.5q4 23 -11 27q-25 8 -211 -15h-1l-1 -1h-1h-1h-2l225 338h221l-109 -162q56 -28 78 -77.5t11 -110.5q-12 -76 -63 -128.5t-110 -73.5t-120 -21z" />
    <glyph glyph-name="uni00B9" unicode="&#xb9;" horiz-adv-x="603" 
d="M384 874l101 632l-209 -119l35 220l270 149h130l-140 -882h-187z" />
    <glyph glyph-name="ordmasculine" unicode="&#xba;" horiz-adv-x="814" 
d="M502 632q-156 0 -238.5 109.5t-56.5 277.5q26 167 143 276.5t275 109.5h10q157 0 238.5 -109.5t55.5 -276.5q-26 -168 -143 -277.5t-274 -109.5h-10zM390 1019q-32 -206 141 -206h10q88 0 138.5 50.5t66.5 155.5q33 204 -140 204h-10q-173 0 -206 -204z" />
    <glyph glyph-name="guillemotright" unicode="&#xbb;" horiz-adv-x="1378" 
d="M804 146h-254l366 373l-251 373h257l250 -373zM187 146l366 373l-248 373h256l247 -373l-365 -373h-256z" />
    <glyph glyph-name="questiondown" unicode="&#xbf;" horiz-adv-x="1027" 
d="M777 873q-12 -78 -20 -122.5t-23.5 -97.5t-34.5 -87t-51 -78t-75 -85.5t-105 -94.5q-81 -68 -118.5 -124.5t-48.5 -126.5q-16 -104 29 -151.5t158 -47.5q139 0 212.5 82.5t94.5 252.5h194q-11 -150 -84.5 -271.5t-191.5 -190.5t-257 -69q-130 0 -217.5 54t-120.5 142.5
t-16 198.5q34 213 252 389q38 31 63 53t48 47.5t36 40.5t26 43.5t19 44.5t13.5 54.5t11.5 63t12 80.5h194zM590 1041q7 48 46 80.5t86 32.5q48 0 75.5 -32.5t20.5 -80.5q-8 -47 -46 -80.5t-86 -33.5q-47 0 -75 34t-21 80z" />
    <glyph glyph-name="Agrave" unicode="&#xc0;" horiz-adv-x="1169" 
d="M20 0l707 1394h156l266 -1394h-208l-80 426h-419l-215 -426h-207zM537 617h290l-79 418zM590 1762h242l132 -323h-211z" />
    <glyph glyph-name="Aacute" unicode="&#xc1;" horiz-adv-x="1169" 
d="M20 0l707 1394h156l266 -1394h-208l-80 426h-419l-215 -426h-207zM537 617h290l-79 418zM656 1439l234 323h244l-265 -323h-213z" />
    <glyph glyph-name="Acircumflex" unicode="&#xc2;" horiz-adv-x="1169" 
d="M20 0l707 1394h156l266 -1394h-208l-80 426h-419l-215 -426h-207zM528 1439l275 323h123l176 -323h-236l-40 78l-64 -78h-234zM537 617h290l-79 418z" />
    <glyph glyph-name="Atilde" unicode="&#xc3;" horiz-adv-x="1169" 
d="M20 0l707 1394h156l266 -1394h-208l-80 426h-419l-215 -426h-207zM537 617h290l-79 418zM601 1507q-9 83 34 143t121 60q48 0 122 -30q28 -8 34 -10l8 32h151q11 -91 -34 -147t-119 -56q-49 0 -123 28l-33 12l-8 -32h-153z" />
    <glyph glyph-name="Adieresis" unicode="&#xc4;" horiz-adv-x="1169" 
d="M20 0l707 1394h156l266 -1394h-208l-80 426h-419l-215 -426h-207zM537 617h290l-79 418zM598 1600q8 47 47 81t86 34t75 -34t20 -81q-7 -47 -46 -80.5t-86 -33.5t-75 33.5t-21 80.5zM859 1600q8 47 47 81t86 34t75 -34t20 -81q-7 -47 -46 -80.5t-86 -33.5t-75 33.5
t-21 80.5z" />
    <glyph glyph-name="Aring" unicode="&#xc5;" horiz-adv-x="1169" 
d="M20 0l707 1394h156l266 -1394h-208l-80 426h-419l-215 -426h-207zM537 617h290l-79 418zM648 1600q14 83 79 135t142 52t125.5 -52t34.5 -135q-13 -83 -77.5 -135t-141.5 -52t-126 52t-36 135zM817 1600q-2 -12 2 -16t17 -4t18 4t6 16q2 13 -1 16t-17 3t-18.5 -3
t-6.5 -16z" />
    <glyph glyph-name="AE" unicode="&#xc6;" horiz-adv-x="1605" 
d="M6 0l707 1394h1043l-31 -192h-731l-64 -404h669l-30 -191h-669l-66 -416h731l-30 -191h-924l67 426h-249l-214 -426h-209zM526 617h183l84 529z" />
    <glyph glyph-name="Ccedilla" unicode="&#xc7;" horiz-adv-x="1329" 
d="M578 -400q-116 0 -164 56l27 174q35 -24 70 -37t62.5 -15t49.5 3t35 16.5t15 26.5q4 23 -11 28q-24 8 -201 -16h-1h-1h-1l-1 -1h-1h-1h-1h-1h-1h-1h-1l-1 -1h-1h-1h-1l108 167q-219 43 -324 228.5t-60 466.5q26 160 92.5 293t162.5 224.5t219 142t259 50.5h18
q211 0 346 -116t166 -317l-192 -68q-43 306 -351 306h-18q-205 0 -336.5 -132.5t-171.5 -382.5q-40 -249 50 -381t295 -132h18q306 0 448 306l171 -68q-81 -172 -220.5 -283t-314.5 -140q78 -56 60 -174q-9 -58 -40.5 -103t-74.5 -70.5t-88.5 -38t-89.5 -12.5z" />
    <glyph glyph-name="Egrave" unicode="&#xc8;" horiz-adv-x="1144" 
d="M150 0l221 1394h924l-31 -192h-730l-64 -404h669l-30 -191h-669l-66 -416h730l-30 -191h-924zM585 1762h243l132 -323h-209z" />
    <glyph glyph-name="Eacute" unicode="&#xc9;" horiz-adv-x="1144" 
d="M150 0l221 1394h924l-31 -192h-730l-64 -404h669l-30 -191h-669l-66 -416h730l-30 -191h-924zM653 1439l234 323h242l-264 -323h-212z" />
    <glyph glyph-name="Ecircumflex" unicode="&#xca;" horiz-adv-x="1144" 
d="M150 0l221 1394h924l-31 -192h-730l-64 -404h669l-30 -191h-669l-66 -416h730l-30 -191h-924zM525 1439l275 323h123l173 -323h-236l-39 77l-63 -77h-233z" />
    <glyph glyph-name="Edieresis" unicode="&#xcb;" horiz-adv-x="1144" 
d="M150 0l221 1394h924l-31 -192h-730l-64 -404h669l-30 -191h-669l-66 -416h730l-30 -191h-924zM598 1600q8 47 47 81t86 34t75 -34t20 -81q-7 -47 -46 -80.5t-86 -33.5t-75 33.5t-21 80.5zM859 1600q8 47 47 81t86 34t75 -34t20 -81q-7 -47 -46 -80.5t-86 -33.5t-75 33.5
t-21 80.5z" />
    <glyph glyph-name="Igrave" unicode="&#xcc;" horiz-adv-x="443" 
d="M60 0l221 1394h192l-221 -1394h-192zM161 1762h242l132 -323h-211z" />
    <glyph glyph-name="Iacute" unicode="&#xcd;" horiz-adv-x="444" 
d="M196 0l221 1394h192l-221 -1394h-192zM364 1439l235 323h242l-267 -323h-210z" />
    <glyph glyph-name="Icircumflex" unicode="&#xce;" horiz-adv-x="327" 
d="M67 0l221 1394h193l-221 -1394h-193zM106 1439l275 323h124l174 -323h-235l-41 77l-63 -77h-234z" />
    <glyph glyph-name="Idieresis" unicode="&#xcf;" horiz-adv-x="297" 
d="M56 0l221 1394h193l-221 -1394h-193zM158 1600q8 47 47 81t86 34t75 -34t20 -81q-7 -47 -46 -80.5t-86 -33.5t-75 33.5t-21 80.5zM419 1600q8 47 47 81t86 34t75 -34t20 -81q-7 -47 -46 -80.5t-86 -33.5t-75 33.5t-21 80.5z" />
    <glyph glyph-name="Eth" unicode="&#xd0;" horiz-adv-x="1213" 
d="M128 0l91 573h-98l31 195h98l99 626h325q329 0 485 -188t103 -520q-52 -326 -264.5 -506t-546.5 -180h-323zM351 191h127q263 0 404.5 119t182.5 376q42 264 -63 390t-361 126h-130l-68 -434h340l-31 -195h-340z" />
    <glyph glyph-name="Ntilde" unicode="&#xd1;" horiz-adv-x="1268" 
d="M150 0l221 1394h173l444 -990l157 990h194l-221 -1394h-175l-443 987l-156 -987h-194zM645 1507q-9 83 34 143t121 60q48 0 122 -30q28 -8 34 -10l8 32h151q11 -91 -34 -147t-119 -56q-49 0 -123 28l-33 12l-8 -32h-153z" />
    <glyph glyph-name="Ograve" unicode="&#xd2;" horiz-adv-x="1379" 
d="M677 -16q-136 0 -243.5 50t-173.5 142t-92 222.5t1 291.5q26 160 92.5 293t162.5 224.5t219 142t259 50.5h18q186 0 313 -89.5t177.5 -250.5t17.5 -370q-50 -316 -251.5 -511t-481.5 -195h-18zM363 690q-39 -248 51 -380.5t294 -132.5h18q207 0 338.5 132.5t170.5 380.5
q40 250 -50 382.5t-296 132.5h-18q-205 0 -336.5 -132.5t-171.5 -382.5zM699 1762h242l132 -323h-211z" />
    <glyph glyph-name="Oacute" unicode="&#xd3;" horiz-adv-x="1379" 
d="M677 -16q-136 0 -243.5 50t-173.5 142t-92 222.5t1 291.5q26 160 92.5 293t162.5 224.5t219 142t259 50.5h18q186 0 313 -89.5t177.5 -250.5t17.5 -370q-50 -316 -251.5 -511t-481.5 -195h-18zM363 690q-39 -248 51 -380.5t294 -132.5h18q207 0 338.5 132.5t170.5 380.5
q40 250 -50 382.5t-296 132.5h-18q-205 0 -336.5 -132.5t-171.5 -382.5zM765 1439l235 323h243l-266 -323h-212z" />
    <glyph glyph-name="Ocircumflex" unicode="&#xd4;" horiz-adv-x="1379" 
d="M677 -16q-136 0 -243.5 50t-173.5 142t-92 222.5t1 291.5q26 160 92.5 293t162.5 224.5t219 142t259 50.5h18q186 0 313 -89.5t177.5 -250.5t17.5 -370q-50 -316 -251.5 -511t-481.5 -195h-18zM363 690q-39 -248 51 -380.5t294 -132.5h18q207 0 338.5 132.5t170.5 380.5
q40 250 -50 382.5t-296 132.5h-18q-205 0 -336.5 -132.5t-171.5 -382.5zM636 1439l276 323h123l174 -323h-235l-40 77l-64 -77h-234z" />
    <glyph glyph-name="Otilde" unicode="&#xd5;" horiz-adv-x="1379" 
d="M677 -16q-136 0 -243.5 50t-173.5 142t-92 222.5t1 291.5q26 160 92.5 293t162.5 224.5t219 142t259 50.5h18q186 0 313 -89.5t177.5 -250.5t17.5 -370q-50 -316 -251.5 -511t-481.5 -195h-18zM363 690q-39 -248 51 -380.5t294 -132.5h18q207 0 338.5 132.5t170.5 380.5
q40 250 -50 382.5t-296 132.5h-18q-205 0 -336.5 -132.5t-171.5 -382.5zM721 1507q-9 83 34 143t121 60q49 0 122 -30q28 -8 34 -10l8 32h151q11 -91 -34 -147t-119 -56q-49 0 -123 28l-33 12l-8 -32h-153z" />
    <glyph glyph-name="Odieresis" unicode="&#xd6;" horiz-adv-x="1379" 
d="M677 -16q-136 0 -243.5 50t-173.5 142t-92 222.5t1 291.5q26 160 92.5 293t162.5 224.5t219 142t259 50.5h18q186 0 313 -89.5t177.5 -250.5t17.5 -370q-50 -316 -251.5 -511t-481.5 -195h-18zM363 690q-39 -248 51 -380.5t294 -132.5h18q207 0 338.5 132.5t170.5 380.5
q40 250 -50 382.5t-296 132.5h-18q-205 0 -336.5 -132.5t-171.5 -382.5zM701 1600q8 47 47 81t86 34t75 -34t20 -81q-7 -47 -46 -80.5t-86 -33.5t-75 33.5t-21 80.5zM962 1600q8 47 47 81t86 34t75 -34t20 -81q-7 -47 -46 -80.5t-86 -33.5t-75 33.5t-21 80.5z" />
    <glyph glyph-name="multiply" unicode="&#xd7;" horiz-adv-x="1046" 
d="M828 228l-226 267l-309 -266l-117 136l310 269l-225 267l161 139l224 -267l313 268l113 -140l-309 -267l225 -268z" />
    <glyph glyph-name="Oslash" unicode="&#xd8;" horiz-adv-x="1461" 
d="M713 -16q-238 0 -381 149l-133 -115l-114 140l150 130q-65 170 -29 402q34 213 137.5 374.5t258 248.5t336.5 87h17q246 0 388 -156l137 118l115 -138l-157 -137q62 -170 26 -397q-50 -316 -251.5 -511t-482.5 -195h-17zM399 690q-23 -146 3 -258l783 676q-90 97 -261 97
h-17q-205 0 -336.5 -132.5t-171.5 -382.5zM490 269q90 -92 254 -92h17q207 0 339.5 132.5t171.5 380.5q23 143 -3 253z" />
    <glyph glyph-name="Ugrave" unicode="&#xd9;" horiz-adv-x="1236" 
d="M216 515l139 879h192l-137 -866q-32 -201 65 -304q74 -79 189 -68q121 12 213 117q91 103 117 264l136 857h193l-136 -859q-42 -264 -224 -417q-145 -123 -324 -134q-173 -11 -293 87q-141 116 -139 336q0 52 9 108zM620 1762h243l132 -323h-211z" />
    <glyph glyph-name="Uacute" unicode="&#xda;" horiz-adv-x="1236" 
d="M216 515l139 879h192l-137 -866q-32 -201 65 -304q74 -79 189 -68q121 12 213 117q91 103 117 264l136 857h193l-136 -859q-42 -264 -224 -417q-145 -123 -324 -134q-173 -11 -293 87q-141 116 -139 336q0 52 9 108zM688 1439l234 323h242l-266 -323h-210z" />
    <glyph glyph-name="Ucircumflex" unicode="&#xdb;" horiz-adv-x="1236" 
d="M216 515l139 879h192l-137 -866q-32 -201 65 -304q74 -79 189 -68q121 12 213 117q91 103 117 264l136 857h193l-136 -859q-42 -264 -224 -417q-145 -123 -324 -134q-173 -11 -293 87q-141 116 -139 336q0 52 9 108zM558 1439l277 323h123l173 -323h-236l-39 77l-64 -77
h-234z" />
    <glyph glyph-name="Udieresis" unicode="&#xdc;" horiz-adv-x="1236" 
d="M216 515l139 879h192l-137 -866q-32 -201 65 -304q74 -79 189 -68q121 12 213 117q91 103 117 264l136 857h193l-136 -859q-42 -264 -224 -417q-145 -123 -324 -134q-173 -11 -293 87q-141 116 -139 336q0 52 9 108zM624 1600q8 47 47 81t86 34t75 -34t20 -81
q-7 -47 -46 -80.5t-86 -33.5t-75 33.5t-21 80.5zM885 1600q8 47 47 81t86 34t75 -34t20 -81q-7 -47 -46 -80.5t-86 -33.5t-75 33.5t-21 80.5z" />
    <glyph glyph-name="Yacute" unicode="&#xdd;" horiz-adv-x="1171" 
d="M490 0l63 425l-332 969h219l248 -734l484 734h220l-648 -969l-62 -425h-192zM656 1439l234 323h242l-265 -323h-211z" />
    <glyph glyph-name="Thorn" unicode="&#xde;" horiz-adv-x="1159" 
d="M150 0l219 1381h194l-32 -203h289q223 0 327.5 -104.5t73.5 -301.5v-2q-31 -198 -169.5 -302.5t-361.5 -104.5h-289l-57 -363h-194zM432 554h289q153 0 220.5 48.5t86.5 169.5q19 119 -33.5 167.5t-205.5 48.5h-289z" />
    <glyph glyph-name="germandbls" unicode="&#xdf;" horiz-adv-x="1120" 
d="M339 0h-197l160 1012q4 21 12.5 67t9.5 49q44 204 198 317t393 114q177 1 269 -85t68 -235q-14 -89 -77 -170.5t-178 -169.5q-57 -44 -74 -66t-22 -57q-5 -36 4.5 -57.5t52.5 -65.5q87 -88 124.5 -169t23.5 -171q-24 -150 -143.5 -235.5t-298.5 -85.5q-135 0 -216 9
l31 197q193 -6 240 -9q92 3 134.5 30.5t52.5 87.5q7 45 -10.5 80t-86.5 111q-76 80 -98 140t-10 138t53 137.5t143 139.5q93 76 121.5 111.5t35.5 79.5q10 64 -29.5 92t-143.5 28q-168 0 -249.5 -57.5t-112.5 -190.5q-13 -65 -19 -101z" />
    <glyph glyph-name="agrave" unicode="&#xe0;" horiz-adv-x="1018" 
d="M463 -10q-169 0 -257.5 90t-64.5 240q13 83 55 147t104 103q105 69 315 76l256 12q7 103 -45.5 148t-168.5 45q-96 0 -159 -40t-147 -154l-133 122q103 136 216 199t253 63q195 0 298.5 -111.5t72.5 -312.5l-98 -617h-192l14 89q-152 -99 -319 -99zM334 320
q-12 -74 25 -107.5t138 -33.5q125 0 224.5 79.5t119.5 205.5l1 6l-247 -10q-78 -2 -124 -10.5t-77 -29.5q-29 -19 -41 -39t-19 -61zM481 1514h240l135 -352h-209z" />
    <glyph glyph-name="aacute" unicode="&#xe1;" horiz-adv-x="1018" 
d="M463 -10q-169 0 -257.5 90t-64.5 240q13 83 55 147t104 103q105 69 315 76l256 12q7 103 -45.5 148t-168.5 45q-96 0 -159 -40t-147 -154l-133 122q103 136 216 199t253 63q195 0 298.5 -111.5t72.5 -312.5l-98 -617h-192l14 89q-152 -99 -319 -99zM334 320
q-12 -74 25 -107.5t138 -33.5q125 0 224.5 79.5t119.5 205.5l1 6l-247 -10q-78 -2 -124 -10.5t-77 -29.5q-29 -19 -41 -39t-19 -61zM575 1162l248 352h240l-277 -352h-211z" />
    <glyph glyph-name="acircumflex" unicode="&#xe2;" horiz-adv-x="1018" 
d="M463 -10q-169 0 -257.5 90t-64.5 240q13 83 55 147t104 103q105 69 315 76l256 12q7 103 -45.5 148t-168.5 45q-96 0 -159 -40t-147 -154l-133 122q103 136 216 199t253 63q195 0 298.5 -111.5t72.5 -312.5l-98 -617h-192l14 89q-152 -99 -319 -99zM334 320
q-12 -74 25 -107.5t138 -33.5q125 0 224.5 79.5t119.5 205.5l1 6l-247 -10q-78 -2 -124 -10.5t-77 -29.5q-29 -19 -41 -39t-19 -61zM457 1162l264 352h131l152 -352h-228l-34 84l-60 -84h-225z" />
    <glyph glyph-name="atilde" unicode="&#xe3;" horiz-adv-x="1018" 
d="M463 -10q-169 0 -257.5 90t-64.5 240q13 83 55 147t104 103q62 41 137.5 56t177.5 20l256 12q7 103 -45.5 148t-168.5 45q-96 0 -159 -40t-147 -154l-133 122q103 136 216 199t253 63q195 0 298.5 -111.5t72.5 -312.5l-98 -617h-192l14 89q-152 -99 -319 -99zM334 320
q-12 -74 25 -107.5t138 -33.5q125 0 224.5 79.5t119.5 205.5l1 6l-247 -10q-80 -3 -125.5 -11.5t-75.5 -28.5q-29 -19 -41 -39t-19 -61zM551 1278q-8 83 35 143t121 60q49 0 122 -30q27 -8 33 -10l8 32h151q12 -91 -33 -147t-119 -56q-49 0 -123 28l-34 12l-8 -32h-153z" />
    <glyph glyph-name="adieresis" unicode="&#xe4;" horiz-adv-x="1018" 
d="M463 -10q-169 0 -257.5 90t-64.5 240q13 83 55 147t104 103q63 41 138 56t178 20l255 12q7 103 -45.5 148t-168.5 45q-96 0 -159 -40t-147 -154l-133 122q103 136 216 199t253 63q195 0 298.5 -111.5t72.5 -312.5l-98 -617h-192l14 89q-152 -99 -319 -99zM334 320
q-12 -74 25 -107.5t138 -33.5q125 0 224.5 79.5t119.5 205.5l1 6l-246 -10q-81 -3 -126.5 -11.5t-75.5 -28.5q-29 -19 -41 -39t-19 -61zM514 1336q7 47 46 81t86 34t75 -34t21 -81q-8 -47 -46.5 -80.5t-85.5 -33.5t-75.5 33.5t-20.5 80.5zM775 1336q7 47 46 81t86 34t75 -34
t21 -81q-8 -47 -46.5 -80.5t-85.5 -33.5t-75.5 33.5t-20.5 80.5z" />
    <glyph glyph-name="aring" unicode="&#xe5;" horiz-adv-x="1018" 
d="M463 -10q-169 0 -257.5 90t-64.5 240q13 83 55 147t104 103q105 69 315 76l256 12q7 103 -45.5 148t-168.5 45q-96 0 -159 -40t-147 -154l-133 122q103 136 216 199t253 63q195 0 298.5 -111.5t72.5 -312.5l-98 -617h-192l14 89q-152 -99 -319 -99zM334 320
q-12 -74 25 -107.5t138 -33.5q125 0 224.5 79.5t119.5 205.5l1 6l-247 -10q-78 -2 -124 -10.5t-77 -29.5q-29 -19 -41 -39t-19 -61zM579 1336q13 84 77 135.5t141 51.5q78 0 126.5 -51.5t35.5 -135.5q-13 -82 -78.5 -134t-142.5 -52t-124.5 52t-34.5 134zM748 1336
q-2 -12 1 -15.5t16 -3.5q14 0 18.5 3.5t6.5 15.5q2 13 -1.5 16.5t-17.5 3.5q-13 0 -17.5 -3.5t-5.5 -16.5z" />
    <glyph glyph-name="ae" unicode="&#xe6;" horiz-adv-x="1772" 
d="M463 -10q-169 0 -257.5 90t-64.5 240q13 83 55 147t104 103q109 71 316 76l255 12q7 103 -45.5 148t-168.5 45q-96 0 -159 -40t-147 -154l-133 122q103 136 216 199t253 63q118 0 205.5 -42t132.5 -124q52 53 114.5 90.5t126.5 54.5t129 20t124 -15t110.5 -49.5t89 -84
t59 -117.5t21 -152t-25.5 -185h-736q-2 -125 60 -190.5t180 -65.5h18q104 0 175.5 49t125.5 152l164 -77q-76 -144 -208 -229.5t-288 -85.5h-18q-120 0 -212 53t-142 148q-89 -97 -203.5 -149t-225.5 -52zM334 320q-12 -74 25 -107.5t138 -33.5q125 0 224.5 79.5
t119.5 205.5l1 6l-246 -10q-81 -3 -126.5 -11.5t-75.5 -28.5q-29 -19 -41 -39t-19 -61zM1072 624h532q-5 78 -38.5 134.5t-81.5 82.5t-107.5 26t-116 -26t-107.5 -82.5t-81 -134.5z" />
    <glyph glyph-name="ccedilla" unicode="&#xe7;" horiz-adv-x="1063" 
d="M405 -405q-116 0 -164 56l27 174q35 -24 70 -37t62.5 -15t49.5 3t35 16.5t15 26.5q4 23 -10 28q-22 8 -192 -13q-12 -1 -28 -3l122 182q-143 48 -211 183.5t-39 320.5q36 230 193 377t371 147h16q159 0 264 -84.5t132 -229.5l-190 -76q-22 104 -77.5 152t-158.5 48h-16
q-138 0 -226.5 -86.5t-113.5 -247.5t36 -248.5t198 -87.5h16q103 0 174.5 49t128.5 153l162 -78q-141 -261 -418 -261l-25 -37q52 -25 76.5 -72.5t13.5 -115.5q-12 -76 -62.5 -129t-110 -74t-120.5 -21z" />
    <glyph glyph-name="egrave" unicode="&#xe8;" horiz-adv-x="1063" 
d="M539 -10q-139 0 -238 68t-141 188t-18 271q24 149 101.5 267.5t195.5 186t257 70.5q112 -2 198 -48.5t133.5 -127.5t60.5 -190.5t-22 -237.5h-738q-1 -125 60.5 -190.5t181.5 -65.5h16q103 0 174.5 49t128.5 153l162 -78q-76 -144 -208 -229.5t-288 -85.5h-16zM364 624
h531q-14 219 -229 227q-220 -8 -302 -227zM502 1514h238l137 -352h-212z" />
    <glyph glyph-name="eacute" unicode="&#xe9;" horiz-adv-x="1063" 
d="M539 -10q-139 0 -238 68t-141 188t-18 271q24 149 101.5 267.5t195.5 186t257 70.5q112 -2 198 -48.5t133.5 -127.5t60.5 -190.5t-22 -237.5h-738q-1 -125 60.5 -190.5t181.5 -65.5h16q103 0 174.5 49t128.5 153l162 -78q-76 -144 -208 -229.5t-288 -85.5h-16zM364 624
h531q-14 219 -229 227q-220 -8 -302 -227zM561 1162l249 352h238l-277 -352h-210z" />
    <glyph glyph-name="ecircumflex" unicode="&#xea;" horiz-adv-x="1063" 
d="M539 -10q-139 0 -238 68t-141 188t-18 271q24 149 101.5 267.5t195.5 186t257 70.5q112 -2 198 -48.5t133.5 -127.5t60.5 -190.5t-22 -237.5h-738q-1 -125 60.5 -190.5t181.5 -65.5h16q103 0 174.5 49t128.5 153l162 -78q-76 -144 -208 -229.5t-288 -85.5h-16zM364 624
h531q-14 219 -229 227q-220 -8 -302 -227zM442 1162l263 352h132l153 -352h-227l-35 84l-61 -84h-225z" />
    <glyph glyph-name="edieresis" unicode="&#xeb;" horiz-adv-x="1063" 
d="M539 -10q-139 0 -238 68t-141 188t-18 271q24 149 101.5 267.5t195.5 186t257 70.5q112 -2 198 -48.5t133.5 -127.5t60.5 -190.5t-22 -237.5h-738q-1 -125 60.5 -190.5t181.5 -65.5h16q103 0 174.5 49t128.5 153l162 -78q-76 -144 -208 -229.5t-288 -85.5h-16zM364 624
h531q-14 219 -229 227q-220 -8 -302 -227zM499 1336q7 47 46 81t86 34t75 -34t21 -81q-8 -47 -46.5 -80.5t-85.5 -33.5t-75.5 33.5t-20.5 80.5zM760 1336q7 47 46 81t86 34t75 -34t21 -81q-8 -47 -46.5 -80.5t-85.5 -33.5t-75.5 33.5t-20.5 80.5z" />
    <glyph glyph-name="igrave" unicode="&#xec;" horiz-adv-x="521" 
d="M155 0l163 1032h194l-163 -1032h-194zM188 1514h239l136 -352h-208z" />
    <glyph glyph-name="iacute" unicode="&#xed;" horiz-adv-x="521" 
d="M196 0l163 1032h193l-163 -1032h-193zM326 1162l249 352h238l-276 -352h-211z" />
    <glyph glyph-name="icircumflex" unicode="&#xee;" horiz-adv-x="305" 
d="M56 0l163 1032h192l-163 -1032h-192zM62 1162l266 352h130l153 -352h-227l-35 84l-61 -84h-226z" />
    <glyph glyph-name="idieresis" unicode="&#xef;" horiz-adv-x="301" 
d="M57 0l163 1032h193l-163 -1032h-193zM119 1336q7 47 46 81t86 34t75 -34t21 -81q-8 -47 -46.5 -80.5t-85.5 -33.5t-75.5 33.5t-20.5 80.5zM380 1336q7 47 46 81t86 34t75 -34t21 -81q-8 -47 -46.5 -80.5t-85.5 -33.5t-75.5 33.5t-20.5 80.5z" />
    <glyph glyph-name="eth" unicode="&#xf0;" horiz-adv-x="1107" 
d="M539 -10q-139 0 -238 68t-141 188t-18 271q32 205 162 346t313 171l-13 149l133 35l-63 181h214l46 -130l153 39l19 -189l-110 -29l138 -389h-4l-1 -15q1 -98 -10 -169q-36 -230 -194 -378.5t-370 -148.5h-16zM336 517q-25 -161 36 -248.5t198 -87.5h16q138 0 226 87.5
t114 248.5q25 161 -35.5 247.5t-198.5 86.5h-16q-138 0 -226.5 -86.5t-113.5 -247.5z" />
    <glyph glyph-name="ntilde" unicode="&#xf1;" horiz-adv-x="1117" 
d="M142 0l163 1032h194l-8 -53q109 62 258 62q205 0 290.5 -112.5t51.5 -321.5l-96 -607h-192l95 597q23 149 -13 201.5t-166 52.5q-133 0 -203 -77t-100 -268l-80 -506h-194zM543 1278q-8 83 35 143t121 60q49 0 122 -30q27 -8 33 -10l8 32h151q12 -91 -33 -147t-119 -56
q-49 0 -123 28l-34 12l-8 -32h-153z" />
    <glyph glyph-name="ograve" unicode="&#xf2;" 
d="M539 -10q-139 0 -238 68t-141 188t-18 271q36 230 193 377t371 147h16q213 0 323 -146.5t74 -377.5q-36 -230 -194 -378.5t-370 -148.5h-16zM336 517q-25 -161 36 -248.5t198 -87.5h16q138 0 226 87.5t114 248.5q25 161 -35.5 247.5t-198.5 86.5h-16q-138 0 -226.5 -86.5
t-113.5 -247.5zM517 1514h239l138 -352h-210z" />
    <glyph glyph-name="oacute" unicode="&#xf3;" 
d="M539 -10q-139 0 -238 68t-141 188t-18 271q36 230 193 377t371 147h16q213 0 323 -146.5t74 -377.5q-36 -230 -194 -378.5t-370 -148.5h-16zM336 517q-25 -161 36 -248.5t198 -87.5h16q138 0 226 87.5t114 248.5q25 161 -35.5 247.5t-198.5 86.5h-16q-138 0 -226.5 -86.5
t-113.5 -247.5zM578 1162l247 352h241l-278 -352h-210z" />
    <glyph glyph-name="ocircumflex" unicode="&#xf4;" 
d="M539 -10q-139 0 -238 68t-141 188t-18 271q36 230 193 377t371 147h16q213 0 323 -146.5t74 -377.5q-36 -230 -194 -378.5t-370 -148.5h-16zM336 517q-25 -161 36 -248.5t198 -87.5h16q138 0 226 87.5t114 248.5q25 161 -35.5 247.5t-198.5 86.5h-16q-138 0 -226.5 -86.5
t-113.5 -247.5zM458 1162l266 352h130l152 -352h-227l-34 84l-61 -84h-226z" />
    <glyph glyph-name="otilde" unicode="&#xf5;" 
d="M539 -10q-139 0 -238 68t-141 188t-18 271q36 230 193 377t371 147h16q213 0 323 -146.5t74 -377.5q-36 -230 -194 -378.5t-370 -148.5h-16zM336 517q-25 -161 36 -248.5t198 -87.5h16q138 0 226 87.5t114 248.5q25 161 -35.5 247.5t-198.5 86.5h-16q-138 0 -226.5 -86.5
t-113.5 -247.5zM543 1278q-8 83 35 143t121 60q49 0 122 -30q27 -8 33 -10l8 32h151q12 -91 -33 -147t-119 -56q-49 0 -123 28l-34 12l-8 -32h-153z" />
    <glyph glyph-name="odieresis" unicode="&#xf6;" 
d="M539 -10q-139 0 -238 68t-141 188t-18 271q36 230 193 377t371 147h16q213 0 323 -146.5t74 -377.5q-36 -230 -194 -378.5t-370 -148.5h-16zM336 517q-25 -161 36 -248.5t198 -87.5h16q138 0 226 87.5t114 248.5q25 161 -35.5 247.5t-198.5 86.5h-16q-138 0 -226.5 -86.5
t-113.5 -247.5zM517 1336q7 47 46 81t86 34t75 -34t21 -81q-8 -47 -46.5 -80.5t-85.5 -33.5t-75.5 33.5t-20.5 80.5zM778 1336q7 47 46 81t86 34t75 -34t21 -81q-8 -47 -46.5 -80.5t-85.5 -33.5t-75.5 33.5t-20.5 80.5z" />
    <glyph glyph-name="divide" unicode="&#xf7;" horiz-adv-x="1020" 
d="M162 544l31 196h868l-31 -196h-868zM443 366q8 52 50.5 88.5t94.5 36.5t83 -36t23 -89t-51 -89t-95 -36t-82.5 37t-22.5 88zM530 916q8 53 50.5 89t94.5 36t83 -36t23 -89t-51 -89t-95 -36t-82.5 36.5t-22.5 88.5z" />
    <glyph glyph-name="oslash" unicode="&#xf8;" horiz-adv-x="1302" 
d="M189 -47l-115 138l189 164q-39 116 -16 262q36 230 193.5 377t369.5 147h18q152 0 253 -79l204 176l115 -139l-206 -179q57 -129 30 -303q-36 -230 -194 -378.5t-369 -148.5h-18q-175 0 -285 110zM436 404l485 419q-49 28 -123 28h-18q-137 0 -225.5 -86.5t-113.5 -247.5
q-11 -64 -5 -113zM514 234q57 -53 160 -53h18q138 0 226 87.5t114 248.5q14 91 -4 160z" />
    <glyph glyph-name="ugrave" unicode="&#xf9;" 
d="M530 -10q-204 0 -289 113t-52 323l96 606h193l-94 -597q-23 -149 13 -201.5t164 -52.5q134 0 203.5 76.5t99.5 268.5l80 506h194l-163 -1032h-194l8 52q-107 -62 -259 -62zM490 1514h240l135 -352h-208z" />
    <glyph glyph-name="uacute" unicode="&#xfa;" 
d="M530 -10q-204 0 -289 113t-52 323l96 606h193l-94 -597q-23 -149 13 -201.5t164 -52.5q134 0 203.5 76.5t99.5 268.5l80 506h194l-163 -1032h-194l8 52q-107 -62 -259 -62zM577 1162l247 352h241l-277 -352h-211z" />
    <glyph glyph-name="ucircumflex" unicode="&#xfb;" 
d="M530 -10q-204 0 -289 113t-52 323l96 606h193l-94 -597q-23 -149 13 -201.5t164 -52.5q134 0 203.5 76.5t99.5 268.5l80 506h194l-163 -1032h-194l8 52q-107 -62 -259 -62zM459 1162l264 352h131l153 -352h-229l-34 84l-60 -84h-225z" />
    <glyph glyph-name="udieresis" unicode="&#xfc;" 
d="M530 -10q-204 0 -289 113t-52 323l96 606h193l-94 -597q-23 -149 13 -201.5t164 -52.5q134 0 203.5 76.5t99.5 268.5l80 506h194l-163 -1032h-194l8 52q-107 -62 -259 -62zM517 1336q7 47 46 81t86 34t75 -34t21 -81q-8 -47 -46.5 -80.5t-85.5 -33.5t-75.5 33.5
t-20.5 80.5zM778 1336q7 47 46 81t86 34t75 -34t21 -81q-8 -47 -46.5 -80.5t-85.5 -33.5t-75.5 33.5t-20.5 80.5z" />
    <glyph glyph-name="yacute" unicode="&#xfd;" horiz-adv-x="1050" 
d="M214 -135q25 -16 38 -23t22.5 -12t15 0t8.5 9t10 19t13 26l113 198l-241 950h211l173 -700l397 700h209l-697 -1224q-78 -138 -178.5 -167.5t-199.5 54.5zM556 1162l248 352h239l-277 -352h-210z" />
    <glyph glyph-name="thorn" unicode="&#xfe;" horiz-adv-x="1184" 
d="M85 -362l278 1756h194l-72 -454q140 101 302 101h25q136 0 234.5 -69.5t140.5 -189.5t19 -267q-35 -223 -195.5 -374t-365.5 -151h-25q-161 0 -270 101l-71 -453h-194zM416 515q-25 -156 37 -244t194 -88h26q133 0 224.5 88.5t116.5 243.5q25 156 -38.5 245.5
t-196.5 89.5h-26q-131 0 -221.5 -89.5t-115.5 -245.5z" />
    <glyph glyph-name="ydieresis" unicode="&#xff;" horiz-adv-x="1050" 
d="M212 -136q30 -19 45 -27.5t26 -7t13.5 5t10.5 21t14 28.5l113 198l-241 950h211l173 -700l397 700h209l-697 -1224q-78 -137 -177.5 -167t-200.5 54zM497 1336q7 47 46 81t86 34t75 -34t21 -81q-8 -47 -46.5 -80.5t-85.5 -33.5t-75.5 33.5t-20.5 80.5zM758 1336
q7 47 46 81t86 34t75 -34t21 -81q-8 -47 -46.5 -80.5t-85.5 -33.5t-75.5 33.5t-20.5 80.5z" />
    <glyph glyph-name="Amacron" unicode="&#x100;" horiz-adv-x="1169" 
d="M20 0l707 1394h156l266 -1394h-208l-80 426h-419l-215 -426h-207zM537 617h290l-79 418zM620 1502l31 195h407l-31 -195h-407z" />
    <glyph glyph-name="amacron" unicode="&#x101;" horiz-adv-x="1018" 
d="M463 -10q-169 0 -257.5 90t-64.5 240q13 83 55 147t104 103q105 69 315 76l256 12q7 103 -45.5 148t-168.5 45q-96 0 -159 -40t-147 -154l-133 122q103 136 216 199t253 63q195 0 298.5 -111.5t72.5 -312.5l-98 -617h-192l14 89q-152 -99 -319 -99zM334 320
q-12 -74 25 -107.5t138 -33.5q125 0 224.5 79.5t119.5 205.5l1 6l-247 -10q-78 -2 -124 -10.5t-77 -29.5q-29 -19 -41 -39t-19 -61zM537 1232l31 196h406l-31 -196h-406z" />
    <glyph glyph-name="Abreve" unicode="&#x102;" horiz-adv-x="1169" 
d="M20 0l707 1394h156l266 -1394h-208l-80 426h-419l-215 -426h-207zM537 617h290l-79 418zM621 1762h189q-30 -98 -23.5 -126t54.5 -28q47 0 61.5 28.5t15.5 125.5h189q6 -150 -81.5 -249.5t-215.5 -99.5q-130 0 -185.5 99t-3.5 250z" />
    <glyph glyph-name="abreve" unicode="&#x103;" horiz-adv-x="1018" 
d="M463 -10q-169 0 -257.5 90t-64.5 240q13 83 55 147t104 103q109 71 316 76l255 12q7 103 -45.5 148t-168.5 45q-96 0 -159 -40t-147 -154l-133 122q103 136 216 199t253 63q195 0 298.5 -111.5t72.5 -312.5l-98 -617h-192l14 89q-152 -99 -319 -99zM334 320
q-12 -74 25 -107.5t138 -33.5q125 0 224.5 79.5t119.5 205.5l1 6l-246 -10q-81 -3 -126.5 -11.5t-75.5 -28.5q-29 -19 -41 -39t-19 -61zM541 1504h189q-30 -99 -24 -127t53 -28t62 28.5t16 126.5h190q4 -151 -83.5 -250t-215.5 -99q-130 0 -184.5 99t-2.5 250z" />
    <glyph glyph-name="Aogonek" unicode="&#x104;" horiz-adv-x="1158" 
d="M837 -396q-75 0 -125.5 48.5t-34.5 153.5q15 96 79.5 181t160.5 141l-56 298h-419l-215 -426h-207l707 1394h156l260 -1362q-245 -73 -269 -221q-2 -13 2 -13q30 0 61 27.5t164 168.5l-46 -292q-95 -98 -218 -98zM537 617h290l-79 418z" />
    <glyph glyph-name="aogonek" unicode="&#x105;" horiz-adv-x="1058" 
d="M676 -396q-74 0 -125.5 48.5t-35.5 153.5q18 112 99 206q-79 -22 -151 -22q-169 0 -257.5 90t-64.5 240q13 83 55 147t104 103q105 69 315 76l256 12q7 103 -45.5 148t-168.5 45q-96 0 -159 -40t-147 -154l-133 122q103 136 216 199t253 63q195 0 298.5 -111.5
t72.5 -312.5l-96 -606q-101 -4 -168 -60t-80 -140q-2 -13 1 -13q30 0 60.5 27.5t164.5 168.5l-46 -292q-95 -98 -218 -98zM334 320q-12 -74 25 -107.5t138 -33.5q125 0 224.5 79.5t119.5 205.5l1 6l-247 -10q-78 -2 -124 -10.5t-77 -29.5q-29 -19 -41 -39t-19 -61z" />
    <glyph glyph-name="Cacute" unicode="&#x106;" horiz-adv-x="1329" 
d="M678 -12q-276 0 -417.5 194t-90.5 514q26 160 92.5 293t162.5 224.5t219 142t259 50.5h18q211 0 346 -116t166 -317l-192 -68q-43 306 -351 306h-18q-205 0 -336.5 -132.5t-171.5 -382.5q-40 -249 50 -381t295 -132h18q306 0 448 306l171 -68q-95 -200 -267 -316.5
t-383 -116.5h-18zM737 1439l235 323h242l-265 -323h-212z" />
    <glyph glyph-name="cacute" unicode="&#x107;" horiz-adv-x="1063" 
d="M539 -10q-139 0 -238 68t-141 188t-18 271q36 230 193 377t371 147h16q159 0 264 -84.5t132 -229.5l-190 -76q-22 104 -77.5 152t-158.5 48h-16q-138 0 -226.5 -86.5t-113.5 -247.5t36 -248.5t198 -87.5h16q103 0 174.5 49t128.5 153l162 -78q-76 -144 -208 -229.5
t-288 -85.5h-16zM569 1162l250 352h238l-277 -352h-211z" />
    <glyph glyph-name="Ccircumflex" unicode="&#x108;" horiz-adv-x="1329" 
d="M678 -12q-276 0 -417.5 194t-90.5 514q26 160 92.5 293t162.5 224.5t219 142t259 50.5h18q211 0 346 -116t166 -317l-192 -68q-43 306 -351 306h-18q-205 0 -336.5 -132.5t-171.5 -382.5q-40 -249 50 -381t295 -132h18q306 0 448 306l171 -68q-95 -200 -267 -316.5
t-383 -116.5h-18zM634 1439l275 323h123l175 -323h-236l-40 77l-64 -77h-233z" />
    <glyph glyph-name="ccircumflex" unicode="&#x109;" horiz-adv-x="1063" 
d="M539 -10q-139 0 -238 68t-141 188t-18 271q36 230 193 377t371 147h16q159 0 264 -84.5t132 -229.5l-190 -76q-22 104 -77.5 152t-158.5 48h-16q-138 0 -226.5 -86.5t-113.5 -247.5t36 -248.5t198 -87.5h16q103 0 174.5 49t128.5 153l162 -78q-76 -144 -208 -229.5
t-288 -85.5h-16zM458 1162l266 352h130l152 -352h-227l-34 84l-61 -84h-226z" />
    <glyph glyph-name="Cdotaccent" unicode="&#x10a;" horiz-adv-x="1329" 
d="M678 -12q-276 0 -417.5 194t-90.5 514q26 160 92.5 293t162.5 224.5t219 142t259 50.5h18q211 0 346 -116t166 -317l-192 -68q-43 306 -351 306h-18q-205 0 -336.5 -132.5t-171.5 -382.5q-40 -249 50 -381t295 -132h18q306 0 448 306l171 -68q-95 -200 -267 -316.5
t-383 -116.5h-18zM812 1600q8 47 46.5 81t86.5 34q47 0 75 -34t21 -81t-46.5 -80.5t-86.5 -33.5q-48 0 -75.5 33.5t-20.5 80.5z" />
    <glyph glyph-name="cdotaccent" unicode="&#x10b;" horiz-adv-x="1063" 
d="M539 -10q-139 0 -238 68t-141 188t-18 271q36 230 193 377t371 147h16q159 0 264 -84.5t132 -229.5l-190 -76q-22 104 -77.5 152t-158.5 48h-16q-138 0 -226.5 -86.5t-113.5 -247.5t36 -248.5t198 -87.5h16q103 0 174.5 49t128.5 153l162 -78q-76 -144 -208 -229.5
t-288 -85.5h-16zM637 1335q8 48 47 80.5t86 32.5t74.5 -33.5t20.5 -79.5q-7 -47 -46 -81t-85 -34q-48 0 -76 34t-21 81z" />
    <glyph glyph-name="Ccaron" unicode="&#x10c;" horiz-adv-x="1329" 
d="M678 -12q-276 0 -417.5 194t-90.5 514q26 160 92.5 293t162.5 224.5t219 142t259 50.5h18q211 0 346 -116t166 -317l-192 -68q-43 306 -351 306h-18q-205 0 -336.5 -132.5t-171.5 -382.5q-40 -249 50 -381t295 -132h18q306 0 448 306l171 -68q-95 -200 -267 -316.5
t-383 -116.5h-18zM667 1762h235l40 -77l63 77h234l-276 -323h-123z" />
    <glyph glyph-name="ccaron" unicode="&#x10d;" horiz-adv-x="1063" 
d="M539 -10q-139 0 -238 68t-141 188t-18 271q36 230 193 377t371 147h16q159 0 264 -84.5t132 -229.5l-190 -76q-22 104 -77.5 152t-158.5 48h-16q-138 0 -226.5 -86.5t-113.5 -247.5t36 -248.5t198 -87.5h16q103 0 174.5 49t128.5 153l162 -78q-76 -144 -208 -229.5
t-288 -85.5h-16zM508 1514h226l33 -84l61 84h227l-265 -352h-131z" />
    <glyph glyph-name="Dcaron" unicode="&#x10e;" horiz-adv-x="1235" 
d="M150 0l221 1394h326q329 0 484.5 -188t102.5 -520q-52 -326 -264 -506t-545 -180h-325zM374 191h127q263 0 405 119.5t182 375.5q42 264 -62.5 390t-360.5 126h-131zM607 1762h234l40 -77l63 77h235l-276 -323h-123z" />
    <glyph glyph-name="dcaron" unicode="&#x10f;" horiz-adv-x="1365" 
d="M1264 1394l-221 -1394h-193l15 92q-145 -102 -304 -102h-24q-136 0 -234.5 69.5t-141 190.5t-19.5 267q17 110 69 207.5t126.5 167t169.5 109.5t197 40h24q163 0 271 -100l72 453h193zM336 517q-25 -156 38 -245t197 -89h25q132 0 222.5 89.5t115.5 244.5
q25 156 -37 244.5t-195 88.5h-25q-134 0 -225 -88.5t-116 -244.5zM1261 1086l192 374h179l-16 -104l-157 -270h-198z" />
    <glyph glyph-name="Dcroat" unicode="&#x110;" horiz-adv-x="1213" 
d="M128 0l91 573h-98l31 195h98l99 626h325q329 0 485 -188t103 -520q-52 -326 -264.5 -506t-546.5 -180h-323zM351 191h127q263 0 404.5 119t182.5 376q42 264 -63 390t-361 126h-130l-68 -434h340l-31 -195h-340z" />
    <glyph glyph-name="dcroat" unicode="&#x111;" horiz-adv-x="1128" 
d="M537 -10q-136 0 -234.5 69.5t-141 190.5t-19.5 267q17 110 69 207.5t126.5 167t169.5 109.5t197 40h24q163 0 271 -100l17 109h-205l31 195h205l24 149h193l-24 -149h83l-31 -195h-83l-166 -1050h-193l15 92q-145 -102 -304 -102h-24zM336 517q-25 -156 38 -245t197 -89
h25q132 0 222.5 89.5t115.5 244.5q25 156 -37 244.5t-195 88.5h-25q-134 0 -225 -88.5t-116 -244.5z" />
    <glyph glyph-name="Emacron" unicode="&#x112;" horiz-adv-x="1144" 
d="M150 0l221 1394h924l-31 -192h-730l-64 -404h669l-30 -191h-669l-66 -416h730l-30 -191h-924zM616 1502l31 195h406l-31 -195h-406z" />
    <glyph glyph-name="emacron" unicode="&#x113;" horiz-adv-x="1063" 
d="M539 -10q-139 0 -238 68t-141 188t-18 271q24 149 101.5 267.5t195.5 186t257 70.5q112 -2 198 -48.5t133.5 -127.5t60.5 -190.5t-22 -237.5h-738q-1 -125 60.5 -190.5t181.5 -65.5h16q103 0 174.5 49t128.5 153l162 -78q-76 -144 -208 -229.5t-288 -85.5h-16zM364 624
h531q-14 219 -229 227q-220 -8 -302 -227zM523 1232l31 196h406l-31 -196h-406z" />
    <glyph glyph-name="Ebreve" unicode="&#x114;" horiz-adv-x="1144" 
d="M150 0l221 1394h924l-31 -192h-730l-64 -404h669l-30 -191h-669l-66 -416h730l-30 -191h-924zM687 1810h190q-30 -100 -24.5 -127t53.5 -27q47 0 62 28.5t16 125.5h190q4 -150 -83 -249t-215 -99q-131 0 -186 98.5t-3 249.5z" />
    <glyph glyph-name="ebreve" unicode="&#x115;" horiz-adv-x="1063" 
d="M539 -10q-139 0 -238 68t-141 188t-18 271q40 253 216 398q142 117 318 124q169 7 284 -93q139 -120 131 -343q-3 -79 -25 -166h-738q-1 -125 60.5 -190.5t181.5 -65.5h16q103 0 174.5 49t128.5 153l162 -78q-76 -144 -208 -229.5t-288 -85.5h-16zM364 624h531
q-5 78 -38 134.5t-81.5 82.5t-108 26t-116 -26t-107 -82.5t-80.5 -134.5zM523 1504h190q-29 -99 -23 -127t53 -28q48 0 63 28.5t14 126.5h190q6 -150 -81.5 -249.5t-216.5 -99.5q-130 0 -185.5 99t-3.5 250z" />
    <glyph glyph-name="Edotaccent" unicode="&#x116;" horiz-adv-x="1144" 
d="M150 0l221 1394h924l-31 -192h-730l-64 -404h669l-30 -191h-669l-66 -416h730l-30 -191h-924zM720 1600q7 47 47 81t87 34t75 -34t20 -81q-7 -47 -46 -80.5t-86 -33.5t-75.5 33.5t-21.5 80.5z" />
    <glyph glyph-name="edotaccent" unicode="&#x117;" horiz-adv-x="1063" 
d="M539 -10q-139 0 -238 68t-141 188t-18 271q24 149 101.5 267.5t195.5 186t257 70.5q112 -2 198 -48.5t133.5 -127.5t60.5 -190.5t-22 -237.5h-738q-1 -125 60.5 -190.5t181.5 -65.5h16q103 0 174.5 49t128.5 153l162 -78q-76 -144 -208 -229.5t-288 -85.5h-16zM364 624
h531q-14 219 -229 227q-220 -8 -302 -227zM628 1335q7 46 46 79.5t86 33.5t75.5 -33t20.5 -80q-7 -47 -45.5 -81t-86.5 -34q-47 0 -75 34t-21 81z" />
    <glyph glyph-name="Eogonek" unicode="&#x118;" horiz-adv-x="1147" 
d="M797 -396q-75 0 -125.5 48.5t-34.5 153.5q16 102 89 194h-576l221 1394h924l-31 -192h-730l-64 -404h669l-30 -191h-669l-66 -416h733l-26 -167q-224 -69 -247 -213q-2 -13 1 -13q31 0 62.5 28t163.5 171l-47 -294q-96 -99 -217 -99z" />
    <glyph glyph-name="eogonek" unicode="&#x119;" horiz-adv-x="1063" 
d="M466 -396q-75 0 -125.5 48.5t-34.5 153.5q18 107 89 207q-144 48 -213.5 183.5t-39.5 320.5q24 149 101.5 267.5t195.5 186t257 70.5q112 -2 198 -48.5t133.5 -127.5t60.5 -190.5t-22 -237.5h-738q-1 -125 60.5 -190.5t181.5 -65.5h16q103 0 174.5 49t128.5 153l162 -78
q-62 -118 -164 -198t-226 -105q-65 -27 -106 -77.5t-51 -113.5q-2 -13 1 -13q30 0 61.5 28.5t163.5 170.5l-47 -294q-93 -99 -217 -99zM364 624h531q-14 219 -229 227q-220 -8 -302 -227zM523 1232l31 196h406l-31 -196h-406z" />
    <glyph glyph-name="Ecaron" unicode="&#x11a;" horiz-adv-x="1144" 
d="M150 0l221 1394h924l-31 -192h-730l-64 -404h669l-30 -191h-669l-66 -416h730l-30 -191h-924zM576 1762h235l39 -77l63 77h234l-275 -323h-123z" />
    <glyph glyph-name="ecaron" unicode="&#x11b;" horiz-adv-x="1063" 
d="M539 -10q-139 0 -238 68t-141 188t-18 271q24 149 101.5 267.5t195.5 186t257 70.5q112 -2 198 -48.5t133.5 -127.5t60.5 -190.5t-22 -237.5h-738q-1 -125 60.5 -190.5t181.5 -65.5h16q103 0 174.5 49t128.5 153l162 -78q-76 -144 -208 -229.5t-288 -85.5h-16zM364 624
h531q-14 219 -229 227q-220 -8 -302 -227zM498 1514h227l34 -85l62 85h225l-265 -352h-132z" />
    <glyph glyph-name="Gcircumflex" unicode="&#x11c;" horiz-adv-x="1303" 
d="M678 -12q-277 0 -417.5 194t-89.5 516q51 320 253.5 514t478.5 194q214 0 347.5 -119t155.5 -323l-191 -71q-28 318 -343 318q-205 0 -336.5 -132.5t-170.5 -380.5q-40 -250 49.5 -382.5t294.5 -132.5q266 0 397 223l27 170h-441l31 192h634l-122 -768h-193l17 105
q-172 -117 -381 -117zM617 1439l276 323h123l174 -323h-235l-40 77l-64 -77h-234z" />
    <glyph glyph-name="gcircumflex" unicode="&#x11d;" horiz-adv-x="1184" 
d="M482 1162l263 352h131l152 -352h-226l-35 84l-61 -84h-224zM108 33h194q2 -107 56 -157.5t167 -50.5h27q124 0 204 66.5t137 216.5q-53 -50 -144.5 -85t-187.5 -35h-10q-143 0 -249 78l-20 16q-86 72 -123.5 185.5t-16.5 247.5q17 110 69 207.5t126.5 167t169.5 109.5
t197 40h24q163 0 271 -100l15 95h193l-138 -868q-39 -250 -187 -391t-360 -141h-27q-184 0 -290 107.5t-97 291.5zM336 515q-25 -156 38 -245t197 -89h25q122 0 208.5 77t120.5 216l13 81q10 139 -52.5 216t-184.5 77h-25q-134 0 -224.5 -88.5t-115.5 -244.5z" />
    <glyph glyph-name="Gbreve" unicode="&#x11e;" horiz-adv-x="1303" 
d="M678 -12q-277 0 -417.5 194t-89.5 516q51 320 253.5 514t478.5 194q214 0 347.5 -119t155.5 -323l-191 -71q-28 318 -343 318q-205 0 -336.5 -132.5t-170.5 -380.5q-40 -250 49.5 -382.5t294.5 -132.5q266 0 397 223l27 170h-441l31 192h634l-122 -768h-193l17 105
q-172 -117 -381 -117zM725 1810h188q-29 -99 -23 -126.5t53 -27.5t62.5 28.5t16.5 125.5h188q4 -99 -35.5 -179.5t-108.5 -124.5t-153 -44q-130 0 -185.5 99t-2.5 249z" />
    <glyph glyph-name="gbreve" unicode="&#x11f;" horiz-adv-x="1184" 
d="M741 1504q-29 -99 -23.5 -127t52.5 -28q48 0 63 28.5t14 126.5h190q6 -150 -81.5 -249.5t-216.5 -99.5t-184.5 99.5t-2.5 249.5h189zM108 33h194q2 -107 56 -157.5t167 -50.5h27q124 0 204 66.5t137 216.5q-53 -50 -144.5 -85t-187.5 -35h-10q-143 0 -249 78l-20 16
q-86 72 -123.5 185.5t-16.5 247.5q17 110 69 207.5t126.5 167t169.5 109.5t197 40h24q163 0 271 -100l15 95h193l-138 -868q-39 -250 -187 -391t-360 -141h-27q-184 0 -290 107.5t-97 291.5zM336 515q-25 -156 38 -245t197 -89h25q122 0 208.5 77t120.5 216l13 81
q10 139 -52.5 216t-184.5 77h-25q-134 0 -224.5 -88.5t-115.5 -244.5z" />
    <glyph glyph-name="Gdotaccent" unicode="&#x120;" horiz-adv-x="1303" 
d="M678 -12q-277 0 -417.5 194t-89.5 516q51 320 253.5 514t478.5 194q214 0 347.5 -119t155.5 -323l-191 -71q-28 318 -343 318q-205 0 -336.5 -132.5t-170.5 -380.5q-40 -250 49.5 -382.5t294.5 -132.5q266 0 397 223l27 170h-441l31 192h634l-122 -768h-193l17 105
q-172 -117 -381 -117zM820 1600q8 47 46.5 81t86.5 34q47 0 75 -34t20 -81q-7 -47 -46 -80.5t-86 -33.5q-48 0 -75.5 33.5t-20.5 80.5z" />
    <glyph glyph-name="gdotaccent" unicode="&#x121;" horiz-adv-x="1184" 
d="M674 1335q8 47 46 80t86 33q47 0 75.5 -33t20.5 -80q-7 -47 -46 -81t-86 -34t-75 34t-21 81zM108 33h194q2 -107 56 -157.5t167 -50.5h27q124 0 204 66.5t137 216.5q-53 -50 -144.5 -85t-187.5 -35h-10q-143 0 -249 78l-20 16q-86 72 -123.5 185.5t-16.5 247.5
q17 110 69 207.5t126.5 167t169.5 109.5t197 40h24q163 0 271 -100l15 95h193l-138 -868q-39 -250 -187 -391t-360 -141h-27q-184 0 -290 107.5t-97 291.5zM336 515q-25 -156 38 -245t197 -89h25q122 0 208.5 77t120.5 216l13 81q10 139 -52.5 216t-184.5 77h-25
q-134 0 -224.5 -88.5t-115.5 -244.5z" />
    <glyph glyph-name="uni0122" unicode="&#x122;" horiz-adv-x="1513" 
d="M764 -12q-276 0 -417 194.5t-90 515.5q51 320 253.5 514t478.5 194q215 0 349 -119t156 -324l-193 -69q-27 317 -343 317q-205 0 -336.5 -132.5t-170.5 -380.5q-40 -250 49.5 -382.5t294.5 -132.5q267 0 398 223l27 170h-442l31 192h634l-122 -768h-192l16 104
q-171 -116 -381 -116zM494 -405l192 374h178l-16 -103l-156 -271h-198z" />
    <glyph glyph-name="uni0123" unicode="&#x123;" horiz-adv-x="1211" 
d="M714 1163l17 103l155 272h198l-191 -375h-179zM162 33h194q2 -107 56 -157.5t167 -50.5h27q124 0 204 66.5t137 216.5q-53 -50 -144.5 -85t-187.5 -35h-10q-143 0 -249 78l-20 16q-86 72 -123.5 185.5t-16.5 247.5q17 110 69 207.5t126.5 167t169.5 109.5t197 40h24
q163 0 271 -100l15 95h193l-138 -868q-39 -250 -187 -391t-360 -141h-27q-184 0 -290 107.5t-97 291.5zM390 515q-25 -156 38 -245t197 -89h25q122 0 208.5 77t120.5 216l13 81q10 139 -52.5 216t-184.5 77h-25q-134 0 -224.5 -88.5t-115.5 -244.5z" />
    <glyph glyph-name="Hcircumflex" unicode="&#x124;" horiz-adv-x="1224" 
d="M150 0l221 1394h194l-94 -592h535l94 592h195l-221 -1394h-195l97 610h-535l-97 -610h-194zM562 1439l276 323h123l174 -323h-236l-40 77l-63 -77h-234z" />
    <glyph glyph-name="hcircumflex" unicode="&#x125;" horiz-adv-x="1033" 
d="M58 0l221 1394h193l-66 -415q109 62 259 62q205 0 290.5 -112.5t51.5 -321.5l-96 -607h-193l95 597q23 148 -13.5 201t-164.5 53q-133 0 -203.5 -77t-100.5 -268l-80 -506h-193zM98 1439l276 323h124l173 -323h-234l-40 77l-64 -77h-235z" />
    <glyph glyph-name="Hbar" unicode="&#x126;" horiz-adv-x="1124" 
d="M105 0l146 922h-73l31 196h73l44 276h194l-44 -276h535l44 276h196l-44 -276h64l-31 -196h-64l-146 -922h-196l97 610h-535l-97 -610h-194zM426 802h535l19 120h-535z" />
    <glyph glyph-name="hbar" unicode="&#x127;" horiz-adv-x="1072" 
d="M96 0l166 1050h-94l31 195h94l24 149h194l-24 -149h193l-31 -195h-193l-11 -71q109 62 260 62q205 0 290 -112.5t51 -321.5l-96 -607h-193l95 597q23 149 -13 201.5t-164 52.5q-133 0 -204 -77t-101 -268l-80 -506h-194z" />
    <glyph glyph-name="Itilde" unicode="&#x128;" horiz-adv-x="221" 
d="M11 0l221 1394h195l-221 -1394h-195zM129 1507q-9 83 34 143t121 60q48 0 122 -30q28 -8 34 -10l8 32h151q11 -91 -34 -147t-119 -56q-49 0 -123 28l-33 12l-8 -32h-153z" />
    <glyph glyph-name="itilde" unicode="&#x129;" horiz-adv-x="205" 
d="M-16 0l163 1032h194l-163 -1032h-194zM84 1278q-8 83 35 143t121 60q48 0 122 -30q27 -8 33 -10l8 32h151q12 -91 -33 -147t-119 -56q-49 0 -123 28l-34 12l-8 -32h-153z" />
    <glyph glyph-name="Imacron" unicode="&#x12a;" horiz-adv-x="262" 
d="M35 0l221 1394h194l-221 -1394h-194zM166 1502l31 195h406l-31 -195h-406z" />
    <glyph glyph-name="imacron" unicode="&#x12b;" horiz-adv-x="247" 
d="M26 0l163 1032h195l-163 -1032h-195zM115 1232l31 196h407l-31 -196h-407z" />
    <glyph glyph-name="Ibreve" unicode="&#x12c;" horiz-adv-x="289" 
d="M49 0l221 1394h193l-221 -1394h-193zM189 1810h191q-31 -100 -25.5 -127t52.5 -27q48 0 63 28.5t15 125.5h191q5 -150 -83 -249t-216 -99q-130 0 -185 98.5t-3 249.5z" />
    <glyph glyph-name="ibreve" unicode="&#x12d;" horiz-adv-x="302" 
d="M51 0l163 1032h194l-163 -1032h-194zM146 1504h188q-29 -99 -22.5 -127t53.5 -28t61.5 28.5t15.5 126.5h191q4 -151 -83.5 -250t-215.5 -99q-130 0 -185 99t-3 250z" />
    <glyph glyph-name="Iogonek" unicode="&#x12e;" horiz-adv-x="470" 
d="M105 -396q-34 0 -64 10t-56 32t-37.5 63.5t-2.5 96.5q16 100 84 187t169 143l12 -7l201 1265h194l-217 -1367q-222 -74 -245 -216q-2 -13 0 -13q31 0 61.5 27.5t163.5 168.5l-46 -292q-96 -98 -217 -98z" />
    <glyph glyph-name="iogonek" unicode="&#x12f;" horiz-adv-x="491" 
d="M98 -392q-33 0 -63 10t-56.5 32t-38 63t-2.5 96q17 108 97 204.5t192 147.5l138 871h193l-163 -1032h-92q-71 -24 -114.5 -72.5t-53.5 -113.5q-3 -13 0 -13q31 0 61 27t165 168l-46 -290q-95 -98 -217 -98zM376 1205q8 47 46 80.5t86 33.5q47 0 75.5 -33.5t20.5 -80.5
t-46.5 -80t-85.5 -33q-48 0 -76 33t-20 80z" />
    <glyph glyph-name="Idotaccent" unicode="&#x130;" horiz-adv-x="483" 
d="M144 0l221 1394h194l-221 -1394h-194zM381 1600q8 47 46.5 81t85.5 34q48 0 75.5 -34t19.5 -81q-7 -47 -46 -80.5t-86 -33.5q-46 0 -74 33.5t-21 80.5z" />
    <glyph glyph-name="dotlessi" unicode="&#x131;" horiz-adv-x="573" 
d="M190 0l163 1032h193l-163 -1032h-193z" />
    <glyph glyph-name="IJ" unicode="&#x132;" horiz-adv-x="1494" 
d="M475 515l14 92h198q-62 -230 26 -358q62 -90 174 -95q117 -4 217 85q119 107 149 298l136 857h192l-136 -859q-42 -263 -222 -417q-145 -123 -325 -134q-173 -11 -293 87q-141 116 -139 336q0 52 9 108zM134 0l221 1394h192l-221 -1394h-192z" />
    <glyph glyph-name="ij" unicode="&#x133;" horiz-adv-x="785" 
d="M295 -370q-140 0 -210 86l98 159l24 -15t21 -13t16 -9.5t15.5 -8t13 -4.5t15.5 -3.5t16 -1.5t20 -1h12q56 0 76 20t31 91l174 1102h192l-174 -1102q-23 -144 -110.5 -222t-216.5 -78h-13zM138 0l163 1032h193l-163 -1032h-193zM310 1201q8 47 47 80.5t86 33.5
q46 0 74.5 -33.5t20.5 -80.5t-46.5 -80t-84.5 -33q-47 0 -75.5 33.5t-21.5 79.5zM625 1202q8 47 47 80.5t85 33.5q47 0 76.5 -33t21.5 -81q-7 -47 -47 -80t-87 -33q-46 0 -74.5 33t-21.5 80z" />
    <glyph glyph-name="Jcircumflex" unicode="&#x134;" horiz-adv-x="1060" 
d="M132 515l14 92h197q-62 -230 27 -358q62 -91 175 -95q116 -4 216 86q118 108 148 297l136 857h193l-136 -859q-42 -263 -222 -417q-145 -123 -325 -134q-173 -11 -293 87q-141 116 -139 336q0 52 9 108zM858 1439l275 323h123l174 -323h-236l-39 77l-64 -77h-233z" />
    <glyph glyph-name="jcircumflex" unicode="&#x135;" horiz-adv-x="383" 
d="M-21 -370q-144 0 -212 86l100 158l27.5 -16.5t23 -14t17 -9.5t17 -7.5t15.5 -4t19 -3t21 -0.5h13q55 0 74.5 20.5t30.5 90.5l174 1102h194l-174 -1102q-23 -144 -111 -222t-216 -78h-13zM140 1162l266 352h130l153 -352h-228l-34 85l-63 -85h-224z" />
    <glyph glyph-name="uni0136" unicode="&#x136;" horiz-adv-x="1362" 
d="M204 0l221 1394h193l-100 -632l708 632h269l-684 -611l429 -783h-237l-351 643l-178 -158l-77 -485h-193zM366 -398l191 375h179l-16 -103l-156 -272h-198z" />
    <glyph glyph-name="uni0137" unicode="&#x137;" horiz-adv-x="1136" 
d="M186 0l221 1394h194l-123 -775l464 413h269l-460 -408l296 -624h-229l-227 484l-156 -139l-55 -345h-194zM250 -405l190 374h179l-16 -103l-155 -271h-198z" />
    <glyph glyph-name="kgreenlandic" unicode="&#x138;" horiz-adv-x="1034" 
d="M142 0l164 1035h194l-66 -416l465 413h268l-460 -408l296 -624h-229l-227 484l-156 -139l-55 -345h-194z" />
    <glyph glyph-name="Lacute" unicode="&#x139;" horiz-adv-x="1139" 
d="M196 0l221 1394h192l-191 -1203h731l-30 -191h-923zM364 1439l235 323h242l-267 -323h-210z" />
    <glyph glyph-name="lacute" unicode="&#x13a;" horiz-adv-x="584" 
d="M475 1q-138 -31 -207.5 32t-46.5 210l183 1151h194l-182 -1147q-7 -44 5.5 -57t71.5 -5zM370 1525l247 353h240l-277 -353h-210z" />
    <glyph glyph-name="uni013B" unicode="&#x13b;" horiz-adv-x="1225" 
d="M204 0l221 1394h193l-191 -1203h730l-30 -191h-923zM354 -400l189 374h180l-16 -103l-156 -271h-197z" />
    <glyph glyph-name="uni013C" unicode="&#x13c;" horiz-adv-x="504" 
d="M464 1q-138 -31 -207.5 32t-46.5 210l183 1151h194l-182 -1147q-7 -44 5.5 -57t71.5 -5zM56 -404l191 374h179l-16 -103l-156 -271h-198z" />
    <glyph glyph-name="Lcaron" unicode="&#x13d;" horiz-adv-x="1094" 
d="M150 0l221 1394h194l-191 -1203h730l-30 -191h-924zM618 1030l185 364h178l-194 -364h-169z" />
    <glyph glyph-name="lcaron" unicode="&#x13e;" horiz-adv-x="742" 
d="M434 1q-138 -31 -207.5 32t-46.5 210l183 1151h194l-182 -1147q-7 -44 5.5 -57t71.5 -5zM614 1117l3 20l168 325h149l-14 -83l-150 -262h-156z" />
    <glyph glyph-name="Ldot" unicode="&#x13f;" horiz-adv-x="1094" 
d="M150 0l221 1394h194l-191 -1203h730l-30 -191h-924zM653 788q7 48 46.5 81t86.5 33t74.5 -33.5t20.5 -80.5t-45.5 -80t-85.5 -33t-75.5 33t-21.5 80z" />
    <glyph glyph-name="ldot" unicode="&#x140;" horiz-adv-x="591" 
d="M434 1q-138 -31 -207.5 32t-46.5 210l183 1151h194l-182 -1147q-7 -44 5.5 -57t71.5 -5zM507 788q7 47 46.5 80.5t85.5 33.5q47 0 75.5 -33.5t21.5 -80.5t-46.5 -80t-86.5 -33q-46 0 -74.5 33t-21.5 80z" />
    <glyph glyph-name="Lslash" unicode="&#x141;" horiz-adv-x="1146" 
d="M201 2l79 494l-223 -121l36 225l222 122l107 674h194l-89 -560l359 195l-36 -226l-358 -195l-66 -417h731l-31 -191h-925z" />
    <glyph glyph-name="lslash" unicode="&#x142;" horiz-adv-x="384" 
d="M386 1q-138 -31 -207.5 32t-46.5 210l35 216l-114 -73l38 239l114 74l110 695h194l-88 -555l116 75l-39 -242l-115 -74l-56 -351q-7 -44 5.5 -57t71.5 -5z" />
    <glyph glyph-name="Nacute" unicode="&#x143;" horiz-adv-x="1268" 
d="M150 0l221 1394h173l444 -990l157 990h194l-221 -1394h-175l-443 987l-156 -987h-194zM705 1439l235 323h241l-264 -323h-212z" />
    <glyph glyph-name="nacute" unicode="&#x144;" horiz-adv-x="1117" 
d="M142 0l163 1032h194l-8 -53q109 62 258 62q205 0 290.5 -112.5t51.5 -321.5l-96 -607h-192l95 597q23 149 -13 201.5t-166 52.5q-133 0 -203 -77t-100 -268l-80 -506h-194zM587 1162l247 352h240l-277 -352h-210z" />
    <glyph glyph-name="uni0145" unicode="&#x145;" horiz-adv-x="1375" 
d="M204 0l221 1394h174l442 -990l157 990h194l-221 -1394h-176l-442 987l-156 -987h-193zM414 -403l192 374h178l-16 -103l-156 -271h-198z" />
    <glyph glyph-name="uni0146" unicode="&#x146;" horiz-adv-x="1215" 
d="M186 0l163 1032h194l-8 -52q110 61 259 61q205 0 290 -112.5t51 -321.5l-96 -607h-193l95 597q23 149 -13 201.5t-164 52.5q-133 0 -203.5 -77t-100.5 -268l-80 -506h-194zM328 -404l190 374h179l-16 -103l-156 -271h-197z" />
    <glyph glyph-name="Ncaron" unicode="&#x147;" horiz-adv-x="1268" 
d="M150 0l221 1394h173l444 -990l157 990h194l-221 -1394h-175l-443 987l-156 -987h-194zM627 1762h236l39 -77l64 77h234l-276 -323h-124z" />
    <glyph glyph-name="ncaron" unicode="&#x148;" horiz-adv-x="1117" 
d="M142 0l163 1032h194l-8 -53q109 62 258 62q205 0 290.5 -112.5t51.5 -321.5l-96 -607h-192l95 597q23 149 -13 201.5t-166 52.5q-133 0 -203 -77t-100 -268l-80 -506h-194zM524 1514h227l33 -84l62 84h224l-263 -352h-130z" />
    <glyph glyph-name="napostrophe" unicode="&#x149;" horiz-adv-x="1219" 
d="M244 0l138 871h-137l-5 91l235 500h198l-193 -430h121l-8 -52q108 61 258 61q205 0 290.5 -112.5t51.5 -321.5l-96 -607h-193l95 597q23 149 -13 201.5t-165 52.5q-133 0 -203 -77t-100 -268l-80 -506h-194z" />
    <glyph glyph-name="Eng" unicode="&#x14a;" horiz-adv-x="1268" 
d="M683 -198q34 -2 50.5 -2.5t41 -0.5t34.5 1t26 4t22 7.5t15.5 12.5t13 17t9 23.5t8 30t6.5 37.5l17 106l-426 949l-156 -987h-194l221 1394h173l444 -990l157 990h194l-227 -1434q-8 -48 -15 -78q-37 -158 -150 -222.5t-296 -54.5z" />
    <glyph glyph-name="eng" unicode="&#x14b;" horiz-adv-x="1117" 
d="M643 -370q-143 0 -211 86l97 158q13 -7 33 -19t26.5 -15.5t19 -9.5t20 -7t18.5 -2.5t25 -1.5h12q55 0 74.5 19.5t32.5 91.5l108 667q23 149 -13 201.5t-166 52.5q-133 0 -203 -77t-100 -268l-80 -506h-194l163 1032h194l-8 -53q109 62 258 62q205 0 290.5 -112.5
t51.5 -321.5l-109 -677q-24 -144 -111 -222t-216 -78h-12z" />
    <glyph glyph-name="Omacron" unicode="&#x14c;" horiz-adv-x="1379" 
d="M677 -16q-136 0 -243.5 50t-173.5 142t-92 222.5t1 291.5q26 160 92.5 293t162.5 224.5t219 142t259 50.5h18q186 0 313 -89.5t177.5 -250.5t17.5 -370q-50 -316 -251.5 -511t-481.5 -195h-18zM363 690q-39 -248 51 -380.5t294 -132.5h18q207 0 338.5 132.5t170.5 380.5
q40 250 -50 382.5t-296 132.5h-18q-205 0 -336.5 -132.5t-171.5 -382.5zM729 1502l31 195h406l-31 -195h-406z" />
    <glyph glyph-name="omacron" unicode="&#x14d;" 
d="M539 -10q-139 0 -238 68t-141 188t-18 271q36 230 193 377t371 147h16q213 0 323 -146.5t74 -377.5q-36 -230 -194 -378.5t-370 -148.5h-16zM336 517q-25 -161 36 -248.5t198 -87.5h16q138 0 226 87.5t114 248.5q25 161 -35.5 247.5t-198.5 86.5h-16q-138 0 -226.5 -86.5
t-113.5 -247.5zM540 1232l31 196h406l-31 -196h-406z" />
    <glyph glyph-name="Obreve" unicode="&#x14e;" horiz-adv-x="1379" 
d="M678 -12q-276 0 -417.5 194t-90.5 514q26 160 92.5 293t162.5 224.5t219 142t259 50.5h18q186 0 313 -89.5t177.5 -250.5t17.5 -370q-50 -316 -251 -512t-482 -196h-18zM364 696q-40 -249 50 -381t295 -132h18q207 0 338.5 132.5t170.5 380.5q40 250 -50 382.5
t-296 132.5h-18q-205 0 -336.5 -132.5t-171.5 -382.5zM731 1810h189q-29 -100 -23.5 -127t52.5 -27q48 0 63.5 28t16.5 126h187q6 -150 -81.5 -249t-215.5 -99q-129 0 -185 99t-3 249z" />
    <glyph glyph-name="obreve" unicode="&#x14f;" 
d="M539 -10q-139 0 -238 68t-141 188t-18 271q36 230 193 377t371 147h16q213 0 323 -146.5t74 -377.5q-36 -230 -194 -378.5t-370 -148.5h-16zM336 517q-25 -161 36 -248.5t198 -87.5h16q138 0 226 87.5t114 248.5q25 161 -35.5 247.5t-198.5 86.5h-16q-138 0 -226.5 -86.5
t-113.5 -247.5zM544 1504h188q-28 -99 -22 -127t52 -28q48 0 63 28.5t16 126.5h188q6 -150 -81.5 -249.5t-216.5 -99.5t-184.5 99.5t-2.5 249.5z" />
    <glyph glyph-name="Ohungarumlaut" unicode="&#x150;" horiz-adv-x="1379" 
d="M677 -16q-136 0 -243.5 50t-173.5 142t-92 222.5t1 291.5q26 160 92.5 293t162.5 224.5t219 142t259 50.5h18q186 0 313 -89.5t177.5 -250.5t17.5 -370q-50 -316 -251.5 -511t-481.5 -195h-18zM363 690q-39 -248 51 -380.5t294 -132.5h18q207 0 338.5 132.5t170.5 380.5
q40 250 -50 382.5t-296 132.5h-18q-205 0 -336.5 -132.5t-171.5 -382.5zM635 1439l235 323h243l-265 -323h-213zM888 1439l234 323h242l-265 -323h-211z" />
    <glyph glyph-name="ohungarumlaut" unicode="&#x151;" 
d="M539 -10q-139 0 -238 68t-141 188t-18 271q36 230 193 377t371 147h16q213 0 323 -146.5t74 -377.5q-36 -230 -194 -378.5t-370 -148.5h-16zM336 517q-25 -161 36 -248.5t198 -87.5h16q138 0 226 87.5t114 248.5q25 161 -35.5 247.5t-198.5 86.5h-16q-138 0 -226.5 -86.5
t-113.5 -247.5zM449 1163l236 324h242l-268 -324h-210zM700 1163l235 324h243l-267 -324h-211z" />
    <glyph glyph-name="OE" unicode="&#x152;" horiz-adv-x="2120" 
d="M677 -16q-136 0 -243.5 50t-173.5 142t-92 222.5t1 291.5q26 160 92.5 293t162.5 224.5t219 142t259 50.5h18q128 0 230 -44.5t170 -127.5l27 166h924l-31 -192h-731l-64 -404h669l-30 -191h-669l-66 -416h731l-30 -191h-924l24 154q-195 -170 -455 -170h-18zM363 690
q-39 -248 51 -380.5t294 -132.5h18q207 0 338.5 132.5t170.5 380.5q40 250 -50 382.5t-296 132.5h-18q-205 0 -336.5 -132.5t-171.5 -382.5z" />
    <glyph glyph-name="oe" unicode="&#x153;" horiz-adv-x="1849" 
d="M539 -10q-139 0 -238 68t-141 188t-18 271q36 230 193 377t371 147h16q121 0 212.5 -51t141.5 -144q78 90 182.5 141t222.5 54q112 -2 198 -48.5t133.5 -127.5t60 -190.5t-22.5 -237.5h-737q-1 -125 61 -190.5t181 -65.5h17q103 0 175 49t126 152l164 -77
q-76 -144 -208 -229.5t-288 -85.5h-17q-121 0 -212 52t-140 146q-80 -94 -187.5 -146t-229.5 -52h-16zM336 517q-25 -161 36 -248.5t198 -87.5h16q138 0 226 87.5t114 248.5q25 161 -35.5 247.5t-198.5 86.5h-16q-138 0 -226.5 -86.5t-113.5 -247.5zM1149 624h532
q-12 219 -230 227q-220 -8 -302 -227z" />
    <glyph glyph-name="Racute" unicode="&#x154;" horiz-adv-x="1197" 
d="M150 0l221 1394h485q223 0 327.5 -105t73.5 -302v-2q-25 -155 -117 -254t-240 -134l247 -597h-224l-238 578h-249l-92 -578h-194zM466 770h291q154 0 221 48t86 169q20 120 -32.5 167.5t-206.5 47.5h-291zM677 1439l233 323h244l-265 -323h-212z" />
    <glyph glyph-name="racute" unicode="&#x155;" horiz-adv-x="849" 
d="M142 0l163 1032h194l-8 -53q109 62 258 62q136 0 208 -44l-70 -181q-37 13 -56 19t-49 11t-63 5q-133 0 -203 -77t-100 -268l-80 -506h-194zM449 1162l246 352h241l-278 -352h-209z" />
    <glyph glyph-name="uni0156" unicode="&#x156;" horiz-adv-x="1275" 
d="M204 0l221 1394h485q222 0 327 -105t74 -302v-2q-25 -155 -117.5 -254t-240.5 -134l246 -597h-222l-240 578h-248l-92 -578h-193zM368 -406l192 374h179l-16 -103l-158 -271h-197zM519 770h292q153 0 220.5 48t86.5 169q20 120 -33 167.5t-206 47.5h-292z" />
    <glyph glyph-name="uni0157" unicode="&#x157;" horiz-adv-x="940" 
d="M208 0l163 1032h193l-8 -53q109 62 260 62q137 0 206 -44l-67 -181q-43 14 -59.5 19t-47 10.5t-62.5 5.5q-133 0 -204 -77t-101 -268l-80 -506h-193zM33 -402l192 374h179l-17 -103l-156 -271h-198z" />
    <glyph glyph-name="Rcaron" unicode="&#x158;" horiz-adv-x="1197" 
d="M150 0l221 1394h485q223 0 327.5 -105t73.5 -302v-2q-25 -155 -117 -254t-240 -134l247 -597h-224l-238 578h-249l-92 -578h-194zM466 770h291q154 0 221 48t86 169q20 120 -32.5 167.5t-206.5 47.5h-291zM599 1762h236l39 -77l64 77h234l-277 -323h-123z" />
    <glyph glyph-name="rcaron" unicode="&#x159;" horiz-adv-x="729" 
d="M64 0l163 1032h194l-8 -53q109 62 260 62q128 0 208 -42l-72 -183q-38 14 -56 19.5t-47.5 10.5t-62.5 5q-134 0 -204.5 -77t-100.5 -268l-80 -506h-194zM307 1514h227l34 -84l61 84h227l-265 -352h-131z" />
    <glyph glyph-name="Sacute" unicode="&#x15a;" horiz-adv-x="1138" 
d="M584 -24q-82 0 -154.5 19t-133.5 58t-100 98.5t-53 140.5t8 185h196q-35 -153 39 -230.5t230 -77.5q130 0 211 54t96 148q4 26 4.5 46t-4 38t-13 32t-24 27.5t-35 24t-48.5 22.5t-62 23t-78 24q-107 32 -177 65.5t-121 81.5t-67.5 113t-2.5 153q17 110 96 199.5
t190.5 137.5t230.5 48q77 0 141 -19.5t108 -54t76 -81.5t46 -101.5t17.5 -115t-9.5 -122.5h-193q18 150 -38.5 224.5t-179.5 74.5q-110 0 -190 -48t-94 -139q-4 -24 -4 -43t4.5 -36t12.5 -30t24.5 -25.5t35 -22.5t48.5 -22t62 -22t78 -24q103 -31 173 -66t121 -85
t68.5 -117.5t3.5 -156.5q-27 -170 -182.5 -284t-356.5 -114zM655 1439l234 323h242l-266 -323h-210z" />
    <glyph glyph-name="sacute" unicode="&#x15b;" horiz-adv-x="977" 
d="M499 -14q-70 0 -130.5 15.5t-111.5 48.5t-82 84t-42.5 121.5t7.5 161.5h191q-16 -139 31 -188.5t171 -49.5q191 0 207 108q5 15 2.5 28.5t-4 23.5t-13.5 19t-25.5 16t-40 15t-56.5 15.5t-76 17.5q-51 11 -93 25t-85 39t-69.5 56.5t-39.5 79t-4 104.5q21 133 140 219.5
t277 86.5q82 0 146.5 -23t103.5 -62t64 -91.5t28 -111.5t-4 -122h-190q-2 128 -38.5 173t-141.5 45q-169 0 -186 -112q-7 -49 28.5 -72t142.5 -46q184 -39 269 -111.5t64 -209.5q-22 -137 -147 -220t-293 -83zM512 1162l248 352h239l-277 -352h-210z" />
    <glyph glyph-name="Scircumflex" unicode="&#x15c;" horiz-adv-x="1138" 
d="M584 -24q-82 0 -154.5 19t-133.5 58t-100 98.5t-53 140.5t8 185h196q-35 -153 39 -230.5t230 -77.5q130 0 211 54t96 148q4 26 4.5 46t-4 38t-13 32t-24 27.5t-35 24t-48.5 22.5t-62 23t-78 24q-107 32 -177 65.5t-121 81.5t-67.5 113t-2.5 153q17 110 96 199.5
t190.5 137.5t230.5 48q77 0 141 -19.5t108 -54t76 -81.5t46 -101.5t17.5 -115t-9.5 -122.5h-193q18 150 -38.5 224.5t-179.5 74.5q-110 0 -190 -48t-94 -139q-4 -24 -4 -43t4.5 -36t12.5 -30t24.5 -25.5t35 -22.5t48.5 -22t62 -22t78 -24q103 -31 173 -66t121 -85
t68.5 -117.5t3.5 -156.5q-27 -170 -182.5 -284t-356.5 -114zM527 1439l278 323h123l172 -323h-235l-40 77l-63 -77h-235z" />
    <glyph glyph-name="scircumflex" unicode="&#x15d;" horiz-adv-x="977" 
d="M499 -14q-70 0 -130.5 15.5t-111.5 48.5t-82 84t-42.5 121.5t7.5 161.5h191q-16 -139 31 -188.5t171 -49.5q191 0 207 108q5 15 2.5 28.5t-4 23.5t-13.5 19t-25.5 16t-40 15t-56.5 15.5t-76 17.5q-51 11 -93 25t-85 39t-69.5 56.5t-39.5 79t-4 104.5q21 133 140 219.5
t277 86.5q82 0 146.5 -23t103.5 -62t64 -91.5t28 -111.5t-4 -122h-190q-2 128 -38.5 173t-141.5 45q-169 0 -186 -112q-7 -49 28.5 -72t142.5 -46q184 -39 269 -111.5t64 -209.5q-22 -137 -147 -220t-293 -83zM394 1162l264 352h131l151 -352h-226l-35 84l-61 -84h-224z" />
    <glyph glyph-name="Scedilla" unicode="&#x15e;" horiz-adv-x="1138" 
d="M444 -410q-116 0 -164 56l27 174q91 -60 158.5 -49t80.5 86q-5 -4 -239 -31l118 170q-156 41 -235 164t-39 317h196q-35 -153 39 -230.5t230 -77.5q130 0 211 54t96 148q4 26 4.5 46t-4 38t-13 32t-24 27.5t-35 24t-48.5 22.5t-62 23t-78 24q-107 32 -177 65.5t-121 81.5
t-67.5 113t-2.5 153q17 110 96 199.5t190.5 137.5t230.5 48q77 0 141 -19.5t108 -54t76 -81.5t46 -101.5t17.5 -115t-9.5 -122.5h-193q18 150 -38.5 224.5t-179.5 74.5q-110 0 -190 -48t-94 -139q-4 -24 -4 -43t4.5 -36t12.5 -30t24.5 -25.5t35 -22.5t48.5 -22t62 -22
t78 -24q103 -31 173 -66t121 -85t68.5 -117.5t3.5 -156.5q-23 -147 -145.5 -255t-292.5 -136q71 -58 53 -170q-9 -57 -40.5 -102t-75 -70.5t-89 -38t-89.5 -12.5z" />
    <glyph glyph-name="scedilla" unicode="&#x15f;" horiz-adv-x="978" 
d="M374 -407q-116 0 -165 56l28 174q35 -24 70 -37t62.5 -15t49.5 3t35 16.5t15 26.5q4 23 -11 28q-24 8 -200 -14h-1h-1h-1h-1h-1h-1h-1l-1 -1h-1h-1h-1l109 176q-126 36 -187 140t-28 271h191q-16 -139 31 -188.5t171 -49.5q191 0 207 108q5 15 2.5 28.5t-4 23.5t-13.5 19
t-25.5 16t-40 15t-56.5 15.5t-76 17.5q-51 11 -93 25t-85 39t-69.5 56.5t-39.5 79t-4 104.5q21 133 140 219.5t277 86.5q82 0 146.5 -23t103.5 -62t64 -91.5t28 -111.5t-4 -122h-190q-2 128 -38.5 173t-141.5 45q-169 0 -186 -112q-7 -49 28.5 -72t142.5 -46
q184 -39 269 -111.5t64 -209.5q-19 -118 -115 -196t-229 -99q89 -56 71 -177q-12 -76 -63 -129t-110 -74t-120 -21z" />
    <glyph glyph-name="Scaron" unicode="&#x160;" horiz-adv-x="1138" 
d="M584 -24q-82 0 -154.5 19t-133.5 58t-100 98.5t-53 140.5t8 185h196q-35 -153 39 -230.5t230 -77.5q130 0 211 54t96 148q4 26 4.5 46t-4 38t-13 32t-24 27.5t-35 24t-48.5 22.5t-62 23t-78 24q-107 32 -177 65.5t-121 81.5t-67.5 113t-2.5 153q17 110 96 199.5
t190.5 137.5t230.5 48q77 0 141 -19.5t108 -54t76 -81.5t46 -101.5t17.5 -115t-9.5 -122.5h-193q18 150 -38.5 224.5t-179.5 74.5q-110 0 -190 -48t-94 -139q-4 -24 -4 -43t4.5 -36t12.5 -30t24.5 -25.5t35 -22.5t48.5 -22t62 -22t78 -24q103 -31 173 -66t121 -85
t68.5 -117.5t3.5 -156.5q-27 -170 -182.5 -284t-356.5 -114zM575 1762h237l39 -77l64 77h233l-274 -323h-123z" />
    <glyph glyph-name="scaron" unicode="&#x161;" horiz-adv-x="977" 
d="M499 -14q-70 0 -130.5 15.5t-111.5 48.5t-82 84t-42.5 121.5t7.5 161.5h191q-16 -139 31 -188.5t171 -49.5q191 0 207 108q5 15 2.5 28.5t-4 23.5t-13.5 19t-25.5 16t-40 15t-56.5 15.5t-76 17.5q-51 11 -93 25t-85 39t-69.5 56.5t-39.5 79t-4 104.5q21 133 140 219.5
t277 86.5q82 0 146.5 -23t103.5 -62t64 -91.5t28 -111.5t-4 -122h-190q-2 128 -38.5 173t-141.5 45q-169 0 -186 -112q-7 -49 28.5 -72t142.5 -46q184 -39 269 -111.5t64 -209.5q-22 -137 -147 -220t-293 -83zM450 1514h226l34 -85l62 85h224l-263 -352h-131z" />
    <glyph glyph-name="uni0162" unicode="&#x162;" horiz-adv-x="1250" 
d="M488 -408q-113 0 -164 56l28 174q35 -24 70.5 -37t63 -15t49.5 3t35 16.5t15 26.5q4 23 -11 28q-23 8 -194 -14q-14 -2 -32 -4l195 273l174 1103h-467l31 192h1128l-31 -192h-467l-180 -1142l-38 -55q111 -56 90 -189q-9 -58 -40.5 -103t-75 -70.5t-89.5 -38t-90 -12.5z
" />
    <glyph glyph-name="uni0163" unicode="&#x163;" horiz-adv-x="740" 
d="M321 -407q-116 0 -165 56l28 174q35 -24 70 -37t62.5 -15t49.5 3t35 16.5t15 26.5q4 24 -10 29q-22 7 -186 -13h-1h-1l-1 -1h-1h-1h-1h-1h-1h-1l-1 -1h-1h-1h-1h-1h-1h-1h-1l-1 -1h-1h-1h-2l137 234q-66 81 -42 226l88 554h-217l29 188h217l57 360h193l-57 -360h222
l-29 -188h-222l-88 -554q-10 -64 1.5 -86.5t60 -25t144.5 11.5l-29 -182q-76 -18 -112 -20q81 -56 64 -171q-12 -76 -63 -129t-110.5 -74t-120.5 -21z" />
    <glyph glyph-name="Tcaron" unicode="&#x164;" horiz-adv-x="1166" 
d="M485 0l190 1202h-465l31 192h1126l-31 -192h-465l-190 -1202h-196zM576 1762h236l39 -78l65 78h233l-276 -323h-123z" />
    <glyph glyph-name="tcaron" unicode="&#x165;" horiz-adv-x="821" 
d="M885 1460h178l-16 -104l-155 -270h-203zM164 844l29 188h217l57 360h193l-24 -155l-33 -205h222l-29 -188h-222l-88 -554q-10 -64 1.5 -86.5t60 -25t144.5 11.5l-29 -182q-193 -50 -296 25.5t-74 256.5l88 554h-217z" />
    <glyph glyph-name="Tbar" unicode="&#x166;" horiz-adv-x="1166" 
d="M485 0l91 573h-256l31 195h256l68 434h-465l31 192h1126l-31 -192h-465l-68 -434h256l-31 -195h-256l-91 -573h-196z" />
    <glyph glyph-name="tbar" unicode="&#x167;" horiz-adv-x="692" 
d="M663 8q-193 -50 -296 25.5t-74 256.5l34 214h-113l30 189h113l24 151h-217l29 188h217l57 360h193l-57 -360h222l-29 -188h-222l-24 -151h118l-30 -189h-118l-34 -214q-10 -64 1.5 -86.5t60 -25t144.5 11.5z" />
    <glyph glyph-name="Utilde" unicode="&#x168;" horiz-adv-x="1236" 
d="M216 515l139 879h192l-137 -866q-32 -201 65 -304q74 -79 189 -68q121 12 213 117q91 103 117 264l136 857h193l-136 -859q-42 -264 -224 -417q-145 -123 -324 -134q-173 -11 -293 87q-141 116 -139 336q0 52 9 108zM640 1507q-9 83 34 143t121 60q49 0 122 -30
q28 -8 34 -10l8 32h151q11 -91 -34 -147t-119 -56q-49 0 -123 28l-33 12l-8 -32h-153z" />
    <glyph glyph-name="utilde" unicode="&#x169;" 
d="M530 -10q-204 0 -289 113t-52 323l96 606h193l-94 -597q-23 -149 13 -201.5t164 -52.5q134 0 203.5 76.5t99.5 268.5l80 506h194l-163 -1032h-194l8 52q-107 -62 -259 -62zM543 1278q-8 83 35 143t121 60q49 0 122 -30q27 -8 33 -10l8 32h151q12 -91 -33 -147t-119 -56
q-49 0 -123 28l-34 12l-8 -32h-153z" />
    <glyph glyph-name="Umacron" unicode="&#x16a;" horiz-adv-x="1236" 
d="M216 515l139 879h192l-137 -866q-32 -201 65 -304q74 -79 189 -68q121 12 213 117q91 103 117 264l136 857h193l-136 -859q-42 -264 -224 -417q-145 -123 -324 -134q-173 -11 -293 87q-141 116 -139 336q0 52 9 108zM650 1502l31 195h407l-31 -195h-407z" />
    <glyph glyph-name="umacron" unicode="&#x16b;" 
d="M530 -10q-204 0 -289 113t-52 323l96 606h193l-94 -597q-23 -149 13 -201.5t164 -52.5q134 0 203.5 76.5t99.5 268.5l80 506h194l-163 -1032h-194l8 52q-107 -62 -259 -62zM539 1232l31 196h406l-31 -196h-406z" />
    <glyph glyph-name="Ubreve" unicode="&#x16c;" horiz-adv-x="1236" 
d="M216 515l139 879h192l-137 -866q-32 -201 65 -304q74 -79 189 -68q121 12 213 117q91 103 117 264l136 857h193l-136 -859q-42 -264 -224 -417q-145 -123 -324 -134q-173 -11 -293 87q-141 116 -139 336q0 52 9 108zM660 1810h187q-28 -99 -22 -126.5t53 -27.5
q48 0 63 28.5t15 125.5h190q4 -150 -83 -249t-215 -99q-130 0 -185 98.5t-3 249.5z" />
    <glyph glyph-name="ubreve" unicode="&#x16d;" 
d="M530 -10q-204 0 -289 113t-52 323l96 606h193l-94 -597q-23 -149 13 -201.5t164 -52.5q134 0 203.5 76.5t99.5 268.5l80 506h194l-163 -1032h-194l8 52q-107 -62 -259 -62zM534 1504h191q-31 -99 -25 -127t54 -28q46 0 61.5 29t16.5 126h189q5 -150 -82.5 -249.5
t-215.5 -99.5q-130 0 -185.5 99t-3.5 250z" />
    <glyph glyph-name="Uring" unicode="&#x16e;" horiz-adv-x="1236" 
d="M216 515l139 879h192l-137 -866q-32 -201 65 -304q74 -79 189 -68q121 12 213 117q91 103 117 264l136 857h193l-136 -859q-42 -264 -224 -417q-145 -123 -324 -134q-173 -11 -293 87q-141 116 -139 336q0 52 9 108zM677 1600q14 83 79 135t142 52t125.5 -52t34.5 -135
q-13 -83 -77.5 -135t-141.5 -52t-126 52t-36 135zM846 1600q-2 -12 2 -16t17 -4t18 4t6 16q2 13 -1 16t-17 3t-18.5 -3t-6.5 -16z" />
    <glyph glyph-name="uring" unicode="&#x16f;" 
d="M530 -10q-204 0 -289 113t-52 323l96 606h193l-94 -597q-23 -149 13 -201.5t164 -52.5q134 0 203.5 76.5t99.5 268.5l80 506h194l-163 -1032h-194l8 52q-107 -62 -259 -62zM572 1336q13 84 77.5 135.5t141.5 51.5q78 0 126.5 -51.5t35.5 -135.5q-13 -82 -78.5 -134
t-142.5 -52t-125 52t-35 134zM741 1336q-2 -12 1 -15.5t17 -3.5t18.5 3.5t6.5 15.5q1 13 -2 16.5t-17 3.5t-18.5 -3.5t-5.5 -16.5z" />
    <glyph glyph-name="Uhungarumlaut" unicode="&#x170;" horiz-adv-x="1236" 
d="M216 515l139 879h192l-137 -866q-32 -201 65 -304q74 -79 189 -68q121 12 213 117q91 103 117 264l136 857h193l-136 -859q-42 -264 -224 -417q-145 -123 -324 -134q-173 -11 -293 87q-141 116 -139 336q0 52 9 108zM567 1439l235 323h241l-265 -323h-211zM819 1439
l234 323h241l-265 -323h-210z" />
    <glyph glyph-name="uhungarumlaut" unicode="&#x171;" 
d="M530 -10q-204 0 -289 113t-52 323l96 606h193l-94 -597q-23 -149 13 -201.5t164 -52.5q134 0 203.5 76.5t99.5 268.5l80 506h194l-163 -1032h-194l8 52q-107 -62 -259 -62zM456 1163l235 324h242l-267 -324h-210zM707 1163l235 324h243l-267 -324h-211z" />
    <glyph glyph-name="Uogonek" unicode="&#x172;" horiz-adv-x="1236" 
d="M532 -396q-34 0 -64 10t-55.5 32t-37 63.5t-2.5 96.5q19 111 93 199q-138 47 -209.5 179t-40.5 331l139 879h192l-137 -866q-32 -201 65 -304q74 -79 189 -68q121 12 213 117q91 103 117 264l136 857h193l-136 -859q-32 -202 -146 -338t-267 -188q-184 -71 -204 -198
q-2 -13 1 -13q30 0 62 29t164 171l-47 -294q-94 -100 -218 -100z" />
    <glyph glyph-name="uogonek" unicode="&#x173;" 
d="M680 -390q-74 0 -125.5 48t-35.5 153q15 95 80 182q-33 -3 -69 -3q-204 0 -289 113t-52 323l96 606h193l-94 -597q-23 -149 13 -201.5t164 -52.5q134 0 203.5 76.5t99.5 268.5l80 506h194l-163 -1032h-94q-142 -51 -163 -184q-2 -13 1 -13q30 0 60.5 27.5t164.5 169.5
l-46 -293q-95 -97 -218 -97z" />
    <glyph glyph-name="Wcircumflex" unicode="&#x174;" horiz-adv-x="1722" 
d="M398 0l-167 1394h202l118 -992l442 931h157l149 -931l433 992h201l-609 -1394h-165l-149 940l-449 -940h-163zM802 1439l275 323h124l173 -323h-236l-40 78l-64 -78h-232z" />
    <glyph glyph-name="wcircumflex" unicode="&#x175;" horiz-adv-x="1452" 
d="M331 0l-124 1032h203l76 -642l328 642h153l125 -640l278 640h201l-448 -1032h-161l-128 673l-346 -673h-157zM636 1162l265 352h131l152 -352h-228l-34 84l-60 -84h-226z" />
    <glyph glyph-name="Ycircumflex" unicode="&#x176;" horiz-adv-x="1171" 
d="M490 0l63 425l-332 969h219l248 -734l484 734h220l-648 -969l-62 -425h-192zM528 1439l275 323h122l174 -323h-236l-39 77l-64 -77h-232z" />
    <glyph glyph-name="ycircumflex" unicode="&#x177;" horiz-adv-x="1050" 
d="M214 -135q25 -16 38 -23t22.5 -12t15 0t8.5 9t10 19t13 26l113 198l-241 950h211l173 -700l397 700h209l-697 -1224q-78 -138 -178.5 -167.5t-199.5 54.5zM436 1162l266 352h131l151 -352h-226l-35 84l-61 -84h-226z" />
    <glyph glyph-name="Ydieresis" unicode="&#x178;" horiz-adv-x="1171" 
d="M490 0l63 425l-332 969h219l248 -734l484 734h220l-648 -969l-62 -425h-192zM596 1600q8 47 47 81t86 34t75 -34t20 -81q-7 -47 -46 -80.5t-86 -33.5t-75 33.5t-21 80.5zM857 1600q8 47 47 81t86 34t75 -34t20 -81q-7 -47 -46 -80.5t-86 -33.5t-75 33.5t-21 80.5z" />
    <glyph glyph-name="Zacute" unicode="&#x179;" horiz-adv-x="1057" 
d="M46 0l23 145l869 1057h-702l31 192h965l-23 -144l-871 -1059h703l-30 -191h-965zM600 1439l235 323h242l-265 -323h-212z" />
    <glyph glyph-name="zacute" unicode="&#x17a;" horiz-adv-x="936" 
d="M46 0l23 146l676 696h-566l30 190h844l-23 -151l-669 -690h559l-30 -191h-844zM483 1162l249 352h238l-276 -352h-211z" />
    <glyph glyph-name="Zdotaccent" unicode="&#x17b;" horiz-adv-x="1057" 
d="M46 0l23 145l869 1057h-702l31 192h965l-23 -144l-871 -1059h703l-30 -191h-965zM668 1600q8 47 47 81t86 34q48 0 75.5 -34t19.5 -81q-7 -47 -46 -80.5t-86 -33.5q-46 0 -74.5 33.5t-21.5 80.5z" />
    <glyph glyph-name="zdotaccent" unicode="&#x17c;" horiz-adv-x="936" 
d="M46 0l23 146l676 696h-566l30 190h844l-23 -151l-669 -690h559l-30 -191h-844zM550 1335q7 46 46 79.5t86 33.5t76.5 -33t21.5 -80q-7 -47 -47 -81t-87 -34t-75 34t-21 81z" />
    <glyph glyph-name="Zcaron" unicode="&#x17d;" horiz-adv-x="1057" 
d="M46 0l23 145l869 1057h-702l31 192h965l-23 -144l-871 -1059h703l-30 -191h-965zM522 1762h236l40 -77l64 77h234l-276 -323h-124z" />
    <glyph glyph-name="zcaron" unicode="&#x17e;" horiz-adv-x="936" 
d="M46 0l23 146l676 696h-566l30 190h844l-23 -151l-669 -690h559l-30 -191h-844zM420 1514h227l34 -85l63 85h224l-263 -352h-131z" />
    <glyph glyph-name="uni0218" unicode="&#x218;" horiz-adv-x="1167" 
d="M598 -24q-82 0 -154.5 19t-133.5 58t-99.5 98.5t-53 140.5t6.5 185h198q-35 -153 39 -230.5t230 -77.5q130 0 210.5 54t95.5 148q15 98 -35 142t-224 95q-107 32 -177 65.5t-121 81.5t-68 113t-3 153q17 111 96 200t190.5 137t231.5 48q77 0 140.5 -19.5t107.5 -54
t76 -81.5t46 -101.5t17 -115t-11 -122.5h-192q18 150 -38 224.5t-179 74.5q-110 0 -190 -48t-94 -139q-8 -49 -1 -79t40.5 -56t81 -44t140.5 -46q103 -31 173 -66t121 -85t69 -117.5t4 -156.5q-18 -112 -95.5 -203.5t-195 -143t-249.5 -51.5zM324 -406l191 374h179l-16 -103
l-156 -271h-198z" />
    <glyph glyph-name="uni0219" unicode="&#x219;" horiz-adv-x="1001" 
d="M516 -14q-87 0 -159.5 24.5t-127.5 76.5t-73.5 134t1.5 196h192q-17 -139 30 -188.5t171 -49.5q191 0 207 108q5 15 2.5 28.5t-4 23.5t-13.5 19t-25 16t-39.5 15t-57 15.5t-76.5 17.5q-51 11 -93 25t-85 39t-69.5 56.5t-39.5 79t-4 104.5q21 133 140.5 219.5t277.5 86.5
q82 0 146.5 -22.5t103.5 -61.5t64 -91.5t27.5 -112t-5.5 -122.5h-187q-4 129 -40 173.5t-141 44.5q-170 0 -187 -112q-7 -49 29.5 -72t143.5 -46q184 -39 268.5 -111.5t63.5 -209.5q-22 -137 -147.5 -220t-293.5 -83zM244 -402l191 374h179l-17 -103l-155 -271h-198z" />
    <glyph glyph-name="uni021A" unicode="&#x21a;" horiz-adv-x="1250" 
d="M527 0l190 1202h-467l31 192h1128l-31 -192h-467l-190 -1202h-194zM351 -402l191 374h179l-17 -103l-156 -271h-197z" />
    <glyph glyph-name="uni021B" unicode="&#x21b;" horiz-adv-x="740" 
d="M663 8q-193 -50 -296 25.5t-74 256.5l88 554h-217l29 188h217l57 360h193l-57 -360h222l-29 -188h-222l-88 -554q-10 -64 1.5 -86.5t60 -25t144.5 11.5zM168 -403l191 374h179l-16 -103l-156 -271h-198z" />
    <glyph glyph-name="uni0237" unicode="&#x237;" horiz-adv-x="548" 
d="M15 -370q-144 0 -212 86l100 158q10 -6 27.5 -17t23 -14t17.5 -9t17 -7.5t14.5 -4t18.5 -3t22 -0.5h13q55 0 74.5 20.5t30.5 90.5l174 1102h194l-174 -1102q-23 -144 -111 -222t-216 -78h-13z" />
    <glyph glyph-name="circumflex" unicode="&#x2c6;" horiz-adv-x="799" 
d="M352 1428l265 353h131l151 -353h-226l-34 85l-63 -85h-224z" />
    <glyph glyph-name="caron" unicode="&#x2c7;" horiz-adv-x="799" 
d="M561 1428l-153 353h226l35 -86l62 86h224l-263 -353h-131z" />
    <glyph glyph-name="breve" unicode="&#x2d8;" horiz-adv-x="799" 
d="M624 1420q-130 0 -185 99.5t-3 250.5h189q-29 -99 -23 -127t53 -28t62.5 28.5t16.5 126.5h189q6 -150 -82 -250t-217 -100z" />
    <glyph glyph-name="dotaccent" unicode="&#x2d9;" horiz-adv-x="965" 
d="M717 1486q-47 0 -75 33.5t-21 80.5q8 47 46.5 81t86.5 34q47 0 75 -34t21 -81t-47 -80.5t-86 -33.5z" />
    <glyph glyph-name="ring" unicode="&#x2da;" horiz-adv-x="893" 
d="M670 1416q-77 0 -125 52t-35 135t77.5 134.5t141.5 51.5q78 0 126.5 -51.5t35.5 -134.5t-78.5 -135t-142.5 -52zM679 1603q-2 -13 1.5 -16.5t16.5 -3.5q14 0 18.5 3.5t6.5 16.5t-1.5 16t-17.5 3q-13 0 -18 -3.5t-6 -15.5z" />
    <glyph glyph-name="ogonek" unicode="&#x2db;" horiz-adv-x="1037" 
d="M285 -396q-75 0 -125.5 48.5t-34.5 153.5q21 135 133.5 245.5t263.5 138.5l133 -163q-153 -9 -235.5 -67t-96.5 -149q-2 -13 1 -13q30 0 60 27t164 169l-46 -292q-93 -98 -217 -98z" />
    <glyph glyph-name="tilde" unicode="&#x2dc;" horiz-adv-x="701" 
d="M690 1524q-49 0 -123 28l-33 12l-8 -32h-153q-9 83 34 143t121 60q48 0 122 -30q27 -8 33 -10l9 32h151q11 -91 -34 -147t-119 -56z" />
    <glyph glyph-name="hungarumlaut" unicode="&#x2dd;" horiz-adv-x="950" 
d="M676 1428l236 325h242l-267 -325h-211zM424 1428l235 325h243l-266 -325h-212z" />
    <glyph glyph-name="uni0326" unicode="&#x326;" horiz-adv-x="0" 
d="M152 -306l190 373h179l-17 -104l-156 -269h-196z" />
    <glyph glyph-name="Wgrave" unicode="&#x1e80;" horiz-adv-x="1722" 
d="M398 0l-167 1394h202l118 -992l442 931h157l149 -931l433 992h201l-609 -1394h-165l-149 940l-449 -940h-163zM867 1762h243l132 -323h-213z" />
    <glyph glyph-name="wgrave" unicode="&#x1e81;" horiz-adv-x="1452" 
d="M331 0l-124 1032h203l76 -642l328 642h153l125 -640l278 640h201l-448 -1032h-161l-128 673l-346 -673h-157zM691 1514h239l137 -352h-210z" />
    <glyph glyph-name="Wacute" unicode="&#x1e82;" horiz-adv-x="1722" 
d="M398 0l-167 1394h202l118 -992l442 931h157l149 -931l433 992h201l-609 -1394h-165l-149 940l-449 -940h-163zM917 1439l234 323h243l-265 -323h-212z" />
    <glyph glyph-name="wacute" unicode="&#x1e83;" horiz-adv-x="1452" 
d="M331 0l-124 1032h203l76 -642l328 642h153l125 -640l278 640h201l-448 -1032h-161l-128 673l-346 -673h-157zM755 1162l248 352h240l-277 -352h-211z" />
    <glyph glyph-name="Wdieresis" unicode="&#x1e84;" horiz-adv-x="1722" 
d="M398 0l-167 1394h202l118 -992l442 931h157l149 -931l433 992h201l-609 -1394h-165l-149 940l-449 -940h-163zM873 1600q8 47 47 81t86 34t75 -34t20 -81q-7 -47 -46 -80.5t-86 -33.5t-75 33.5t-21 80.5zM1134 1600q8 47 47 81t86 34t75 -34t20 -81q-7 -47 -46 -80.5
t-86 -33.5t-75 33.5t-21 80.5z" />
    <glyph glyph-name="wdieresis" unicode="&#x1e85;" horiz-adv-x="1452" 
d="M331 0l-124 1032h203l76 -642l328 642h153l125 -640l278 640h201l-448 -1032h-161l-128 673l-346 -673h-157zM695 1336q7 47 46 81t86 34t75 -34t21 -81q-8 -47 -46.5 -80.5t-85.5 -33.5t-75.5 33.5t-20.5 80.5zM956 1336q7 47 46 81t86 34t75 -34t21 -81
q-8 -47 -46.5 -80.5t-85.5 -33.5t-75.5 33.5t-20.5 80.5z" />
    <glyph glyph-name="uni1E9E" unicode="&#x1e9e;" horiz-adv-x="1257" 
d="M527 219q106 -30 220 -30q104 0 151.5 27t58.5 91q7 45 -10.5 80.5t-87.5 110.5q-75 81 -97.5 141t-10.5 137q12 78 53.5 137t142.5 140q94 75 122.5 110.5t35.5 80.5q10 64 -29.5 92t-142.5 28h-316l-216 -1364h-197l247 1559h515q178 0 269.5 -85.5t67.5 -234.5
q-14 -89 -76.5 -170.5t-177.5 -170.5q-58 -44 -75 -65.5t-22 -56.5t5 -57t53 -66q87 -88 124 -169t23 -171q-24 -150 -143.5 -235.5t-297.5 -85.5q-114 0 -222 23z" />
    <glyph glyph-name="Ygrave" unicode="&#x1ef2;" horiz-adv-x="1171" 
d="M490 0l63 425l-332 969h219l248 -734l484 734h220l-648 -969l-62 -425h-192zM587 1762h243l133 -323h-211z" />
    <glyph glyph-name="ygrave" unicode="&#x1ef3;" horiz-adv-x="1050" 
d="M214 -135q25 -16 38 -23t22.5 -12t15 0t8.5 9t10 19t13 26l113 198l-241 950h211l173 -700l397 700h209l-697 -1224q-78 -138 -178.5 -167.5t-199.5 54.5zM492 1514h238l138 -352h-210z" />
    <glyph glyph-name="endash" unicode="&#x2013;" horiz-adv-x="1057" 
d="M209 496l31 196h797l-31 -196h-797z" />
    <glyph glyph-name="emdash" unicode="&#x2014;" horiz-adv-x="1803" 
d="M139 496l31 196h1683l-31 -196h-1683z" />
    <glyph glyph-name="quoteleft" unicode="&#x2018;" horiz-adv-x="525" 
d="M242 871l-6 91l236 500h197l-262 -591h-165z" />
    <glyph glyph-name="quoteright" unicode="&#x2019;" horiz-adv-x="524" 
d="M226 871l262 591h166l3 -92l-233 -499h-198z" />
    <glyph glyph-name="quotesinglbase" unicode="&#x201a;" horiz-adv-x="499" 
d="M51 -206l199 406h164l2 -94l-167 -312h-198z" />
    <glyph glyph-name="quotedblleft" unicode="&#x201c;" horiz-adv-x="789" 
d="M242 871l-6 91l236 500h197l-262 -591h-165zM500 962l236 500h197l-262 -591h-165z" />
    <glyph glyph-name="quotedblright" unicode="&#x201d;" horiz-adv-x="789" 
d="M917 1465l6 -91l-236 -500h-197l262 591h165zM226 874l262 591h165l6 -91l-236 -500h-197z" />
    <glyph glyph-name="quotedblbase" unicode="&#x201e;" horiz-adv-x="760" 
d="M51 -206l199 406h164l2 -94l-167 -312h-198zM312 -206l199 406h164l2 -94l-167 -312h-198z" />
    <glyph glyph-name="dagger" unicode="&#x2020;" horiz-adv-x="1084" 
d="M398 -284l157 1000l-332 -2l32 199l330 -1l73 469h205l-76 -469l332 1l-32 -199l-331 2l-157 -1000h-201z" />
    <glyph glyph-name="daggerdbl" unicode="&#x2021;" horiz-adv-x="1084" 
d="M399 -284l72 466l-332 -1l31 199l332 -2l53 338l-332 -2l32 199l330 -1l73 469h205l-76 -469l332 1l-32 -199l-332 2l-53 -338l332 2l-31 -199l-331 1l-73 -466h-200z" />
    <glyph glyph-name="bullet" unicode="&#x2022;" horiz-adv-x="597" 
d="M371 461q-67 0 -105.5 46t-27.5 112q11 67 63.5 113t119.5 46q68 0 106.5 -46t27.5 -113q-11 -66 -63.5 -112t-120.5 -46z" />
    <glyph glyph-name="ellipsis" unicode="&#x2026;" horiz-adv-x="834" 
d="M413 -24q-33 0 -57 16.5t-34 43.5q-43 -60 -111 -60q-47 0 -75.5 33.5t-21.5 79.5q7 47 46.5 80.5t86.5 33.5q32 0 56 -16.5t35 -43.5q42 60 111 60q32 0 56.5 -17t34.5 -44q19 28 49 44.5t62 16.5q47 0 75.5 -33.5t21.5 -80.5t-46.5 -80t-86.5 -33q-33 0 -57 16.5
t-34 43.5q-19 -27 -49 -43.5t-62 -16.5z" />
    <glyph glyph-name="perthousand" unicode="&#x2030;" horiz-adv-x="2133" 
d="M398 0h-234l1114 1381h235zM226 1046q24 152 123.5 256t239.5 104t206.5 -104t42.5 -256q-24 -151 -124.5 -256.5t-239.5 -105.5q-93 0 -156 51t-85.5 132.5t-6.5 178.5zM427 1046q-14 -90 3.5 -128t74.5 -38t87.5 38t44.5 128t-4 127.5t-75 37.5t-87 -37.5t-44 -127.5z
M846 358q24 152 123.5 256t239.5 104t206.5 -104t42.5 -256q-24 -151 -124.5 -256.5t-239.5 -105.5q-93 0 -156 51t-85.5 132.5t-6.5 178.5zM1047 358q-14 -90 3.5 -128t74.5 -38t87.5 38t44.5 128t-4 127.5t-75 37.5t-87 -37.5t-44 -127.5zM1518 358q24 152 123.5 256
t239.5 104t206.5 -104t42.5 -256q-24 -151 -124.5 -256.5t-239.5 -105.5q-93 0 -156 51t-85.5 132.5t-6.5 178.5zM1719 358q-14 -90 3.5 -128t74.5 -38t87.5 38t44.5 128t-4 127.5t-75 37.5t-87 -37.5t-44 -127.5z" />
    <glyph glyph-name="guilsinglleft" unicode="&#x2039;" horiz-adv-x="694" 
d="M390 146l-248 373l366 373h257l-367 -373l249 -373h-257z" />
    <glyph glyph-name="guilsinglright" unicode="&#x203a;" horiz-adv-x="695" 
d="M93 146l367 373l-249 373h256l250 -373l-368 -373h-256z" />
    <glyph glyph-name="fraction" unicode="&#x2044;" horiz-adv-x="193" 
d="M-312 -74l746 1492l215 35l-745 -1494z" />
    <glyph glyph-name="Euro" unicode="&#x20ac;" horiz-adv-x="1195" 
d="M720 -37q-217 0 -334.5 121.5t-121.5 361.5h-217l117 186h113l5 53l3 15h-152l115 184h81q83 258 251 396t378 138q133 0 217.5 -42t150.5 -140l-149 -137q-58 83 -106 109t-147 26q-284 0 -403 -350h713l-127 -184h-631l-3 -16l-4 -52h638l-107 -186h-542
q8 -161 80 -230.5t220 -69.5q94 0 173.5 35t179.5 122l-38 -240q-161 -100 -353 -100z" />
    <glyph glyph-name="trademark" unicode="&#x2122;" horiz-adv-x="1012" 
d="M572 855l56 348h-122l-56 -348h-128l56 348h-157l19 122h443v-2h95l60 -269l147 269h127l-75 -468h-124l27 154l-83 -150h-103l-34 150l-24 -154h-124z" />
    <glyph glyph-name="partialdiff" unicode="&#x2202;" horiz-adv-x="1083" 
d="M512 -24q-188 0 -285.5 132.5t-65.5 337.5q37 236 192.5 378.5t359.5 142.5q115 0 203 -53q7 192 -40 292.5t-161 100.5q-79 0 -133.5 -25t-138.5 -101l-100 152q101 90 199 129.5t208 39.5q471 0 336 -851q-24 -152 -69.5 -273t-115 -212t-168.5 -140.5t-221 -49.5z
M361 449q-22 -140 26 -210t156 -70q92 0 154 41t108 142t78 277q-49 145 -198 145q-133 0 -216 -84.5t-108 -240.5z" />
    <glyph glyph-name="emptyset" unicode="&#x2205;" horiz-adv-x="1707" 
d="M849 -26q-248 0 -421 151l-174 -150l-116 137l178 154q-113 197 -75 444q33 204 158.5 373t306.5 264t375 95q251 0 422 -150l174 150l117 -138l-179 -154q114 -196 74 -440q-32 -205 -157.5 -375t-306.5 -265.5t-376 -95.5zM442 710q-26 -172 38 -301l860 742
q-116 98 -289 98q-147 0 -277 -68t-218.5 -191.5t-113.5 -279.5zM591 266q118 -97 289 -97q225 0 399 151.5t211 389.5q27 166 -39 298z" />
    <glyph glyph-name="product" unicode="&#x220f;" horiz-adv-x="1085" 
d="M138 -195l219 1382h-99l31 194h945l-31 -194h-98l-219 -1382h-197l219 1382h-352l-219 -1382h-199z" />
    <glyph glyph-name="summation" unicode="&#x2211;" horiz-adv-x="1078" 
d="M-1 -195l22 140l599 670l-339 627l22 139h925l-31 -194h-647l311 -578l-545 -609h704l-31 -195h-990z" />
    <glyph glyph-name="minus" unicode="&#x2212;" horiz-adv-x="1020" 
d="M162 544l31 196h868l-31 -196h-868z" />
    <glyph glyph-name="radical" unicode="&#x221a;" horiz-adv-x="1110" 
d="M414 -284l-108 797h-137l31 195h283l76 -571l546 1404h203l-714 -1825h-180z" />
    <glyph glyph-name="infinity" unicode="&#x221e;" horiz-adv-x="1955" 
d="M557 -24q-217 0 -328.5 159.5t-71.5 411.5q40 253 202.5 414t379.5 161q137 0 232 -63.5t144 -184.5q86 120 204 184t254 64q218 0 328.5 -161t70.5 -414q-40 -252 -201.5 -411.5t-379.5 -159.5q-277 0 -377 249q-85 -122 -202.5 -185.5t-254.5 -63.5zM357 547
q-31 -194 35.5 -286t195.5 -92q279 0 373 378q1 88 -11 155t-34 109.5t-55 69t-70 37t-83 10.5q-61 0 -115.5 -21.5t-102.5 -65t-82.5 -119t-50.5 -175.5zM1170 551q-3 -109 14.5 -186t53.5 -118.5t80.5 -59.5t103.5 -18q128 0 223.5 92.5t126.5 285.5q30 195 -36 288
t-194 93q-59 0 -111 -18t-102.5 -59t-91.5 -117t-67 -183z" />
    <glyph glyph-name="integral" unicode="&#x222b;" horiz-adv-x="657" 
d="M211 -284q-64 0 -115.5 35.5t-68.5 103.5l158 146q28 -69 34.5 -79t24.5 -10q14 0 22.5 10t18.5 48t22 114q19 116 17 504q-1 241 3 350t19 203q29 182 112.5 268t180.5 86q64 0 116 -36.5t66 -106.5l-155 -139q-33 76 -39 82q-6 5 -21 5q-13 0 -21.5 -10t-19 -49
t-22.5 -114q-21 -134 -16 -504q1 -236 -3.5 -347.5t-19.5 -205.5t-47 -165.5t-73 -111t-84.5 -58.5t-88.5 -19z" />
    <glyph glyph-name="approxequal" unicode="&#x2248;" horiz-adv-x="1181" 
d="M219 712q128 227 337 227q56 0 103.5 -17.5t114.5 -56.5q58 -33 79 -41t51 -8q50 0 74 20t109 128l124 -116q-129 -227 -338 -227q-55 0 -101 17t-117 58q-57 33 -78.5 41t-51.5 8q-49 0 -72.5 -20t-107.5 -128zM168 393q128 227 337 227q56 0 103.5 -17.5t114.5 -56.5
q60 -34 81 -42t50 -8q49 0 72.5 20t109.5 128l125 -115q-129 -228 -338 -228q-55 0 -101 17.5t-117 57.5q-58 33 -79.5 41.5t-51.5 8.5q-48 0 -71 -19.5t-109 -128.5z" />
    <glyph glyph-name="notequal" unicode="&#x2260;" horiz-adv-x="1094" 
d="M194 183l150 202h-187l31 195h301l93 124h-374l30 195h488l150 203h226l-151 -203h189l-30 -195h-303l-93 -124h376l-31 -195h-489l-151 -202h-225z" />
    <glyph glyph-name="lessequal" unicode="&#x2264;" horiz-adv-x="1020" 
d="M968 150l-31 -197h-868l31 197h868zM174 624l21 134l936 422l-35 -220l-599 -269l514 -271l-35 -219z" />
    <glyph glyph-name="greaterequal" unicode="&#x2265;" horiz-adv-x="1020" 
d="M100 150h868l-31 -197h-868zM108 201l35 219l598 271l-513 269l35 220l802 -422l-21 -134z" />
    <glyph glyph-name="lozenge" unicode="&#x25ca;" horiz-adv-x="948" 
d="M405 0l-226 690l445 691h138l225 -691l-444 -690h-138zM397 690l126 -387l246 387l-124 386z" />
    <glyph glyph-name="uniF8FF" unicode="&#xf8ff;" horiz-adv-x="1562" 
d="M768 253q-151 0 -279.5 75.5t-203 204.5t-74.5 280q0 152 75 280.5t203.5 203t280.5 74.5q151 0 279.5 -75t203.5 -203.5t75 -279.5q0 -152 -74.5 -281t-203.5 -204t-282 -75zM210 29v146h59q26 0 44 -9q37 -17 37 -64q0 -23 -10 -39q-21 -34 -71 -34h-59zM245 56h22
q18 0 26 4q22 10 22 42q0 18 -5 27q-12 20 -43 20h-22v-93zM278 814q0 -205 144 -350t348 -145q203 0 347.5 144.5t144.5 347.5q0 100 -39 191.5t-104.5 157.5t-156 105t-190.5 40q-134 0 -248 -65.5t-180 -178.5t-66 -247zM362 84q0 16 8 29q16 27 52 27q26 0 42 -14
q18 -15 18 -42v-8h-85q0 -8 3 -13q7 -13 25 -13q7 0 10 1q9 3 14 12l31 -3q-2 -10 -10 -17q-14 -16 -45 -16q-17 0 -33 7q-30 14 -30 50zM397 95h52l-3 10q-6 12 -23 12q-10 0 -14 -3q-10 -6 -12 -19zM452 912q10 -2 12 -4q52 -21 98 -27q41 -3 72 2q43 11 47 12
q3 0 8.5 2.5t7.5 3.5q-5 2 -16.5 8t-17 9t-13 8.5t-13.5 12.5h19q39 0 75 19q65 40 136 61q24 8 58 11q4 0 19.5 1t23.5 0q54 -2 89 -33q10 -11 28 -33v-2l-6 2q-45 17 -83 3.5t-62 -53.5q-7 -13 -25 -55q-9 -21 -27 -63.5t-20 -48.5q-33 -64 -65 -101q-27 -33 -66 -58
q-45 -34 -116 -55h-5l24 22q12 11 25 44q41 116 45 127q24 73 57 131v3q-2 -4 -11 -13q-8 -10 -10 -12q-23 -36 -31 -57q-2 -6 -8 -6q-99 3 -177 67q-40 38 -59 55q-1 1 -5 7t-8 10zM491 61l33 2q5 -14 23 -14q20 0 20 11q0 8 -16 11l-21 4q-36 6 -36 31q0 10 6 18
q13 16 46 16q48 0 53 -32l-31 -3q-4 14 -21 14q-19 0 -19 -11q0 -8 16 -12l22 -3q36 -6 36 -30q0 -9 -7 -18q-13 -18 -48 -18q-51 0 -56 34zM615 168q0 15 19 15q18 0 18 -15t-18 -15q-19 0 -19 15zM617 29v109h34v-109h-34zM666 84q0 20 7 31q13 25 43 25q10 0 18 -3
q12 -5 18 -17h1v18h35v-110q0 -14 -9 -23q-15 -19 -52 -19q-50 0 -57 31l31 3l2 -2q2 -3 4 -4q5 -6 21 -6q25 0 25 21v19h-1q-2 -3 -7 -8q-11 -9 -29 -9q-13 0 -25 5q-25 13 -25 48zM701 84q0 -10 3 -16q6 -14 24 -14q25 0 25 30q0 10 -3 17q-6 15 -22 15q-7 0 -15 -4
q-12 -7 -12 -28zM808 29v109h34v-19q10 21 37 21q13 0 23 -5q20 -10 20 -36v-70h-35v64q0 22 -21 22q-7 0 -13 -3q-11 -6 -11 -19v-64h-34zM937 84q0 15 7 29q16 27 54 27q20 0 33 -7q28 -16 28 -49q0 -17 -7 -30q-16 -27 -54 -27q-16 0 -33 7q-28 16 -28 50zM972 84
q0 -9 3 -18q7 -15 23 -15q10 0 15 4q12 9 12 29q0 2 -3 17q-8 16 -24 16q-7 0 -14 -5q-12 -7 -12 -28zM1061 138h36l26 -78h1l26 78h36l-43 -109h-39zM1187 60q0 17 15 25q13 8 32 8l17 3q13 0 13 7v1q0 14 -19 14q-17 0 -22 -13l-32 3q3 10 10 17q15 15 45 15q20 0 37 -9
q15 -8 15 -28v-74h-33v16q-5 -7 -9 -9q-9 -9 -27 -9q-13 0 -21 4q-21 8 -21 29zM1220 60q0 -12 18 -12q8 0 14 3q12 5 12 18v11q-4 -2 -23 -5q-7 0 -12 -3q-9 -3 -9 -12zM1277 177q0 16 11 26.5t27 10.5t26.5 -10.5t10.5 -26.5t-10.5 -27t-26.5 -11t-27 11t-11 27zM1289 177
q0 -11 7.5 -19t18.5 -8t18.5 8t7.5 19t-7.5 18.5t-18.5 7.5t-18.5 -7.5t-7.5 -18.5zM1302 160v35h14q12 0 12 -11q0 -5 -5 -10l8 -14h-10l-6 11h-5v-11h-8zM1310 180h6q5 0 5 3t-5 3h-6v-6z" />
    <glyph glyph-name="_Designova" horiz-adv-x="1712" 
d="M854 41q-174 0 -322.5 87t-235 235.5t-86.5 323.5q1 131 52 250.5t137.5 205.5t206 137t250.5 51q175 0 323.5 -86t235.5 -234.5t87 -323.5q0 -176 -87 -324.5t-236 -235t-325 -86.5zM288 687q0 -116 45 -221.5t120.5 -181.5t181 -121t221.5 -45q154 0 285 76t207 207
t76 285q0 116 -45 221.5t-120.5 181.5t-180.5 121t-221 45t-221 -45t-181.5 -120.5t-121.5 -181t-45 -221.5zM490 800q7 0 13 -4q58 -22 115 -31q45 -5 81 3q29 4 53 14q5 0 11.5 3t8.5 4q-5 3 -22.5 11.5t-27.5 15.5t-19 17h21q39 0 86 20q85 53 158 73q37 10 66 10
q6 0 24.5 1.5t26.5 0.5q67 -4 102 -39q6 -5 33 -37v-2q-3 2 -7 2q-53 20 -95.5 4.5t-71.5 -59.5q-5 -9 -10 -20.5t-11 -25t-9 -21.5q-6 -14 -25 -59t-30 -68q-36 -74 -74 -119q-20 -27 -74 -66q-52 -38 -136 -63h-7l28 24q18 17 30 51q7 20 25 71t27 78q31 90 65 150v1
q-3 -3 -11 -13q-9 -7 -11 -16q-23 -27 -38 -65q-3 -5 -9 -5q-117 5 -204 78q-10 10 -32.5 31t-33.5 32q-12 14 -16 18z" />
    <glyph glyph-name="_Origin" horiz-adv-x="2215" 
d="M130 1055v50h1955v-50h-1955zM130 236v50h1955v-50h-1955zM208 437v177h42v-177h-42zM240 734v177h148v-32h-107v-39h97v-31h-97v-42h107v-33h-148zM278 437v177h34l89 -107v107h40v-177h-33l-88 109v-109h-42zM418 734v177h34l88 -107v107h40v-177h-33l-88 109v-109h-41
zM534 437v177h87q72 0 72 -45q0 -28 -26 -40q3 0 3 -2q28 -12 28 -42q0 -48 -71 -48h-93zM576 468h48q32 0 32 22t-32 22h-48v-44zM576 545h42q33 0 33 20q0 22 -33 22h-42v-42zM609 879v32h156v-32h-57v-145h-41v145h-58zM718 437v177h148v-33h-107v-38h96v-31h-96v-41h105
v-34h-146zM783 911h44l40 -124l42 124h38l40 -126l42 126h39l-57 -177h-45l-39 121l-41 -121h-43zM894 437v177h81q28 0 42 -6q36 -19 36 -57q0 -21 -10 -35q-15 -18 -29 -23l37 -56h-43l-35 50h-37v-50h-42zM936 520h37q38 0 38 31q0 30 -38 30h-37v-61zM1073 437v177h40
v-143h106v-34h-146zM1076 823q0 39 28 65q26 26 69 26t69 -26q28 -25 28 -65q0 -39 -28 -65q-26 -27 -68 -27q-44 0 -70 27q-28 28 -28 65zM1118 823q0 -25 15.5 -40.5t39.5 -15.5t39.5 15.5t15.5 40.5t-15.5 41.5t-39.5 16.5t-39.5 -16.5t-15.5 -41.5zM1248 437v177h41
v-177h-41zM1293 734v177h81q28 0 41 -6q36 -17 36 -57q0 -21 -10 -35q-9 -15 -29 -23l39 -56h-45l-33 50h-39v-50h-41zM1318 437v177h35l87 -107v107h42v-177h-34l-89 109v-109h-41zM1334 817h37q38 0 38 31t-38 31h-37v-62zM1471 734v177h148v-32h-107v-39h96v-31h-96v-75
h-41zM1508 461q0 24 25 24q10 0 17 -7t7 -17q0 -11 -7 -25l-14 -38h-26l12 41q-14 5 -14 22zM1635 734v177h147v-32h-106v-39h95v-31h-95v-42h106v-33h-147zM1658 437v177h80q30 0 52 -11q46 -21 46 -77q0 -28 -12 -47q-23 -42 -86 -42h-80zM1700 471h37q17 0 31 7
q26 14 26 48q0 21 -6 29q-14 26 -51 26h-37v-110zM1812 734v177h33l90 -107v107h40v-177h-34l-89 109v-109h-40zM1860 437v177h147v-33h-107v-38h97v-31h-97v-41h106v-34h-146z" />
    <glyph glyph-name="_VendorID" horiz-adv-x="1136" 
d="M83 154v1187h974v-1187h-974zM86 63q0 13 7.5 20.5t18.5 7.5q9 0 12 -3l4 -5v26h13v-72h-13v9l-4 -7q-8 -5 -15 -5q-23 0 -23 29zM100 63q0 -17 13 -17q15 0 15 17v1q0 18 -13 18q-15 0 -15 -19zM136 205h869v1084h-869v-1084zM151 63q0 13 7.5 20.5t19.5 7.5
q11 0 18.5 -7.5t7.5 -19.5q0 -2 -2 -5h-37q1 -13 13 -13q10 0 12 9h12q-4 -21 -24 -21q-27 0 -27 29zM165 67h25q-3 15 -12 15q-12 0 -13 -15zM208 52h14q3 -9 9 -9q9 0 9 7q0 3 -12 9q-18 5 -18 16q0 16 21 16t21 -16h-14q-1 7 -7 7q-7 0 -7 -6q0 -4 12 -9q17 -5 17 -15
q0 -18 -22 -18q-20 0 -23 18zM250 455q0 59 46 125l97 137h64l-84 -120q10 3 23 3q62 0 102.5 -41.5t40.5 -103.5q0 -61 -41.5 -103.5t-101.5 -42.5q-61 0 -103.5 42.5t-42.5 103.5zM250 926q0 56 46 123l97 142h64l-84 -122q7 2 23 2q63 0 103 -41t40 -104
q0 -61 -41 -102.5t-102 -41.5t-103.5 42t-42.5 102zM261 102q0 7 8 7t8 -7q0 -8 -8 -8t-8 8zM262 37v54h14v-54h-14zM286 63q0 28 26 28q9 0 12 -3l4 -5v8h14v-41q0 -8 -2 -11q0 -24 -27 -24q-26 0 -26 18v1h14v-1q0 -8 12 -8q11 0 15 13v8l-4 -7q-8 -2 -14 -2q-24 0 -24 26
zM301 64q0 -18 12 -18q15 0 15 17v1q0 18 -15 18q-12 0 -12 -18zM304 455q0 -42 25.5 -68t66.5 -26q39 0 64.5 26t25.5 68q0 40 -25.5 65t-64.5 25q-41 0 -66.5 -25t-25.5 -65zM304 926q0 -41 25.5 -67t66.5 -26q39 0 64.5 26.5t25.5 66.5t-25.5 66t-64.5 26
q-41 0 -66.5 -25t-25.5 -67zM353 37v54h14v-10l4 7q5 3 13 3q17 0 20 -15q1 -3 1 -9v-30h-15v34q0 11 -10 11q-13 0 -13 -21v-24h-14zM412 63q0 13 7.5 20.5t19.5 7.5q28 0 28 -28q0 -29 -28 -29q-12 0 -19.5 8t-7.5 21zM426 63q0 -17 13 -17q15 0 15 17q0 19 -15 19
q-13 0 -13 -19zM472 91h14l14 -45l13 45h14l-19 -54h-18zM532 52q0 16 30 16h3v7q0 7 -9 7q-11 0 -11 -9h-13q0 18 24 18q19 0 21 -15v-39h-12v6l-3 -5q-8 -4 -14 -4q-16 0 -16 18zM545 52q0 -6 8 -6q12 0 12 9v6q-20 2 -20 -9zM586 80v9h6v8q0 15 19 15h6v-11q-11 2 -11 -5
v-7h11v-9h-11v-43h-14v43h-6zM599 455q0 62 44 125l97 137h66l-86 -120q10 3 25 3q61 0 102 -41.5t41 -103.5q0 -61 -41.5 -103.5t-101.5 -42.5q-61 0 -103.5 42.5t-42.5 103.5zM599 926q0 57 44 123l97 142h66l-87 -122q8 2 26 2q61 0 102 -41.5t41 -103.5
q0 -61 -41.5 -102.5t-101.5 -41.5q-61 0 -103.5 41.5t-42.5 102.5zM621 63q0 28 28 28q27 0 27 -28q0 -29 -27 -29q-28 0 -28 29zM635 63q0 -17 14 -17q13 0 13 17q0 19 -13 19q-14 0 -14 -19zM652 455q0 -42 26 -68t67 -26q38 0 62.5 26t24.5 68q0 40 -24.5 65t-62.5 25
q-41 0 -67 -25t-26 -65zM652 926q0 -41 26 -67t67 -26q38 0 62.5 26t24.5 67q0 40 -24.5 66t-62.5 26q-41 0 -67 -25.5t-26 -66.5zM685 37v54h12v-10l6 7q4 3 13 3q16 0 19 -15v-39h-14v34q-4 11 -9 11q-15 0 -15 -21v-24h-12zM742 80v9h8v13h14v-13h10v-9h-10v-28
q2 -10 9 -6v-10h-8q-15 0 -15 10v34h-8zM778 52h15q1 -9 10 -9q8 0 8 7q0 3 -12 9q-17 5 -17 16q0 16 20 16q19 0 24 -16h-16q0 7 -9 7q-5 0 -5 -6q0 -5 11 -9q19 -6 19 -15q0 -18 -23 -18q-21 0 -25 18zM830 42q0 10 9 10t9 -10q0 -8 -9 -8t-9 8zM854 63q0 13 8 20.5
t18 7.5q25 0 25 -20h-13q-3 11 -12 11q-12 0 -12 -19q0 -17 12 -17q10 0 12 9h13q-1 -21 -25 -21q-26 0 -26 29zM910 63q0 28 29 28q26 0 26 -28q0 -29 -26 -29q-29 0 -29 29zM924 63q0 -17 15 -17q13 0 13 17q0 19 -13 19q-15 0 -15 -19zM975 37v54h14v-9l5 6q3 3 9 3
q13 0 18 -10l5 7q3 3 11 3q17 0 17 -12q1 -4 1 -12v-30h-13v27q0 2 -0.5 5t-0.5 4q0 9 -10 9q-9 0 -9 -18v-27h-13v36q-5 9 -10 9q-10 0 -10 -18v-27h-14z" />
    </font>
</defs>
</svg>
