<?xml version="1.0" standalone="no"?>
<!DOCTYPE svg PUBLIC "-//W3C//DTD SVG 1.1//EN" "http://www.w3.org/Graphics/SVG/1.1/DTD/svg11.dtd" >
<svg xmlns="http://www.w3.org/2000/svg" xmlns:xlink="http://www.w3.org/1999/xlink" version="1.1">
<metadata>
Created by FontForge 20201107 at Tue Feb 27 19:19:10 2024
 By 
Copyright (c) 2024 by Designova. All rights reserved.
</metadata>
<defs>
<font id="RovelleUno-Medium" horiz-adv-x="1097" >
  <font-face 
    font-family="Rovelle Uno Medium"
    font-weight="500"
    font-stretch="normal"
    units-per-em="2048"
    panose-1="0 0 0 0 0 0 0 0 0 0"
    ascent="1638"
    descent="-410"
    x-height="1032"
    cap-height="1394"
    bbox="-300 -410 2085 1878"
    underline-thickness="100"
    underline-position="-255"
    unicode-range="U+0020-F8FF"
  />
<missing-glyph horiz-adv-x="1223" 
d="M142 18v1344h939v-1344h-939zM289 331l236 366l-236 365v-731zM351 164h520l-259 401zM361 1217l251 -388l251 388h-502zM698 697l236 -366v731z" />
    <glyph glyph-name=".notdef" horiz-adv-x="1223" 
d="M142 18v1344h939v-1344h-939zM289 331l236 366l-236 365v-731zM351 164h520l-259 401zM361 1217l251 -388l251 388h-502zM698 697l236 -366v731z" />
    <glyph glyph-name=".null" horiz-adv-x="0" 
 />
    <glyph glyph-name="nonmarkingreturn" horiz-adv-x="682" 
 />
    <glyph glyph-name="space" unicode=" " horiz-adv-x="368" 
 />
    <glyph glyph-name="exclam" unicode="!" horiz-adv-x="568" 
d="M187 229l-8 1186h208l-7 -1186h-193zM170 52q0 47 33 80.5t81 33.5q46 0 80 -34t34 -80q0 -48 -33.5 -80.5t-80.5 -32.5q-48 0 -81 32.5t-33 80.5z" />
    <glyph glyph-name="quotedbl" unicode="&#x22;" horiz-adv-x="714" 
d="M329 1462l-8 -591h-183l-8 591h199zM385 1462h199l-8 -591h-183z" />
    <glyph glyph-name="numbersign" unicode="#" horiz-adv-x="1044" 
d="M160 0l91 434h-181v195h224l25 123h-194v195h236l93 434h197l-91 -434h35l92 434h198l-91 -434h180v-195h-223l-25 -123h195v-195h-237l-93 -434h-198l92 434h-36l-92 -434h-197zM492 629h36l26 123h-36z" />
    <glyph glyph-name="dollar" unicode="$" horiz-adv-x="1090" 
d="M463 -16q-170 31 -277.5 157t-101.5 336h197q-3 -128 42.5 -199t139.5 -95v429q-323 117 -323 398q0 150 91 253t232 133v145h197v-143q88 -17 156.5 -64.5t109.5 -115t61 -145t19 -161.5h-197q-2 125 -37.5 192.5t-111.5 91.5v-432q338 -121 338 -410q0 -137 -90 -241.5
t-248 -129.5v-142h-197v143zM340 1010q0 -72 29 -113t94 -71v369q-123 -44 -123 -185zM660 180q73 17 106 58.5t33 111.5q0 73 -32 118t-107 80v-368z" />
    <glyph glyph-name="percent" unicode="%" horiz-adv-x="1461" 
d="M398 0h-234l895 1381h235zM60 1046q0 152 83 256t223 104t223 -104t83 -256q0 -97 -35.5 -178.5t-106.5 -132.5t-164 -51t-164 51t-106.5 132.5t-35.5 178.5zM261 1046q0 -90 24 -128t81 -38t81 38t24 128t-24 127.5t-81 37.5t-81 -37.5t-24 -127.5zM789 358
q0 152 83 256t223 104t223 -104t83 -256q0 -97 -35.5 -178.5t-106.5 -132.5t-164 -51t-164 51t-106.5 132.5t-35.5 178.5zM990 358q0 -90 24 -128t81 -38t81 38t24 128t-24 127.5t-81 37.5t-81 -37.5t-24 -127.5z" />
    <glyph glyph-name="ampersand" unicode="&#x26;" horiz-adv-x="1259" 
d="M914 115q-148 -133 -373 -150q-130 -8 -229 28q-105 38 -168 119t-73 195q-12 181 122 314q55 54 135 107l-29 38q-99 126 -108 256q-12 156 88 263.5t267 118.5q164 13 262.5 -69t107.5 -216q8 -124 -52 -218q-78 -118 -239 -210l271 -280q62 136 61 338h191
q2 -248 -78 -422q-14 -30 -34 -64l193 -199l-138 -131zM265 320q7 -93 70 -132.5t192 -31.5q156 12 254 97l-322 332q-11 -7 -31.5 -21t-27.5 -19q-76 -54 -108.5 -104t-26.5 -121zM383 1036q4 -40 23 -79q26 -56 86 -127q61 38 114 77q68 49 95 92.5t22 104.5
q-3 67 -38.5 93.5t-126.5 19.5q-186 -12 -175 -181z" />
    <glyph glyph-name="quotesingle" unicode="'" horiz-adv-x="459" 
d="M138 871l-8 591h199l-8 -591h-183z" />
    <glyph glyph-name="parenleft" unicode="(" horiz-adv-x="635" 
d="M354 -143q-111 150 -177.5 380t-66.5 463q0 234 67 463.5t177 377.5h231q-131 -162 -203 -378.5t-72 -462.5t72 -463t203 -380h-231z" />
    <glyph glyph-name="parenright" unicode=")" horiz-adv-x="637" 
d="M51 -143q132 163 203.5 379.5t71.5 463.5q0 246 -72 463t-204 378h234q109 -149 176 -379t67 -462t-67 -462t-176 -381h-233z" />
    <glyph glyph-name="asterisk" unicode="*" horiz-adv-x="938" 
d="M297 147l-168 117l182 241l-251 81l60 192l252 -89l-5 309h202l-4 -309l252 89l61 -192l-252 -81l183 -241l-168 -117l-173 245z" />
    <glyph glyph-name="plus" unicode="+" horiz-adv-x="1020" 
d="M411 154v390h-335v196h335v389h197v-389h336v-196h-336v-390h-197z" />
    <glyph glyph-name="comma" unicode="," horiz-adv-x="499" 
d="M84 -206l134 406h164l17 -94l-117 -312h-198z" />
    <glyph glyph-name="hyphen" unicode="-" horiz-adv-x="690" 
d="M80 481v195h530v-195h-530z" />
    <glyph glyph-name="period" unicode="." horiz-adv-x="429" 
d="M215 -24q-47 0 -81 33.5t-34 79.5q0 47 34 80.5t81 33.5t80.5 -33.5t33.5 -80.5t-33.5 -80t-80.5 -33z" />
    <glyph glyph-name="slash" unicode="/" horiz-adv-x="772" 
d="M20 -52l498 1488h206l-498 -1488h-206z" />
    <glyph glyph-name="zero" unicode="0" horiz-adv-x="1150" 
d="M575 -24q-128 0 -223.5 55t-151.5 154.5t-83 225t-27 279.5q0 155 27 281t83 225.5t151.5 154.5t223.5 55q103 0 185.5 -36.5t138 -101t92 -155.5t53 -196t16.5 -227q0 -154 -27 -280t-83 -225t-151.5 -154t-223.5 -55zM290 690q0 -126 14.5 -218.5t47 -162.5t88 -105
t135.5 -35q154 0 219 131.5t65 389.5q0 257 -65 389t-219 132q-155 0 -220 -131.5t-65 -389.5z" />
    <glyph glyph-name="one" unicode="1" horiz-adv-x="760" 
d="M469 0v1118l-337 -208v228l395 243h139v-1381h-197z" />
    <glyph glyph-name="two" unicode="2" horiz-adv-x="1051" 
d="M61 0v140l448 435q81 79 129 136t71 106.5t29 85t6 91.5q0 217 -222 217q-113 0 -179 -65t-78 -192l-10 -89h-195l8 105q22 195 148 315.5t306 120.5q102 0 183.5 -33.5t133 -90.5t79 -130.5t27.5 -157.5q0 -140 -65.5 -268.5t-227.5 -282.5l-257 -248h606v-195h-940z
" />
    <glyph glyph-name="three" unicode="3" horiz-adv-x="1116" 
d="M560 -10q-162 0 -280 67t-171.5 184.5t-33.5 262.5l197 9q-30 -163 43 -246.5t245 -83.5q146 0 220 61.5t74 175.5t-74 175t-220 61q-62 0 -160 -21v155l328 408h-634v196h939v-136l-344 -423q163 -33 260 -145.5t97 -269.5q0 -188 -135.5 -309t-350.5 -121zM402 664
l70 94h-41z" />
    <glyph glyph-name="four" unicode="4" horiz-adv-x="1170" 
d="M717 0v300h-657v141l684 953h166v-903h204v-191h-204v-300h-193zM332 491h385v539z" />
    <glyph glyph-name="five" unicode="5" horiz-adv-x="1059" 
d="M265 415q23 -232 250 -232q121 0 197.5 68t76.5 213q0 137 -63.5 207.5t-182.5 70.5h-26q-101 0 -160 -50.5t-82 -155.5h-194l111 858h768v-196h-596l-39 -300q87 38 188 38h32q202 0 323 -134.5t121 -335.5q0 -145 -66.5 -256t-174 -167.5t-235.5 -56.5q-76 0 -148 24
t-135 72t-106.5 130t-54.5 188l-5 62h196z" />
    <glyph glyph-name="six" unicode="6" horiz-adv-x="1084" 
d="M544 -10q-198 0 -336 136t-138 332q0 127 74 253l397 683h219l-270 -468q24 4 55 4q128 0 236 -62.5t170.5 -171t62.5 -236.5q0 -196 -137 -333t-333 -137zM267 460q0 -127 75.5 -202t201.5 -75q125 0 201.5 76.5t76.5 202.5q0 124 -77 201t-201 77t-200.5 -77
t-76.5 -203z" />
    <glyph glyph-name="seven" unicode="7" horiz-adv-x="1105" 
d="M151 0l662 1202h-793v192h1035v-142l-685 -1252h-219z" />
    <glyph glyph-name="eight" unicode="8" horiz-adv-x="1101" 
d="M550 -26q-134 0 -241.5 46.5t-173 142.5t-65.5 227q0 105 46.5 191.5t131.5 143.5q-117 108 -117 285q0 167 117.5 281.5t316.5 114.5q205 0 319 -114t114 -282q0 -88 -33 -163t-93 -126q78 -56 118.5 -141.5t40.5 -189.5q0 -99 -40 -179.5t-107.5 -131.5t-153.5 -78
t-180 -27zM270 390q0 -114 78 -167.5t206 -53.5q120 0 198 54t78 167q0 115 -64 171.5t-209 56.5q-287 0 -287 -228zM332 1010q0 -198 233 -198q107 0 170.5 47t63.5 151q0 102 -57 151.5t-177 49.5t-176.5 -49.5t-56.5 -151.5z" />
    <glyph glyph-name="nine" unicode="9" horiz-adv-x="1084" 
d="M595 467q-27 -3 -54 -3q-128 0 -236.5 63t-171.5 171t-63 235q0 197 137.5 334t335.5 137q196 0 333.5 -136t137.5 -333q0 -122 -72 -252l-397 -683h-220zM265 932q0 -125 76.5 -201.5t201.5 -76.5q124 0 200.5 76.5t76.5 202.5q0 127 -75.5 202.5t-201.5 75.5
q-125 0 -201.5 -76.5t-76.5 -202.5z" />
    <glyph glyph-name="colon" unicode=":" horiz-adv-x="469" 
d="M234 886q-47 0 -80.5 34t-33.5 81t33.5 81t80.5 34t81 -34t34 -81q0 -48 -34 -81.5t-81 -33.5zM120 89q0 47 33.5 80.5t80.5 33.5t81 -33t34 -81q0 -47 -34 -80t-81 -33t-80.5 33t-33.5 80z" />
    <glyph glyph-name="semicolon" unicode=";" horiz-adv-x="557" 
d="M104 -206l133 406h163l19 -94l-118 -312h-197zM208 1001q0 46 34 80.5t80 34.5t80.5 -34t34.5 -81q0 -48 -34 -81.5t-81 -33.5q-46 0 -80 33.5t-34 81.5z" />
    <glyph glyph-name="less" unicode="&#x3c;" horiz-adv-x="1021" 
d="M945 59l-869 423v134l869 422v-220l-555 -269l555 -271v-219z" />
    <glyph glyph-name="equal" unicode="=" horiz-adv-x="1094" 
d="M96 704v195h902v-195h-902zM96 385v195h902v-195h-902z" />
    <glyph glyph-name="greater" unicode="&#x3e;" horiz-adv-x="1021" 
d="M76 59v219l556 271l-556 269v220l869 -422v-134z" />
    <glyph glyph-name="question" unicode="?" horiz-adv-x="1028" 
d="M388 220q-1 78 0.5 122.5t8.5 97.5t20.5 87t39 78t61.5 85.5t90 94.5q70 68 98.5 124.5t28.5 126.5q0 104 -52.5 151.5t-165.5 47.5q-139 0 -199.5 -82.5t-54.5 -252.5h-194q-20 228 108.5 379.5t339.5 151.5q194 0 305.5 -113t111.5 -282q0 -213 -190 -389
q-52 -50 -80.5 -82t-49 -68t-24.5 -70t-8 -87t0 -120h-194zM374 52q0 47 33 80.5t81 33.5q46 0 80 -34t34 -80q0 -48 -33.5 -80.5t-80.5 -32.5q-48 0 -81 32.5t-33 80.5z" />
    <glyph glyph-name="at" unicode="@" horiz-adv-x="1623" 
d="M752 -185q-100 0 -196 27t-182.5 83.5t-151.5 137t-103.5 196.5t-38.5 252q0 150 47 283.5t126.5 230.5t182.5 168.5t218.5 107t230.5 35.5q143 0 266 -49t209 -136t134.5 -209t48.5 -264q0 -193 -73 -326.5t-190 -187.5l84 -133q-175 -128 -310.5 -172t-301.5 -44z
M280 517q0 -126 37 -224.5t102 -159t149.5 -91.5t183.5 -31q127 0 218 26t198 97q-10 -1 -31 -1q-59 0 -118 18.5t-90 52.5q-95 -85 -217 -85q-39 0 -77.5 9.5t-79 34t-71 62.5t-50 100t-19.5 141q0 143 58 268.5t163 203t233 77.5q69 0 69 20l16 -21q20 -24 61 -61l-10 25
l1 5h207l-113 -467q-20 -90 -20 -140q0 -34 9.5 -41t51.5 -7q90 0 146 88t56 254q0 229 -123.5 349.5t-346.5 120.5q-85 0 -169.5 -26t-160.5 -79t-135 -126t-93.5 -174.5t-34.5 -217.5zM614 473q0 -96 22.5 -127.5t82.5 -31.5q67 0 115 60.5t83 216.5l16 71q18 83 1 120
t-72 37q-102 0 -175 -97t-73 -249z" />
    <glyph glyph-name="A" unicode="A" horiz-adv-x="1169" 
d="M20 0l486 1394h156l487 -1394h-208l-147 426h-419l-148 -426h-207zM439 617h290l-145 418z" />
    <glyph glyph-name="B" unicode="B" horiz-adv-x="1211" 
d="M150 0v1394h515q195 0 311 -103t116 -279q0 -161 -98 -267q157 -107 157 -337q0 -197 -121.5 -302.5t-343.5 -105.5h-536zM344 191h342q152 0 212 48t60 169q0 116 -48 166t-157 50h-409v-433zM344 816h369q96 0 141 47t45 145q0 103 -54.5 148.5t-179.5 45.5h-321v-386z
" />
    <glyph glyph-name="C" unicode="C" horiz-adv-x="1329" 
d="M680 -12q-276 0 -448 194t-172 514q0 160 45.5 293t127 224.5t196.5 142t251 50.5h18q212 0 365 -116t216 -317l-181 -68q-47 154 -145.5 230t-254.5 76h-18q-205 0 -315.5 -132.5t-110.5 -382.5q0 -249 110.5 -381t315.5 -132h18q307 0 400 306l181 -68
q-63 -200 -216.5 -316.5t-364.5 -116.5h-18z" />
    <glyph glyph-name="D" unicode="D" horiz-adv-x="1235" 
d="M150 0v1394h326q329 0 514 -188t185 -520q0 -326 -183.5 -506t-516.5 -180h-325zM344 191h127q262 0 385 119.5t123 375.5q0 264 -124 390t-380 126h-131v-1011z" />
    <glyph glyph-name="E" unicode="E" horiz-adv-x="1144" 
d="M150 0v1394h924v-192h-730v-404h669v-191h-669v-416h730v-191h-924z" />
    <glyph glyph-name="F" unicode="F" horiz-adv-x="1144" 
d="M150 0v1394h924v-192h-730v-404h669v-191h-669v-607h-194z" />
    <glyph glyph-name="G" unicode="G" horiz-adv-x="1303" 
d="M680 -12q-136 0 -251 50.5t-196.5 142t-127 224.5t-45.5 293q0 320 172 514t448 194q214 0 366.5 -119t206.5 -323l-179 -71q-79 318 -394 318q-205 0 -315.5 -132.5t-110.5 -380.5q0 -250 110.5 -382.5t315.5 -132.5q265 0 362 223v170h-441v192h634v-768h-193v105
q-153 -117 -362 -117z" />
    <glyph glyph-name="H" unicode="H" horiz-adv-x="1224" 
d="M150 0v1394h194v-592h535v592h195v-1394h-195v610h-535v-610h-194z" />
    <glyph glyph-name="I" unicode="I" horiz-adv-x="494" 
d="M150 0v1394h194v-1394h-194z" />
    <glyph glyph-name="J" unicode="J" horiz-adv-x="1151" 
d="M50 515v92h197q-25 -230 83 -358q79 -92 194 -94.5t199 85.5q101 107 101 297v857h193v-859q0 -264 -157 -417q-123 -121 -298 -134q-173 -13 -310 86q-160 116 -194 335q-8 53 -8 110z" />
    <glyph glyph-name="K" unicode="K" horiz-adv-x="1249" 
d="M150 0v1394h194v-632l607 632h268l-586 -611l555 -783h-238l-453 643l-153 -158v-485h-194z" />
    <glyph glyph-name="L" unicode="L" horiz-adv-x="1094" 
d="M150 0v1394h194v-1203h730v-191h-924z" />
    <glyph glyph-name="M" unicode="M" horiz-adv-x="1545" 
d="M150 0v1394h189l434 -981l435 981h187v-1394h-192v907l-359 -810h-141l-359 810v-907h-194z" />
    <glyph glyph-name="N" unicode="N" horiz-adv-x="1268" 
d="M150 0v1394h173l601 -990v990h194v-1394h-175l-599 987v-987h-194z" />
    <glyph glyph-name="O" unicode="O" horiz-adv-x="1379" 
d="M680 -12q-276 0 -448 194t-172 514q0 160 45.5 293t127 224.5t196.5 142t251 50.5h18q186 0 327 -89.5t217.5 -250.5t76.5 -370q0 -208 -76.5 -369t-217.5 -250t-327 -89h-18zM254 696q0 -249 110.5 -381t315.5 -132h18q207 0 317.5 132t110.5 381q0 250 -111 382.5
t-317 132.5h-18q-205 0 -315.5 -132.5t-110.5 -382.5z" />
    <glyph glyph-name="P" unicode="P" horiz-adv-x="1141" 
d="M150 0v1394h485q223 0 344.5 -105t121.5 -302v-2q0 -197 -121.5 -302t-344.5 -105h-291v-578h-194zM344 770h291q154 0 213.5 48t59.5 169q0 120 -59.5 167.5t-213.5 47.5h-291v-432z" />
    <glyph glyph-name="Q" unicode="Q" horiz-adv-x="1393" 
d="M1071 111q-157 -123 -373 -123h-18q-276 0 -448 194t-172 514q0 160 45.5 293t127 224.5t196.5 142t251 50.5h18q186 0 327 -89.5t217.5 -250.5t76.5 -370q0 -262 -120 -447l150 -146l-136 -136zM254 696q0 -249 110.5 -381t315.5 -132h18q138 0 234 63l-266 265l131 141
l262 -263q67 121 67 307q0 250 -111 382.5t-317 132.5h-18q-205 0 -315.5 -132.5t-110.5 -382.5z" />
    <glyph glyph-name="R" unicode="R" horiz-adv-x="1197" 
d="M150 0v1394h485q223 0 344.5 -105t121.5 -302v-2q0 -155 -77 -254t-219 -134l342 -597h-224l-330 578h-249v-578h-194zM344 770h291q154 0 213.5 48t59.5 169q0 120 -59.5 167.5t-213.5 47.5h-291v-432z" />
    <glyph glyph-name="S" unicode="S" horiz-adv-x="1138" 
d="M588 -24q-103 0 -195.5 30.5t-166.5 89.5t-115 157.5t-36 223.5h196q-10 -153 76.5 -230.5t241.5 -77.5q130 0 202.5 54t72.5 148q0 98 -57 142t-240 95q-113 32 -188 65.5t-133.5 81.5t-85.5 113t-27 153q0 111 64.5 200t168.5 137t223 48q92 0 169 -28t130.5 -75
t90.5 -110.5t53.5 -134.5t14.5 -146h-193q-7 150 -75 224.5t-191 74.5q-110 0 -182 -48t-72 -139q0 -49 11.5 -79t48.5 -56t87.5 -44t148.5 -46q108 -31 184 -66t134.5 -85t87 -117.5t28.5 -156.5q0 -112 -63 -203.5t-172 -143t-241 -51.5z" />
    <glyph glyph-name="T" unicode="T" horiz-adv-x="1166" 
d="M485 0v1202h-465v192h1126v-192h-465v-1202h-196z" />
    <glyph glyph-name="U" unicode="U" horiz-adv-x="1236" 
d="M134 515v879h192v-866q0 -103 32 -184t83.5 -122t113.5 -60t124.5 1.5t114 63.5t83.5 124.5t32 185.5v857h193v-859q0 -263 -157 -417q-123 -121 -298 -134q-174 -13 -310 86q-161 115 -195 335q-8 53 -8 110z" />
    <glyph glyph-name="V" unicode="V" horiz-adv-x="1262" 
d="M558 0l-548 1394h209l412 -1058l413 1058h208l-546 -1394h-148z" />
    <glyph glyph-name="W" unicode="W" horiz-adv-x="1722" 
d="M398 0l-388 1394h202l275 -992l295 931h157l296 -931l276 992h201l-388 -1394h-165l-298 940l-300 -940h-163z" />
    <glyph glyph-name="X" unicode="X" horiz-adv-x="1306" 
d="M30 0l502 708l-490 686h238l371 -524l375 524h235l-489 -686l504 -708h-238l-387 540l-385 -540h-236z" />
    <glyph glyph-name="Y" unicode="Y" horiz-adv-x="1171" 
d="M490 0l-4 425l-486 969h219l364 -734l368 734h220l-494 -969l5 -425h-192z" />
    <glyph glyph-name="Z" unicode="Z" horiz-adv-x="1057" 
d="M46 0v145l702 1057h-702v192h965v-144l-703 -1059h703v-191h-965z" />
    <glyph glyph-name="bracketleft" unicode="[" horiz-adv-x="591" 
d="M150 -143v1684h431v-196h-234v-1292h234v-196h-431z" />
    <glyph glyph-name="backslash" unicode="\" horiz-adv-x="771" 
d="M545 -52l-497 1488h205l498 -1488h-206z" />
    <glyph glyph-name="bracketright" unicode="]" horiz-adv-x="589" 
d="M10 -143v196h232v1292h-232v196h429v-1684h-429z" />
    <glyph glyph-name="asciicircum" unicode="^" horiz-adv-x="1153" 
d="M130 382l373 868h151l369 -868h-217l-228 549l-234 -549h-214z" />
    <glyph glyph-name="underscore" unicode="_" horiz-adv-x="928" 
d="M30 -143v196h868v-196h-868z" />
    <glyph glyph-name="grave" unicode="`" horiz-adv-x="1019" 
d="M418 1428l-222 353h239l192 -353h-209z" />
    <glyph glyph-name="a" unicode="a" horiz-adv-x="1082" 
d="M465 -10q-169 0 -272 90t-103 240q0 165 120 250q94 69 303 76l254 12q-10 103 -69.5 148t-175.5 45q-96 0 -152.5 -39.5t-122.5 -154.5l-152 122q82 136 184.5 199t242.5 63q195 0 316.5 -111.5t121.5 -312.5v-617h-192v89q-137 -99 -303 -99zM283 320q0 -74 43 -107.5
t143 -33.5q125 0 212 79.5t87 205.5v6l-246 -10q-78 -2 -122.5 -10.5t-72.5 -29.5q-26 -19 -35 -39t-9 -61z" />
    <glyph glyph-name="b" unicode="b" horiz-adv-x="1184" 
d="M622 -10q-162 0 -286 102v-92h-194v1394h194v-453q123 100 286 100h25q205 0 341 -149.5t136 -374.5q0 -223 -136 -375t-341 -152h-25zM334 517q0 -155 76.5 -244.5t207.5 -89.5h26q133 0 210.5 89t77.5 245t-77 244.5t-211 88.5h-26q-132 0 -208 -88.5t-76 -244.5z" />
    <glyph glyph-name="c" unicode="c" horiz-adv-x="1063" 
d="M541 -10q-211 0 -346 149t-135 378q0 230 133.5 377t347.5 147h16q158 0 276.5 -84.5t169.5 -229.5l-178 -76q-39 104 -102 152t-166 48h-16q-138 0 -212.5 -86.5t-74.5 -247.5t75 -248.5t212 -87.5h16q103 0 167 49.5t104 152.5l175 -78q-53 -144 -171.5 -229.5
t-274.5 -85.5h-16z" />
    <glyph glyph-name="d" unicode="d" horiz-adv-x="1185" 
d="M539 -10q-136 0 -246 69.5t-171.5 190.5t-61.5 267q0 225 136.5 374.5t342.5 149.5h24q164 0 287 -100v453h193v-1394h-193v92q-128 -102 -287 -102h-24zM254 517q0 -156 77 -245t211 -89h25q132 0 208.5 89.5t76.5 244.5q0 156 -76 244.5t-209 88.5h-25
q-134 0 -211 -88.5t-77 -244.5z" />
    <glyph glyph-name="e" unicode="e" horiz-adv-x="1063" 
d="M541 -10q-211 0 -346 149t-135 378q0 252 153 398q121 115 293 124q171 8 303 -92q158 -119 186 -341q10 -80 2 -169h-738q19 -125 90.5 -190.5t191.5 -65.5h16q103 0 167 49.5t104 152.5l175 -78q-53 -144 -171.5 -229.5t-274.5 -85.5h-16zM265 624h531
q-17 78 -59 134.5t-94.5 82.5t-112 26t-112 -26t-94.5 -82.5t-59 -134.5z" />
    <glyph glyph-name="f" unicode="f" horiz-adv-x="797" 
d="M260 0v844h-230v188h230v70q0 144 75.5 223t203.5 79h12q139 0 226 -87l-73 -156q-15 7 -36 17.5t-29 14t-21 9t-21 7t-19.5 3t-25.5 1.5h-11q-55 0 -72 -20.5t-17 -90.5v-70h231v-188h-231v-844h-192z" />
    <glyph glyph-name="g" unicode="g" horiz-adv-x="1184" 
d="M553 -366q-184 0 -307 107.5t-143 291.5h194q19 -107 80.5 -157.5t175.5 -50.5h27q124 0 193.5 66.5t102.5 216.5q-45 -50 -131 -85t-182 -35h-10q-144 0 -261 78l-23 16q-97 72 -153 185.5t-56 247.5q0 225 136.5 374.5t342.5 149.5h24q164 0 287 -100v95h193v-868
q0 -250 -126 -391t-337 -141h-27zM254 515q0 -156 77 -245t211 -89h25q122 0 196.5 77t86.5 216v81q-12 139 -86.5 216t-196.5 77h-25q-134 0 -211 -88.5t-77 -244.5z" />
    <glyph glyph-name="h" unicode="h" horiz-adv-x="1117" 
d="M142 0v1394h194v-415q98 62 248 62q205 0 308 -112.5t103 -321.5v-607h-192v597q0 149 -44.5 201.5t-174.5 52.5q-133 0 -190.5 -77t-57.5 -268v-506h-194z" />
    <glyph glyph-name="i" unicode="i" horiz-adv-x="469" 
d="M139 0v1032h194v-1032h-194zM120 1238q0 47 33.5 80.5t80.5 33.5t81 -33t34 -81q0 -47 -34 -80t-81 -33t-80.5 33t-33.5 80z" />
    <glyph glyph-name="j" unicode="j" horiz-adv-x="467" 
d="M38 -370q-144 0 -226 86l75 158q11 -6 30.5 -16.5t25 -14t18.5 -9.5t18.5 -7.5t16 -4t19.5 -3t21 -0.5h13q55 0 71 20t16 91v1102h194v-1102q0 -144 -75.5 -222t-203.5 -78h-13zM120 1238q0 47 33.5 80.5t80.5 33.5t81 -33t34 -81q0 -47 -34 -80t-81 -33t-80.5 33
t-33.5 80z" />
    <glyph glyph-name="k" unicode="k" horiz-adv-x="1034" 
d="M142 0v1394h194v-775l400 413h268l-396 -408l395 -624h-229l-304 484l-134 -139v-345h-194z" />
    <glyph glyph-name="l" unicode="l" horiz-adv-x="474" 
d="M434 1q-134 -31 -213 31.5t-79 210.5v1151h194v-1147q0 -44 14.5 -57t72.5 -5z" />
    <glyph glyph-name="m" unicode="m" horiz-adv-x="1545" 
d="M142 0v1032h194v-44q81 53 190 53q179 0 270 -124q102 124 272 124q96 0 166.5 -36t110.5 -101t59 -145t19 -179v-580h-195v576q0 95 -19 164q-18 65 -47.5 88t-99.5 23q-47 0 -86 -25q-48 -33 -72.5 -96.5t-24.5 -174.5v-555h-194v597q0 149 -35 201.5t-129 52.5
q-44 0 -85 -27q-98 -71 -98 -304v-520h-196z" />
    <glyph glyph-name="n" unicode="n" horiz-adv-x="1117" 
d="M142 0v1032h194v-53q98 62 248 62q205 0 308 -112.5t103 -321.5v-607h-192v597q0 149 -44.5 201.5t-174.5 52.5q-133 0 -190.5 -77t-57.5 -268v-506h-194z" />
    <glyph glyph-name="o" unicode="o" 
d="M541 -10q-211 0 -346 149t-135 378q0 230 133.5 377t347.5 147h16q213 0 346.5 -147t133.5 -377t-134 -378.5t-346 -148.5h-16zM254 517q0 -161 75 -248.5t212 -87.5h16q138 0 212.5 87.5t74.5 248.5t-74.5 247.5t-212.5 86.5h-16q-138 0 -212.5 -86.5t-74.5 -247.5z" />
    <glyph glyph-name="p" unicode="p" horiz-adv-x="1184" 
d="M142 -362v1394h194v-92q125 101 286 101h25q136 0 245.5 -69.5t170.5 -190t61 -266.5q0 -147 -61.5 -267t-171 -189t-244.5 -69h-25q-161 0 -286 101v-453h-194zM334 515q0 -156 76 -244t208 -88h26q133 0 210.5 88.5t77.5 243.5q0 156 -77.5 245.5t-210.5 89.5h-26
q-131 0 -207.5 -89.5t-76.5 -245.5z" />
    <glyph glyph-name="q" unicode="q" horiz-adv-x="1185" 
d="M850 91q-125 -101 -287 -101h-24q-135 0 -245 68.5t-172 189t-62 267.5q0 146 61.5 266.5t171.5 190t246 69.5h24q161 0 287 -101v92h193v-1394h-193v453zM254 515q0 -155 77 -243.5t211 -88.5h25q133 0 209 88t76 244t-76.5 245.5t-208.5 89.5h-25q-134 0 -211 -89.5
t-77 -245.5z" />
    <glyph glyph-name="r" unicode="r" horiz-adv-x="849" 
d="M142 0v1032h194v-53q98 62 248 62q136 0 215 -44l-41 -181q-40 13 -59.5 19t-50.5 11t-64 5q-133 0 -190.5 -77t-57.5 -268v-506h-194z" />
    <glyph glyph-name="s" unicode="s" horiz-adv-x="982" 
d="M504 -14q-88 0 -164.5 25.5t-138 76t-95.5 135t-30 194.5h192q6 -139 61 -188.5t179 -49.5q190 0 190 108q0 40 -16.5 60t-62.5 36t-156 39q-339 69 -339 304q0 133 105.5 219.5t263.5 86.5q81 0 149 -23t114 -62t78 -91.5t46.5 -111.5t13.5 -122h-189q-22 128 -65.5 173
t-148.5 45q-169 0 -169 -112q0 -48 40 -71.5t150 -46.5q191 -39 287.5 -111.5t96.5 -209.5t-112.5 -220t-279.5 -83z" />
    <glyph glyph-name="t" unicode="t" horiz-adv-x="692" 
d="M662 8q-185 -50 -300 25.5t-115 256.5v554h-217v188h217v360h193v-360h222v-188h-222v-554q0 -64 15 -86.5t64 -25t143 11.5v-182z" />
    <glyph glyph-name="u" unicode="u" 
d="M532 -10q-204 0 -307 113t-103 323v606h193v-597q0 -149 44.5 -201.5t172.5 -52.5q134 0 191.5 76.5t57.5 268.5v506h194v-1032h-194v52q-98 -62 -249 -62z" />
    <glyph glyph-name="v" unicode="v" horiz-adv-x="1048" 
d="M452 0l-422 1032h211l281 -701l283 701h213l-422 -1032h-144z" />
    <glyph glyph-name="w" unicode="w" horiz-adv-x="1452" 
d="M331 0l-287 1032h203l177 -642l227 642h153l226 -640l177 640h201l-285 -1032h-161l-235 673l-239 -673h-157z" />
    <glyph glyph-name="x" unicode="x" horiz-adv-x="1085" 
d="M20 0l399 515l-399 517h243l279 -360l276 360h245l-399 -517l401 -515h-245l-277 360l-278 -360h-245z" />
    <glyph glyph-name="y" unicode="y" horiz-adv-x="1050" 
d="M235 -135q27 -16 41.5 -23t25 -12t15 0t7 9t7 19t8.5 26l82 198l-391 950h211l283 -700l287 700h209l-504 -1224q-55 -138 -151.5 -167.5t-208.5 54.5z" />
    <glyph glyph-name="z" unicode="z" horiz-adv-x="936" 
d="M46 0v146l566 696h-566v190h844v-151l-559 -690h559v-191h-844z" />
    <glyph glyph-name="braceleft" unicode="{" horiz-adv-x="614" 
d="M494 -143q-63 0 -116.5 15t-97 46.5t-68.5 86.5t-25 129q0 53 18 196q19 119 19 183q0 31 -5 47.5t-20 29t-43.5 12.5t-75.5 -3v201q91 -10 117.5 8t26.5 77q0 66 -19 184q-18 143 -18 197q0 73 25 128t68.5 86t97 46t116.5 15h110v-196h-112q-71 0 -90.5 -13.5
t-19.5 -64.5q0 -13 18 -158q20 -149 20 -224q0 -112 -64 -185q64 -76 64 -187q0 -74 -20 -223q-18 -145 -18 -158q0 -52 20 -65.5t90 -13.5h112v-196h-110z" />
    <glyph glyph-name="bar" unicode="|" horiz-adv-x="576" 
d="M190 -355v1931h196v-1931h-196z" />
    <glyph glyph-name="braceright" unicode="}" horiz-adv-x="614" 
d="M10 -143v196h111q70 0 89.5 13.5t19.5 65.5q0 32 -17 158q-21 147 -21 223q0 112 64 185q-64 77 -64 187q0 77 21 224q17 127 17 158q0 52 -19 65t-90 13h-111v196h109q63 0 116.5 -15t97.5 -46t69 -86t25 -128q0 -60 -21 -197q-16 -122 -16 -184q0 -24 3 -39t11.5 -27.5
t24 -16t41.5 -6t64 3.5v-201q-38 6 -64 3.5t-41.5 -6t-24 -16t-11.5 -27.5t-3 -40q0 -60 16 -183q21 -137 21 -196q0 -74 -25 -129t-69 -86.5t-97.5 -46.5t-116.5 -15h-109z" />
    <glyph glyph-name="asciitilde" unicode="~" horiz-adv-x="1111" 
d="M111 406q-20 179 42.5 272.5t184.5 93.5q61 0 113.5 -19t153.5 -75q84 -46 112.5 -58t57.5 -12q31 0 35.5 24.5t-2.5 145.5h195q18 -179 -44.5 -272t-185.5 -93q-60 0 -111.5 18.5t-155.5 75.5q-81 44 -111 56.5t-59 12.5q-30 0 -34.5 -25t2.5 -145h-193z" />
    <glyph glyph-name="uni00A0" unicode="&#xa0;" horiz-adv-x="342" 
 />
    <glyph glyph-name="exclamdown" unicode="&#xa1;" horiz-adv-x="568" 
d="M179 -301l8 1186h193l7 -1186h-208zM170 1061q0 47 33 80.5t81 33.5q47 0 80.5 -33.5t33.5 -80.5q0 -48 -33.5 -81t-80.5 -33q-48 0 -81 33.5t-33 80.5z" />
    <glyph glyph-name="cent" unicode="&#xa2;" horiz-adv-x="1104" 
d="M465 -16q-174 36 -284.5 187.5t-110.5 377.5q0 217 111 368t284 192v148h197v-141q170 -27 273 -155.5t99 -310.5h-195q-5 117 -47.5 182.5t-129.5 87.5v-737q162 49 172 252h196q-4 -177 -105.5 -298.5t-262.5 -152.5v-143h-197v143zM270 557q0 -298 195 -370v719
q-89 -36 -142 -123t-53 -226z" />
    <glyph glyph-name="sterling" unicode="&#xa3;" horiz-adv-x="1020" 
d="M50 178q58 10 105 28.5t87 49t62 78t22 108.5q0 82 -58 182h-203v195h98q-36 98 -36 189q0 174 118 286t292 112q111 0 194 -41t130.5 -112.5t69 -160t18.5 -191.5h-196q4 170 -45 240t-175 70q-95 0 -150 -51.5t-55 -149.5q0 -89 55 -191h450v-195h-343q37 -92 37 -182
q0 -138 -82 -247h505v-195h-900v178z" />
    <glyph glyph-name="currency" unicode="&#xa4;" horiz-adv-x="1244" 
d="M313 157l-138 140l109 110q-52 93 -52 205q0 114 52 207l-110 109l141 139l109 -109q93 53 199 53t199 -53l109 110l139 -140l-109 -110q52 -91 52 -206q0 -112 -52 -205l109 -110l-139 -140l-109 110q-91 -52 -199 -52t-199 52zM432 612q0 -97 49 -150t142 -53
q92 0 140.5 53t48.5 150q0 98 -48.5 151t-140.5 53q-93 0 -142 -53t-49 -151z" />
    <glyph glyph-name="yen" unicode="&#xa5;" horiz-adv-x="1229" 
d="M518 0v306h-326v194h326v69h-326v195h240l-392 617h241l336 -540l335 540h237l-390 -617h243v-195h-327v-69h327v-194h-327v-306h-197z" />
    <glyph glyph-name="brokenbar" unicode="&#xa6;" horiz-adv-x="576" 
d="M190 -284v761h196v-761h-196zM190 621v760h196v-760h-196z" />
    <glyph glyph-name="section" unicode="&#xa7;" horiz-adv-x="1136" 
d="M558 -308q-188 0 -301.5 112t-135.5 338h196q24 -146 77.5 -201t167.5 -55q192 0 192 124q0 42 -8 66t-38 47.5t-84 40.5t-149 37q-53 11 -103.5 30t-103 51t-91 72t-63 97t-24.5 122q0 194 168 294q-80 87 -80 209q0 148 104.5 239t263.5 91q101 0 179.5 -36t126 -98
t72.5 -137t29 -162h-190q-26 139 -70.5 188.5t-147.5 49.5q-83 0 -125 -30.5t-42 -98.5q0 -72 58.5 -109t174.5 -57q93 -17 168.5 -46.5t137 -74t95.5 -110.5t34 -147q0 -102 -48 -177t-129 -121q86 -87 86 -226q0 -146 -113.5 -234t-283.5 -88zM290 577q0 -135 233 -183
q62 -12 107 -25q215 9 215 166q0 74 -62.5 115t-218.5 72q-35 5 -86 20q-91 -11 -139.5 -47.5t-48.5 -117.5z" />
    <glyph glyph-name="dieresis" unicode="&#xa8;" horiz-adv-x="797" 
d="M530 1486q-47 0 -80.5 33.5t-33.5 80.5t33.5 81t80.5 34t80.5 -34t33.5 -81t-33.5 -80.5t-80.5 -33.5zM155 1600q0 47 33.5 81t80.5 34t80.5 -34t33.5 -81t-33.5 -80.5t-80.5 -33.5t-80.5 33.5t-33.5 80.5z" />
    <glyph glyph-name="copyright" unicode="&#xa9;" horiz-adv-x="1587" 
d="M794 -9q-145 0 -275.5 56.5t-224.5 152.5t-149 229t-55 281q0 196 93.5 360.5t255.5 259.5t355 95t354.5 -95t255 -259.5t93.5 -360.5q0 -147 -55 -280.5t-149 -229.5t-224.5 -152.5t-274.5 -56.5zM248 710q0 -241 156 -400.5t390 -159.5q153 0 278 72.5t195.5 200.5
t70.5 287q0 117 -41.5 221t-113.5 177.5t-173 116.5t-216 43q-154 0 -279 -72.5t-196 -200.5t-71 -285zM422 710q0 192 109 310t268 118q152 0 252 -95t99 -268h-153q-11 109 -55.5 158.5t-142.5 49.5q-104 0 -162 -76t-58 -195q0 -126 57.5 -199t155.5 -73q97 0 144 46.5
t60 158.5h157q-11 -175 -110.5 -268t-256.5 -93q-151 0 -257.5 117.5t-106.5 308.5z" />
    <glyph glyph-name="ordfeminine" unicode="&#xaa;" horiz-adv-x="869" 
d="M331 622q-127 0 -205 68t-78 183q0 125 91 192q13 10 29 18l-122 100q61 110 139 161t187 51q128 0 215.5 -67.5t105.5 -189.5l80 4l-77 -27q1 -11 1 -35v-453h-183v41q-86 -46 -183 -46zM202 1098q57 20 161 24l147 7q-9 48 -41 67.5t-97 19.5q-60 0 -92.5 -22.5
t-77.5 -95.5zM230 873q0 -43 20.5 -58t83.5 -15q71 0 125.5 40.5t85.5 113.5l-173 -10q-96 -3 -122 -23q-14 -11 -17 -17.5t-3 -30.5z" />
    <glyph glyph-name="guillemotleft" unicode="&#xab;" horiz-adv-x="1378" 
d="M597 146l-309 373l309 373h257l-310 -373l307 -373h-254zM652 519l306 373h256l-307 -373l307 -373h-256z" />
    <glyph glyph-name="logicalnot" unicode="&#xac;" horiz-adv-x="997" 
d="M660 372v238h-584v194h781v-432h-197z" />
    <glyph glyph-name="registered" unicode="&#xae;" horiz-adv-x="975" 
d="M488 646q-191 0 -314.5 123.5t-123.5 315.5q0 189 123.5 311.5t314.5 122.5q190 0 313.5 -123t123.5 -311q0 -192 -123 -315.5t-314 -123.5zM180 1085q0 -144 83.5 -229t224.5 -85t224.5 85t83.5 229q0 141 -83.5 225t-224.5 84t-224.5 -84t-83.5 -225zM321 845v462h173
q75 0 120.5 -39t45.5 -110q0 -88 -68 -128l107 -185h-146l-93 163h-14v-163h-125zM446 1134h48q31 0 36 3t5 21t-5 21t-36 3h-48v-48z" />
    <glyph glyph-name="macron" unicode="&#xaf;" horiz-adv-x="742" 
d="M168 1499v194h406v-194h-406z" />
    <glyph glyph-name="degree" unicode="&#xb0;" horiz-adv-x="719" 
d="M360 890q-111 0 -185.5 74t-74.5 185q0 110 74.5 183.5t185.5 73.5t185 -73.5t74 -183.5q0 -112 -74 -185.5t-185 -73.5zM299 1149q0 -40 11.5 -51.5t49.5 -11.5t50 12t12 51q0 38 -12 50t-50 12t-49.5 -12t-11.5 -50z" />
    <glyph glyph-name="plusminus" unicode="&#xb1;" horiz-adv-x="1020" 
d="M411 207v371h-335v196h335v372h197v-372h336v-196h-336v-371h-197zM76 -37v196h868v-196h-868z" />
    <glyph glyph-name="uni00B2" unicode="&#xb2;" horiz-adv-x="913" 
d="M149 865v129l290 266q94 87 117 126t23 97q0 54 -23.5 75t-86.5 21t-94.5 -27t-38.5 -90v-88h-198l17 102q14 125 102 203.5t212 78.5q137 0 214.5 -79.5t77.5 -195.5q0 -89 -43.5 -171t-150.5 -177l-98 -91h328v-179h-648z" />
    <glyph glyph-name="uni00B3" unicode="&#xb3;" horiz-adv-x="901" 
d="M443 859q-169 0 -259 108t-55 265h178q-25 -106 5 -150.5t131 -44.5q81 0 114.5 26.5t33.5 85.5q0 55 -33 79t-115 24q-42 0 -127 -13v143l160 196h-343v180h624v-125l-181 -220q87 -32 138 -103t51 -161q0 -128 -90.5 -209t-231.5 -81z" />
    <glyph glyph-name="acute" unicode="&#xb4;" horiz-adv-x="1019" 
d="M392 1428l192 353h239l-219 -353h-212z" />
    <glyph glyph-name="paragraph" unicode="&#xb6;" horiz-adv-x="1112" 
d="M459 568q-25 0 -65 2q-165 9 -259.5 126.5t-94.5 278.5q0 102 39.5 190.5t121.5 148t193 65.5q31 2 103 2h425v-1576h-197v1382h-69v-1382h-197v763z" />
    <glyph glyph-name="periodcentered" unicode="&#xb7;" horiz-adv-x="475" 
d="M237 502q-49 0 -83 34t-34 83q0 50 34 84.5t83 34.5q51 0 84.5 -34.5t33.5 -84.5q0 -49 -33.5 -83t-84.5 -34z" />
    <glyph glyph-name="cedilla" unicode="&#xb8;" horiz-adv-x="931" 
d="M408 -404q-116 0 -173 56v174q39 -24 76 -37t64.5 -15t49 3t32.5 16.5t11 26.5q1 23 -16 27q-26 8 -210 -16h-1h-1h-2l171 338h221l-83 -162q60 -28 90 -77.5t29 -110.5q0 -76 -42.5 -128.5t-98.5 -73.5t-117 -21z" />
    <glyph glyph-name="uni00B9" unicode="&#xb9;" horiz-adv-x="603" 
d="M246 874v632l-190 -119v220l247 149h130v-882h-187z" />
    <glyph glyph-name="ordmasculine" unicode="&#xba;" horiz-adv-x="814" 
d="M402 632q-156 0 -256 109.5t-100 277.5q0 167 99 276.5t257 109.5h10q157 0 256.5 -109.5t99.5 -276.5q0 -168 -99.5 -277.5t-256.5 -109.5h-10zM229 1019q0 -206 173 -206h10q88 0 130.5 50.5t42.5 155.5q0 204 -173 204h-10q-173 0 -173 -204z" />
    <glyph glyph-name="guillemotright" unicode="&#xbb;" horiz-adv-x="1378" 
d="M781 146h-254l307 373l-310 373h257l309 -373zM164 146l307 373l-307 373h256l306 -373l-306 -373h-256z" />
    <glyph glyph-name="questiondown" unicode="&#xbf;" horiz-adv-x="1027" 
d="M639 873q1 -78 -0.5 -122.5t-8.5 -97.5t-20.5 -87t-39 -78t-61.5 -85.5t-90 -94.5q-70 -68 -98.5 -124.5t-28.5 -126.5q0 -104 52.5 -151.5t165.5 -47.5q139 0 199.5 82.5t54.5 252.5h194q20 -228 -108.5 -379.5t-339.5 -151.5q-194 0 -305.5 113t-111.5 282
q0 213 190 389q52 50 80.5 82t49 68t24.5 70t8 87t0 120h194zM425 1041q0 48 33.5 80.5t80.5 32.5q48 0 81 -32.5t33 -80.5q0 -47 -33 -80.5t-81 -33.5q-47 0 -80.5 33.5t-33.5 80.5z" />
    <glyph glyph-name="Agrave" unicode="&#xc0;" horiz-adv-x="1169" 
d="M20 0l486 1394h156l487 -1394h-208l-147 426h-419l-148 -426h-207zM311 1762h242l183 -323h-211zM439 617h290l-145 418z" />
    <glyph glyph-name="Aacute" unicode="&#xc1;" horiz-adv-x="1169" 
d="M20 0l486 1394h156l487 -1394h-208l-147 426h-419l-148 -426h-207zM428 1439l183 323h244l-214 -323h-213zM439 617h290l-145 418z" />
    <glyph glyph-name="Acircumflex" unicode="&#xc2;" horiz-adv-x="1169" 
d="M20 0l486 1394h156l487 -1394h-208l-147 426h-419l-148 -426h-207zM300 1439l224 323h123l227 -323h-236l-52 78l-52 -78h-234zM439 617h290l-145 418z" />
    <glyph glyph-name="Atilde" unicode="&#xc3;" horiz-adv-x="1169" 
d="M20 0l486 1394h156l487 -1394h-208l-147 426h-419l-148 -426h-207zM362 1507q-21 83 12 143t111 60q49 0 127 -30q25 -7 35 -10l3 32h151q26 -91 -10 -147t-110 -56q-50 0 -128 28l-35 12l-3 -32h-153zM439 617h290l-145 418z" />
    <glyph glyph-name="Adieresis" unicode="&#xc4;" horiz-adv-x="1169" 
d="M20 0l486 1394h156l487 -1394h-208l-147 426h-419l-148 -426h-207zM345 1600q0 47 33.5 81t80.5 34t80.5 -34t33.5 -81t-33.5 -80.5t-80.5 -33.5t-80.5 33.5t-33.5 80.5zM439 617h290l-145 418zM606 1600q0 47 33.5 81t80.5 34t80.5 -34t33.5 -81t-33.5 -80.5
t-80.5 -33.5t-80.5 33.5t-33.5 80.5z" />
    <glyph glyph-name="Aring" unicode="&#xc5;" horiz-adv-x="1169" 
d="M20 0l486 1394h156l487 -1394h-208l-147 426h-419l-148 -426h-207zM395 1600q0 83 56.5 135t134.5 52q77 0 133.5 -52t56.5 -135t-56.5 -135t-133.5 -52t-134 52t-57 135zM439 617h290l-145 418zM564 1600q0 -12 4.5 -16t17.5 -4t17 4t4 16q0 13 -3.5 16t-17.5 3t-18 -3
t-4 -16z" />
    <glyph glyph-name="AE" unicode="&#xc6;" horiz-adv-x="1605" 
d="M6 0l486 1394h1043v-192h-731v-404h669v-191h-669v-416h731v-191h-924v426h-249l-147 -426h-209zM428 617h183v529z" />
    <glyph glyph-name="Ccedilla" unicode="&#xc7;" horiz-adv-x="1329" 
d="M641 -400q-116 0 -173 56v174q39 -24 76 -37t64.5 -15t49 3t32.5 16.5t11 26.5q0 23 -15 28q-24 8 -195 -15q-9 -2 -19 -3l82 167q-226 43 -360 228.5t-134 466.5q0 160 45.5 293t127 224.5t196.5 142t251 50.5h18q212 0 365 -116t216 -317l-181 -68q-47 154 -145.5 230
t-254.5 76h-18q-205 0 -315.5 -132.5t-110.5 -382.5q0 -249 110.5 -381t315.5 -132h18q307 0 400 306l181 -68q-54 -172 -176 -283t-292 -140q88 -57 88 -174q0 -58 -24 -103t-63.5 -70.5t-83 -38t-87.5 -12.5z" />
    <glyph glyph-name="Egrave" unicode="&#xc8;" horiz-adv-x="1144" 
d="M150 0v1394h924v-192h-730v-404h669v-191h-669v-416h730v-191h-924zM306 1762h243l183 -323h-209z" />
    <glyph glyph-name="Eacute" unicode="&#xc9;" horiz-adv-x="1144" 
d="M150 0v1394h924v-192h-730v-404h669v-191h-669v-416h730v-191h-924zM425 1439l183 323h242l-213 -323h-212z" />
    <glyph glyph-name="Ecircumflex" unicode="&#xca;" horiz-adv-x="1144" 
d="M150 0v1394h924v-192h-730v-404h669v-191h-669v-416h730v-191h-924zM297 1439l224 323h123l224 -323h-236l-51 77l-51 -77h-233z" />
    <glyph glyph-name="Edieresis" unicode="&#xcb;" horiz-adv-x="1144" 
d="M150 0v1394h924v-192h-730v-404h669v-191h-669v-416h730v-191h-924zM345 1600q0 47 33.5 81t80.5 34t80.5 -34t33.5 -81t-33.5 -80.5t-80.5 -33.5t-80.5 33.5t-33.5 80.5zM606 1600q0 47 33.5 81t80.5 34t80.5 -34t33.5 -81t-33.5 -80.5t-80.5 -33.5t-80.5 33.5
t-33.5 80.5z" />
    <glyph glyph-name="Igrave" unicode="&#xcc;" horiz-adv-x="443" 
d="M60 0v1394h192v-1394h-192zM-118 1762h242l183 -323h-211z" />
    <glyph glyph-name="Iacute" unicode="&#xcd;" horiz-adv-x="444" 
d="M196 0v1394h192v-1394h-192zM136 1439l184 323h242l-216 -323h-210z" />
    <glyph glyph-name="Icircumflex" unicode="&#xce;" horiz-adv-x="327" 
d="M67 0v1394h193v-1394h-193zM-122 1439l224 323h124l225 -323h-235l-53 77l-51 -77h-234z" />
    <glyph glyph-name="Idieresis" unicode="&#xcf;" horiz-adv-x="297" 
d="M56 0v1394h193v-1394h-193zM-95 1600q0 47 33.5 81t80.5 34t80.5 -34t33.5 -81t-33.5 -80.5t-80.5 -33.5t-80.5 33.5t-33.5 80.5zM166 1600q0 47 33.5 81t80.5 34t80.5 -34t33.5 -81t-33.5 -80.5t-80.5 -33.5t-80.5 33.5t-33.5 80.5z" />
    <glyph glyph-name="Eth" unicode="&#xd0;" horiz-adv-x="1213" 
d="M128 0v573h-98v195h98v626h325q329 0 514.5 -188t185.5 -520q0 -326 -184 -506t-518 -180h-323zM321 191h127q263 0 385.5 119t122.5 376q0 264 -124.5 390t-380.5 126h-130v-434h340v-195h-340v-382z" />
    <glyph glyph-name="Ntilde" unicode="&#xd1;" horiz-adv-x="1268" 
d="M150 0v1394h173l601 -990v990h194v-1394h-175l-599 987v-987h-194zM406 1507q-21 83 12 143t111 60q49 0 127 -30q25 -7 35 -10l3 32h151q26 -91 -10 -147t-110 -56q-50 0 -128 28l-35 12l-3 -32h-153z" />
    <glyph glyph-name="Ograve" unicode="&#xd2;" horiz-adv-x="1379" 
d="M680 -16q-277 0 -448.5 193t-171.5 513q0 160 45.5 293t127 224.5t196.5 142t251 50.5h18q186 0 327 -89.5t217.5 -250.5t76.5 -370q0 -316 -170.5 -511t-450.5 -195h-18zM254 690q0 -248 110.5 -380.5t315.5 -132.5h18q206 0 317 132.5t111 380.5q0 250 -111 382.5
t-317 132.5h-18q-205 0 -315.5 -132.5t-110.5 -382.5zM420 1762h242l183 -323h-211z" />
    <glyph glyph-name="Oacute" unicode="&#xd3;" horiz-adv-x="1379" 
d="M680 -16q-277 0 -448.5 193t-171.5 513q0 160 45.5 293t127 224.5t196.5 142t251 50.5h18q186 0 327 -89.5t217.5 -250.5t76.5 -370q0 -316 -170.5 -511t-450.5 -195h-18zM254 690q0 -248 110.5 -380.5t315.5 -132.5h18q206 0 317 132.5t111 380.5q0 250 -111 382.5
t-317 132.5h-18q-205 0 -315.5 -132.5t-110.5 -382.5zM537 1439l184 323h243l-215 -323h-212z" />
    <glyph glyph-name="Ocircumflex" unicode="&#xd4;" horiz-adv-x="1379" 
d="M680 -16q-277 0 -448.5 193t-171.5 513q0 160 45.5 293t127 224.5t196.5 142t251 50.5h18q186 0 327 -89.5t217.5 -250.5t76.5 -370q0 -316 -170.5 -511t-450.5 -195h-18zM254 690q0 -248 110.5 -380.5t315.5 -132.5h18q206 0 317 132.5t111 380.5q0 250 -111 382.5
t-317 132.5h-18q-205 0 -315.5 -132.5t-110.5 -382.5zM408 1439l225 323h123l225 -323h-235l-52 77l-52 -77h-234z" />
    <glyph glyph-name="Otilde" unicode="&#xd5;" horiz-adv-x="1379" 
d="M680 -16q-277 0 -448.5 193t-171.5 513q0 160 45.5 293t127 224.5t196.5 142t251 50.5h18q186 0 327 -89.5t217.5 -250.5t76.5 -370q0 -316 -170.5 -511t-450.5 -195h-18zM254 690q0 -248 110.5 -380.5t315.5 -132.5h18q206 0 317 132.5t111 380.5q0 250 -111 382.5
t-317 132.5h-18q-205 0 -315.5 -132.5t-110.5 -382.5zM482 1507q-21 83 12 143t111 60q49 0 127 -30q25 -7 35 -10l3 32h151q26 -91 -10 -147t-110 -56q-50 0 -128 28l-35 12l-3 -32h-153z" />
    <glyph glyph-name="Odieresis" unicode="&#xd6;" horiz-adv-x="1379" 
d="M680 -16q-277 0 -448.5 193t-171.5 513q0 160 45.5 293t127 224.5t196.5 142t251 50.5h18q186 0 327 -89.5t217.5 -250.5t76.5 -370q0 -316 -170.5 -511t-450.5 -195h-18zM254 690q0 -248 110.5 -380.5t315.5 -132.5h18q206 0 317 132.5t111 380.5q0 250 -111 382.5
t-317 132.5h-18q-205 0 -315.5 -132.5t-110.5 -382.5zM448 1600q0 47 33.5 81t80.5 34t80.5 -34t33.5 -81t-33.5 -80.5t-80.5 -33.5t-80.5 33.5t-33.5 80.5zM709 1600q0 47 33.5 81t80.5 34t80.5 -34t33.5 -81t-33.5 -80.5t-80.5 -33.5t-80.5 33.5t-33.5 80.5z" />
    <glyph glyph-name="multiply" unicode="&#xd7;" horiz-adv-x="1046" 
d="M792 228l-268 267l-267 -266l-139 136l268 269l-268 267l139 139l267 -267l270 268l135 -140l-266 -267l267 -268z" />
    <glyph glyph-name="Oslash" unicode="&#xd8;" horiz-adv-x="1461" 
d="M716 -16q-239 0 -405 149l-115 -115l-136 140l129 130q-92 172 -92 402q0 322 171 516t448 194h17q246 0 413 -156l118 118l137 -138l-135 -137q89 -170 89 -397q0 -316 -170.5 -511t-451.5 -195h-17zM290 690q0 -147 44 -258l676 676q-106 97 -277 97h-17
q-205 0 -315.5 -132.5t-110.5 -382.5zM447 269q106 -92 269 -92h17q207 0 318.5 132.5t111.5 380.5q0 142 -43 253z" />
    <glyph glyph-name="Ugrave" unicode="&#xd9;" horiz-adv-x="1236" 
d="M134 515v879h192v-866q0 -103 32 -184t83.5 -122t113.5 -60t124.5 1.5t114 63.5t83.5 124.5t32 185.5v857h193v-859q0 -263 -157 -417q-123 -121 -298 -134q-174 -13 -310 86q-161 115 -195 335q-8 53 -8 110zM341 1762h243l183 -323h-211z" />
    <glyph glyph-name="Uacute" unicode="&#xda;" horiz-adv-x="1236" 
d="M134 515v879h192v-866q0 -103 32 -184t83.5 -122t113.5 -60t124.5 1.5t114 63.5t83.5 124.5t32 185.5v857h193v-859q0 -263 -157 -417q-123 -121 -298 -134q-174 -13 -310 86q-161 115 -195 335q-8 53 -8 110zM460 1439l183 323h242l-215 -323h-210z" />
    <glyph glyph-name="Ucircumflex" unicode="&#xdb;" horiz-adv-x="1236" 
d="M134 515v879h192v-866q0 -103 32 -184t83.5 -122t113.5 -60t124.5 1.5t114 63.5t83.5 124.5t32 185.5v857h193v-859q0 -263 -157 -417q-123 -121 -298 -134q-174 -13 -310 86q-161 115 -195 335q-8 53 -8 110zM330 1439l226 323h123l224 -323h-236l-51 77l-52 -77h-234z
" />
    <glyph glyph-name="Udieresis" unicode="&#xdc;" horiz-adv-x="1236" 
d="M134 515v879h192v-866q0 -103 32 -184t83.5 -122t113.5 -60t124.5 1.5t114 63.5t83.5 124.5t32 185.5v857h193v-859q0 -263 -157 -417q-123 -121 -298 -134q-174 -13 -310 86q-161 115 -195 335q-8 53 -8 110zM371 1600q0 47 33.5 81t80.5 34t80.5 -34t33.5 -81
t-33.5 -80.5t-80.5 -33.5t-80.5 33.5t-33.5 80.5zM632 1600q0 47 33.5 81t80.5 34t80.5 -34t33.5 -81t-33.5 -80.5t-80.5 -33.5t-80.5 33.5t-33.5 80.5z" />
    <glyph glyph-name="Yacute" unicode="&#xdd;" horiz-adv-x="1171" 
d="M490 0l-4 425l-486 969h219l364 -734l368 734h220l-494 -969l5 -425h-192zM428 1439l183 323h242l-214 -323h-211z" />
    <glyph glyph-name="Thorn" unicode="&#xde;" horiz-adv-x="1159" 
d="M150 0v1381h194v-203h289q223 0 344.5 -104.5t121.5 -301.5v-2q0 -198 -121.5 -302.5t-344.5 -104.5h-289v-363h-194zM344 554h289q153 0 213 48.5t60 169.5q0 120 -60 168t-213 48h-289v-434z" />
    <glyph glyph-name="germandbls" unicode="&#xdf;" horiz-adv-x="1120" 
d="M339 0h-197v1012q0 20 3 116q12 204 148 317t375 114q177 1 282.5 -85t105.5 -235q0 -89 -50 -170.5t-151 -169.5q-50 -44 -63.5 -66t-13.5 -57t13 -57t64 -66q101 -88 151 -169t50 -171q0 -150 -106 -235.5t-285 -85.5q-135 0 -217 9v197q193 -6 241 -9q91 3 129.5 30.5
t38.5 87.5q0 44 -23 79.5t-104 111.5q-89 80 -120.5 140t-31.5 138t31.5 137.5t120.5 139.5q81 76 104 111.5t23 79.5q0 64 -44 92t-148 28q-168 0 -240.5 -57.5t-82.5 -190.5q-3 -72 -3 -101v-1015z" />
    <glyph glyph-name="agrave" unicode="&#xe0;" horiz-adv-x="1018" 
d="M465 -10q-169 0 -272 90t-103 240q0 165 120 250q94 69 303 76l254 12q-10 103 -69.5 148t-175.5 45q-96 0 -152.5 -39.5t-122.5 -154.5l-152 122q82 136 184.5 199t242.5 63q195 0 316.5 -111.5t121.5 -312.5v-617h-192v89q-137 -99 -303 -99zM241 1514h240l191 -352
h-209zM283 320q0 -74 43 -107.5t143 -33.5q125 0 212 79.5t87 205.5v6l-246 -10q-78 -2 -122.5 -10.5t-72.5 -29.5q-26 -19 -35 -39t-9 -61z" />
    <glyph glyph-name="aacute" unicode="&#xe1;" horiz-adv-x="1018" 
d="M465 -10q-169 0 -272 90t-103 240q0 165 120 250q94 69 303 76l254 12q-10 103 -69.5 148t-175.5 45q-96 0 -152.5 -39.5t-122.5 -154.5l-152 122q82 136 184.5 199t242.5 63q195 0 316.5 -111.5t121.5 -312.5v-617h-192v89q-137 -99 -303 -99zM283 320q0 -74 43 -107.5
t143 -33.5q125 0 212 79.5t87 205.5v6l-246 -10q-78 -2 -122.5 -10.5t-72.5 -29.5q-26 -19 -35 -39t-9 -61zM391 1162l192 352h240l-221 -352h-211z" />
    <glyph glyph-name="acircumflex" unicode="&#xe2;" horiz-adv-x="1018" 
d="M465 -10q-169 0 -272 90t-103 240q0 165 120 250q94 69 303 76l254 12q-10 103 -69.5 148t-175.5 45q-96 0 -152.5 -39.5t-122.5 -154.5l-152 122q82 136 184.5 199t242.5 63q195 0 316.5 -111.5t121.5 -312.5v-617h-192v89q-137 -99 -303 -99zM273 1162l208 352h131
l208 -352h-228l-47 84l-47 -84h-225zM283 320q0 -74 43 -107.5t143 -33.5q125 0 212 79.5t87 205.5v6l-246 -10q-78 -2 -122.5 -10.5t-72.5 -29.5q-26 -19 -35 -39t-9 -61z" />
    <glyph glyph-name="atilde" unicode="&#xe3;" horiz-adv-x="1018" 
d="M465 -10q-169 0 -272 90t-103 240q0 165 120 250q56 41 128.5 56t174.5 20l254 12q-10 103 -69.5 148t-175.5 45q-96 0 -152.5 -39.5t-122.5 -154.5l-152 122q82 136 184.5 199t242.5 63q195 0 316.5 -111.5t121.5 -312.5v-617h-192v89q-137 -99 -303 -99zM283 320
q0 -74 43 -107.5t143 -33.5q125 0 212 79.5t87 205.5v6l-246 -10q-80 -3 -124 -11.5t-71 -28.5q-26 -19 -35 -39t-9 -61zM349 1278q-21 83 12 143t111 60q49 0 127 -30q25 -7 35 -10l3 32h151q26 -91 -10 -147t-110 -56q-50 0 -128 28l-35 12l-3 -32h-153z" />
    <glyph glyph-name="adieresis" unicode="&#xe4;" horiz-adv-x="1018" 
d="M465 -10q-169 0 -272 90t-103 240q0 165 120 250q57 41 129 56t175 20l253 12q-10 103 -69.5 148t-175.5 45q-96 0 -152.5 -39.5t-122.5 -154.5l-152 122q82 136 184.5 199t242.5 63q195 0 316.5 -111.5t121.5 -312.5v-617h-192v89q-137 -99 -303 -99zM283 320
q0 -74 43 -107.5t143 -33.5q125 0 212 79.5t87 205.5v6l-245 -10q-81 -3 -125 -11.5t-71 -28.5q-26 -19 -35 -39t-9 -61zM302 1336q0 47 33.5 81t80.5 34t80.5 -34t33.5 -81t-33.5 -80.5t-80.5 -33.5t-80.5 33.5t-33.5 80.5zM563 1336q0 47 33.5 81t80.5 34t80.5 -34
t33.5 -81t-33.5 -80.5t-80.5 -33.5t-80.5 33.5t-33.5 80.5z" />
    <glyph glyph-name="aring" unicode="&#xe5;" horiz-adv-x="1018" 
d="M465 -10q-169 0 -272 90t-103 240q0 165 120 250q94 69 303 76l254 12q-10 103 -69.5 148t-175.5 45q-96 0 -152.5 -39.5t-122.5 -154.5l-152 122q82 136 184.5 199t242.5 63q195 0 316.5 -111.5t121.5 -312.5v-617h-192v89q-137 -99 -303 -99zM283 320q0 -74 43 -107.5
t143 -33.5q125 0 212 79.5t87 205.5v6l-246 -10q-78 -2 -122.5 -10.5t-72.5 -29.5q-26 -19 -35 -39t-9 -61zM367 1336q0 84 56 135.5t133 51.5q78 0 134.5 -51.5t56.5 -135.5q0 -82 -57 -134t-134 -52t-133 52t-56 134zM536 1336q0 -12 3.5 -15.5t16.5 -3.5q14 0 18 3.5
t4 15.5q0 13 -4 16.5t-18 3.5q-13 0 -16.5 -3.5t-3.5 -16.5z" />
    <glyph glyph-name="ae" unicode="&#xe6;" horiz-adv-x="1772" 
d="M465 -10q-169 0 -272 90t-103 240q0 165 120 250q98 71 304 76l253 12q-10 103 -69.5 148t-175.5 45q-96 0 -152.5 -39.5t-122.5 -154.5l-152 122q82 136 184.5 199t242.5 63q118 0 212 -42t152 -124q65 79 157 121t187 44.5t187 -37t160.5 -111.5t104.5 -191t22 -264
h-736q18 -125 90 -190.5t190 -65.5h18q104 0 167.5 49t101.5 152l177 -77q-54 -144 -172 -229.5t-274 -85.5h-18q-120 0 -220.5 53.5t-165.5 147.5q-74 -97 -180 -149t-217 -52zM283 320q0 -74 43 -107.5t143 -33.5q125 0 212 79.5t87 205.5v6l-245 -10q-81 -3 -125 -11.5
t-71 -28.5q-26 -19 -35 -39t-9 -61zM973 624h532q-18 78 -60 134.5t-94.5 82.5t-111.5 26t-111.5 -26t-94.5 -82.5t-60 -134.5z" />
    <glyph glyph-name="ccedilla" unicode="&#xe7;" horiz-adv-x="1063" 
d="M469 -405q-116 0 -173 56v174q39 -24 76 -37t64.5 -15t49 3t32.5 16.5t11 26.5q0 29 -32.5 31t-199.5 -19l93 182q-151 48 -240.5 183.5t-89.5 320.5q0 230 133.5 377t347.5 147h16q158 0 276.5 -84.5t169.5 -229.5l-178 -76q-39 104 -102 152t-166 48h-16
q-138 0 -212.5 -86.5t-74.5 -247.5t75 -248.5t212 -87.5h16q103 0 167 49.5t104 152.5l175 -78q-100 -261 -377 -261l-19 -37q56 -25 88 -72.5t32 -115.5q0 -58 -24 -103t-63.5 -70.5t-83 -38t-87.5 -12.5z" />
    <glyph glyph-name="egrave" unicode="&#xe8;" horiz-adv-x="1063" 
d="M541 -10q-211 0 -346 149t-135 378q0 149 58.5 267.5t166 186t246.5 70.5q149 -3 262 -82t167 -216t37 -306h-738q19 -125 90.5 -190.5t191.5 -65.5h16q103 0 167 49.5t104 152.5l175 -78q-53 -144 -171.5 -229.5t-274.5 -85.5h-16zM262 1514h238l193 -352h-212zM265 624
h531q-49 219 -265 227q-219 -8 -266 -227z" />
    <glyph glyph-name="eacute" unicode="&#xe9;" horiz-adv-x="1063" 
d="M541 -10q-211 0 -346 149t-135 378q0 149 58.5 267.5t166 186t246.5 70.5q149 -3 262 -82t167 -216t37 -306h-738q19 -125 90.5 -190.5t191.5 -65.5h16q103 0 167 49.5t104 152.5l175 -78q-53 -144 -171.5 -229.5t-274.5 -85.5h-16zM265 624h531q-49 219 -265 227
q-219 -8 -266 -227zM377 1162l193 352h238l-221 -352h-210z" />
    <glyph glyph-name="ecircumflex" unicode="&#xea;" horiz-adv-x="1063" 
d="M541 -10q-211 0 -346 149t-135 378q0 149 58.5 267.5t166 186t246.5 70.5q149 -3 262 -82t167 -216t37 -306h-738q19 -125 90.5 -190.5t191.5 -65.5h16q103 0 167 49.5t104 152.5l175 -78q-53 -144 -171.5 -229.5t-274.5 -85.5h-16zM258 1162l207 352h132l209 -352h-227
l-48 84l-48 -84h-225zM265 624h531q-49 219 -265 227q-219 -8 -266 -227z" />
    <glyph glyph-name="edieresis" unicode="&#xeb;" horiz-adv-x="1063" 
d="M541 -10q-211 0 -346 149t-135 378q0 149 58.5 267.5t166 186t246.5 70.5q149 -3 262 -82t167 -216t37 -306h-738q19 -125 90.5 -190.5t191.5 -65.5h16q103 0 167 49.5t104 152.5l175 -78q-53 -144 -171.5 -229.5t-274.5 -85.5h-16zM265 624h531q-49 219 -265 227
q-219 -8 -266 -227zM287 1336q0 47 33.5 81t80.5 34t80.5 -34t33.5 -81t-33.5 -80.5t-80.5 -33.5t-80.5 33.5t-33.5 80.5zM548 1336q0 47 33.5 81t80.5 34t80.5 -34t33.5 -81t-33.5 -80.5t-80.5 -33.5t-80.5 33.5t-33.5 80.5z" />
    <glyph glyph-name="igrave" unicode="&#xec;" horiz-adv-x="521" 
d="M155 0v1032h194v-1032h-194zM-52 1514h239l192 -352h-208z" />
    <glyph glyph-name="iacute" unicode="&#xed;" horiz-adv-x="521" 
d="M196 0v1032h193v-1032h-193zM142 1162l193 352h238l-220 -352h-211z" />
    <glyph glyph-name="icircumflex" unicode="&#xee;" horiz-adv-x="305" 
d="M56 0v1032h192v-1032h-192zM-122 1162l210 352h130l209 -352h-227l-48 84l-48 -84h-226z" />
    <glyph glyph-name="idieresis" unicode="&#xef;" horiz-adv-x="301" 
d="M57 0v1032h193v-1032h-193zM-93 1336q0 47 33.5 81t80.5 34t80.5 -34t33.5 -81t-33.5 -80.5t-80.5 -33.5t-80.5 33.5t-33.5 80.5zM168 1336q0 47 33.5 81t80.5 34t80.5 -34t33.5 -81t-33.5 -80.5t-80.5 -33.5t-80.5 33.5t-33.5 80.5z" />
    <glyph glyph-name="eth" unicode="&#xf0;" horiz-adv-x="1107" 
d="M541 -10q-211 0 -346 149t-135 378q0 205 107.5 346t285.5 171l-36 149l127 35l-92 181h214l67 -130l147 39l49 -189l-106 -29l200 -389h-4l2 -17q16 -97 16 -167q0 -230 -134 -378.5t-346 -148.5h-16zM254 517q0 -161 75 -248.5t212 -87.5h16q138 0 212.5 87.5
t74.5 248.5t-74.5 247.5t-212.5 86.5h-16q-138 0 -212.5 -86.5t-74.5 -247.5z" />
    <glyph glyph-name="ntilde" unicode="&#xf1;" horiz-adv-x="1117" 
d="M142 0v1032h194v-53q98 62 248 62q205 0 308 -112.5t103 -321.5v-607h-192v597q0 149 -44.5 201.5t-174.5 52.5q-133 0 -190.5 -77t-57.5 -268v-506h-194zM341 1278q-21 83 12 143t111 60q49 0 127 -30q25 -7 35 -10l3 32h151q26 -91 -10 -147t-110 -56q-50 0 -128 28
l-35 12l-3 -32h-153z" />
    <glyph glyph-name="ograve" unicode="&#xf2;" 
d="M541 -10q-211 0 -346 149t-135 378q0 230 133.5 377t347.5 147h16q213 0 346.5 -147t133.5 -377t-134 -378.5t-346 -148.5h-16zM254 517q0 -161 75 -248.5t212 -87.5h16q138 0 212.5 87.5t74.5 248.5t-74.5 247.5t-212.5 86.5h-16q-138 0 -212.5 -86.5t-74.5 -247.5z
M277 1514h239l194 -352h-210z" />
    <glyph glyph-name="oacute" unicode="&#xf3;" 
d="M541 -10q-211 0 -346 149t-135 378q0 230 133.5 377t347.5 147h16q213 0 346.5 -147t133.5 -377t-134 -378.5t-346 -148.5h-16zM254 517q0 -161 75 -248.5t212 -87.5h16q138 0 212.5 87.5t74.5 248.5t-74.5 247.5t-212.5 86.5h-16q-138 0 -212.5 -86.5t-74.5 -247.5z
M394 1162l191 352h241l-222 -352h-210z" />
    <glyph glyph-name="ocircumflex" unicode="&#xf4;" 
d="M541 -10q-211 0 -346 149t-135 378q0 230 133.5 377t347.5 147h16q213 0 346.5 -147t133.5 -377t-134 -378.5t-346 -148.5h-16zM254 517q0 -161 75 -248.5t212 -87.5h16q138 0 212.5 87.5t74.5 248.5t-74.5 247.5t-212.5 86.5h-16q-138 0 -212.5 -86.5t-74.5 -247.5z
M274 1162l210 352h130l208 -352h-227l-47 84l-48 -84h-226z" />
    <glyph glyph-name="otilde" unicode="&#xf5;" 
d="M541 -10q-211 0 -346 149t-135 378q0 230 133.5 377t347.5 147h16q213 0 346.5 -147t133.5 -377t-134 -378.5t-346 -148.5h-16zM254 517q0 -161 75 -248.5t212 -87.5h16q138 0 212.5 87.5t74.5 248.5t-74.5 247.5t-212.5 86.5h-16q-138 0 -212.5 -86.5t-74.5 -247.5z
M341 1278q-21 83 12 143t111 60q49 0 127 -30q25 -7 35 -10l3 32h151q26 -91 -10 -147t-110 -56q-50 0 -128 28l-35 12l-3 -32h-153z" />
    <glyph glyph-name="odieresis" unicode="&#xf6;" 
d="M541 -10q-211 0 -346 149t-135 378q0 230 133.5 377t347.5 147h16q213 0 346.5 -147t133.5 -377t-134 -378.5t-346 -148.5h-16zM254 517q0 -161 75 -248.5t212 -87.5h16q138 0 212.5 87.5t74.5 248.5t-74.5 247.5t-212.5 86.5h-16q-138 0 -212.5 -86.5t-74.5 -247.5z
M305 1336q0 47 33.5 81t80.5 34t80.5 -34t33.5 -81t-33.5 -80.5t-80.5 -33.5t-80.5 33.5t-33.5 80.5zM566 1336q0 47 33.5 81t80.5 34t80.5 -34t33.5 -81t-33.5 -80.5t-80.5 -33.5t-80.5 33.5t-33.5 80.5z" />
    <glyph glyph-name="divide" unicode="&#xf7;" horiz-adv-x="1020" 
d="M76 544v196h868v-196h-868zM385 366q0 52 36.5 88.5t88.5 36.5t89 -36t37 -89t-37 -89t-89 -36t-88.5 37t-36.5 88zM385 916q0 53 36.5 89t88.5 36t89 -36t37 -89t-37 -89t-89 -36t-88.5 36.5t-36.5 88.5z" />
    <glyph glyph-name="oslash" unicode="&#xf8;" horiz-adv-x="1302" 
d="M196 -47l-136 138l163 164q-58 118 -58 262q0 230 134 377t346 147h18q153 0 266 -79l176 176l137 -139l-178 -179q78 -129 78 -303q0 -230 -134 -378.5t-345 -148.5h-18q-176 0 -303 110zM359 517q0 -64 13 -113l419 419q-53 28 -128 28h-18q-137 0 -211.5 -86.5
t-74.5 -247.5zM477 234q66 -53 168 -53h18q138 0 212.5 87.5t74.5 248.5q0 91 -29 160z" />
    <glyph glyph-name="ugrave" unicode="&#xf9;" 
d="M532 -10q-204 0 -307 113t-103 323v606h193v-597q0 -149 44.5 -201.5t172.5 -52.5q134 0 191.5 76.5t57.5 268.5v506h194v-1032h-194v52q-98 -62 -249 -62zM250 1514h240l191 -352h-208z" />
    <glyph glyph-name="uacute" unicode="&#xfa;" 
d="M532 -10q-204 0 -307 113t-103 323v606h193v-597q0 -149 44.5 -201.5t172.5 -52.5q134 0 191.5 76.5t57.5 268.5v506h194v-1032h-194v52q-98 -62 -249 -62zM393 1162l191 352h241l-221 -352h-211z" />
    <glyph glyph-name="ucircumflex" unicode="&#xfb;" 
d="M532 -10q-204 0 -307 113t-103 323v606h193v-597q0 -149 44.5 -201.5t172.5 -52.5q134 0 191.5 76.5t57.5 268.5v506h194v-1032h-194v52q-98 -62 -249 -62zM275 1162l208 352h131l209 -352h-229l-47 84l-47 -84h-225z" />
    <glyph glyph-name="udieresis" unicode="&#xfc;" 
d="M532 -10q-204 0 -307 113t-103 323v606h193v-597q0 -149 44.5 -201.5t172.5 -52.5q134 0 191.5 76.5t57.5 268.5v506h194v-1032h-194v52q-98 -62 -249 -62zM305 1336q0 47 33.5 81t80.5 34t80.5 -34t33.5 -81t-33.5 -80.5t-80.5 -33.5t-80.5 33.5t-33.5 80.5zM566 1336
q0 47 33.5 81t80.5 34t80.5 -34t33.5 -81t-33.5 -80.5t-80.5 -33.5t-80.5 33.5t-33.5 80.5z" />
    <glyph glyph-name="yacute" unicode="&#xfd;" horiz-adv-x="1050" 
d="M235 -135q27 -16 41.5 -23t25 -12t15 0t7 9t7 19t8.5 26l82 198l-391 950h211l283 -700l287 700h209l-504 -1224q-55 -138 -151.5 -167.5t-208.5 54.5zM372 1162l192 352h239l-221 -352h-210z" />
    <glyph glyph-name="thorn" unicode="&#xfe;" horiz-adv-x="1184" 
d="M142 -362v1756h194v-454q125 101 286 101h25q136 0 245.5 -69.5t170.5 -190t61 -266.5q0 -147 -61.5 -267t-171 -189t-244.5 -69h-25q-161 0 -286 101v-453h-194zM334 515q0 -156 76 -244t208 -88h26q133 0 210.5 88.5t77.5 243.5q0 156 -77.5 245.5t-210.5 89.5h-26
q-131 0 -207.5 -89.5t-76.5 -245.5z" />
    <glyph glyph-name="ydieresis" unicode="&#xff;" horiz-adv-x="1050" 
d="M234 -136q33 -19 49 -27.5t26.5 -7t12.5 5t7 21t10 28.5l82 198l-391 950h211l283 -700l287 700h209l-504 -1224q-56 -137 -151 -167t-209 54zM285 1336q0 47 33.5 81t80.5 34t80.5 -34t33.5 -81t-33.5 -80.5t-80.5 -33.5t-80.5 33.5t-33.5 80.5zM546 1336q0 47 33.5 81
t80.5 34t80.5 -34t33.5 -81t-33.5 -80.5t-80.5 -33.5t-80.5 33.5t-33.5 80.5z" />
    <glyph glyph-name="Amacron" unicode="&#x100;" horiz-adv-x="1169" 
d="M20 0l486 1394h156l487 -1394h-208l-147 426h-419l-148 -426h-207zM382 1502v195h407v-195h-407zM439 617h290l-145 418z" />
    <glyph glyph-name="amacron" unicode="&#x101;" horiz-adv-x="1018" 
d="M465 -10q-169 0 -272 90t-103 240q0 165 120 250q94 69 303 76l254 12q-10 103 -69.5 148t-175.5 45q-96 0 -152.5 -39.5t-122.5 -154.5l-152 122q82 136 184.5 199t242.5 63q195 0 316.5 -111.5t121.5 -312.5v-617h-192v89q-137 -99 -303 -99zM283 320q0 -74 43 -107.5
t143 -33.5q125 0 212 79.5t87 205.5v6l-246 -10q-78 -2 -122.5 -10.5t-72.5 -29.5q-26 -19 -35 -39t-9 -61zM342 1232v196h406v-196h-406z" />
    <glyph glyph-name="Abreve" unicode="&#x102;" horiz-adv-x="1169" 
d="M20 0l486 1394h156l487 -1394h-208l-147 426h-419l-148 -426h-207zM342 1762h189q-14 -98 -3.5 -126t58.5 -28q47 0 57 28t-4 126h189q29 -150 -42.5 -249.5t-199.5 -99.5q-130 0 -201 99t-43 250zM439 617h290l-145 418z" />
    <glyph glyph-name="abreve" unicode="&#x103;" horiz-adv-x="1018" 
d="M465 -10q-169 0 -272 90t-103 240q0 165 120 250q98 71 304 76l253 12q-10 103 -69.5 148t-175.5 45q-96 0 -152.5 -39.5t-122.5 -154.5l-152 122q82 136 184.5 199t242.5 63q195 0 316.5 -111.5t121.5 -312.5v-617h-192v89q-137 -99 -303 -99zM283 320q0 -74 43 -107.5
t143 -33.5q125 0 212 79.5t87 205.5v6l-245 -10q-81 -3 -125 -11.5t-71 -28.5q-26 -19 -35 -39t-9 -61zM303 1504h189q-14 -99 -4 -127t57 -28t57.5 28t-3.5 127h190q28 -151 -44 -250t-200 -99q-130 0 -200 99t-42 250z" />
    <glyph glyph-name="Aogonek" unicode="&#x104;" horiz-adv-x="1158" 
d="M900 -396q-33 0 -65 10.5t-61.5 32t-47.5 63t-18 96.5q0 96 50.5 181t138.5 141l-103 298h-419l-148 -426h-207l486 1394h156l476 -1362q-234 -73 -234 -221q0 -13 4 -13q30 0 56.5 27.5t137.5 168.5v-292q-79 -98 -202 -98zM439 617h290l-145 418z" />
    <glyph glyph-name="aogonek" unicode="&#x105;" horiz-adv-x="1058" 
d="M739 -396q-33 0 -65 10.5t-61.5 32t-48 63t-18.5 96.5q0 111 66 206q-75 -22 -147 -22q-169 0 -272 90t-103 240q0 165 120 250q94 69 303 76l254 12q-10 103 -69.5 148t-175.5 45q-96 0 -152.5 -39.5t-122.5 -154.5l-152 122q82 136 184.5 199t242.5 63
q195 0 316.5 -111.5t121.5 -312.5v-606q-100 -4 -158 -60t-58 -140q0 -13 3 -13q30 0 56.5 27.5t137.5 168.5v-292q-79 -98 -202 -98zM283 320q0 -74 43 -107.5t143 -33.5q125 0 212 79.5t87 205.5v6l-246 -10q-78 -2 -122.5 -10.5t-72.5 -29.5q-26 -19 -35 -39t-9 -61z" />
    <glyph glyph-name="Cacute" unicode="&#x106;" horiz-adv-x="1329" 
d="M680 -12q-276 0 -448 194t-172 514q0 160 45.5 293t127 224.5t196.5 142t251 50.5h18q212 0 365 -116t216 -317l-181 -68q-47 154 -145.5 230t-254.5 76h-18q-205 0 -315.5 -132.5t-110.5 -382.5q0 -249 110.5 -381t315.5 -132h18q307 0 400 306l181 -68
q-63 -200 -216.5 -316.5t-364.5 -116.5h-18zM509 1439l184 323h242l-214 -323h-212z" />
    <glyph glyph-name="cacute" unicode="&#x107;" horiz-adv-x="1063" 
d="M541 -10q-211 0 -346 149t-135 378q0 230 133.5 377t347.5 147h16q158 0 276.5 -84.5t169.5 -229.5l-178 -76q-39 104 -102 152t-166 48h-16q-138 0 -212.5 -86.5t-74.5 -247.5t75 -248.5t212 -87.5h16q103 0 167 49.5t104 152.5l175 -78q-53 -144 -171.5 -229.5
t-274.5 -85.5h-16zM385 1162l194 352h238l-221 -352h-211z" />
    <glyph glyph-name="Ccircumflex" unicode="&#x108;" horiz-adv-x="1329" 
d="M680 -12q-276 0 -448 194t-172 514q0 160 45.5 293t127 224.5t196.5 142t251 50.5h18q212 0 365 -116t216 -317l-181 -68q-47 154 -145.5 230t-254.5 76h-18q-205 0 -315.5 -132.5t-110.5 -382.5q0 -249 110.5 -381t315.5 -132h18q307 0 400 306l181 -68
q-63 -200 -216.5 -316.5t-364.5 -116.5h-18zM406 1439l224 323h123l226 -323h-236l-52 77l-52 -77h-233z" />
    <glyph glyph-name="ccircumflex" unicode="&#x109;" horiz-adv-x="1063" 
d="M541 -10q-211 0 -346 149t-135 378q0 230 133.5 377t347.5 147h16q158 0 276.5 -84.5t169.5 -229.5l-178 -76q-39 104 -102 152t-166 48h-16q-138 0 -212.5 -86.5t-74.5 -247.5t75 -248.5t212 -87.5h16q103 0 167 49.5t104 152.5l175 -78q-53 -144 -171.5 -229.5
t-274.5 -85.5h-16zM274 1162l210 352h130l208 -352h-227l-47 84l-48 -84h-226z" />
    <glyph glyph-name="Cdotaccent" unicode="&#x10a;" horiz-adv-x="1329" 
d="M680 -12q-276 0 -448 194t-172 514q0 160 45.5 293t127 224.5t196.5 142t251 50.5h18q212 0 365 -116t216 -317l-181 -68q-47 154 -145.5 230t-254.5 76h-18q-205 0 -315.5 -132.5t-110.5 -382.5q0 -249 110.5 -381t315.5 -132h18q307 0 400 306l181 -68
q-63 -200 -216.5 -316.5t-364.5 -116.5h-18zM559 1600q0 47 33 81t81 34q47 0 81 -34t34 -81t-34 -80.5t-81 -33.5q-48 0 -81 33.5t-33 80.5z" />
    <glyph glyph-name="cdotaccent" unicode="&#x10b;" horiz-adv-x="1063" 
d="M541 -10q-211 0 -346 149t-135 378q0 230 133.5 377t347.5 147h16q158 0 276.5 -84.5t169.5 -229.5l-178 -76q-39 104 -102 152t-166 48h-16q-138 0 -212.5 -86.5t-74.5 -247.5t75 -248.5t212 -87.5h16q103 0 167 49.5t104 152.5l175 -78q-53 -144 -171.5 -229.5
t-274.5 -85.5h-16zM426 1335q0 47 34 80t81 33t80 -33t33 -80t-33.5 -81t-79.5 -34q-48 0 -81.5 34t-33.5 81z" />
    <glyph glyph-name="Ccaron" unicode="&#x10c;" horiz-adv-x="1329" 
d="M680 -12q-276 0 -448 194t-172 514q0 160 45.5 293t127 224.5t196.5 142t251 50.5h18q212 0 365 -116t216 -317l-181 -68q-47 154 -145.5 230t-254.5 76h-18q-205 0 -315.5 -132.5t-110.5 -382.5q0 -249 110.5 -381t315.5 -132h18q307 0 400 306l181 -68
q-63 -200 -216.5 -316.5t-364.5 -116.5h-18zM388 1762h235l52 -77l51 77h234l-225 -323h-123z" />
    <glyph glyph-name="ccaron" unicode="&#x10d;" horiz-adv-x="1063" 
d="M541 -10q-211 0 -346 149t-135 378q0 230 133.5 377t347.5 147h16q158 0 276.5 -84.5t169.5 -229.5l-178 -76q-39 104 -102 152t-166 48h-16q-138 0 -212.5 -86.5t-74.5 -247.5t75 -248.5t212 -87.5h16q103 0 167 49.5t104 152.5l175 -78q-53 -144 -171.5 -229.5
t-274.5 -85.5h-16zM268 1514h226l47 -84l47 84h227l-209 -352h-131z" />
    <glyph glyph-name="Dcaron" unicode="&#x10e;" horiz-adv-x="1235" 
d="M150 0v1394h326q329 0 514 -188t185 -520q0 -326 -183.5 -506t-516.5 -180h-325zM328 1762h234l52 -77l51 77h235l-225 -323h-123zM344 191h127q262 0 385 119.5t123 375.5q0 264 -124 390t-380 126h-131v-1011z" />
    <glyph glyph-name="dcaron" unicode="&#x10f;" horiz-adv-x="1365" 
d="M1043 1394v-1394h-193v92q-128 -102 -287 -102h-24q-136 0 -246 69.5t-171.5 190.5t-61.5 267q0 225 136.5 374.5t342.5 149.5h24q164 0 287 -100v453h193zM254 517q0 -156 77 -245t211 -89h25q132 0 208.5 89.5t76.5 244.5q0 156 -76 244.5t-209 88.5h-25
q-134 0 -211 -88.5t-77 -244.5zM1089 1086l133 374h179v-104l-114 -270h-198z" />
    <glyph glyph-name="Dcroat" unicode="&#x110;" horiz-adv-x="1213" 
d="M128 0v573h-98v195h98v626h325q329 0 514.5 -188t185.5 -520q0 -326 -184 -506t-518 -180h-323zM321 191h127q263 0 385.5 119t122.5 376q0 264 -124.5 390t-380.5 126h-130v-434h340v-195h-340v-382z" />
    <glyph glyph-name="dcroat" unicode="&#x111;" horiz-adv-x="1128" 
d="M539 -10q-136 0 -246 69.5t-171.5 190.5t-61.5 267q0 225 136.5 374.5t342.5 149.5h24q164 0 287 -100v109h-205v195h205v149h193v-149h83v-195h-83v-1050h-193v92q-128 -102 -287 -102h-24zM254 517q0 -156 77 -245t211 -89h25q132 0 208.5 89.5t76.5 244.5
q0 156 -76 244.5t-209 88.5h-25q-134 0 -211 -88.5t-77 -244.5z" />
    <glyph glyph-name="Emacron" unicode="&#x112;" horiz-adv-x="1144" 
d="M150 0v1394h924v-192h-730v-404h669v-191h-669v-416h730v-191h-924zM378 1502v195h406v-195h-406z" />
    <glyph glyph-name="emacron" unicode="&#x113;" horiz-adv-x="1063" 
d="M541 -10q-211 0 -346 149t-135 378q0 149 58.5 267.5t166 186t246.5 70.5q149 -3 262 -82t167 -216t37 -306h-738q19 -125 90.5 -190.5t191.5 -65.5h16q103 0 167 49.5t104 152.5l175 -78q-53 -144 -171.5 -229.5t-274.5 -85.5h-16zM265 624h531q-49 219 -265 227
q-219 -8 -266 -227zM328 1232v196h406v-196h-406z" />
    <glyph glyph-name="Ebreve" unicode="&#x114;" horiz-adv-x="1144" 
d="M150 0v1394h924v-192h-730v-404h669v-191h-669v-416h730v-191h-924zM400 1810h190q-14 -100 -4 -127t58 -27q47 0 57 27.5t-4 126.5h190q28 -150 -43.5 -249t-199.5 -99q-131 0 -201.5 98.5t-42.5 249.5z" />
    <glyph glyph-name="ebreve" unicode="&#x115;" horiz-adv-x="1063" 
d="M541 -10q-211 0 -346 149t-135 378q0 252 153 398q121 115 293 124q171 8 303 -92q158 -119 186 -341q10 -80 2 -169h-738q19 -125 90.5 -190.5t191.5 -65.5h16q103 0 167 49.5t104 152.5l175 -78q-53 -144 -171.5 -229.5t-274.5 -85.5h-16zM265 624h531
q-17 78 -59 134.5t-94.5 82.5t-112 26t-112 -26t-94.5 -82.5t-59 -134.5zM285 1504h190q-14 -99 -3.5 -127t57.5 -28q48 0 58.5 28t-5.5 127h190q29 -150 -43 -249.5t-200 -99.5q-130 0 -201 99t-43 250z" />
    <glyph glyph-name="Edotaccent" unicode="&#x116;" horiz-adv-x="1144" 
d="M150 0v1394h924v-192h-730v-404h669v-191h-669v-416h730v-191h-924zM467 1600q0 47 34 81t81 34t80.5 -34t33.5 -81t-33.5 -80.5t-80.5 -33.5t-81 33.5t-34 80.5z" />
    <glyph glyph-name="edotaccent" unicode="&#x117;" horiz-adv-x="1063" 
d="M541 -10q-211 0 -346 149t-135 378q0 149 58.5 267.5t166 186t246.5 70.5q149 -3 262 -82t167 -216t37 -306h-738q19 -125 90.5 -190.5t191.5 -65.5h16q103 0 167 49.5t104 152.5l175 -78q-53 -144 -171.5 -229.5t-274.5 -85.5h-16zM265 624h531q-49 219 -265 227
q-219 -8 -266 -227zM417 1335q0 46 33.5 79.5t80.5 33.5t80.5 -33t33.5 -80t-33 -81t-81 -34q-47 0 -80.5 34t-33.5 81z" />
    <glyph glyph-name="Eogonek" unicode="&#x118;" horiz-adv-x="1147" 
d="M860 -396q-75 0 -133.5 48.5t-58.5 153.5q0 103 58 194h-576v1394h924v-192h-730v-404h669v-191h-669v-416h733v-167q-213 -69 -213 -213q0 -13 3 -13q31 0 57.5 28t136.5 171v-294q-80 -99 -201 -99z" />
    <glyph glyph-name="eogonek" unicode="&#x119;" horiz-adv-x="1063" 
d="M529 -396q-75 0 -133.5 48.5t-58.5 153.5q0 107 56 207q-152 48 -242.5 183.5t-90.5 320.5q0 149 58.5 267.5t166 186t246.5 70.5q149 -3 262 -82t167 -216t37 -306h-738q19 -125 90.5 -190.5t191.5 -65.5h16q103 0 167 49.5t104 152.5l175 -78q-44 -118 -133.5 -198
t-208.5 -105q-61 -27 -94 -77.5t-33 -113.5q0 -13 3 -13q30 0 57 28.5t136 170.5v-294q-77 -99 -201 -99zM265 624h531q-49 219 -265 227q-219 -8 -266 -227zM328 1232v196h406v-196h-406z" />
    <glyph glyph-name="Ecaron" unicode="&#x11a;" horiz-adv-x="1144" 
d="M150 0v1394h924v-192h-730v-404h669v-191h-669v-416h730v-191h-924zM297 1762h235l51 -77l51 77h234l-224 -323h-123z" />
    <glyph glyph-name="ecaron" unicode="&#x11b;" horiz-adv-x="1063" 
d="M541 -10q-211 0 -346 149t-135 378q0 149 58.5 267.5t166 186t246.5 70.5q149 -3 262 -82t167 -216t37 -306h-738q19 -125 90.5 -190.5t191.5 -65.5h16q103 0 167 49.5t104 152.5l175 -78q-53 -144 -171.5 -229.5t-274.5 -85.5h-16zM258 1514h227l48 -85l48 85h225
l-209 -352h-132zM265 624h531q-49 219 -265 227q-219 -8 -266 -227z" />
    <glyph glyph-name="Gcircumflex" unicode="&#x11c;" horiz-adv-x="1303" 
d="M680 -12q-136 0 -251 50.5t-196.5 142t-127 224.5t-45.5 293q0 320 172 514t448 194q214 0 366.5 -119t206.5 -323l-179 -71q-79 318 -394 318q-205 0 -315.5 -132.5t-110.5 -380.5q0 -250 110.5 -382.5t315.5 -132.5q265 0 362 223v170h-441v192h634v-768h-193v105
q-153 -117 -362 -117zM389 1439l225 323h123l225 -323h-235l-52 77l-52 -77h-234z" />
    <glyph glyph-name="gcircumflex" unicode="&#x11d;" horiz-adv-x="1184" 
d="M298 1162l207 352h131l208 -352h-226l-48 84l-48 -84h-224zM60 515q0 225 136.5 374.5t342.5 149.5h24q164 0 287 -100v95h193v-868q0 -250 -126 -391t-337 -141h-27q-184 0 -307 107.5t-143 291.5h194q19 -107 80.5 -157.5t175.5 -50.5h27q124 0 193.5 66.5t102.5 216.5
q-45 -50 -131 -85t-182 -35h-10q-144 0 -261 78l-23 16q-97 72 -153 185.5t-56 247.5zM254 515q0 -156 77 -245t211 -89h25q122 0 196.5 77t86.5 216v81q-12 139 -86.5 216t-196.5 77h-25q-134 0 -211 -88.5t-77 -244.5z" />
    <glyph glyph-name="Gbreve" unicode="&#x11e;" horiz-adv-x="1303" 
d="M680 -12q-136 0 -251 50.5t-196.5 142t-127 224.5t-45.5 293q0 320 172 514t448 194q214 0 366.5 -119t206.5 -323l-179 -71q-79 318 -394 318q-205 0 -315.5 -132.5t-110.5 -380.5q0 -250 110.5 -382.5t315.5 -132.5q265 0 362 223v170h-441v192h634v-768h-193v105
q-153 -117 -362 -117zM438 1810h188q-13 -99 -2.5 -126.5t57.5 -27.5t57.5 27.5t-3.5 126.5h188q30 -150 -41.5 -249t-200.5 -99q-130 0 -201 99t-42 249z" />
    <glyph glyph-name="gbreve" unicode="&#x11f;" horiz-adv-x="1184" 
d="M503 1504q-14 -99 -3.5 -127t56.5 -28q48 0 58.5 28t-5.5 127h190q29 -150 -43 -249.5t-200 -99.5q-129 0 -200.5 99.5t-41.5 249.5h189zM60 515q0 225 136.5 374.5t342.5 149.5h24q164 0 287 -100v95h193v-868q0 -250 -126 -391t-337 -141h-27q-184 0 -307 107.5
t-143 291.5h194q19 -107 80.5 -157.5t175.5 -50.5h27q124 0 193.5 66.5t102.5 216.5q-45 -50 -131 -85t-182 -35h-10q-144 0 -261 78l-23 16q-97 72 -153 185.5t-56 247.5zM254 515q0 -156 77 -245t211 -89h25q122 0 196.5 77t86.5 216v81q-12 139 -86.5 216t-196.5 77h-25
q-134 0 -211 -88.5t-77 -244.5z" />
    <glyph glyph-name="Gdotaccent" unicode="&#x120;" horiz-adv-x="1303" 
d="M680 -12q-136 0 -251 50.5t-196.5 142t-127 224.5t-45.5 293q0 320 172 514t448 194q214 0 366.5 -119t206.5 -323l-179 -71q-79 318 -394 318q-205 0 -315.5 -132.5t-110.5 -380.5q0 -250 110.5 -382.5t315.5 -132.5q265 0 362 223v170h-441v192h634v-768h-193v105
q-153 -117 -362 -117zM567 1600q0 47 33 81t81 34q47 0 80.5 -34t33.5 -81t-33.5 -80.5t-80.5 -33.5q-48 0 -81 33.5t-33 80.5z" />
    <glyph glyph-name="gdotaccent" unicode="&#x121;" horiz-adv-x="1184" 
d="M463 1335q0 47 33 80t81 33q46 0 80 -33t34 -80t-33.5 -81t-80.5 -34q-48 0 -81 34t-33 81zM60 515q0 225 136.5 374.5t342.5 149.5h24q164 0 287 -100v95h193v-868q0 -250 -126 -391t-337 -141h-27q-184 0 -307 107.5t-143 291.5h194q19 -107 80.5 -157.5t175.5 -50.5
h27q124 0 193.5 66.5t102.5 216.5q-45 -50 -131 -85t-182 -35h-10q-144 0 -261 78l-23 16q-97 72 -153 185.5t-56 247.5zM254 515q0 -156 77 -245t211 -89h25q122 0 196.5 77t86.5 216v81q-12 139 -86.5 216t-196.5 77h-25q-134 0 -211 -88.5t-77 -244.5z" />
    <glyph glyph-name="uni0122" unicode="&#x122;" horiz-adv-x="1513" 
d="M766 -12q-136 0 -251 50.5t-196.5 142t-127 224.5t-45.5 293q0 320 172 514t448 194q215 0 368 -119t207 -324l-182 -69q-76 317 -393 317q-205 0 -315.5 -132.5t-110.5 -380.5q0 -250 110.5 -382.5t315.5 -132.5q266 0 363 223v170h-442v192h634v-768h-192v104
q-154 -116 -363 -116zM558 -405l133 374h178v-103l-113 -271h-198z" />
    <glyph glyph-name="uni0123" unicode="&#x123;" horiz-adv-x="1211" 
d="M530 1163v103l112 272h198l-131 -375h-179zM114 515q0 225 136.5 374.5t342.5 149.5h24q164 0 287 -100v95h193v-868q0 -250 -126 -391t-337 -141h-27q-184 0 -307 107.5t-143 291.5h194q19 -107 80.5 -157.5t175.5 -50.5h27q124 0 193.5 66.5t102.5 216.5
q-45 -50 -131 -85t-182 -35h-10q-144 0 -261 78l-23 16q-97 72 -153 185.5t-56 247.5zM308 515q0 -156 77 -245t211 -89h25q122 0 196.5 77t86.5 216v81q-12 139 -86.5 216t-196.5 77h-25q-134 0 -211 -88.5t-77 -244.5z" />
    <glyph glyph-name="Hcircumflex" unicode="&#x124;" horiz-adv-x="1224" 
d="M150 0v1394h194v-592h535v592h195v-1394h-195v610h-535v-610h-194zM334 1439l225 323h123l225 -323h-236l-52 77l-51 -77h-234z" />
    <glyph glyph-name="hcircumflex" unicode="&#x125;" horiz-adv-x="1033" 
d="M58 0v1394h193v-415q98 62 249 62q205 0 308 -112t103 -322v-607h-193v597q0 148 -45 201t-173 53q-133 0 -191 -77t-58 -268v-506h-193zM-130 1439l225 323h124l224 -323h-234l-52 77l-52 -77h-235z" />
    <glyph glyph-name="Hbar" unicode="&#x126;" horiz-adv-x="1124" 
d="M105 0v922h-73v196h73v276h194v-276h535v276h196v-276h64v-196h-64v-922h-196v610h-535v-610h-194zM299 802h535v120h-535v-120z" />
    <glyph glyph-name="hbar" unicode="&#x127;" horiz-adv-x="1072" 
d="M96 0v1050h-94v195h94v149h194v-149h193v-195h-193v-71q98 62 250 62q204 0 307 -112.5t103 -321.5v-607h-193v597q0 149 -44.5 201.5t-172.5 52.5q-133 0 -191.5 -77t-58.5 -268v-506h-194z" />
    <glyph glyph-name="Itilde" unicode="&#x128;" horiz-adv-x="221" 
d="M11 0v1394h195v-1394h-195zM-110 1507q-21 83 12 143t111 60q49 0 127 -30q25 -7 35 -10l3 32h151q26 -91 -10 -147t-110 -56q-50 0 -128 28l-35 12l-3 -32h-153z" />
    <glyph glyph-name="itilde" unicode="&#x129;" horiz-adv-x="205" 
d="M-16 0v1032h194v-1032h-194zM-118 1278q-21 83 12 143t111 60q49 0 127 -30q25 -7 35 -10l3 32h151q26 -91 -10 -147t-110 -56q-50 0 -128 28l-35 12l-3 -32h-153z" />
    <glyph glyph-name="Imacron" unicode="&#x12a;" horiz-adv-x="262" 
d="M35 0v1394h194v-1394h-194zM-72 1502v195h406v-195h-406z" />
    <glyph glyph-name="imacron" unicode="&#x12b;" horiz-adv-x="247" 
d="M26 0v1032h195v-1032h-195zM-80 1232v196h407v-196h-407z" />
    <glyph glyph-name="Ibreve" unicode="&#x12c;" horiz-adv-x="289" 
d="M49 0v1394h193v-1394h-193zM-98 1810h191q-15 -100 -5 -127t57 -27q48 0 58 27.5t-5 126.5h191q29 -150 -43.5 -249t-200.5 -99q-130 0 -200.5 98.5t-42.5 249.5z" />
    <glyph glyph-name="ibreve" unicode="&#x12d;" horiz-adv-x="302" 
d="M51 0v1032h194v-1032h-194zM-92 1504h188q-13 -99 -2.5 -127t57.5 -28t57 28t-4 127h191q28 -151 -44 -250t-200 -99q-130 0 -200.5 99t-42.5 250z" />
    <glyph glyph-name="Iogonek" unicode="&#x12e;" horiz-adv-x="470" 
d="M168 -396q-34 0 -66 10t-61 32t-47 63.5t-18 96.5q0 100 54 187t146 143l14 -7v1265h194v-1367q-211 -74 -211 -216q0 -13 2 -13q31 0 57.5 27.5t136.5 168.5v-292q-81 -98 -201 -98z" />
    <glyph glyph-name="iogonek" unicode="&#x12f;" horiz-adv-x="491" 
d="M160 -392q-33 0 -64.5 10t-61.5 32t-48 63t-18 96q0 108 65 204.5t169 147.5v871h193v-1032h-92q-68 -24 -103.5 -72.5t-35.5 -113.5q0 -13 3 -13q31 0 57 27t138 168v-290q-79 -98 -202 -98zM185 1205q0 47 33 80.5t81 33.5q47 0 80.5 -33.5t33.5 -80.5t-33.5 -80
t-80.5 -33q-48 0 -81 33t-33 80z" />
    <glyph glyph-name="Idotaccent" unicode="&#x130;" horiz-adv-x="483" 
d="M144 0v1394h194v-1394h-194zM128 1600q0 47 33 81t80 34q48 0 81 -34t33 -81t-33.5 -80.5t-80.5 -33.5q-46 0 -79.5 33.5t-33.5 80.5z" />
    <glyph glyph-name="dotlessi" unicode="&#x131;" horiz-adv-x="573" 
d="M190 0v1032h193v-1032h-193z" />
    <glyph glyph-name="IJ" unicode="&#x132;" horiz-adv-x="1494" 
d="M393 515v92h198q-26 -230 82 -358q79 -93 195 -95t200 88q100 107 100 295v857h192v-859q0 -264 -157 -417q-123 -121 -298 -134q-173 -13 -310 86q-160 116 -194 335q-8 53 -8 110zM134 0v1394h192v-1394h-192z" />
    <glyph glyph-name="ij" unicode="&#x133;" horiz-adv-x="785" 
d="M354 -370q-141 0 -224 86l73 159q9 -5 26.5 -15t23 -13t17.5 -9.5t16.5 -7.5t14 -4.5t16.5 -4t16 -1.5t20 -1h12q56 0 72.5 20t16.5 91v1102h192v-1102q0 -144 -75 -222t-204 -78h-13zM120 1201q0 47 34 80.5t81 33.5q46 0 79.5 -33.5t33.5 -80.5t-33 -80t-80 -33
t-81 33.5t-34 79.5zM138 0v1032h193v-1032h-193zM435 1202q0 46 33.5 80t80.5 34t81.5 -33t34.5 -81q0 -47 -34.5 -80t-81.5 -33t-80.5 33.5t-33.5 79.5z" />
    <glyph glyph-name="Jcircumflex" unicode="&#x134;" horiz-adv-x="1060" 
d="M50 515v92h197q-25 -230 83 -358q79 -92 194 -94.5t199 85.5q101 107 101 297v857h193v-859q0 -264 -157 -417q-123 -121 -298 -134q-173 -13 -310 86q-160 116 -194 335q-8 53 -8 110zM630 1439l224 323h123l225 -323h-236l-51 77l-52 -77h-233z" />
    <glyph glyph-name="jcircumflex" unicode="&#x135;" horiz-adv-x="383" 
d="M38 -370q-144 0 -226 86l75 158q11 -6 30.5 -16.5t25 -14t18.5 -9.5t18.5 -7.5t16 -4t19.5 -3t21 -0.5h13q55 0 71 20t16 91v1102h194v-1102q0 -144 -75.5 -222t-203.5 -78h-13zM-44 1162l210 352h130l209 -352h-228l-48 85l-49 -85h-224z" />
    <glyph glyph-name="uni0136" unicode="&#x136;" horiz-adv-x="1362" 
d="M204 0v1394h193v-632l608 632h269l-587 -611l553 -783h-237l-453 643l-153 -158v-485h-193zM429 -398l132 375h179v-103l-113 -272h-198z" />
    <glyph glyph-name="uni0137" unicode="&#x137;" horiz-adv-x="1136" 
d="M186 0v1394h194v-775l399 413h269l-396 -408l395 -624h-229l-304 484l-134 -139v-345h-194zM314 -405l131 374h179v-103l-112 -271h-198z" />
    <glyph glyph-name="kgreenlandic" unicode="&#x138;" horiz-adv-x="1034" 
d="M142 0v1035h194v-416l400 413h268l-396 -408l395 -624h-229l-304 484l-134 -139v-345h-194z" />
    <glyph glyph-name="Lacute" unicode="&#x139;" horiz-adv-x="1139" 
d="M196 0v1394h192v-1203h731v-191h-923zM136 1439l184 323h242l-216 -323h-210z" />
    <glyph glyph-name="lacute" unicode="&#x13a;" horiz-adv-x="584" 
d="M475 1q-134 -31 -213 31.5t-79 210.5v1151h194v-1147q0 -44 14.5 -57t72.5 -5zM128 1525l192 353h240l-222 -353h-210z" />
    <glyph glyph-name="uni013B" unicode="&#x13b;" horiz-adv-x="1225" 
d="M204 0v1394h193v-1203h730v-191h-923zM417 -400l130 374h180v-103l-113 -271h-197z" />
    <glyph glyph-name="uni013C" unicode="&#x13c;" horiz-adv-x="504" 
d="M464 1q-134 -31 -213 31.5t-79 210.5v1151h194v-1147q0 -44 14.5 -57t72.5 -5zM120 -404l132 374h179v-103l-113 -271h-198z" />
    <glyph glyph-name="Lcaron" unicode="&#x13d;" horiz-adv-x="1094" 
d="M150 0v1394h194v-1203h730v-191h-924zM455 1030l127 364h178l-136 -364h-169z" />
    <glyph glyph-name="lcaron" unicode="&#x13e;" horiz-adv-x="742" 
d="M434 1q-134 -31 -213 31.5t-79 210.5v1151h194v-1147q0 -44 14.5 -57t72.5 -5zM437 1117v20l116 325h149v-83l-109 -262h-156z" />
    <glyph glyph-name="Ldot" unicode="&#x13f;" horiz-adv-x="1094" 
d="M150 0v1394h194v-1203h730v-191h-924zM528 788q0 48 34 81t81 33t80 -33.5t33 -80.5t-33 -80t-80 -33t-81 33t-34 80z" />
    <glyph glyph-name="ldot" unicode="&#x140;" horiz-adv-x="591" 
d="M434 1q-134 -31 -213 31.5t-79 210.5v1151h194v-1147q0 -44 14.5 -57t72.5 -5zM382 788q0 47 34 80.5t80 33.5q47 0 81 -33.5t34 -80.5t-34 -80t-81 -33q-46 0 -80 33t-34 80z" />
    <glyph glyph-name="Lslash" unicode="&#x141;" horiz-adv-x="1146" 
d="M201 2v494l-203 -121v225l203 122v674h194v-560l328 195v-226l-328 -195v-417h731v-191h-925z" />
    <glyph glyph-name="lslash" unicode="&#x142;" horiz-adv-x="384" 
d="M386 1q-134 -31 -213 31.5t-79 210.5v216l-102 -73v239l102 74v695h194v-555l104 75v-242l-104 -74v-351q0 -44 14.5 -57t72.5 -5z" />
    <glyph glyph-name="Nacute" unicode="&#x143;" horiz-adv-x="1268" 
d="M150 0v1394h173l601 -990v990h194v-1394h-175l-599 987v-987h-194zM477 1439l184 323h241l-213 -323h-212z" />
    <glyph glyph-name="nacute" unicode="&#x144;" horiz-adv-x="1117" 
d="M142 0v1032h194v-53q98 62 248 62q205 0 308 -112.5t103 -321.5v-607h-192v597q0 149 -44.5 201.5t-174.5 52.5q-133 0 -190.5 -77t-57.5 -268v-506h-194zM403 1162l191 352h240l-221 -352h-210z" />
    <glyph glyph-name="uni0145" unicode="&#x145;" horiz-adv-x="1375" 
d="M204 0v1394h174l599 -990v990h194v-1394h-176l-598 987v-987h-193zM478 -403l133 374h178v-103l-113 -271h-198z" />
    <glyph glyph-name="uni0146" unicode="&#x146;" horiz-adv-x="1215" 
d="M186 0v1032h194v-52q99 61 249 61q204 0 307 -112.5t103 -321.5v-607h-193v597q0 149 -44.5 201.5t-172.5 52.5q-133 0 -191 -77t-58 -268v-506h-194zM392 -404l131 374h179v-103l-113 -271h-197z" />
    <glyph glyph-name="Ncaron" unicode="&#x147;" horiz-adv-x="1268" 
d="M150 0v1394h173l601 -990v990h194v-1394h-175l-599 987v-987h-194zM348 1762h236l51 -77l52 77h234l-225 -323h-124z" />
    <glyph glyph-name="ncaron" unicode="&#x148;" horiz-adv-x="1117" 
d="M142 0v1032h194v-53q98 62 248 62q205 0 308 -112.5t103 -321.5v-607h-192v597q0 149 -44.5 201.5t-174.5 52.5q-133 0 -190.5 -77t-57.5 -268v-506h-194zM284 1514h227l47 -84l48 84h224l-207 -352h-130z" />
    <glyph glyph-name="napostrophe" unicode="&#x149;" horiz-adv-x="1219" 
d="M244 0v871h-137l-19 91l155 500h198l-124 -430h121v-52q98 61 248 61q205 0 308 -112.5t103 -321.5v-607h-193v597q0 149 -44.5 201.5t-173.5 52.5q-133 0 -190.5 -77t-57.5 -268v-506h-194z" />
    <glyph glyph-name="Eng" unicode="&#x14a;" horiz-adv-x="1268" 
d="M714 -198q34 -2 51 -2.5t41 -0.5t34.5 1t26 4t20.5 7.5t13.5 12.5t10.5 17t5 23.5t3.5 30t0.5 37.5v106l-576 949v-987h-194v1394h173l601 -990v990h194v-1434q0 -50 -2 -78q-12 -158 -114.5 -222.5t-287.5 -54.5v197z" />
    <glyph glyph-name="eng" unicode="&#x14b;" horiz-adv-x="1117" 
d="M702 -370q-143 0 -225 86l72 158q14 -7 36 -19t29 -15.5t20.5 -9.5t21 -7t19 -2.5t25.5 -1.5h12q55 0 71 19.5t18 91.5l2 667q0 149 -44.5 201.5t-174.5 52.5q-133 0 -190.5 -77t-57.5 -268v-506h-194v1032h194v-53q98 62 248 62q205 0 308 -112.5t103 -321.5l-2 -677
q-1 -144 -75.5 -222t-203.5 -78h-12z" />
    <glyph glyph-name="Omacron" unicode="&#x14c;" horiz-adv-x="1379" 
d="M680 -16q-277 0 -448.5 193t-171.5 513q0 160 45.5 293t127 224.5t196.5 142t251 50.5h18q186 0 327 -89.5t217.5 -250.5t76.5 -370q0 -316 -170.5 -511t-450.5 -195h-18zM254 690q0 -248 110.5 -380.5t315.5 -132.5h18q206 0 317 132.5t111 380.5q0 250 -111 382.5
t-317 132.5h-18q-205 0 -315.5 -132.5t-110.5 -382.5zM491 1502v195h406v-195h-406z" />
    <glyph glyph-name="omacron" unicode="&#x14d;" 
d="M541 -10q-211 0 -346 149t-135 378q0 230 133.5 377t347.5 147h16q213 0 346.5 -147t133.5 -377t-134 -378.5t-346 -148.5h-16zM254 517q0 -161 75 -248.5t212 -87.5h16q138 0 212.5 87.5t74.5 248.5t-74.5 247.5t-212.5 86.5h-16q-138 0 -212.5 -86.5t-74.5 -247.5z
M345 1232v196h406v-196h-406z" />
    <glyph glyph-name="Obreve" unicode="&#x14e;" horiz-adv-x="1379" 
d="M680 -12q-276 0 -448 194t-172 514q0 160 45.5 293t127 224.5t196.5 142t251 50.5h18q186 0 327 -89.5t217.5 -250.5t76.5 -370q0 -208 -76.5 -369t-217.5 -250t-327 -89h-18zM254 696q0 -249 110.5 -381t315.5 -132h18q207 0 317.5 132t110.5 381q0 250 -111 382.5
t-317 132.5h-18q-205 0 -315.5 -132.5t-110.5 -382.5zM444 1810h189q-13 -100 -3 -127t57 -27q48 0 58.5 27.5t-3.5 126.5h187q30 -150 -42 -249t-200 -99q-129 0 -200.5 99t-42.5 249z" />
    <glyph glyph-name="obreve" unicode="&#x14f;" 
d="M541 -10q-211 0 -346 149t-135 378q0 230 133.5 377t347.5 147h16q213 0 346.5 -147t133.5 -377t-134 -378.5t-346 -148.5h-16zM254 517q0 -161 75 -248.5t212 -87.5h16q138 0 212.5 87.5t74.5 248.5t-74.5 247.5t-212.5 86.5h-16q-138 0 -212.5 -86.5t-74.5 -247.5z
M306 1504h188q-13 -99 -2.5 -127t56.5 -28q48 0 58.5 28t-3.5 127h188q30 -150 -42 -249.5t-201 -99.5t-200 99.5t-42 249.5z" />
    <glyph glyph-name="Ohungarumlaut" unicode="&#x150;" horiz-adv-x="1379" 
d="M680 -16q-277 0 -448.5 193t-171.5 513q0 160 45.5 293t127 224.5t196.5 142t251 50.5h18q186 0 327 -89.5t217.5 -250.5t76.5 -370q0 -316 -170.5 -511t-450.5 -195h-18zM254 690q0 -248 110.5 -380.5t315.5 -132.5h18q206 0 317 132.5t111 380.5q0 250 -111 382.5
t-317 132.5h-18q-205 0 -315.5 -132.5t-110.5 -382.5zM407 1439l184 323h243l-214 -323h-213zM660 1439l183 323h242l-214 -323h-211z" />
    <glyph glyph-name="ohungarumlaut" unicode="&#x151;" 
d="M541 -10q-211 0 -346 149t-135 378q0 230 133.5 377t347.5 147h16q213 0 346.5 -147t133.5 -377t-134 -378.5t-346 -148.5h-16zM254 517q0 -161 75 -248.5t212 -87.5h16q138 0 212.5 87.5t74.5 248.5t-74.5 247.5t-212.5 86.5h-16q-138 0 -212.5 -86.5t-74.5 -247.5z
M265 1163l184 324h242l-216 -324h-210zM516 1163l183 324h243l-215 -324h-211z" />
    <glyph glyph-name="OE" unicode="&#x152;" horiz-adv-x="2120" 
d="M680 -16q-277 0 -448.5 193t-171.5 513q0 160 45.5 293t127 224.5t196.5 142t251 50.5h18q259 0 428 -172v166h924v-192h-731v-404h669v-191h-669v-416h731v-191h-924v154q-168 -170 -428 -170h-18zM254 690q0 -248 110.5 -380.5t315.5 -132.5h18q206 0 317 132.5
t111 380.5q0 250 -111 382.5t-317 132.5h-18q-205 0 -315.5 -132.5t-110.5 -382.5z" />
    <glyph glyph-name="oe" unicode="&#x153;" horiz-adv-x="1849" 
d="M541 -10q-211 0 -346 149t-135 378q0 230 133.5 377t347.5 147h16q122 0 221 -51t164 -144q63 90 159.5 141t214.5 54q150 -3 262.5 -82t166.5 -216t36 -306h-737q19 -125 91 -190.5t191 -65.5h17q103 0 167.5 49.5t101.5 151.5l177 -77q-54 -144 -172 -229.5t-274 -85.5
h-17q-121 0 -220 52t-164 146q-65 -94 -164 -146t-221 -52h-16zM254 517q0 -161 75 -248.5t212 -87.5h16q138 0 212.5 87.5t74.5 248.5t-74.5 247.5t-212.5 86.5h-16q-138 0 -212.5 -86.5t-74.5 -247.5zM1050 624h532q-47 219 -266 227q-107 -4 -175 -61.5t-91 -165.5z" />
    <glyph glyph-name="Racute" unicode="&#x154;" horiz-adv-x="1197" 
d="M150 0v1394h485q223 0 344.5 -105t121.5 -302v-2q0 -155 -77 -254t-219 -134l342 -597h-224l-330 578h-249v-578h-194zM344 770h291q154 0 213.5 48t59.5 169q0 120 -59.5 167.5t-213.5 47.5h-291v-432zM449 1439l182 323h244l-214 -323h-212z" />
    <glyph glyph-name="racute" unicode="&#x155;" horiz-adv-x="849" 
d="M142 0v1032h194v-53q98 62 248 62q136 0 215 -44l-41 -181q-40 13 -59.5 19t-50.5 11t-64 5q-133 0 -190.5 -77t-57.5 -268v-506h-194zM265 1162l190 352h241l-222 -352h-209z" />
    <glyph glyph-name="uni0156" unicode="&#x156;" horiz-adv-x="1275" 
d="M204 0v1394h485q222 0 344 -105t122 -302v-2q0 -155 -77 -254t-220 -134l341 -597h-222l-332 578h-248v-578h-193zM397 770h292q153 0 213 48t60 169q0 120 -60 167.5t-213 47.5h-292v-432zM432 -406l133 374h179v-103l-115 -271h-197z" />
    <glyph glyph-name="uni0157" unicode="&#x157;" horiz-adv-x="940" 
d="M208 0v1032h193v-53q98 62 250 62q137 0 213 -44l-38 -181q-47 15 -63 19.5t-48 10t-64 5.5q-133 0 -191.5 -77t-58.5 -268v-506h-193zM97 -402l132 374h179v-103l-113 -271h-198z" />
    <glyph glyph-name="Rcaron" unicode="&#x158;" horiz-adv-x="1197" 
d="M150 0v1394h485q223 0 344.5 -105t121.5 -302v-2q0 -155 -77 -254t-219 -134l342 -597h-224l-330 578h-249v-578h-194zM320 1762h236l51 -77l52 77h234l-226 -323h-123zM344 770h291q154 0 213.5 48t59.5 169q0 120 -59.5 167.5t-213.5 47.5h-291v-432z" />
    <glyph glyph-name="rcaron" unicode="&#x159;" horiz-adv-x="729" 
d="M64 0v1032h194v-53q98 62 250 62q127 0 215 -42l-43 -183q-41 14 -59.5 19.5t-49 10.5t-63.5 5q-134 0 -192 -77t-58 -268v-506h-194zM67 1514h227l48 -84l47 84h227l-209 -352h-131z" />
    <glyph glyph-name="Sacute" unicode="&#x15a;" horiz-adv-x="1138" 
d="M588 -24q-103 0 -195.5 30.5t-166.5 89.5t-115 157.5t-36 223.5h196q-10 -153 76.5 -230.5t241.5 -77.5q130 0 202.5 54t72.5 148q0 98 -57 142t-240 95q-113 32 -188 65.5t-133.5 81.5t-85.5 113t-27 153q0 111 64.5 200t168.5 137t223 48q92 0 169 -28t130.5 -75
t90.5 -110.5t53.5 -134.5t14.5 -146h-193q-7 150 -75 224.5t-191 74.5q-110 0 -182 -48t-72 -139q0 -49 11.5 -79t48.5 -56t87.5 -44t148.5 -46q108 -31 184 -66t134.5 -85t87 -117.5t28.5 -156.5q0 -112 -63 -203.5t-172 -143t-241 -51.5zM427 1439l183 323h242l-215 -323
h-210z" />
    <glyph glyph-name="sacute" unicode="&#x15b;" horiz-adv-x="977" 
d="M501 -14q-88 0 -164.5 25.5t-138 76t-95 135t-29.5 194.5h191q6 -139 61 -188.5t179 -49.5q190 0 190 108q0 40 -16.5 60t-62.5 36t-156 39q-339 70 -339 304q0 133 105.5 219.5t263.5 86.5q102 0 181 -34.5t126 -93.5t71 -130.5t24 -151.5h-190q-22 128 -65.5 173
t-148.5 45q-168 0 -168 -112q0 -49 39.5 -72t149.5 -46q191 -39 287.5 -111.5t96.5 -209.5t-112 -220t-280 -83zM328 1162l192 352h239l-221 -352h-210z" />
    <glyph glyph-name="Scircumflex" unicode="&#x15c;" horiz-adv-x="1138" 
d="M588 -24q-103 0 -195.5 30.5t-166.5 89.5t-115 157.5t-36 223.5h196q-10 -153 76.5 -230.5t241.5 -77.5q130 0 202.5 54t72.5 148q0 98 -57 142t-240 95q-113 32 -188 65.5t-133.5 81.5t-85.5 113t-27 153q0 111 64.5 200t168.5 137t223 48q92 0 169 -28t130.5 -75
t90.5 -110.5t53.5 -134.5t14.5 -146h-193q-7 150 -75 224.5t-191 74.5q-110 0 -182 -48t-72 -139q0 -49 11.5 -79t48.5 -56t87.5 -44t148.5 -46q108 -31 184 -66t134.5 -85t87 -117.5t28.5 -156.5q0 -112 -63 -203.5t-172 -143t-241 -51.5zM299 1439l227 323h123l223 -323
h-235l-52 77l-51 -77h-235z" />
    <glyph glyph-name="scircumflex" unicode="&#x15d;" horiz-adv-x="977" 
d="M501 -14q-88 0 -164.5 25.5t-138 76t-95 135t-29.5 194.5h191q6 -139 61 -188.5t179 -49.5q190 0 190 108q0 40 -16.5 60t-62.5 36t-156 39q-339 70 -339 304q0 133 105.5 219.5t263.5 86.5q102 0 181 -34.5t126 -93.5t71 -130.5t24 -151.5h-190q-22 128 -65.5 173
t-148.5 45q-168 0 -168 -112q0 -49 39.5 -72t149.5 -46q191 -39 287.5 -111.5t96.5 -209.5t-112 -220t-280 -83zM210 1162l208 352h131l207 -352h-226l-48 84l-48 -84h-224z" />
    <glyph glyph-name="Scedilla" unicode="&#x15e;" horiz-adv-x="1138" 
d="M509 -410q-116 0 -173 56v174q100 -60 165.5 -49t67.5 86q-5 -4 -234 -31l91 170q-78 20 -142 59t-113 98t-74.5 142t-21.5 182h196q-10 -153 76.5 -230.5t241.5 -77.5q130 0 202.5 54t72.5 148q0 98 -57 142t-240 95q-113 32 -188 65.5t-133.5 81.5t-85.5 113t-27 153
q0 111 64.5 200t168.5 137t223 48q92 0 169 -28t130.5 -75t90.5 -110.5t53.5 -134.5t14.5 -146h-193q-7 150 -75 224.5t-191 74.5q-110 0 -182 -48t-72 -139q0 -49 11.5 -79t48.5 -56t87.5 -44t148.5 -46q108 -31 184 -66t134.5 -85t87 -117.5t28.5 -156.5
q0 -147 -105.5 -255t-270.5 -136q80 -58 80 -170q0 -57 -24.5 -102t-64 -70.5t-83 -38t-87.5 -12.5z" />
    <glyph glyph-name="scedilla" unicode="&#x15f;" horiz-adv-x="978" 
d="M438 -407q-116 0 -173 56v174q39 -24 76 -37t64.5 -15t49 3t32.5 16.5t11 26.5q0 23 -15 28q-24 8 -194 -13h-1h-1h-1l-1 -1h-1h-1h-1h-1h-1h-1h-1l-1 -1h-1h-1h-1l81 176q-131 36 -209 140t-71 271h191q6 -139 61 -188.5t179 -49.5q190 0 190 108q0 40 -16.5 60
t-62.5 36t-156 39q-339 70 -339 304q0 133 105.5 219.5t263.5 86.5q102 0 181 -34.5t126 -93.5t71 -130.5t24 -151.5h-190q-22 128 -65.5 173t-148.5 45q-168 0 -168 -112q0 -49 39.5 -72t149.5 -46q191 -39 287.5 -111.5t96.5 -209.5q0 -118 -83.5 -196t-213.5 -99
q99 -57 99 -177q0 -58 -24.5 -103t-63.5 -70.5t-82.5 -38t-87.5 -12.5z" />
    <glyph glyph-name="Scaron" unicode="&#x160;" horiz-adv-x="1138" 
d="M588 -24q-103 0 -195.5 30.5t-166.5 89.5t-115 157.5t-36 223.5h196q-10 -153 76.5 -230.5t241.5 -77.5q130 0 202.5 54t72.5 148q0 98 -57 142t-240 95q-113 32 -188 65.5t-133.5 81.5t-85.5 113t-27 153q0 111 64.5 200t168.5 137t223 48q92 0 169 -28t130.5 -75
t90.5 -110.5t53.5 -134.5t14.5 -146h-193q-7 150 -75 224.5t-191 74.5q-110 0 -182 -48t-72 -139q0 -49 11.5 -79t48.5 -56t87.5 -44t148.5 -46q108 -31 184 -66t134.5 -85t87 -117.5t28.5 -156.5q0 -112 -63 -203.5t-172 -143t-241 -51.5zM296 1762h237l51 -77l52 77h233
l-223 -323h-123z" />
    <glyph glyph-name="scaron" unicode="&#x161;" horiz-adv-x="977" 
d="M501 -14q-88 0 -164.5 25.5t-138 76t-95 135t-29.5 194.5h191q6 -139 61 -188.5t179 -49.5q190 0 190 108q0 40 -16.5 60t-62.5 36t-156 39q-339 70 -339 304q0 133 105.5 219.5t263.5 86.5q102 0 181 -34.5t126 -93.5t71 -130.5t24 -151.5h-190q-22 128 -65.5 173
t-148.5 45q-168 0 -168 -112q0 -49 39.5 -72t149.5 -46q191 -39 287.5 -111.5t96.5 -209.5t-112 -220t-280 -83zM210 1514h226l48 -85l48 85h224l-207 -352h-131z" />
    <glyph glyph-name="uni0162" unicode="&#x162;" horiz-adv-x="1250" 
d="M553 -408q-114 0 -173 56v174q39 -24 76.5 -37t65 -15t49 3t32.5 16.5t11 26.5q0 29 -33.5 30.5t-204.5 -20.5l151 273v1103h-467v192h1128v-192h-467v-1142l-29 -55q120 -56 120 -189q0 -58 -24.5 -103t-63.5 -70.5t-83 -38t-88 -12.5z" />
    <glyph glyph-name="uni0163" unicode="&#x163;" horiz-adv-x="740" 
d="M385 -407q-116 0 -173 56v174q39 -24 76 -37t64.5 -15t49 3t32.5 16.5t11 26.5q0 24 -14 28q-23 8 -180 -12q-12 -1 -26 -3l100 234q-78 81 -78 226v554h-217v188h217v360h193v-360h222v-188h-222v-554q0 -64 15 -86.5t64 -25t143 11.5v-182q-74 -18 -109 -20
q90 -56 91 -171q0 -58 -24.5 -103t-63.5 -70.5t-83 -38t-88 -12.5z" />
    <glyph glyph-name="Tcaron" unicode="&#x164;" horiz-adv-x="1166" 
d="M485 0v1202h-465v192h1126v-192h-465v-1202h-196zM297 1762h236l51 -78l53 78h233l-225 -323h-123z" />
    <glyph glyph-name="tcaron" unicode="&#x165;" horiz-adv-x="821" 
d="M654 1460h178v-104l-112 -270h-203zM30 844v188h217v360h193v-360h222v-188h-222v-554q0 -64 15 -86.5t64 -25t143 11.5v-182q-185 -50 -300 25.5t-115 256.5v554h-217z" />
    <glyph glyph-name="Tbar" unicode="&#x166;" horiz-adv-x="1166" 
d="M485 0v573h-256v195h256v434h-465v192h1126v-192h-465v-434h256v-195h-256v-573h-196z" />
    <glyph glyph-name="tbar" unicode="&#x167;" horiz-adv-x="692" 
d="M662 8q-185 -50 -300 25.5t-115 256.5v214h-113v189h113v151h-217v188h217v360h193v-360h222v-188h-222v-151h118v-189h-118v-214q0 -64 15 -86.5t64 -25t143 11.5v-182z" />
    <glyph glyph-name="Utilde" unicode="&#x168;" horiz-adv-x="1236" 
d="M134 515v879h192v-866q0 -103 32 -184t83.5 -122t113.5 -60t124.5 1.5t114 63.5t83.5 124.5t32 185.5v857h193v-859q0 -263 -157 -417q-123 -121 -298 -134q-174 -13 -310 86q-161 115 -195 335q-8 53 -8 110zM401 1507q-21 83 12 143t111 60q49 0 127 -30q25 -7 35 -10
l3 32h151q26 -91 -10 -147t-110 -56q-50 0 -128 28l-35 12l-3 -32h-153z" />
    <glyph glyph-name="utilde" unicode="&#x169;" 
d="M532 -10q-204 0 -307 113t-103 323v606h193v-597q0 -149 44.5 -201.5t172.5 -52.5q134 0 191.5 76.5t57.5 268.5v506h194v-1032h-194v52q-98 -62 -249 -62zM341 1278q-21 83 12 143t111 60q49 0 127 -30q25 -7 35 -10l3 32h151q26 -91 -10 -147t-110 -56q-50 0 -128 28
l-35 12l-3 -32h-153z" />
    <glyph glyph-name="Umacron" unicode="&#x16a;" horiz-adv-x="1236" 
d="M134 515v879h192v-866q0 -103 32 -184t83.5 -122t113.5 -60t124.5 1.5t114 63.5t83.5 124.5t32 185.5v857h193v-859q0 -263 -157 -417q-123 -121 -298 -134q-174 -13 -310 86q-161 115 -195 335q-8 53 -8 110zM412 1502v195h407v-195h-407z" />
    <glyph glyph-name="umacron" unicode="&#x16b;" 
d="M532 -10q-204 0 -307 113t-103 323v606h193v-597q0 -149 44.5 -201.5t172.5 -52.5q134 0 191.5 76.5t57.5 268.5v506h194v-1032h-194v52q-98 -62 -249 -62zM344 1232v196h406v-196h-406z" />
    <glyph glyph-name="Ubreve" unicode="&#x16c;" horiz-adv-x="1236" 
d="M134 515v879h192v-866q0 -103 32 -184t83.5 -122t113.5 -60t124.5 1.5t114 63.5t83.5 124.5t32 185.5v857h193v-859q0 -263 -157 -417q-123 -121 -298 -134q-174 -13 -310 86q-161 115 -195 335q-8 53 -8 110zM373 1810h187q-12 -99 -1.5 -126.5t57.5 -27.5t57.5 27.5
t-4.5 126.5h190q28 -150 -43.5 -249t-199.5 -99q-130 0 -200.5 98.5t-42.5 249.5z" />
    <glyph glyph-name="ubreve" unicode="&#x16d;" 
d="M532 -10q-204 0 -307 113t-103 323v606h193v-597q0 -149 44.5 -201.5t172.5 -52.5q134 0 191.5 76.5t57.5 268.5v506h194v-1032h-194v52q-98 -62 -249 -62zM296 1504h191q-16 -99 -5.5 -127t58.5 -28q46 0 56.5 28t-2.5 127h189q29 -150 -43 -249.5t-200 -99.5
q-130 0 -201 99t-43 250z" />
    <glyph glyph-name="Uring" unicode="&#x16e;" horiz-adv-x="1236" 
d="M134 515v879h192v-866q0 -103 32 -184t83.5 -122t113.5 -60t124.5 1.5t114 63.5t83.5 124.5t32 185.5v857h193v-859q0 -263 -157 -417q-123 -121 -298 -134q-174 -13 -310 86q-161 115 -195 335q-8 53 -8 110zM424 1600q0 83 56.5 135t134.5 52q77 0 133.5 -52t56.5 -135
t-56.5 -135t-133.5 -52t-134 52t-57 135zM593 1600q0 -12 4.5 -16t17.5 -4t17 4t4 16q0 13 -3.5 16t-17.5 3t-18 -3t-4 -16z" />
    <glyph glyph-name="uring" unicode="&#x16f;" 
d="M532 -10q-204 0 -307 113t-103 323v606h193v-597q0 -149 44.5 -201.5t172.5 -52.5q134 0 191.5 76.5t57.5 268.5v506h194v-1032h-194v52q-98 -62 -249 -62zM360 1336q0 84 56.5 135.5t133.5 51.5q78 0 134.5 -51.5t56.5 -135.5q0 -82 -57 -134t-134 -52t-133.5 52
t-56.5 134zM529 1336q0 -12 4 -15.5t17 -3.5q14 0 18 3.5t4 15.5q0 13 -4 16.5t-18 3.5q-13 0 -17 -3.5t-4 -16.5z" />
    <glyph glyph-name="Uhungarumlaut" unicode="&#x170;" horiz-adv-x="1236" 
d="M134 515v879h192v-866q0 -103 32 -184t83.5 -122t113.5 -60t124.5 1.5t114 63.5t83.5 124.5t32 185.5v857h193v-859q0 -263 -157 -417q-123 -121 -298 -134q-174 -13 -310 86q-161 115 -195 335q-8 53 -8 110zM339 1439l184 323h241l-214 -323h-211zM591 1439l183 323
h241l-214 -323h-210z" />
    <glyph glyph-name="uhungarumlaut" unicode="&#x171;" 
d="M532 -10q-204 0 -307 113t-103 323v606h193v-597q0 -149 44.5 -201.5t172.5 -52.5q134 0 191.5 76.5t57.5 268.5v506h194v-1032h-194v52q-98 -62 -249 -62zM272 1163l183 324h242l-215 -324h-210zM523 1163l183 324h243l-215 -324h-211z" />
    <glyph glyph-name="Uogonek" unicode="&#x172;" horiz-adv-x="1236" 
d="M595 -396q-46 0 -87 17t-72.5 64.5t-31.5 120.5q0 109 61 199q-145 47 -238 179t-93 331v879h192v-866q0 -103 32 -184t83.5 -122t113.5 -60t124.5 1.5t114 63.5t83.5 124.5t32 185.5v857h193v-859q0 -202 -92.5 -338t-236.5 -188q-173 -71 -173 -198q0 -13 3 -13
q30 0 57.5 29t136.5 171v-294q-78 -100 -202 -100z" />
    <glyph glyph-name="uogonek" unicode="&#x173;" 
d="M742 -390q-33 0 -64.5 10t-61.5 32t-48.5 63t-18.5 96q0 95 51 182q-33 -3 -68 -3q-204 0 -307 113t-103 323v606h193v-597q0 -149 44.5 -201.5t172.5 -52.5q134 0 191.5 76.5t57.5 268.5v506h194v-1032h-94q-65 -24 -99.5 -72t-34.5 -112q0 -13 3 -13q30 0 56.5 27.5
t137.5 169.5v-293q-80 -97 -202 -97z" />
    <glyph glyph-name="Wcircumflex" unicode="&#x174;" horiz-adv-x="1722" 
d="M398 0l-388 1394h202l275 -992l295 931h157l296 -931l276 992h201l-388 -1394h-165l-298 940l-300 -940h-163zM574 1439l224 323h124l224 -323h-236l-52 78l-52 -78h-232z" />
    <glyph glyph-name="wcircumflex" unicode="&#x175;" horiz-adv-x="1452" 
d="M331 0l-287 1032h203l177 -642l227 642h153l226 -640l177 640h201l-285 -1032h-161l-235 673l-239 -673h-157zM452 1162l209 352h131l208 -352h-228l-47 84l-47 -84h-226z" />
    <glyph glyph-name="Ycircumflex" unicode="&#x176;" horiz-adv-x="1171" 
d="M490 0l-4 425l-486 969h219l364 -734l368 734h220l-494 -969l5 -425h-192zM300 1439l224 323h122l225 -323h-236l-51 77l-52 -77h-232z" />
    <glyph glyph-name="ycircumflex" unicode="&#x177;" horiz-adv-x="1050" 
d="M235 -135q27 -16 41.5 -23t25 -12t15 0t7 9t7 19t8.5 26l82 198l-391 950h211l283 -700l287 700h209l-504 -1224q-55 -138 -151.5 -167.5t-208.5 54.5zM252 1162l210 352h131l207 -352h-226l-48 84l-48 -84h-226z" />
    <glyph glyph-name="Ydieresis" unicode="&#x178;" horiz-adv-x="1171" 
d="M490 0l-4 425l-486 969h219l364 -734l368 734h220l-494 -969l5 -425h-192zM343 1600q0 47 33.5 81t80.5 34t80.5 -34t33.5 -81t-33.5 -80.5t-80.5 -33.5t-80.5 33.5t-33.5 80.5zM604 1600q0 47 33.5 81t80.5 34t80.5 -34t33.5 -81t-33.5 -80.5t-80.5 -33.5t-80.5 33.5
t-33.5 80.5z" />
    <glyph glyph-name="Zacute" unicode="&#x179;" horiz-adv-x="1057" 
d="M46 0v145l702 1057h-702v192h965v-144l-703 -1059h703v-191h-965zM372 1439l184 323h242l-214 -323h-212z" />
    <glyph glyph-name="zacute" unicode="&#x17a;" horiz-adv-x="936" 
d="M46 0v146l566 696h-566v190h844v-151l-559 -690h559v-191h-844zM299 1162l193 352h238l-220 -352h-211z" />
    <glyph glyph-name="Zdotaccent" unicode="&#x17b;" horiz-adv-x="1057" 
d="M46 0v145l702 1057h-702v192h965v-144l-703 -1059h703v-191h-965zM415 1600q0 47 33.5 81t80.5 34q48 0 81 -34t33 -81t-33.5 -80.5t-80.5 -33.5t-80.5 34t-33.5 80z" />
    <glyph glyph-name="zdotaccent" unicode="&#x17c;" horiz-adv-x="936" 
d="M46 0v146l566 696h-566v190h844v-151l-559 -690h559v-191h-844zM339 1335q0 46 33.5 79.5t80.5 33.5t81.5 -33t34.5 -80t-34.5 -81t-81.5 -34t-80.5 34t-33.5 81z" />
    <glyph glyph-name="Zcaron" unicode="&#x17d;" horiz-adv-x="1057" 
d="M46 0v145l702 1057h-702v192h965v-144l-703 -1059h703v-191h-965zM243 1762h236l52 -77l52 77h234l-225 -323h-124z" />
    <glyph glyph-name="zcaron" unicode="&#x17e;" horiz-adv-x="936" 
d="M46 0v146l566 696h-566v190h844v-151l-559 -690h559v-191h-844zM180 1514h227l48 -85l49 85h224l-207 -352h-131z" />
    <glyph glyph-name="uni0218" unicode="&#x218;" horiz-adv-x="1167" 
d="M602 -24q-82 0 -157.5 18.5t-142.5 58.5t-115.5 97.5t-75.5 141.5t-23 185h198q-10 -153 76.5 -230.5t241.5 -77.5q130 0 202 54t72 148q0 98 -57 142t-239 95q-112 32 -187.5 65.5t-134 81.5t-86 113t-27.5 153q0 111 64.5 200t168.5 137t224 48q114 0 204.5 -42.5
t145 -112.5t82 -157.5t23.5 -181.5h-192q-6 150 -74 224.5t-191 74.5q-110 0 -182 -48t-72 -139q0 -92 55.5 -132t240.5 -93q108 -31 184 -66t135 -85t87.5 -117.5t28.5 -156.5q0 -112 -63 -203.5t-172.5 -143t-241.5 -51.5zM388 -406l132 374h179v-103l-113 -271h-198z" />
    <glyph glyph-name="uni0219" unicode="&#x219;" horiz-adv-x="1001" 
d="M518 -14q-87 0 -164 25t-138.5 75.5t-95.5 135.5t-29 195h192q6 -139 60.5 -188.5t178.5 -49.5q97 0 143.5 26t46.5 82q0 40 -16 60t-62.5 36t-156.5 39q-339 70 -339 304q0 133 106 219.5t264 86.5q102 0 181 -34.5t126 -93t70.5 -130.5t22.5 -152h-187
q-23 129 -66.5 173.5t-148.5 44.5q-169 0 -169 -112q0 -49 40 -72t151 -46q190 -39 286.5 -111.5t96.5 -209.5t-112.5 -220t-280.5 -83zM308 -402l131 374h179v-103l-112 -271h-198z" />
    <glyph glyph-name="uni021A" unicode="&#x21a;" horiz-adv-x="1250" 
d="M527 0v1202h-467v192h1128v-192h-467v-1202h-194zM415 -402l131 374h179v-103l-113 -271h-197z" />
    <glyph glyph-name="uni021B" unicode="&#x21b;" horiz-adv-x="740" 
d="M662 8q-185 -50 -300 25.5t-115 256.5v554h-217v188h217v360h193v-360h222v-188h-222v-554q0 -64 15 -86.5t64 -25t143 11.5v-182zM232 -403l132 374h179v-103l-113 -271h-198z" />
    <glyph glyph-name="uni0237" unicode="&#x237;" horiz-adv-x="548" 
d="M74 -370q-144 0 -226 86l75 158q11 -6 30.5 -17t25 -14t18.5 -9.5t18 -7.5t15.5 -3.5t19.5 -3t22 -0.5h13q55 0 71 20t16 91v1102h194v-1102q0 -144 -75.5 -222t-203.5 -78h-13z" />
    <glyph glyph-name="circumflex" unicode="&#x2c6;" horiz-adv-x="799" 
d="M126 1428l209 353h131l207 -353h-226l-48 85l-49 -85h-224z" />
    <glyph glyph-name="caron" unicode="&#x2c7;" horiz-adv-x="799" 
d="M335 1428l-209 353h226l49 -86l48 86h224l-207 -353h-131z" />
    <glyph glyph-name="breve" unicode="&#x2d8;" horiz-adv-x="799" 
d="M399 1420q-130 0 -200.5 99.5t-42.5 250.5h189q-13 -99 -3 -127t57 -28t57.5 28t-2.5 127h189q30 -150 -42.5 -250t-201.5 -100z" />
    <glyph glyph-name="dotaccent" unicode="&#x2d9;" horiz-adv-x="965" 
d="M482 1486q-47 0 -80.5 33.5t-33.5 80.5t33 81t81 34q47 0 81 -34t34 -81t-34.5 -80.5t-80.5 -33.5z" />
    <glyph glyph-name="ring" unicode="&#x2da;" horiz-adv-x="893" 
d="M446 1416q-77 0 -133.5 52t-56.5 135t56.5 134.5t133.5 51.5q78 0 134.5 -51.5t56.5 -134.5t-57 -135t-134 -52zM425 1603q0 -13 4 -16.5t17 -3.5q14 0 18 3.5t4 16.5t-4 16t-18 3q-13 0 -17 -3.5t-4 -15.5z" />
    <glyph glyph-name="ogonek" unicode="&#x2db;" horiz-adv-x="1037" 
d="M348 -396q-75 0 -133.5 48.5t-58.5 153.5q0 135 94.5 245.5t241.5 138.5l159 -163q-151 -9 -224.5 -67t-73.5 -149q0 -13 3 -13q30 0 56 27t137 169v-292q-78 -98 -201 -98z" />
    <glyph glyph-name="tilde" unicode="&#x2dc;" horiz-adv-x="701" 
d="M449 1524q-50 0 -128 28l-35 12l-3 -32h-153q-21 83 12 143t111 60q49 0 127 -30q25 -7 35 -10l3 32h151q26 -91 -10 -147t-110 -56z" />
    <glyph glyph-name="hungarumlaut" unicode="&#x2dd;" horiz-adv-x="950" 
d="M450 1428l184 325h242l-215 -325h-211zM198 1428l183 325h243l-214 -325h-212z" />
    <glyph glyph-name="uni0326" unicode="&#x326;" horiz-adv-x="0" 
d="M200 -306l131 373h179v-104l-114 -269h-196z" />
    <glyph glyph-name="Wgrave" unicode="&#x1e80;" horiz-adv-x="1722" 
d="M398 0l-388 1394h202l275 -992l295 931h157l296 -931l276 992h201l-388 -1394h-165l-298 940l-300 -940h-163zM588 1762h243l183 -323h-213z" />
    <glyph glyph-name="wgrave" unicode="&#x1e81;" horiz-adv-x="1452" 
d="M331 0l-287 1032h203l177 -642l227 642h153l226 -640l177 640h201l-285 -1032h-161l-235 673l-239 -673h-157zM451 1514h239l193 -352h-210z" />
    <glyph glyph-name="Wacute" unicode="&#x1e82;" horiz-adv-x="1722" 
d="M398 0l-388 1394h202l275 -992l295 931h157l296 -931l276 992h201l-388 -1394h-165l-298 940l-300 -940h-163zM689 1439l183 323h243l-214 -323h-212z" />
    <glyph glyph-name="wacute" unicode="&#x1e83;" horiz-adv-x="1452" 
d="M331 0l-287 1032h203l177 -642l227 642h153l226 -640l177 640h201l-285 -1032h-161l-235 673l-239 -673h-157zM571 1162l192 352h240l-221 -352h-211z" />
    <glyph glyph-name="Wdieresis" unicode="&#x1e84;" horiz-adv-x="1722" 
d="M398 0l-388 1394h202l275 -992l295 931h157l296 -931l276 992h201l-388 -1394h-165l-298 940l-300 -940h-163zM620 1600q0 47 33.5 81t80.5 34t80.5 -34t33.5 -81t-33.5 -80.5t-80.5 -33.5t-80.5 33.5t-33.5 80.5zM881 1600q0 47 33.5 81t80.5 34t80.5 -34t33.5 -81
t-33.5 -80.5t-80.5 -33.5t-80.5 33.5t-33.5 80.5z" />
    <glyph glyph-name="wdieresis" unicode="&#x1e85;" horiz-adv-x="1452" 
d="M331 0l-287 1032h203l177 -642l227 642h153l226 -640l177 640h201l-285 -1032h-161l-235 673l-239 -673h-157zM483 1336q0 47 33.5 81t80.5 34t80.5 -34t33.5 -81t-33.5 -80.5t-80.5 -33.5t-80.5 33.5t-33.5 80.5zM744 1336q0 47 33.5 81t80.5 34t80.5 -34t33.5 -81
t-33.5 -80.5t-80.5 -33.5t-80.5 33.5t-33.5 80.5z" />
    <glyph glyph-name="uni1E9E" unicode="&#x1e9e;" horiz-adv-x="1257" 
d="M492 219q111 -30 225 -30q104 0 147.5 27t43.5 91q0 45 -23 80.5t-105 110.5q-88 81 -120 141t-32 137t32 136t120 141q82 75 105 110.5t23 80.5q0 64 -43.5 92t-147.5 28h-316v-1364h-197v1559h515q178 0 283 -85.5t105 -234.5q0 -89 -50 -170.5t-150 -170.5
q-51 -44 -64.5 -65.5t-13.5 -56.5t13.5 -57t64.5 -66q100 -89 150 -169.5t50 -170.5q0 -150 -106 -235.5t-284 -85.5q-114 0 -225 23v204z" />
    <glyph glyph-name="Ygrave" unicode="&#x1ef2;" horiz-adv-x="1171" 
d="M490 0l-4 425l-486 969h219l364 -734l368 734h220l-494 -969l5 -425h-192zM308 1762h243l184 -323h-211z" />
    <glyph glyph-name="ygrave" unicode="&#x1ef3;" horiz-adv-x="1050" 
d="M235 -135q27 -16 41.5 -23t25 -12t15 0t7 9t7 19t8.5 26l82 198l-391 950h211l283 -700l287 700h209l-504 -1224q-55 -138 -151.5 -167.5t-208.5 54.5zM252 1514h238l194 -352h-210z" />
    <glyph glyph-name="endash" unicode="&#x2013;" horiz-adv-x="1057" 
d="M130 496v196h797v-196h-797z" />
    <glyph glyph-name="emdash" unicode="&#x2014;" horiz-adv-x="1803" 
d="M60 496v196h1683v-196h-1683z" />
    <glyph glyph-name="quoteleft" unicode="&#x2018;" horiz-adv-x="525" 
d="M104 871l-20 91l156 500h197l-168 -591h-165z" />
    <glyph glyph-name="quoteright" unicode="&#x2019;" horiz-adv-x="524" 
d="M88 871l168 591h166l18 -92l-154 -499h-198z" />
    <glyph glyph-name="quotesinglbase" unicode="&#x201a;" horiz-adv-x="499" 
d="M84 -206l134 406h164l17 -94l-117 -312h-198z" />
    <glyph glyph-name="quotedblleft" unicode="&#x201c;" horiz-adv-x="789" 
d="M104 871l-20 91l156 500h197l-168 -591h-165zM348 962l156 500h197l-168 -591h-165z" />
    <glyph glyph-name="quotedblright" unicode="&#x201d;" horiz-adv-x="789" 
d="M685 1465l20 -91l-156 -500h-197l168 591h165zM88 874l168 591h165l20 -91l-156 -500h-197z" />
    <glyph glyph-name="quotedblbase" unicode="&#x201e;" horiz-adv-x="760" 
d="M84 -206l134 406h164l17 -94l-117 -312h-198zM345 -206l134 406h164l17 -94l-117 -312h-198z" />
    <glyph glyph-name="dagger" unicode="&#x2020;" horiz-adv-x="1084" 
d="M443 -284l-1 1000l-332 -2v199l331 -1l-2 469h205l-1 -469l331 1v-199l-331 2l1 -1000h-201z" />
    <glyph glyph-name="daggerdbl" unicode="&#x2021;" horiz-adv-x="1084" 
d="M444 -284l-2 466l-332 -1v199l332 -2v338l-332 -2v199l331 -1l-2 469h205l-1 -469l331 1v-199l-332 2v-338l332 2v-199l-331 1l1 -466h-200z" />
    <glyph glyph-name="bullet" unicode="&#x2022;" horiz-adv-x="597" 
d="M298 461q-67 0 -112.5 46t-45.5 112q0 67 45.5 113t112.5 46q68 0 113.5 -46t45.5 -113q0 -66 -45.5 -112t-113.5 -46z" />
    <glyph glyph-name="ellipsis" unicode="&#x2026;" horiz-adv-x="834" 
d="M417 -24q-69 0 -101 60q-33 -60 -101 -60q-47 0 -81 33.5t-34 79.5q0 47 34 80.5t81 33.5q32 0 58.5 -16.5t41.5 -43.5q15 27 42 43.5t60 16.5q32 0 59.5 -17t41.5 -44q15 28 42 44.5t59 16.5q47 0 81 -33.5t34 -80.5t-34 -80t-81 -33q-69 0 -101 60q-14 -27 -41.5 -43.5
t-59.5 -16.5z" />
    <glyph glyph-name="perthousand" unicode="&#x2030;" horiz-adv-x="2133" 
d="M398 0h-234l895 1381h235zM60 1046q0 152 83 256t223 104t223 -104t83 -256q0 -97 -35.5 -178.5t-106.5 -132.5t-164 -51t-164 51t-106.5 132.5t-35.5 178.5zM261 1046q0 -90 24 -128t81 -38t81 38t24 128t-24 127.5t-81 37.5t-81 -37.5t-24 -127.5zM789 358
q0 152 83 256t223 104t223 -104t83 -256q0 -97 -35.5 -178.5t-106.5 -132.5t-164 -51t-164 51t-106.5 132.5t-35.5 178.5zM990 358q0 -90 24 -128t81 -38t81 38t24 128t-24 127.5t-81 37.5t-81 -37.5t-24 -127.5zM1461 358q0 152 83 256t223 104t223 -104t83 -256
q0 -97 -35.5 -178.5t-106.5 -132.5t-164 -51t-164 51t-106.5 132.5t-35.5 178.5zM1662 358q0 -90 24 -128t81 -38t81 38t24 128t-24 127.5t-81 37.5t-81 -37.5t-24 -127.5z" />
    <glyph glyph-name="guilsinglleft" unicode="&#x2039;" horiz-adv-x="694" 
d="M367 146l-307 373l307 373h257l-308 -373l308 -373h-257z" />
    <glyph glyph-name="guilsinglright" unicode="&#x203a;" horiz-adv-x="695" 
d="M70 146l308 373l-308 373h256l309 -373l-309 -373h-256z" />
    <glyph glyph-name="fraction" unicode="&#x2044;" horiz-adv-x="193" 
d="M-300 -74l509 1492l210 35l-509 -1494z" />
    <glyph glyph-name="Euro" unicode="&#x20ac;" horiz-adv-x="1195" 
d="M726 -37q-216 0 -353 121.5t-180 361.5h-217l88 186h113l-3 53v15h-152l86 184h81q42 258 188 396t356 138q134 0 225 -42t172 -140l-127 -137q-71 83 -123 109t-151 26q-285 0 -348 -350h713l-98 -184h-631v-16l4 -52h638l-78 -186h-542q34 -161 117 -230.5t231 -69.5
q94 0 168 35t160 122v-240q-145 -100 -337 -100z" />
    <glyph glyph-name="trademark" unicode="&#x2122;" horiz-adv-x="1012" 
d="M437 855v348h-122v-348h-128v348h-157v122h443v-2h95l103 -269l104 269h127v-468h-124l2 154l-59 -150h-103l-58 150l1 -154h-124z" />
    <glyph glyph-name="partialdiff" unicode="&#x2202;" horiz-adv-x="1083" 
d="M516 -24q-188 0 -307 133t-119 337q0 118 36 216t99 164.5t149.5 103.5t185.5 37q115 0 211 -53q-24 192 -86.5 292.5t-176.5 100.5q-79 0 -129.5 -25t-122.5 -101l-124 152q86 90 178 129.5t202 39.5q471 0 471 -851q0 -152 -26.5 -273t-81.5 -212t-146 -140.5
t-213 -49.5zM290 449q0 -140 59 -210t167 -70q92 0 147.5 41t85.5 142t34 277q-72 145 -221 145q-133 0 -202.5 -84.5t-69.5 -240.5z" />
    <glyph glyph-name="emptyset" unicode="&#x2205;" horiz-adv-x="1707" 
d="M853 -26q-248 0 -445 151l-150 -150l-138 137l154 154q-145 199 -145 444q0 153 58.5 290t156.5 233.5t231 152.5t278 56q251 0 445 -150l151 150l138 -138l-154 -154q144 -196 144 -440q0 -154 -58 -291.5t-156 -234.5t-231 -153.5t-279 -56.5zM330 710q0 -170 85 -301
l743 742q-133 98 -305 98q-147 0 -266 -68t-188 -191.5t-69 -279.5zM549 266q133 -97 304 -97q225 0 375 151.5t150 389.5q0 167 -87 298z" />
    <glyph glyph-name="product" unicode="&#x220f;" horiz-adv-x="1085" 
d="M169 -195v1382h-99v194h945v-194h-98v-1382h-197v1382h-352v-1382h-199z" />
    <glyph glyph-name="summation" unicode="&#x2211;" horiz-adv-x="1078" 
d="M30 -195v140l493 670l-439 627v139h925v-194h-647l403 -578l-449 -609h704v-195h-990z" />
    <glyph glyph-name="minus" unicode="&#x2212;" horiz-adv-x="1020" 
d="M76 544v196h868v-196h-868z" />
    <glyph glyph-name="radical" unicode="&#x221a;" horiz-adv-x="1110" 
d="M459 -284l-234 797h-137v195h283l166 -571l324 1404h203l-425 -1825h-180z" />
    <glyph glyph-name="infinity" unicode="&#x221e;" horiz-adv-x="1955" 
d="M561 -24q-217 0 -354 159.5t-137 411.5q0 253 137 414t354 161q276 0 416 -248q67 120 174.5 184t243.5 64q218 0 354 -161t136 -414q0 -252 -136 -411.5t-354 -159.5q-277 0 -417 249q-66 -122 -173 -185.5t-244 -63.5zM270 547q0 -194 81 -286t210 -92q279 0 313 378
q-16 109 -46 185.5t-72.5 118t-89.5 59.5t-105 18q-128 0 -209.5 -93t-81.5 -288zM1083 551q14 -109 44 -186t72.5 -118.5t89.5 -59.5t106 -18q128 0 209 92.5t81 285.5q0 195 -81 288t-209 93q-59 0 -108 -18t-93.5 -59t-73 -117t-37.5 -183z" />
    <glyph glyph-name="integral" unicode="&#x222b;" horiz-adv-x="657" 
d="M256 -284q-64 0 -121 35.5t-85 103.5l135 146q39 -69 47 -79t26 -10q14 0 20.5 10t11 48t4.5 114q0 124 -63 504q-39 241 -52.5 350t-13.5 203q0 182 70 268t167 86q64 0 122 -36.5t83 -106.5l-133 -139q-41 69 -48.5 78t-25.5 9q-13 0 -19.5 -10t-11 -48.5t-4.5 -114.5
q0 -131 63 -504q38 -235 51.5 -347t13.5 -206t-20.5 -165.5t-55.5 -111t-75.5 -58.5t-85.5 -19z" />
    <glyph glyph-name="approxequal" unicode="&#x2248;" horiz-adv-x="1181" 
d="M106 712q92 227 301 227q56 0 106 -17t124 -57q63 -33 85.5 -41t52.5 -8q49 0 70 20t89 128l143 -116q-93 -227 -302 -227q-55 0 -104 17.5t-126 57.5q-62 33 -85 41t-53 8q-48 0 -68.5 -20t-88.5 -128zM106 393q92 227 301 227q56 0 106 -17t124 -57q65 -34 87 -42
t51 -8q49 0 69.5 20t89.5 128l143 -115q-93 -228 -302 -228q-55 0 -103 17t-127 58q-64 34 -86 42t-52 8q-48 0 -68.5 -20t-88.5 -128z" />
    <glyph glyph-name="notequal" unicode="&#x2260;" horiz-adv-x="1094" 
d="M165 183l118 202h-187v195h301l73 124h-374v195h488l117 203h226l-118 -203h189v-195h-303l-73 -124h376v-195h-489l-119 -202h-225z" />
    <glyph glyph-name="lessequal" unicode="&#x2264;" horiz-adv-x="1020" 
d="M944 150v-197h-868v197h868zM75 624v134l869 422v-220l-556 -269l556 -271v-219z" />
    <glyph glyph-name="greaterequal" unicode="&#x2265;" horiz-adv-x="1020" 
d="M76 150h868v-197h-868v197zM76 201v219l556 271l-556 269v220l869 -422v-134z" />
    <glyph glyph-name="lozenge" unicode="&#x25ca;" horiz-adv-x="948" 
d="M405 0l-335 690l335 691h138l335 -691l-335 -690h-138zM288 690l187 -387l185 387l-185 386z" />
    <glyph glyph-name="uniF8FF" unicode="&#xf8ff;" horiz-adv-x="1562" 
d="M768 253q-151 0 -279.5 75.5t-203 204.5t-74.5 280q0 152 75 280.5t203.5 203t280.5 74.5q151 0 279.5 -75t203.5 -203.5t75 -279.5q0 -152 -74.5 -281t-203.5 -204t-282 -75zM210 29v146h59q26 0 44 -9q37 -17 37 -64q0 -23 -10 -39q-21 -34 -71 -34h-59zM245 56h22
q18 0 26 4q22 10 22 42q0 18 -5 27q-12 20 -43 20h-22v-93zM278 814q0 -205 144 -350t348 -145q203 0 347.5 144.5t144.5 347.5q0 100 -39 191.5t-104.5 157.5t-156 105t-190.5 40q-134 0 -248 -65.5t-180 -178.5t-66 -247zM362 84q0 16 8 29q16 27 52 27q26 0 42 -14
q18 -15 18 -42v-8h-85q0 -8 3 -13q7 -13 25 -13q7 0 10 1q9 3 14 12l31 -3q-2 -10 -10 -17q-14 -16 -45 -16q-17 0 -33 7q-30 14 -30 50zM397 95h52l-3 10q-6 12 -23 12q-10 0 -14 -3q-10 -6 -12 -19zM452 912q10 -2 12 -4q52 -21 98 -27q41 -3 72 2q43 11 47 12
q3 0 8.5 2.5t7.5 3.5q-5 2 -16.5 8t-17 9t-13 8.5t-13.5 12.5h19q39 0 75 19q65 40 136 61q24 8 58 11q4 0 19.5 1t23.5 0q54 -2 89 -33q10 -11 28 -33v-2l-6 2q-45 17 -83 3.5t-62 -53.5q-7 -13 -25 -55q-9 -21 -27 -63.5t-20 -48.5q-33 -64 -65 -101q-27 -33 -66 -58
q-45 -34 -116 -55h-5l24 22q12 11 25 44q41 116 45 127q24 73 57 131v3q-2 -4 -11 -13q-8 -10 -10 -12q-23 -36 -31 -57q-2 -6 -8 -6q-99 3 -177 67q-40 38 -59 55q-1 1 -5 7t-8 10zM491 61l33 2q5 -14 23 -14q20 0 20 11q0 8 -16 11l-21 4q-36 6 -36 31q0 10 6 18
q13 16 46 16q48 0 53 -32l-31 -3q-4 14 -21 14q-19 0 -19 -11q0 -8 16 -12l22 -3q36 -6 36 -30q0 -9 -7 -18q-13 -18 -48 -18q-51 0 -56 34zM615 168q0 15 19 15q18 0 18 -15t-18 -15q-19 0 -19 15zM617 29v109h34v-109h-34zM666 84q0 20 7 31q13 25 43 25q10 0 18 -3
q12 -5 18 -17h1v18h35v-110q0 -14 -9 -23q-15 -19 -52 -19q-50 0 -57 31l31 3l2 -2q2 -3 4 -4q5 -6 21 -6q25 0 25 21v19h-1q-2 -3 -7 -8q-11 -9 -29 -9q-13 0 -25 5q-25 13 -25 48zM701 84q0 -10 3 -16q6 -14 24 -14q25 0 25 30q0 10 -3 17q-6 15 -22 15q-7 0 -15 -4
q-12 -7 -12 -28zM808 29v109h34v-19q10 21 37 21q13 0 23 -5q20 -10 20 -36v-70h-35v64q0 22 -21 22q-7 0 -13 -3q-11 -6 -11 -19v-64h-34zM937 84q0 15 7 29q16 27 54 27q20 0 33 -7q28 -16 28 -49q0 -17 -7 -30q-16 -27 -54 -27q-16 0 -33 7q-28 16 -28 50zM972 84
q0 -9 3 -18q7 -15 23 -15q10 0 15 4q12 9 12 29q0 2 -3 17q-8 16 -24 16q-7 0 -14 -5q-12 -7 -12 -28zM1061 138h36l26 -78h1l26 78h36l-43 -109h-39zM1187 60q0 17 15 25q13 8 32 8l17 3q13 0 13 7v1q0 14 -19 14q-17 0 -22 -13l-32 3q3 10 10 17q15 15 45 15q20 0 37 -9
q15 -8 15 -28v-74h-33v16q-5 -7 -9 -9q-9 -9 -27 -9q-13 0 -21 4q-21 8 -21 29zM1220 60q0 -12 18 -12q8 0 14 3q12 5 12 18v11q-4 -2 -23 -5q-7 0 -12 -3q-9 -3 -9 -12zM1277 177q0 16 11 26.5t27 10.5t26.5 -10.5t10.5 -26.5t-10.5 -27t-26.5 -11t-27 11t-11 27zM1289 177
q0 -11 7.5 -19t18.5 -8t18.5 8t7.5 19t-7.5 18.5t-18.5 7.5t-18.5 -7.5t-7.5 -18.5zM1302 160v35h14q12 0 12 -11q0 -5 -5 -10l8 -14h-10l-6 11h-5v-11h-8zM1310 180h6q5 0 5 3t-5 3h-6v-6z" />
    <glyph glyph-name="_Designova" horiz-adv-x="1712" 
d="M854 41q-174 0 -322.5 87t-235 235.5t-86.5 323.5q1 131 52 250.5t137.5 205.5t206 137t250.5 51q175 0 323.5 -86t235.5 -234.5t87 -323.5q0 -176 -87 -324.5t-236 -235t-325 -86.5zM288 687q0 -116 45 -221.5t120.5 -181.5t181 -121t221.5 -45q154 0 285 76t207 207
t76 285q0 116 -45 221.5t-120.5 181.5t-180.5 121t-221 45t-221 -45t-181.5 -120.5t-121.5 -181t-45 -221.5zM490 800q7 0 13 -4q58 -22 115 -31q45 -5 81 3q29 4 53 14q5 0 11.5 3t8.5 4q-5 3 -22.5 11.5t-27.5 15.5t-19 17h21q39 0 86 20q85 53 158 73q37 10 66 10
q6 0 24.5 1.5t26.5 0.5q67 -4 102 -39q6 -5 33 -37v-2q-3 2 -7 2q-53 20 -95.5 4.5t-71.5 -59.5q-5 -9 -10 -20.5t-11 -25t-9 -21.5q-6 -14 -25 -59t-30 -68q-36 -74 -74 -119q-20 -27 -74 -66q-52 -38 -136 -63h-7l28 24q18 17 30 51q7 20 25 71t27 78q31 90 65 150v1
q-3 -3 -11 -13q-9 -7 -11 -16q-23 -27 -38 -65q-3 -5 -9 -5q-117 5 -204 78q-10 10 -32.5 31t-33.5 32q-12 14 -16 18z" />
    <glyph glyph-name="_Origin" horiz-adv-x="2215" 
d="M130 1055v50h1955v-50h-1955zM130 236v50h1955v-50h-1955zM208 437v177h42v-177h-42zM240 734v177h148v-32h-107v-39h97v-31h-97v-42h107v-33h-148zM278 437v177h34l89 -107v107h40v-177h-33l-88 109v-109h-42zM418 734v177h34l88 -107v107h40v-177h-33l-88 109v-109h-41
zM534 437v177h87q72 0 72 -45q0 -28 -26 -40q3 0 3 -2q28 -12 28 -42q0 -48 -71 -48h-93zM576 468h48q32 0 32 22t-32 22h-48v-44zM576 545h42q33 0 33 20q0 22 -33 22h-42v-42zM609 879v32h156v-32h-57v-145h-41v145h-58zM718 437v177h148v-33h-107v-38h96v-31h-96v-41h105
v-34h-146zM783 911h44l40 -124l42 124h38l40 -126l42 126h39l-57 -177h-45l-39 121l-41 -121h-43zM894 437v177h81q28 0 42 -6q36 -19 36 -57q0 -21 -10 -35q-15 -18 -29 -23l37 -56h-43l-35 50h-37v-50h-42zM936 520h37q38 0 38 31q0 30 -38 30h-37v-61zM1073 437v177h40
v-143h106v-34h-146zM1076 823q0 39 28 65q26 26 69 26t69 -26q28 -25 28 -65q0 -39 -28 -65q-26 -27 -68 -27q-44 0 -70 27q-28 28 -28 65zM1118 823q0 -25 15.5 -40.5t39.5 -15.5t39.5 15.5t15.5 40.5t-15.5 41.5t-39.5 16.5t-39.5 -16.5t-15.5 -41.5zM1248 437v177h41
v-177h-41zM1293 734v177h81q28 0 41 -6q36 -17 36 -57q0 -21 -10 -35q-9 -15 -29 -23l39 -56h-45l-33 50h-39v-50h-41zM1318 437v177h35l87 -107v107h42v-177h-34l-89 109v-109h-41zM1334 817h37q38 0 38 31t-38 31h-37v-62zM1471 734v177h148v-32h-107v-39h96v-31h-96v-75
h-41zM1508 461q0 24 25 24q10 0 17 -7t7 -17q0 -11 -7 -25l-14 -38h-26l12 41q-14 5 -14 22zM1635 734v177h147v-32h-106v-39h95v-31h-95v-42h106v-33h-147zM1658 437v177h80q30 0 52 -11q46 -21 46 -77q0 -28 -12 -47q-23 -42 -86 -42h-80zM1700 471h37q17 0 31 7
q26 14 26 48q0 21 -6 29q-14 26 -51 26h-37v-110zM1812 734v177h33l90 -107v107h40v-177h-34l-89 109v-109h-40zM1860 437v177h147v-33h-107v-38h97v-31h-97v-41h106v-34h-146z" />
    <glyph glyph-name="_VendorID" horiz-adv-x="1136" 
d="M83 154v1187h974v-1187h-974zM86 63q0 13 7.5 20.5t18.5 7.5q9 0 12 -3l4 -5v26h13v-72h-13v9l-4 -7q-8 -5 -15 -5q-23 0 -23 29zM100 63q0 -17 13 -17q15 0 15 17v1q0 18 -13 18q-15 0 -15 -19zM136 205h869v1084h-869v-1084zM151 63q0 13 7.5 20.5t19.5 7.5
q11 0 18.5 -7.5t7.5 -19.5q0 -2 -2 -5h-37q1 -13 13 -13q10 0 12 9h12q-4 -21 -24 -21q-27 0 -27 29zM165 67h25q-3 15 -12 15q-12 0 -13 -15zM208 52h14q3 -9 9 -9q9 0 9 7q0 3 -12 9q-18 5 -18 16q0 16 21 16t21 -16h-14q-1 7 -7 7q-7 0 -7 -6q0 -4 12 -9q17 -5 17 -15
q0 -18 -22 -18q-20 0 -23 18zM250 455q0 59 46 125l97 137h64l-84 -120q10 3 23 3q62 0 102.5 -41.5t40.5 -103.5q0 -61 -41.5 -103.5t-101.5 -42.5q-61 0 -103.5 42.5t-42.5 103.5zM250 926q0 56 46 123l97 142h64l-84 -122q7 2 23 2q63 0 103 -41t40 -104
q0 -61 -41 -102.5t-102 -41.5t-103.5 42t-42.5 102zM261 102q0 7 8 7t8 -7q0 -8 -8 -8t-8 8zM262 37v54h14v-54h-14zM286 63q0 28 26 28q9 0 12 -3l4 -5v8h14v-41q0 -8 -2 -11q0 -24 -27 -24q-26 0 -26 18v1h14v-1q0 -8 12 -8q11 0 15 13v8l-4 -7q-8 -2 -14 -2q-24 0 -24 26
zM301 64q0 -18 12 -18q15 0 15 17v1q0 18 -15 18q-12 0 -12 -18zM304 455q0 -42 25.5 -68t66.5 -26q39 0 64.5 26t25.5 68q0 40 -25.5 65t-64.5 25q-41 0 -66.5 -25t-25.5 -65zM304 926q0 -41 25.5 -67t66.5 -26q39 0 64.5 26.5t25.5 66.5t-25.5 66t-64.5 26
q-41 0 -66.5 -25t-25.5 -67zM353 37v54h14v-10l4 7q5 3 13 3q17 0 20 -15q1 -3 1 -9v-30h-15v34q0 11 -10 11q-13 0 -13 -21v-24h-14zM412 63q0 13 7.5 20.5t19.5 7.5q28 0 28 -28q0 -29 -28 -29q-12 0 -19.5 8t-7.5 21zM426 63q0 -17 13 -17q15 0 15 17q0 19 -15 19
q-13 0 -13 -19zM472 91h14l14 -45l13 45h14l-19 -54h-18zM532 52q0 16 30 16h3v7q0 7 -9 7q-11 0 -11 -9h-13q0 18 24 18q19 0 21 -15v-39h-12v6l-3 -5q-8 -4 -14 -4q-16 0 -16 18zM545 52q0 -6 8 -6q12 0 12 9v6q-20 2 -20 -9zM586 80v9h6v8q0 15 19 15h6v-11q-11 2 -11 -5
v-7h11v-9h-11v-43h-14v43h-6zM599 455q0 62 44 125l97 137h66l-86 -120q10 3 25 3q61 0 102 -41.5t41 -103.5q0 -61 -41.5 -103.5t-101.5 -42.5q-61 0 -103.5 42.5t-42.5 103.5zM599 926q0 57 44 123l97 142h66l-87 -122q8 2 26 2q61 0 102 -41.5t41 -103.5
q0 -61 -41.5 -102.5t-101.5 -41.5q-61 0 -103.5 41.5t-42.5 102.5zM621 63q0 28 28 28q27 0 27 -28q0 -29 -27 -29q-28 0 -28 29zM635 63q0 -17 14 -17q13 0 13 17q0 19 -13 19q-14 0 -14 -19zM652 455q0 -42 26 -68t67 -26q38 0 62.5 26t24.5 68q0 40 -24.5 65t-62.5 25
q-41 0 -67 -25t-26 -65zM652 926q0 -41 26 -67t67 -26q38 0 62.5 26t24.5 67q0 40 -24.5 66t-62.5 26q-41 0 -67 -25.5t-26 -66.5zM685 37v54h12v-10l6 7q4 3 13 3q16 0 19 -15v-39h-14v34q-4 11 -9 11q-15 0 -15 -21v-24h-12zM742 80v9h8v13h14v-13h10v-9h-10v-28
q2 -10 9 -6v-10h-8q-15 0 -15 10v34h-8zM778 52h15q1 -9 10 -9q8 0 8 7q0 3 -12 9q-17 5 -17 16q0 16 20 16q19 0 24 -16h-16q0 7 -9 7q-5 0 -5 -6q0 -5 11 -9q19 -6 19 -15q0 -18 -23 -18q-21 0 -25 18zM830 42q0 10 9 10t9 -10q0 -8 -9 -8t-9 8zM854 63q0 13 8 20.5
t18 7.5q25 0 25 -20h-13q-3 11 -12 11q-12 0 -12 -19q0 -17 12 -17q10 0 12 9h13q-1 -21 -25 -21q-26 0 -26 29zM910 63q0 28 29 28q26 0 26 -28q0 -29 -26 -29q-29 0 -29 29zM924 63q0 -17 15 -17q13 0 13 17q0 19 -13 19q-15 0 -15 -19zM975 37v54h14v-9l5 6q3 3 9 3
q13 0 18 -10l5 7q3 3 11 3q17 0 17 -12q1 -4 1 -12v-30h-13v27q0 2 -0.5 5t-0.5 4q0 9 -10 9q-9 0 -9 -18v-27h-13v36q-5 9 -10 9q-10 0 -10 -18v-27h-14z" />
    </font>
</defs>
</svg>
