<?xml version="1.0" standalone="no"?>
<!DOCTYPE svg PUBLIC "-//W3C//DTD SVG 1.1//EN" "http://www.w3.org/Graphics/SVG/1.1/DTD/svg11.dtd" >
<svg xmlns="http://www.w3.org/2000/svg" xmlns:xlink="http://www.w3.org/1999/xlink" version="1.1">
<metadata>
Created by FontForge 20201107 at Tue Feb 27 18:49:14 2024
 By 
Copyright (c) 2024 by Designova. All rights reserved.
</metadata>
<defs>
<font id="RovelleUno-LightItalic" horiz-adv-x="1252" >
  <font-face 
    font-family="Rovelle Uno Light Italic"
    font-weight="300"
    font-style="italic"
    font-stretch="normal"
    units-per-em="2048"
    panose-1="0 0 0 0 0 0 0 0 0 0"
    ascent="1638"
    descent="-410"
    x-height="1011"
    cap-height="1394"
    bbox="-291 -435 2326 1907"
    underline-thickness="100"
    underline-position="-255"
    unicode-range="U+0020-F8FF"
  />
<missing-glyph horiz-adv-x="1277" 
d="M162 0l219 1380h953l-219 -1380h-953zM314 240l368 457l-223 456zM343 113h626l-237 482zM536 1268l229 -469l378 469h-607zM815 697l224 -457l145 913z" />
    <glyph glyph-name=".notdef" horiz-adv-x="1277" 
d="M162 0l219 1380h953l-219 -1380h-953zM314 240l368 457l-223 456zM343 113h626l-237 482zM536 1268l229 -469l378 469h-607zM815 697l224 -457l145 913z" />
    <glyph glyph-name=".null" horiz-adv-x="0" 
 />
    <glyph glyph-name="nonmarkingreturn" horiz-adv-x="682" 
 />
    <glyph glyph-name="space" unicode=" " horiz-adv-x="570" 
 />
    <glyph glyph-name="exclam" unicode="!" horiz-adv-x="541" 
d="M242 207l178 1173h139l-194 -1173h-123zM199 54q5 33 32.5 57t59.5 24q34 0 54 -24t15 -57t-33 -56.5t-61 -23.5q-32 0 -52 24t-15 56z" />
    <glyph glyph-name="quotedbl" unicode="&#x22;" horiz-adv-x="612" 
d="M486 922l80 544h128l-94 -544h-114zM302 922l80 544h128l-94 -544h-114z" />
    <glyph glyph-name="numbersign" unicode="#" horiz-adv-x="1054" 
d="M193 0l171 459h-201l20 127h228l78 210h-216l20 125h242l171 459h128l-171 -459h120l171 459h127l-170 -459h199l-20 -125h-227l-76 -210h215l-20 -127h-243l-171 -459h-127l170 459h-121l-169 -459h-128zM538 586h121l78 210h-120z" />
    <glyph glyph-name="dollar" unicode="$" horiz-adv-x="1103" 
d="M501 -23q-80 10 -144.5 42t-111.5 85.5t-67 135.5t-7 184h127q-16 -142 42.5 -222t180.5 -98l85 532q-68 23 -120 53.5t-95.5 76.5t-60.5 112.5t-4 149.5q24 153 136.5 253.5t264.5 121.5l23 147h128l-23 -146q87 -10 150 -50t97 -101t46.5 -134t3.5 -155h-129
q27 279 -188 313l-85 -538q340 -116 294 -405q-22 -137 -133 -238.5t-282 -118.5l-23 -146h-128zM458 1028q-16 -102 27 -158.5t143 -94.5l79 501q-98 -18 -165.5 -80t-83.5 -168zM649 102q115 13 181.5 73t81.5 155q16 100 -28 163t-156 107z" />
    <glyph glyph-name="percent" unicode="%" horiz-adv-x="1291" 
d="M123 0l1113 1380h152l-1114 -1380h-151zM249 1066q23 146 115 243.5t222 97.5t191 -97.5t38 -243.5q-23 -144 -115 -243t-222 -99q-129 0 -190.5 99t-38.5 243zM380 1066q-34 -216 118 -216q153 0 187 216t-119 216q-152 0 -186 -216zM695 315q23 146 115 244t222 98
t191 -98t38 -244q-23 -143 -115 -242t-222 -99q-129 0 -190.5 99t-38.5 242zM826 315q-34 -216 118 -216t186 216q34 215 -118 215t-186 -215z" />
    <glyph glyph-name="ampersand" unicode="&#x26;" horiz-adv-x="1268" 
d="M966 138q-180 -157 -428 -174q-132 -8 -220 27q-96 36 -143.5 112t-38.5 184q15 174 164 301q77 64 196 133q-46 72 -47 75q-78 122 -68 247q14 150 125 251.5t273 111.5q157 12 237 -64t69 -202q-11 -116 -83 -205q-15 -18 -34.5 -35t-90 -64.5t-199.5 -129.5l306 -380
q112 151 157 386h121q-41 -227 -140 -389q-30 -48 -65 -89l165 -206l-100 -83zM262 296q-10 -113 64 -166.5t223 -43.5q201 13 346 140l-328 404q-49 -28 -101 -61q-95 -60 -146.5 -123.5t-57.5 -149.5zM507 1053q-4 -53 12 -98q22 -68 92 -169q91 49 168 101
q87 55 131 111.5t50 132.5q8 82 -37 123t-156 34q-115 -7 -182.5 -70.5t-77.5 -164.5z" />
    <glyph glyph-name="quotesingle" unicode="'" horiz-adv-x="428" 
d="M302 922l80 544h128l-94 -544h-114z" />
    <glyph glyph-name="parenleft" unicode="(" horiz-adv-x="582" 
d="M345 -151q-83 155 -112 385t8 466q36 233 138.5 464.5t234.5 385.5h143q-146 -170 -246 -389.5t-138 -460.5q-38 -246 -8 -462.5t123 -388.5h-143z" />
    <glyph glyph-name="parenright" unicode=")" horiz-adv-x="582" 
d="M46 -151q148 172 247.5 390.5t138.5 460.5q38 245 7.5 463t-124.5 387h145q83 -154 111 -384.5t-8 -465.5q-37 -234 -138.5 -465.5t-233.5 -385.5h-145z" />
    <glyph glyph-name="asterisk" unicode="*" horiz-adv-x="924" 
d="M296 171l-97 76l245 268l-268 91l58 126l266 -102l48 345h133l-59 -345l297 102l21 -126l-297 -91l159 -268l-122 -76l-149 273z" />
    <glyph glyph-name="plus" unicode="+" horiz-adv-x="1029" 
d="M477 163l65 413h-355l20 126h355l65 412h127l-65 -412h355l-20 -126h-355l-65 -413h-127z" />
    <glyph glyph-name="comma" unicode="," horiz-adv-x="460" 
d="M69 -218l171 350h110l2 -57l-158 -293h-125z" />
    <glyph glyph-name="hyphen" unicode="-" horiz-adv-x="680" 
d="M181 509l20 126h480l-20 -126h-480z" />
    <glyph glyph-name="period" unicode="." horiz-adv-x="401" 
d="M197 -26q-33 0 -53 24t-15 56q5 33 32.5 57t60.5 24t53 -24t15 -57q-5 -32 -32.5 -56t-60.5 -24z" />
    <glyph glyph-name="slash" unicode="/" horiz-adv-x="741" 
d="M31 -56l737 1494h133l-737 -1494h-133z" />
    <glyph glyph-name="zero" unicode="0" horiz-adv-x="1164" 
d="M579 -26q-101 0 -175 35.5t-118.5 98.5t-66 154t-21 197t20.5 231q25 159 71.5 286t117 225.5t172 152t226.5 53.5q100 0 174 -35.5t118 -99t65.5 -154t20.5 -197t-21 -231.5q-25 -158 -71.5 -285.5t-116.5 -225.5t-170.5 -151.5t-225.5 -53.5zM349 690
q-23 -131 -20.5 -239.5t28.5 -186.5t87 -121.5t155 -43.5q93 0 167 42t125.5 122.5t86 185.5t55.5 241q95 592 -247 592q-94 0 -168.5 -42.5t-126 -123t-86 -185t-56.5 -241.5z" />
    <glyph glyph-name="one" unicode="1" horiz-adv-x="750" 
d="M508 0l192 1215l-391 -221l24 148l427 238h95l-219 -1380h-128z" />
    <glyph glyph-name="two" unicode="2" horiz-adv-x="1064" 
d="M80 0l15 92l531 447q103 86 167 151.5t98.5 121.5t48.5 97.5t23 102.5q20 124 -38.5 197t-192.5 73q-133 0 -229.5 -81.5t-133.5 -227.5l-16 -57h-126l17 66q49 191 190 308t318 117q129 0 214 -55t115 -143t13 -197q-22 -140 -108 -269t-277 -287l-395 -330h700
l-20 -126h-914z" />
    <glyph glyph-name="three" unicode="3" horiz-adv-x="1131" 
d="M566 -10q-231 0 -341 130t-62 334l126 6q-43 -165 35.5 -256.5t261.5 -91.5q166 0 271 78.5t126 212.5t-58.5 212.5t-246.5 78.5q-65 0 -132 -14l16 102l469 486h-716l20 126h914l-14 -89l-479 -491q185 -17 280 -130t69 -281q-29 -182 -178 -297.5t-361 -115.5zM575 781
l5 -7l1 1l1 6h-7z" />
    <glyph glyph-name="four" unicode="4" horiz-adv-x="1191" 
d="M774 0l50 317h-694l15 96l860 981h114l-151 -955h217l-20 -122h-217l-50 -317h-124zM318 439h526l116 736z" />
    <glyph glyph-name="five" unicode="5" horiz-adv-x="1072" 
d="M517 -14q-75 0 -141 23.5t-120 69.5t-82.5 125.5t-22.5 181.5l5 67h126l-2 -58q-8 -132 58.5 -207.5t200.5 -75.5q65 0 126 20t114.5 59.5t91.5 106t51 152.5q25 159 -42 247t-207 88h-26q-110 0 -192.5 -55.5t-129.5 -162.5h-127l237 827h739l-20 -126h-628l-125 -433
q120 75 262 75h33q197 0 293 -130t65 -328q-23 -142 -104.5 -249.5t-194 -162t-238.5 -54.5z" />
    <glyph glyph-name="six" unicode="6" horiz-adv-x="1098" 
d="M547 -10q-191 0 -304 132.5t-83 322.5q20 123 110 246l521 703h139l-379 -514q74 23 143 23q125 0 221 -61t140 -165.5t24 -229.5t-97.5 -230t-193 -166t-241.5 -61zM287 447q-23 -147 56 -241t224 -94t255.5 95t133.5 241q23 145 -57.5 240t-225.5 95q-143 0 -253 -95
t-133 -241z" />
    <glyph glyph-name="seven" unicode="7" horiz-adv-x="1124" 
d="M207 0l901 1272h-867l20 122h1014l-16 -99l-912 -1295h-140z" />
    <glyph glyph-name="eight" unicode="8" horiz-adv-x="1115" 
d="M553 -28q-132 0 -229.5 45t-146 137t-28.5 218q19 116 91 207t184 142q-67 49 -94.5 128.5t-11.5 178.5q25 160 155 269.5t323 109.5q102 0 178 -30t118 -82.5t58 -120.5t4 -146q-16 -101 -72.5 -181t-141.5 -128q89 -50 125.5 -140t18.5 -207q-20 -126 -101 -218.5
t-192.5 -137t-237.5 -44.5zM281 372q-11 -71 8 -125t62.5 -86t100.5 -47.5t125 -15.5q86 0 163 26.5t137.5 90.5t75.5 157q21 133 -49 207.5t-235 74.5q-168 0 -267.5 -75.5t-120.5 -206.5zM448 1028q-10 -64 5.5 -113.5t51.5 -78.5t84 -43.5t107 -14.5q123 0 215 62.5
t112 187.5q19 122 -45 188t-202 66q-139 0 -223.5 -66t-104.5 -188z" />
    <glyph glyph-name="nine" unicode="9" horiz-adv-x="1098" 
d="M769 515q-75 -24 -145 -24q-93 0 -171.5 36t-130 97.5t-74.5 146t-8 177.5q31 191 185 323.5t345 132.5q126 0 222.5 -60t141 -164.5t24.5 -229.5q-18 -121 -111 -248l-520 -702h-139zM364 947q-23 -145 57 -240.5t224 -95.5t254.5 95t133.5 242t-56 240.5t-226 93.5
q-144 0 -254 -94.5t-133 -240.5z" />
    <glyph glyph-name="colon" unicode=":" horiz-adv-x="442" 
d="M369 939q-33 0 -53 23.5t-15 56.5t32.5 57t60.5 24q34 0 54 -24.5t15 -56.5q-5 -33 -32.5 -56.5t-61.5 -23.5zM149 54q5 33 32 57t60 24q34 0 54.5 -23.5t15.5 -57.5q-5 -33 -33 -56.5t-62 -23.5q-33 0 -52.5 24t-14.5 56z" />
    <glyph glyph-name="semicolon" unicode=";" horiz-adv-x="520" 
d="M89 -218l170 350h110l2 -57l-157 -293h-125zM379 1019q5 32 33 56.5t61 24.5t53 -24.5t15 -56.5q-5 -33 -32.5 -56.5t-60.5 -23.5t-53.5 23.5t-15.5 56.5z" />
    <glyph glyph-name="less" unicode="&#x3c;" horiz-adv-x="1031" 
d="M949 87l-775 408l15 91l903 408l-22 -143l-689 -311l590 -310z" />
    <glyph glyph-name="equal" unicode="=" horiz-adv-x="1107" 
d="M180 407l20 126h875l-20 -126h-875zM234 745l20 125h875l-20 -125h-875z" />
    <glyph glyph-name="greater" unicode="&#x3e;" horiz-adv-x="1031" 
d="M110 87l22 143l690 310l-591 311l22 143l775 -408l-15 -91z" />
    <glyph glyph-name="question" unicode="?" horiz-adv-x="1037" 
d="M459 207q16 103 31 160.5t48 120.5t83.5 117t139.5 130q91 77 136.5 145t58.5 150q19 123 -41 187.5t-190 64.5q-152 0 -244.5 -92.5t-121.5 -262.5h-126q27 209 171 344.5t341 135.5q188 0 277.5 -107.5t63.5 -269.5q-32 -203 -247 -382q-63 -52 -102 -90.5t-66 -73
t-43 -78t-25 -85t-20 -114.5h-124zM418 54q5 33 32.5 57t60.5 24t53.5 -23.5t15.5 -57.5q-5 -33 -33 -56.5t-61 -23.5q-34 0 -53.5 24t-14.5 56z" />
    <glyph glyph-name="at" unicode="@" horiz-adv-x="1667" 
d="M738 -195q-100 0 -191 27.5t-168.5 82.5t-129 138t-72 195t1.5 253q24 151 92.5 285.5t164.5 232.5t211 170t236.5 107.5t237.5 35.5q192 0 328.5 -83.5t195.5 -232.5t29 -339q-20 -126 -68.5 -229.5t-113 -169.5t-139.5 -101.5t-152 -35.5q-69 0 -125.5 26.5t-67.5 76.5
q-123 -119 -260 -119q-31 0 -59.5 6.5t-58 21t-51.5 39t-38.5 61t-19 86t5.5 113.5q22 142 98 265.5t190 199.5t237 76q117 0 166 -86l-6 22l12 30h135l-178 -445q-40 -110 -47 -156q-8 -49 13 -70t77 -21q110 0 199 107.5t119 294.5q40 255 -82 396.5t-370 141.5
q-94 0 -193.5 -29.5t-195 -89.5t-175.5 -142.5t-137.5 -196t-77.5 -242.5q-22 -141 4 -252.5t90 -181t154 -106t199 -36.5q156 0 275.5 38.5t279.5 143.5l51 -110q-185 -118 -322.5 -158t-303.5 -40zM659 459q-18 -112 11.5 -160t105.5 -48q175 0 299 325l30 75
q38 98 16 157t-96 59q-123 0 -231 -117t-135 -291z" />
    <glyph glyph-name="A" unicode="A" horiz-adv-x="1161" 
d="M40 0l707 1394h107l267 -1394h-134l-85 451h-501l-227 -451h-134zM462 572h420l-114 606z" />
    <glyph glyph-name="B" unicode="B" horiz-adv-x="1228" 
d="M170 0l221 1394h506q189 0 284 -97.5t68 -266.5q-14 -91 -60.5 -165.5t-116.5 -122.5q85 -44 121.5 -134.5t16.5 -215.5q-31 -192 -163.5 -292t-351.5 -100h-525zM313 122h401q174 0 262 64.5t111 205.5q43 269 -215 269h-473zM418 782h431q114 0 185.5 63.5t90.5 180.5
q19 123 -43 184.5t-205 61.5h-382z" />
    <glyph glyph-name="C" unicode="C" horiz-adv-x="1349" 
d="M693 -12q-275 0 -414.5 193t-88.5 515q34 215 137.5 376.5t256.5 247.5t334 86h20q200 0 331 -104.5t170 -288.5l-122 -43q-33 153 -133.5 232.5t-265.5 79.5h-20q-230 0 -385 -155t-199 -431q-43 -274 63 -429t336 -155h20q331 0 497 312l110 -42q-98 -184 -262.5 -289
t-364.5 -105h-20z" />
    <glyph glyph-name="D" unicode="D" horiz-adv-x="1254" 
d="M170 0l221 1394h304q332 0 486.5 -186.5t101.5 -521.5q-53 -329 -263.5 -507.5t-547.5 -178.5h-302zM313 122h175q290 0 456 140t211 424q46 292 -76 439t-406 147h-178z" />
    <glyph glyph-name="E" unicode="E" horiz-adv-x="1157" 
d="M170 0l221 1394h897l-20 -122h-773l-80 -508h708l-19 -122h-708l-83 -520h773l-19 -122h-897z" />
    <glyph glyph-name="F" unicode="F" horiz-adv-x="1157" 
d="M170 0l221 1394h897l-20 -122h-773l-80 -508h708l-19 -122h-708l-102 -642h-124z" />
    <glyph glyph-name="G" unicode="G" horiz-adv-x="1323" 
d="M693 -12q-275 0 -414 193t-88 517q51 323 251.5 515.5t475.5 192.5q204 0 334.5 -107.5t159.5 -294.5l-121 -46q-24 155 -122 239.5t-271 84.5q-230 0 -385 -155t-198 -429q-44 -275 62 -430.5t336 -155.5q157 0 274.5 70.5t193.5 199.5l36 228h-467l19 123h588
l-116 -733h-121l25 160q-91 -83 -207.5 -127.5t-244.5 -44.5z" />
    <glyph glyph-name="H" unicode="H" horiz-adv-x="1237" 
d="M170 0l221 1394h124l-99 -626h648l99 626h125l-221 -1394h-125l102 646h-648l-102 -646h-124z" />
    <glyph glyph-name="I" unicode="I" horiz-adv-x="464" 
d="M170 0l221 1394h124l-221 -1394h-124z" />
    <glyph glyph-name="J" unicode="J" horiz-adv-x="1168" 
d="M150 505l9 56h126q-51 -235 52 -366q76 -97 206 -101q135 -4 251 92q146 121 181 342l137 866h123l-138 -868q-41 -261 -220 -413q-143 -122 -319 -131q-169 -9 -284 89q-139 117 -133 338q1 47 9 96z" />
    <glyph glyph-name="K" unicode="K" horiz-adv-x="1217" 
d="M170 0l221 1394h124l-116 -729l817 729h172l-674 -601l435 -793h-152l-385 703l-241 -214l-77 -489h-124z" />
    <glyph glyph-name="L" unicode="L" horiz-adv-x="1107" 
d="M170 0l221 1394h124l-202 -1272h773l-19 -122h-897z" />
    <glyph glyph-name="M" unicode="M" horiz-adv-x="1577" 
d="M170 0l221 1394h133l312 -1097l661 1097h131l-221 -1394h-124l176 1110l-606 -1006h-97l-286 1006l-176 -1110h-124z" />
    <glyph glyph-name="N" unicode="N" horiz-adv-x="1282" 
d="M170 0l221 1394h120l516 -1152l183 1152h123l-221 -1394h-122l-514 1148l-182 -1148h-124z" />
    <glyph glyph-name="O" unicode="O" horiz-adv-x="1411" 
d="M693 -12q-275 0 -414.5 193t-88.5 515q34 215 137.5 376.5t256.5 247.5t334 86h20q185 0 311 -89t175.5 -250t16.5 -371q-50 -318 -249.5 -513t-478.5 -195h-20zM314 696q-43 -274 63 -429t336 -155h20q232 0 386.5 155t198.5 429q44 276 -62.5 431t-337.5 155h-20
q-230 0 -385 -155t-199 -431z" />
    <glyph glyph-name="P" unicode="P" horiz-adv-x="1156" 
d="M170 0l221 1394h473q219 0 320.5 -99.5t70.5 -290.5v-2q-31 -191 -163.5 -290.5t-351.5 -99.5h-349l-97 -612h-124zM410 734h349q173 0 260.5 64t110.5 206q22 140 -45.5 204t-240.5 64h-349z" />
    <glyph glyph-name="Q" unicode="Q" horiz-adv-x="1409" 
d="M1133 131q-185 -143 -420 -143h-20q-275 0 -414.5 193t-88.5 515q34 215 137.5 376.5t256.5 247.5t334 86h20q185 0 311 -89t175.5 -250t16.5 -371q-46 -289 -214 -476l129 -152l-99 -86zM314 696q-43 -274 63 -429t336 -155h20q183 0 325 104l-241 286l97 89l239 -283
q128 149 165 388q44 276 -62.5 431t-337.5 155h-20q-230 0 -385 -155t-199 -431z" />
    <glyph glyph-name="R" unicode="R" horiz-adv-x="1184" 
d="M170 0l221 1394h473q219 0 320.5 -99.5t70.5 -290.5v-2q-26 -163 -128.5 -261t-269.5 -121l257 -620h-143l-253 612h-327l-97 -612h-124zM410 734h349q173 0 260.5 64t110.5 206q22 140 -45.5 204t-240.5 64h-349z" />
    <glyph glyph-name="S" unicode="S" horiz-adv-x="1154" 
d="M593 -26q-78 0 -147.5 16.5t-128 52.5t-97.5 88t-55.5 127.5t-3.5 165.5h127q-21 -157 70.5 -241t256.5 -84q148 0 250.5 69.5t120.5 184.5q10 61 0 103t-48 75t-94.5 57.5t-154.5 53.5q-110 33 -179.5 65.5t-119.5 78.5t-65.5 108t-2.5 146q17 105 92 190t183.5 131
t224.5 46q84 0 152 -24t112 -65.5t72 -98t36.5 -121t0.5 -134.5h-126q8 153 -63.5 235.5t-205.5 82.5q-80 0 -153 -25.5t-128 -81t-67 -131.5q-9 -60 0.5 -100t49.5 -72t94.5 -54t154.5 -52q105 -32 175 -66t120 -82t67 -112.5t3 -149.5q-17 -107 -91 -194.5t-188 -137.5
t-244 -50z" />
    <glyph glyph-name="T" unicode="T" horiz-adv-x="1192" 
d="M533 0l201 1272h-493l20 122h1112l-20 -122h-493l-201 -1272h-126z" />
    <glyph glyph-name="U" unicode="U" 
d="M234 505l141 889h122l-139 -876q-35 -220 73 -338q83 -91 216 -86q137 5 249 109q129 121 161 325l137 866h125l-138 -868q-41 -261 -220 -413q-143 -122 -319 -131q-169 -9 -284 89q-139 117 -133 338q1 47 9 96z" />
    <glyph glyph-name="V" unicode="V" horiz-adv-x="1256" 
d="M578 0l-327 1394h135l276 -1188l652 1188h133l-767 -1394h-102z" />
    <glyph glyph-name="W" unicode="W" horiz-adv-x="1755" 
d="M418 0l-167 1394h130l136 -1151l516 1086h107l174 -1086l503 1151h129l-609 -1394h-113l-174 1087l-520 -1087h-112z" />
    <glyph glyph-name="X" unicode="X" horiz-adv-x="1263" 
d="M50 0l614 708l-379 686h153l321 -582l508 582h151l-597 -686l392 -708h-153l-335 601l-523 -601h-152z" />
    <glyph glyph-name="Y" unicode="Y" horiz-adv-x="1150" 
d="M513 0l62 419l-334 975h142l278 -827l547 827h143l-652 -974l-62 -420h-124z" />
    <glyph glyph-name="Z" unicode="Z" horiz-adv-x="1073" 
d="M66 0l16 102l963 1170h-778l20 122h941l-16 -99l-965 -1173h779l-19 -122h-941z" />
    <glyph glyph-name="bracketleft" unicode="[" horiz-adv-x="574" 
d="M146 -151l269 1701h374l-19 -126h-246l-230 -1449h246l-20 -126h-374z" />
    <glyph glyph-name="backslash" unicode="\" horiz-adv-x="739" 
d="M558 -56l-262 1494h132l262 -1494h-132z" />
    <glyph glyph-name="bracketright" unicode="]" horiz-adv-x="573" 
d="M6 -151l20 126h246l230 1449h-246l19 126h373l-269 -1701h-373z" />
    <glyph glyph-name="asciicircum" unicode="^" horiz-adv-x="1123" 
d="M214 403l493 838h107l223 -838h-141l-168 645l-375 -645h-139z" />
    <glyph glyph-name="underscore" unicode="_" horiz-adv-x="937" 
d="M26 -151l20 126h837l-20 -126h-837z" />
    <glyph glyph-name="grave" unicode="`" horiz-adv-x="945" 
d="M640 1511l-138 292h157l113 -292h-132z" />
    <glyph glyph-name="a" unicode="a" horiz-adv-x="1092" 
d="M464 -10q-163 0 -246 83.5t-61 225.5q25 153 146 232q59 38 132.5 53t177.5 19l311 14q43 283 -253 283q-104 0 -178.5 -41t-155.5 -144l-83 78q96 120 200 174t236 54q189 0 288.5 -106.5t68.5 -301.5l-97 -613h-124l22 140q-78 -70 -181 -110t-203 -40zM280 299
q-14 -93 37 -142t169 -49q144 0 266 98t145 244l8 49l-303 -13q-169 -5 -237 -50q-37 -24 -57 -55.5t-28 -81.5z" />
    <glyph glyph-name="b" unicode="b" horiz-adv-x="1201" 
d="M628 -10q-102 0 -184 43t-134 121l-24 -154h-124l221 1394h124l-85 -536q75 78 171 120.5t199 42.5h26q200 0 309 -146.5t74 -367.5q-35 -220 -190.5 -368.5t-356.5 -148.5h-26zM364 507q-28 -177 50 -286t230 -109h27q154 0 266.5 109t140.5 286q28 176 -50.5 283.5
t-232.5 107.5h-27q-154 0 -264.5 -107.5t-139.5 -283.5z" />
    <glyph glyph-name="c" unicode="c" horiz-adv-x="1064" 
d="M545 -10q-205 0 -313 145t-72 372t188.5 370.5t360.5 143.5h19q144 0 243 -72t132 -198l-121 -49q-58 198 -273 198h-19q-158 0 -267.5 -105.5t-138.5 -287.5q-29 -183 46.5 -290t233.5 -107h19q215 0 339 201l103 -50q-75 -125 -197 -198t-264 -73h-19z" />
    <glyph glyph-name="d" unicode="d" horiz-adv-x="1201" 
d="M543 -10q-132 0 -228 68t-137 186.5t-18 262.5q35 221 191 367.5t356 146.5h27q103 0 184.5 -42.5t132.5 -120.5l85 536h124l-221 -1394h-124l24 154q-75 -78 -171 -121t-198 -43h-27zM284 507q-28 -177 50.5 -286t231.5 -109h28q152 0 263.5 109t139.5 286
q28 176 -49 283.5t-230 107.5h-28q-153 0 -265.5 -107.5t-140.5 -283.5z" />
    <glyph glyph-name="e" unicode="e" horiz-adv-x="1074" 
d="M545 -10q-205 0 -313 145t-72 372q40 249 212 392q139 115 311 120q165 6 276 -94q135 -122 123 -347q-3 -55 -16 -115h-787q-14 -164 61.5 -258.5t223.5 -94.5h19q215 0 339 201l103 -50q-75 -125 -197 -198t-264 -73h-19zM299 580h660q4 126 -50.5 211t-140.5 105.5
t-178 -0.5t-173.5 -105.5t-117.5 -210.5z" />
    <glyph glyph-name="f" unicode="f" horiz-adv-x="790" 
d="M292 0l141 893h-242l19 118h242l18 115q21 135 100 206.5t198 71.5h14q114 0 181 -61l-63 -100q-33 17 -46 23.5t-36.5 12t-52.5 5.5h-14q-71 0 -107.5 -35.5t-50.5 -122.5l-18 -115h245l-19 -118h-245l-141 -893h-123z" />
    <glyph glyph-name="g" unicode="g" horiz-adv-x="1200" 
d="M501 -388q-183 0 -285 105.5t-91 287.5h123q-2 -132 67 -201t205 -69h28q326 0 390 411l1 6q-75 -78 -171 -121t-198 -43h-10q-202 0 -318.5 149t-81.5 368q35 221 190.5 367.5t355.5 146.5h27q103 0 185 -42.5t133 -120.5l24 157h124l-139 -878q-39 -248 -182 -385.5
t-349 -137.5h-28zM284 505q-28 -177 50 -286t231 -109h28q143 0 250 95.5t145 254.5l14 90q12 158 -64.5 252t-219.5 94h-28q-154 0 -266 -107.5t-140 -283.5z" />
    <glyph glyph-name="h" unicode="h" horiz-adv-x="1126" 
d="M162 0l221 1394h124l-77 -483q121 110 322 110q394 0 327 -421l-95 -600h-123l94 591q27 169 -22 239t-200 70q-154 0 -244.5 -95.5t-124.5 -309.5l-78 -495h-124z" />
    <glyph glyph-name="i" unicode="i" horiz-adv-x="442" 
d="M161 0l160 1011h123l-160 -1011h-123zM335 1232q5 33 32.5 56.5t60.5 23.5q34 0 54 -23.5t15 -56.5t-33 -56.5t-62 -23.5q-33 0 -52.5 23.5t-14.5 56.5z" />
    <glyph glyph-name="j" unicode="j" horiz-adv-x="449" 
d="M-40 -391q-119 0 -180 60l64 101q41 -25 65.5 -33.5t67.5 -8.5h13q72 0 108 35t50 123l178 1125h124l-178 -1125q-21 -135 -100 -206t-199 -71h-13zM343 1232q5 33 32.5 56.5t60.5 23.5q34 0 53.5 -23.5t14.5 -56.5t-32.5 -56.5t-61.5 -23.5q-33 0 -52.5 23.5t-14.5 56.5
z" />
    <glyph glyph-name="k" unicode="k" horiz-adv-x="1010" 
d="M162 0l221 1394h124l-139 -879l559 496h172l-436 -384l297 -627h-148l-251 536l-221 -195l-54 -341h-124z" />
    <glyph glyph-name="l" unicode="l" horiz-adv-x="448" 
d="M387 -6q-111 -17 -160.5 40.5t-30.5 182.5l187 1177h124l-186 -1173q-12 -74 4 -93.5t74 -15.5z" />
    <glyph glyph-name="m" unicode="m" horiz-adv-x="1579" 
d="M162 0l160 1011h124l-14 -90q111 100 259 100q201 0 257 -165q59 80 140 122.5t177 42.5q90 0 150.5 -34t88 -93.5t35 -141t-10.5 -177.5l-91 -575h-125l90 569q17 108 8 186q-11 77 -49 111t-123 34q-63 0 -119 -33q-133 -80 -171 -320l-87 -547h-124l94 591
q27 168 -12 238.5t-153 70.5q-58 0 -119 -35q-135 -86 -178 -355l-81 -510h-126z" />
    <glyph glyph-name="n" unicode="n" horiz-adv-x="1126" 
d="M162 0l160 1011h124l-16 -100q121 110 322 110q394 0 327 -421l-95 -600h-123l94 591q27 169 -22 239t-200 70q-154 0 -244.5 -95.5t-124.5 -309.5l-78 -495h-124z" />
    <glyph glyph-name="o" unicode="o" horiz-adv-x="1113" 
d="M545 -10q-205 0 -313 145t-72 372t188.5 370.5t360.5 143.5h19q208 0 314.5 -143.5t70.5 -370.5t-189 -372t-360 -145h-19zM284 507q-29 -183 46.5 -290t233.5 -107h19q159 0 268 107t138 290q29 182 -46.5 287.5t-233.5 105.5h-19q-158 0 -267.5 -105.5t-138.5 -287.5z
" />
    <glyph glyph-name="p" unicode="p" horiz-adv-x="1201" 
d="M101 -384l221 1395h124l-24 -154q76 78 172 121t198 43h26q201 0 309.5 -148t73.5 -368q-35 -221 -191 -368t-356 -147h-26q-103 0 -185 43t-133 121l-85 -538h-124zM364 505q-28 -177 49 -285t231 -108h27q154 0 266.5 108.5t140.5 284.5t-50.5 284.5t-232.5 108.5h-27
q-153 0 -264.5 -108.5t-139.5 -284.5z" />
    <glyph glyph-name="q" unicode="q" horiz-adv-x="1201" 
d="M939 154q-75 -78 -170.5 -121t-198.5 -43h-27q-199 0 -308.5 147t-74.5 368q35 220 190.5 368t356.5 148h27q102 0 184 -43t133 -120l24 153h124l-221 -1395h-124zM284 505q-28 -176 50.5 -284.5t231.5 -108.5h28q153 0 264 108t139 285q28 176 -49.5 284.5t-229.5 108.5
h-28q-153 0 -265.5 -108.5t-140.5 -284.5z" />
    <glyph glyph-name="r" unicode="r" horiz-adv-x="841" 
d="M162 0l160 1011h124l-16 -100q121 110 322 110q101 0 176 -29l-45 -117q-75 25 -150 25q-154 0 -244.5 -95.5t-124.5 -309.5l-78 -495h-124z" />
    <glyph glyph-name="s" unicode="s" horiz-adv-x="990" 
d="M507 -14q-82 0 -150.5 22t-119.5 65.5t-74 117.5t-10 170h126q-9 -140 54.5 -196.5t196.5 -56.5q111 0 182.5 39.5t83.5 114.5q12 76 -37 112t-214 72q-52 11 -93.5 24.5t-82.5 36.5t-66 52.5t-37 72.5t-4 96q19 122 131.5 202.5t263.5 80.5q91 0 159 -28.5t106 -78
t53.5 -111.5t9.5 -134h-125q-5 125 -56 177.5t-168 52.5q-97 0 -164.5 -41.5t-79.5 -117.5q-11 -69 38.5 -104t169.5 -60q184 -39 265 -107t61 -195q-20 -126 -138.5 -202t-280.5 -76z" />
    <glyph glyph-name="t" unicode="t" horiz-adv-x="687" 
d="M533 -12q-120 0 -176.5 71t-35.5 207l99 627h-229l19 118h229l60 381h124l-60 -381h234l-19 -118h-234l-99 -627q-13 -87 11.5 -122.5t95.5 -35.5h13q15 0 44 4.5t46 3.5l-19 -121q-11 0 -41.5 -3.5t-50.5 -3.5h-11z" />
    <glyph glyph-name="u" unicode="u" horiz-adv-x="1105" 
d="M535 -10q-395 0 -328 420l95 601h124l-93 -591q-27 -169 21.5 -239.5t199.5 -70.5q154 0 244 96t124 310l78 495h123l-160 -1011h-123l16 100q-121 -110 -321 -110z" />
    <glyph glyph-name="v" unicode="v" horiz-adv-x="1025" 
d="M464 0l-254 1011h136l197 -809l454 809h138l-574 -1011h-97z" />
    <glyph glyph-name="w" unicode="w" horiz-adv-x="1465" 
d="M345 0l-121 1011h131l91 -773l395 773h106l151 -771l335 771h128l-439 -1011h-110l-152 794l-407 -794h-108z" />
    <glyph glyph-name="x" unicode="x" horiz-adv-x="1021" 
d="M40 0l472 505l-311 506h155l251 -405l376 405h156l-471 -506l313 -505h-156l-250 406l-377 -406h-158z" />
    <glyph glyph-name="y" unicode="y" horiz-adv-x="1027" 
d="M186 -240q41 -31 70.5 -20.5t69.5 81.5l127 225l-243 965h136l197 -806l460 806h134l-706 -1240q-68 -118 -147 -148.5t-165 29.5z" />
    <glyph glyph-name="z" unicode="z" horiz-adv-x="944" 
d="M66 0l16 99l769 792h-644l19 120h812l-17 -105l-759 -786h635l-19 -120h-812z" />
    <glyph glyph-name="braceleft" unicode="{" horiz-adv-x="603" 
d="M473 -151q-128 0 -197 60.5t-48 192.5q8 53 53 201q39 127 51 200q11 67 -17.5 102.5t-113.5 31.5l20 125q84 -3 123 32.5t50 102.5q12 73 13 200q1 143 11 202q11 68 40.5 117.5t74 78t96.5 42t113 13.5h76l-19 -126h-78q-84 0 -124.5 -25.5t-51.5 -97.5q-4 -24 -8 -173
q-4 -158 -16 -231q-21 -130 -115 -196q38 -37 49.5 -91.5t3.5 -106.5q-13 -78 -58 -231q-43 -150 -46 -172q-12 -73 20 -99t116 -26h78l-20 -126h-76z" />
    <glyph glyph-name="bar" unicode="|" horiz-adv-x="548" 
d="M150 -376l311 1963h128l-311 -1963h-128z" />
    <glyph glyph-name="braceright" unicode="}" horiz-adv-x="603" 
d="M6 -151l20 126h78q83 0 122.5 26t51.5 99q6 40 10 172q2 154 15 231q19 129 116 195q-74 69 -54 199q14 82 59 231q38 134 44 173q12 72 -19.5 97.5t-114.5 25.5h-78l19 126h76q127 0 196.5 -60t49.5 -191q-10 -60 -54 -202q-40 -137 -50 -200q-11 -67 17 -102.5
t114 -32.5l-20 -125q-84 4 -123 -31t-50 -103q-10 -62 -14 -200q0 -134 -10 -201q-21 -132 -109.5 -192.5t-215.5 -60.5h-76z" />
    <glyph glyph-name="asciitilde" unicode="~" horiz-adv-x="1123" 
d="M196 430q14 152 81 229t170 77q58 0 106 -18t145 -75q80 -51 114.5 -65.5t70.5 -14.5q51 0 72.5 37t34.5 142h125q-15 -152 -82 -228.5t-172 -76.5q-58 0 -105 18t-143 76q-79 49 -114.5 64t-73.5 15q-49 0 -71 -38t-34 -142h-124z" />
    <glyph glyph-name="uni00A0" unicode="&#xa0;" horiz-adv-x="542" 
 />
    <glyph glyph-name="exclamdown" unicode="&#xa1;" horiz-adv-x="541" 
d="M153 -300l194 1174h123l-178 -1174h-139zM353 1026q4 33 31.5 56.5t60.5 23.5q34 0 54 -23.5t15 -56.5t-33 -56.5t-61 -23.5q-32 0 -52 24t-15 56z" />
    <glyph glyph-name="cent" unicode="&#xa2;" horiz-adv-x="1117" 
d="M504 -22q-178 25 -272 176t-56 386q36 226 177.5 378t327.5 183l24 148h128l-23 -144q166 -16 255.5 -130.5t70.5 -286.5h-127q14 266 -219 292l-139 -878q111 18 190.5 88.5t113.5 190.5h127q-42 -167 -165.5 -275.5t-285.5 -128.5l-23 -146h-128zM309 549
q-31 -195 31 -307t184 -137l137 869q-127 -30 -225.5 -138.5t-126.5 -286.5z" />
    <glyph glyph-name="sterling" unicode="&#xa3;" horiz-adv-x="1033" 
d="M88 114q61 13 114.5 37t102.5 61.5t82 93t44 122.5q9 57 -1.5 109.5t-40.5 123.5h-196l19 125h123q-37 124 -18 240q26 167 155 274t296 107q102 0 174.5 -36t107.5 -97.5t48 -144t-4 -176.5h-127q24 169 -29 249t-194 80q-111 0 -195 -68.5t-102 -185.5
q-17 -110 37 -242h459l-19 -125h-385q41 -125 24 -233q-30 -182 -186 -302h586l-20 -126h-873z" />
    <glyph glyph-name="currency" unicode="&#xa4;" horiz-adv-x="1223" 
d="M313 183l-76 91l129 111q-51 98 -32 223q21 126 103 224l-94 111l104 89l94 -110q109 67 227 67t205 -67l128 110l77 -89l-128 -111q51 -97 30 -224q-20 -128 -101 -223l93 -111l-105 -91l-93 111q-107 -67 -227 -67t-205 67zM465 608q-18 -115 36.5 -185t165.5 -70
t187.5 70t94.5 185t-36.5 185t-164.5 70t-187.5 -70t-95.5 -185z" />
    <glyph glyph-name="yen" unicode="&#xa5;" horiz-adv-x="1190" 
d="M533 0l66 415h-345l20 125h345l9 62h-345l20 127h287l-311 651h159l281 -608l474 608h156l-518 -651h290l-20 -127h-346l-9 -62h346l-20 -125h-346l-66 -415h-127z" />
    <glyph glyph-name="brokenbar" unicode="&#xa6;" horiz-adv-x="548" 
d="M162 -300l115 724h128l-115 -724h-128zM314 657l115 723h128l-115 -723h-128z" />
    <glyph glyph-name="section" unicode="&#xa7;" horiz-adv-x="1150" 
d="M513 -326q-173 0 -264.5 97.5t-90.5 297.5h127q7 -145 66.5 -207.5t185.5 -62.5q110 0 184.5 45t86.5 126q7 47 0.5 82t-38 63t-92 51t-161.5 45q-50 11 -97 30t-92.5 50t-76.5 69t-46.5 91t-5.5 114q18 111 86.5 186.5t168.5 115.5q-100 88 -77 230q22 141 133 225.5
t264 84.5q74 0 132 -20t95.5 -54t61.5 -82.5t33 -103t6 -117.5h-126q-6 136 -57 194t-167 58q-98 0 -163.5 -45t-79.5 -134q-15 -93 51.5 -142t193.5 -72q189 -36 291 -124t79 -236q-18 -113 -90.5 -189.5t-178.5 -115.5q111 -90 85 -250q-21 -136 -142.5 -218t-284.5 -82z
M330 571q-14 -91 55.5 -150t188.5 -84q57 -11 110 -27q76 2 138.5 23t110 70.5t58.5 122.5q15 93 -54 147.5t-238 89.5q-25 3 -93 23q-246 -27 -276 -215z" />
    <glyph glyph-name="dieresis" unicode="&#xa8;" horiz-adv-x="746" 
d="M741 1573q-34 0 -53.5 23.5t-14.5 56.5t33 57t61 24t53 -24t15 -57t-33 -56.5t-61 -23.5zM437 1653q5 33 33 57t61 24q32 0 52 -24t15 -57t-33 -56.5t-60 -23.5q-34 0 -53.5 23.5t-14.5 56.5z" />
    <glyph glyph-name="copyright" unicode="&#xa9;" horiz-adv-x="1668" 
d="M828 -30q-149 0 -274 58.5t-205.5 157t-115.5 235.5t-11 289q32 202 154.5 371.5t304.5 268t381 98.5q120 0 225 -37.5t182.5 -104.5t131 -159.5t70 -202.5t-0.5 -234q-32 -203 -155 -373t-305.5 -268.5t-381.5 -98.5zM349 710q-27 -171 29 -311t180 -220t291 -80t316 80
t249.5 220t127.5 311q27 170 -29 310.5t-180 220.5t-291 80t-316 -80t-249.5 -220t-127.5 -311zM572 710q31 195 159.5 315t288.5 120q150 0 235 -90.5t63 -254.5h-124q3 111 -41.5 165.5t-151.5 54.5q-116 0 -197.5 -88t-102.5 -220q-22 -138 31 -222.5t163 -84.5
q105 0 170 51.5t99 166.5h128q-43 -167 -156 -255t-267 -88q-152 0 -239.5 119t-57.5 311z" />
    <glyph glyph-name="ordfeminine" unicode="&#xaa;" horiz-adv-x="789" 
d="M428 658q-117 0 -177.5 61t-44.5 164q17 110 107 172q44 28 95.5 37.5t127.5 13.5l201 10q20 171 -165 171q-70 0 -119 -29t-111 -106l-74 68q71 92 147.5 133.5t173.5 41.5q136 0 208.5 -77t49.5 -217l-69 -436h-113l13 79q-114 -86 -250 -86zM318 883q-9 -59 22 -88
t108 -29q96 0 175 63t94 160l3 19l-195 -9q-112 -3 -157 -32q-23 -15 -34 -33t-16 -51z" />
    <glyph glyph-name="guillemotleft" unicode="&#xab;" horiz-adv-x="1175" 
d="M624 154l-235 355l348 355h167l-349 -355l236 -355h-167zM614 509l348 355h166l-348 -355l235 -355h-166z" />
    <glyph glyph-name="logicalnot" unicode="&#xac;" horiz-adv-x="1001" 
d="M775 393l40 253h-617l20 125h745l-60 -378h-128z" />
    <glyph glyph-name="registered" unicode="&#xae;" horiz-adv-x="1015" 
d="M610 646q-191 0 -295 123.5t-73 315.5q30 189 173 311.5t334 122.5q190 0 294 -123t74 -311q-31 -192 -173.5 -315.5t-333.5 -123.5zM372 1085q-23 -144 47 -229t211 -85t238 85t120 229q23 141 -47.5 225t-211.5 84t-237.5 -84t-119.5 -225zM475 845l73 462h173
q75 0 114.5 -39t27.5 -110q-14 -89 -88 -128l78 -185h-146l-67 163h-14l-26 -163h-125zM646 1134h48q31 0 36.5 3t7.5 21q3 18 -1.5 21t-35.5 3h-48z" />
    <glyph glyph-name="macron" unicode="&#xaf;" horiz-adv-x="726" 
d="M439 1585l20 126h350l-20 -126h-350z" />
    <glyph glyph-name="degree" unicode="&#xb0;" horiz-adv-x="710" 
d="M504 943q-101 0 -157.5 65.5t-40.5 166.5q16 100 93.5 166t178.5 66t157.5 -66t40.5 -166q-16 -101 -93.5 -166.5t-178.5 -65.5zM436 1175q-16 -107 88 -107q107 0 123 107q18 107 -89 107q-104 0 -122 -107z" />
    <glyph glyph-name="plusminus" unicode="&#xb1;" horiz-adv-x="1029" 
d="M480 182l62 394h-355l20 126h355l63 394h127l-63 -394h355l-20 -126h-355l-62 -394h-127zM96 0l20 126h837l-20 -126h-837z" />
    <glyph glyph-name="uni00B2" unicode="&#xb2;" horiz-adv-x="904" 
d="M308 916l12 78l337 270q83 66 125.5 112.5t55.5 76.5t20 76q22 143 -133 143q-78 0 -131.5 -42t-76.5 -121l-9 -55h-120l21 62q31 117 124 191t209 74q129 0 188.5 -72.5t42.5 -179.5q-13 -85 -68.5 -163.5t-178.5 -175.5l-208 -166h412l-17 -108h-605z" />
    <glyph glyph-name="uni00B3" unicode="&#xb3;" horiz-adv-x="899" 
d="M587 908q-150 0 -219.5 90t-30.5 226h107q-30 -101 10 -154t150 -53q97 0 153 41t68 117q11 72 -32 110.5t-140 38.5q-42 0 -96 -7l14 91l257 262h-407l17 111h579l-12 -79l-267 -271q102 -19 154 -89.5t37 -166.5q-19 -118 -114 -192.5t-228 -74.5z" />
    <glyph glyph-name="acute" unicode="&#xb4;" horiz-adv-x="943" 
d="M651 1511l206 292h156l-230 -292h-132z" />
    <glyph glyph-name="paragraph" unicode="&#xb6;" horiz-adv-x="1122" 
d="M598 600q-75 0 -107 2q-104 6 -173 62.5t-93 141t-8 185.5q25 155 132 266.5t265 120.5q33 2 108 2h409l-252 -1587h-127l232 1463h-154l-232 -1463h-128z" />
    <glyph glyph-name="periodcentered" unicode="&#xb7;" horiz-adv-x="449" 
d="M308 530q-36 0 -56 25t-15 60q6 36 34 60.5t64 24.5q37 0 57 -24.5t14 -60.5q-5 -35 -33.5 -60t-64.5 -25z" />
    <glyph glyph-name="cedilla" unicode="&#xb8;" horiz-adv-x="914" 
d="M329 -429q-94 0 -136 39l24 150q43 -41 64 -52t68 -11q55 0 81.5 16t32.5 55q8 48 -32 61.5t-172 -0.5l179 270h144l-105 -155q64 -17 95.5 -61t19.5 -115q-10 -66 -54.5 -112.5t-98 -65.5t-110.5 -19z" />
    <glyph glyph-name="uni00B9" unicode="&#xb9;" horiz-adv-x="585" 
d="M426 925l111 702l-223 -126l21 135l257 143h85l-135 -854h-116z" />
    <glyph glyph-name="ordmasculine" unicode="&#xba;" horiz-adv-x="814" 
d="M507 669q-147 0 -225 104t-52 265t136 264t258 103h12q150 0 226 -103t50 -264q-25 -161 -134.5 -265t-258.5 -104h-12zM342 1038q-19 -122 29 -190.5t153 -68.5h12q106 0 175.5 68.5t88.5 190.5q19 121 -29 188.5t-153 67.5h-12q-105 0 -175 -67.5t-89 -188.5z" />
    <glyph glyph-name="guillemotright" unicode="&#xbb;" horiz-adv-x="1175" 
d="M433 154l350 355l-237 355h166l236 -355l-349 -355h-166zM208 154l349 355l-236 355h165l237 -355l-350 -355h-165z" />
    <glyph glyph-name="questiondown" unicode="&#xbf;" horiz-adv-x="1036" 
d="M462 -336q-126 0 -210.5 51.5t-116 135.5t-15.5 189q34 207 248 383q78 65 120.5 108t70.5 95.5t39.5 100.5t24.5 139h124q-13 -83 -24.5 -133.5t-31 -102.5t-51.5 -95t-78 -90t-118 -108q-91 -76 -135.5 -145t-58.5 -152q-19 -123 41 -186.5t191 -63.5q152 0 244.5 92.5
t121.5 261.5h125q-26 -209 -170 -344.5t-341 -135.5zM627 1017q5 32 33 56.5t60 24.5q33 0 53 -24t15 -57t-32.5 -56.5t-61.5 -23.5q-32 0 -52 23.5t-15 56.5z" />
    <glyph glyph-name="Agrave" unicode="&#xc0;" horiz-adv-x="1161" 
d="M40 0l707 1394h107l267 -1394h-134l-85 451h-501l-227 -451h-134zM462 572h420l-114 606zM649 1785h159l106 -263h-134z" />
    <glyph glyph-name="Aacute" unicode="&#xc1;" horiz-adv-x="1161" 
d="M40 0l707 1394h107l267 -1394h-134l-85 451h-501l-227 -451h-134zM462 572h420l-114 606zM726 1522l190 263h158l-215 -263h-133z" />
    <glyph glyph-name="Acircumflex" unicode="&#xc2;" horiz-adv-x="1161" 
d="M40 0l707 1394h107l267 -1394h-134l-85 451h-501l-227 -451h-134zM462 572h420l-114 606zM598 1522l223 263h89l140 -263h-150l-59 115l-96 -115h-147z" />
    <glyph glyph-name="Atilde" unicode="&#xc3;" horiz-adv-x="1161" 
d="M40 0l707 1394h107l267 -1394h-134l-85 451h-501l-227 -451h-134zM462 572h420l-114 606zM627 1577q-2 70 34 116.5t99 46.5q40 0 116 -28q41 -14 58 -17q6 31 7 37h117q5 -75 -32 -119t-97 -44q-42 0 -118 26q-44 17 -58 19q-6 -31 -7 -37h-119z" />
    <glyph glyph-name="Adieresis" unicode="&#xc4;" horiz-adv-x="1161" 
d="M40 0l707 1394h107l267 -1394h-134l-85 451h-501l-227 -451h-134zM462 572h420l-114 606zM650 1653q5 33 32.5 57t60.5 24t53 -24t15 -57t-33 -56.5t-61 -23.5t-52.5 23.5t-14.5 56.5zM886 1653q5 33 32.5 57t60.5 24t53 -24t15 -57t-33 -56.5t-61 -23.5q-32 0 -52 23.5
t-15 56.5z" />
    <glyph glyph-name="Aring" unicode="&#xc5;" horiz-adv-x="1161" 
d="M40 0l707 1394h107l267 -1394h-134l-85 451h-501l-227 -451h-134zM462 572h420l-114 606zM682 1653q11 71 66 114t121 43q65 0 106 -43t30 -114q-12 -70 -66.5 -114t-119.5 -44q-66 0 -107.5 44t-29.5 114zM814 1653q-3 -20 1.5 -26t23.5 -6t25.5 6t9.5 26t-1.5 26
t-23.5 6t-25.5 -6t-9.5 -26z" />
    <glyph glyph-name="AE" unicode="&#xc6;" horiz-adv-x="1636" 
d="M26 0l707 1394h1034l-20 -122h-773l-80 -508h707l-19 -122h-707l-83 -520h773l-19 -122h-897l71 451h-332l-227 -451h-135zM449 572h291l110 694h-51z" />
    <glyph glyph-name="Ccedilla" unicode="&#xc7;" horiz-adv-x="1349" 
d="M587 -424q-93 0 -136 37l24 152q42 -42 64 -53t68 -11q54 0 81 16.5t33 55.5q8 48 -31.5 61.5t-171.5 -0.5l102 159q-242 27 -360 215t-70 488q34 215 137.5 376.5t256.5 247.5t334 86h20q200 0 331 -104.5t170 -288.5l-122 -43q-33 153 -133.5 232.5t-265.5 79.5h-20
q-230 0 -385 -155t-199 -431q-43 -274 63 -429t336 -155h20q331 0 497 312l109 -43q-93 -172 -243.5 -275t-335.5 -115l-26 -41q65 -18 97 -62.5t20 -114.5q-15 -97 -94 -147t-170 -50z" />
    <glyph glyph-name="Egrave" unicode="&#xc8;" horiz-adv-x="1157" 
d="M170 0l221 1394h897l-20 -122h-773l-80 -508h708l-19 -122h-708l-83 -520h773l-19 -122h-897zM653 1785h158l107 -263h-133z" />
    <glyph glyph-name="Eacute" unicode="&#xc9;" horiz-adv-x="1157" 
d="M170 0l221 1394h897l-20 -122h-773l-80 -508h708l-19 -122h-708l-83 -520h773l-19 -122h-897zM731 1522l189 263h158l-214 -263h-133z" />
    <glyph glyph-name="Ecircumflex" unicode="&#xca;" horiz-adv-x="1157" 
d="M170 0l221 1394h897l-20 -122h-773l-80 -508h708l-19 -122h-708l-83 -520h773l-19 -122h-897zM602 1522l223 263h88l141 -263h-151l-58 115l-95 -115h-148z" />
    <glyph glyph-name="Edieresis" unicode="&#xcb;" horiz-adv-x="1157" 
d="M170 0l221 1394h897l-20 -122h-773l-80 -508h708l-19 -122h-708l-83 -520h773l-19 -122h-897zM651 1653q5 33 32.5 57t60.5 24t52.5 -24.5t14.5 -56.5q-5 -33 -33 -56.5t-60 -23.5q-33 0 -52.5 23.5t-14.5 56.5zM886 1653q5 33 33 57t61 24t52.5 -24.5t14.5 -56.5
q-5 -33 -32.5 -56.5t-60.5 -23.5q-32 0 -52.5 23.5t-15.5 56.5z" />
    <glyph glyph-name="Igrave" unicode="&#xcc;" horiz-adv-x="365" 
d="M56 0l221 1394h124l-221 -1394h-124zM185 1785h158l107 -263h-133z" />
    <glyph glyph-name="Iacute" unicode="&#xcd;" horiz-adv-x="365" 
d="M191 0l221 1394h123l-221 -1394h-123zM397 1522l190 263h159l-217 -263h-132z" />
    <glyph glyph-name="Icircumflex" unicode="&#xce;" horiz-adv-x="245" 
d="M60 0l221 1394h125l-221 -1394h-125zM139 1522l223 263h89l139 -263h-150l-58 115l-95 -115h-148z" />
    <glyph glyph-name="Idieresis" unicode="&#xcf;" horiz-adv-x="246" 
d="M62 0l221 1394h123l-221 -1394h-123zM187 1653q5 33 33 57t61 24t53 -24t15 -57t-33 -56.5t-61 -23.5t-53 23.5t-15 56.5zM424 1653q5 33 33 57t61 24q32 0 52 -24t15 -57t-33 -56.5t-60 -23.5q-34 0 -53.5 23.5t-14.5 56.5z" />
    <glyph glyph-name="Eth" unicode="&#xd0;" horiz-adv-x="1237" 
d="M154 0l96 606h-104l20 127h104l105 661h303q331 0 486 -186.5t102 -521.5q-53 -329 -263.5 -507.5t-547.5 -178.5h-301zM295 122h175q291 0 457 140t211 424q46 291 -76.5 438.5t-405.5 147.5h-179l-85 -539h360l-20 -127h-360z" />
    <glyph glyph-name="Ntilde" unicode="&#xd1;" horiz-adv-x="1282" 
d="M170 0l221 1394h120l516 -1152l183 1152h123l-221 -1394h-122l-514 1148l-182 -1148h-124zM686 1577q-2 70 34 116.5t99 46.5q40 0 116 -28q41 -14 58 -17q6 31 7 37h117q5 -75 -32 -119t-97 -44q-42 0 -118 26q-44 17 -58 19q-6 -31 -7 -37h-119z" />
    <glyph glyph-name="Ograve" unicode="&#xd2;" horiz-adv-x="1411" 
d="M692 -17q-275 0 -414.5 192.5t-88.5 514.5q34 215 137.5 376.5t256.5 247.5t334 86h20q279 0 416 -195.5t87 -514.5q-50 -318 -249 -512.5t-479 -194.5h-20zM313 690q-43 -274 63 -429t336 -155h20q232 0 387 155t198 429q44 276 -62 431t-338 155h-20q-230 0 -385 -155
t-199 -431zM779 1785h157l106 -263h-133z" />
    <glyph glyph-name="Oacute" unicode="&#xd3;" horiz-adv-x="1411" 
d="M692 -17q-275 0 -414.5 192.5t-88.5 514.5q34 215 137.5 376.5t256.5 247.5t334 86h20q279 0 416 -195.5t87 -514.5q-50 -318 -249 -512.5t-479 -194.5h-20zM313 690q-43 -274 63 -429t336 -155h20q232 0 387 155t198 429q44 276 -62 431t-338 155h-20q-230 0 -385 -155
t-199 -431zM855 1522l190 263h158l-215 -263h-133z" />
    <glyph glyph-name="Ocircumflex" unicode="&#xd4;" horiz-adv-x="1411" 
d="M692 -17q-275 0 -414.5 192.5t-88.5 514.5q34 215 137.5 376.5t256.5 247.5t334 86h20q279 0 416 -195.5t87 -514.5q-50 -318 -249 -512.5t-479 -194.5h-20zM313 690q-43 -274 63 -429t336 -155h20q232 0 387 155t198 429q44 276 -62 431t-338 155h-20q-230 0 -385 -155
t-199 -431zM727 1522l223 263h89l139 -263h-150l-58 115l-95 -115h-148z" />
    <glyph glyph-name="Otilde" unicode="&#xd5;" horiz-adv-x="1411" 
d="M692 -17q-275 0 -414.5 192.5t-88.5 514.5q34 215 137.5 376.5t256.5 247.5t334 86h20q279 0 416 -195.5t87 -514.5q-50 -318 -249 -512.5t-479 -194.5h-20zM313 690q-43 -274 63 -429t336 -155h20q232 0 387 155t198 429q44 276 -62 431t-338 155h-20q-230 0 -385 -155
t-199 -431zM756 1577q-2 70 34 116.5t99 46.5q40 0 116 -28q41 -14 58 -17q6 31 7 37h117q5 -75 -32 -119t-97 -44q-42 0 -118 26q-44 17 -58 19q-6 -31 -7 -37h-119z" />
    <glyph glyph-name="Odieresis" unicode="&#xd6;" horiz-adv-x="1411" 
d="M692 -17q-275 0 -414.5 192.5t-88.5 514.5q34 215 137.5 376.5t256.5 247.5t334 86h20q279 0 416 -195.5t87 -514.5q-50 -318 -249 -512.5t-479 -194.5h-20zM313 690q-43 -274 63 -429t336 -155h20q232 0 387 155t198 429q44 276 -62 431t-338 155h-20q-230 0 -385 -155
t-199 -431zM774 1653q5 33 32.5 57t60.5 24t53.5 -24t15.5 -57t-33.5 -56.5t-61.5 -23.5t-52.5 23.5t-14.5 56.5zM1010 1653q5 33 32.5 57t60.5 24t53 -24t15 -57t-32.5 -56.5t-61.5 -23.5q-32 0 -52 23.5t-15 56.5z" />
    <glyph glyph-name="multiply" unicode="&#xd7;" horiz-adv-x="1019" 
d="M269 258l-76 89l329 283l-239 283l103 90l238 -283l329 283l75 -90l-328 -283l238 -283l-103 -89l-239 283z" />
    <glyph glyph-name="Oslash" unicode="&#xd8;" horiz-adv-x="1468" 
d="M716 -17q-260 0 -401 174l-140 -121l-75 90l153 133q-79 177 -40 431q34 215 137.5 376.5t256.5 247.5t334 86h18q132 0 236 -47t172 -134l145 126l75 -90l-161 -137q77 -181 38 -428q-50 -318 -250 -512.5t-480 -194.5h-18zM336 690q-31 -201 22 -342l907 783
q-107 145 -326 145h-18q-231 0 -386 -155t-199 -431zM416 244q109 -138 320 -138h18q233 0 388 155t198 429q32 194 -18 337z" />
    <glyph glyph-name="Ugrave" unicode="&#xd9;" 
d="M234 505l141 889h122l-139 -876q-35 -220 73 -338q83 -91 216 -86q137 5 249 109q129 121 161 325l137 866h125l-138 -868q-41 -261 -220 -413q-143 -122 -319 -131q-169 -9 -284 89q-139 117 -133 338q1 47 9 96zM691 1785h158l106 -263h-133z" />
    <glyph glyph-name="Uacute" unicode="&#xda;" 
d="M234 505l141 889h122l-139 -876q-35 -220 73 -338q83 -91 216 -86q137 5 249 109q129 121 161 325l137 866h125l-138 -868q-41 -261 -220 -413q-143 -122 -319 -131q-169 -9 -284 89q-139 117 -133 338q1 47 9 96zM769 1522l190 263h157l-216 -263h-131z" />
    <glyph glyph-name="Ucircumflex" unicode="&#xdb;" 
d="M234 505l141 889h122l-139 -876q-35 -220 73 -338q83 -91 216 -86q137 5 249 109q129 121 161 325l137 866h125l-138 -868q-41 -261 -220 -413q-143 -122 -319 -131q-169 -9 -284 89q-139 117 -133 338q1 47 9 96zM640 1522l224 263h88l139 -263h-150l-59 115l-94 -115
h-148z" />
    <glyph glyph-name="Udieresis" unicode="&#xdc;" 
d="M234 505l141 889h122l-139 -876q-35 -220 73 -338q83 -91 216 -86q137 5 249 109q129 121 161 325l137 866h125l-138 -868q-41 -261 -220 -413q-143 -122 -319 -131q-169 -9 -284 89q-139 117 -133 338q1 47 9 96zM690 1653q5 33 32.5 57t60.5 24t53 -24t15 -57
t-32.5 -56.5t-61.5 -23.5q-33 0 -52.5 23.5t-14.5 56.5zM926 1653q5 33 33 57t61 24t52 -24t14 -57t-32.5 -56.5t-59.5 -23.5q-33 0 -53 23.5t-15 56.5z" />
    <glyph glyph-name="Yacute" unicode="&#xdd;" horiz-adv-x="1150" 
d="M513 0l62 419l-334 975h142l278 -827l547 827h143l-652 -974l-62 -420h-124zM718 1522l191 263h158l-216 -263h-133z" />
    <glyph glyph-name="Thorn" unicode="&#xde;" horiz-adv-x="1174" 
d="M170 0l219 1380h124l-34 -214h347q219 0 320.5 -99.5t70.5 -290.5v-2q-31 -191 -163.5 -290t-351.5 -99h-347l-61 -385h-124zM374 505h347q173 0 260.5 64.5t110.5 206.5q22 140 -45.5 204t-240.5 64h-347z" />
    <glyph glyph-name="germandbls" unicode="&#xdf;" horiz-adv-x="1133" 
d="M676 -8q-85 0 -196 7.5t-139 23.5l16 106q218 -3 375 -10q207 12 231 166q9 55 -12.5 101.5t-98.5 129.5q-74 79 -95.5 135t-9.5 129t50.5 129t138.5 137q103 82 139.5 128.5t44.5 101.5q13 84 -41 126t-173 42q-191 0 -294 -74t-137 -227q-11 -47 -21 -109l-164 -1034
h-128l163 1030q8 53 23 122q44 198 193 307t386 110q171 1 258 -79t65 -219q-13 -84 -73.5 -162t-176.5 -168q-66 -50 -90.5 -83t-31.5 -78q-7 -44 7 -77t64 -83q87 -90 123.5 -167t22.5 -162q-22 -141 -134.5 -220t-284.5 -79z" />
    <glyph glyph-name="agrave" unicode="&#xe0;" horiz-adv-x="1028" 
d="M464 -10q-163 0 -246 83.5t-61 225.5q25 153 146 232q59 38 132.5 53t177.5 19l311 14q43 283 -253 283q-104 0 -178.5 -41t-155.5 -144l-83 78q96 120 200 174t236 54q189 0 288.5 -106.5t68.5 -301.5l-97 -613h-124l22 140q-78 -70 -181 -110t-203 -40zM280 299
q-14 -93 37 -142t169 -49q144 0 266 98t145 244l8 49l-303 -13q-169 -5 -237 -50q-37 -24 -57 -55.5t-28 -81.5zM543 1521h157l112 -292h-131z" />
    <glyph glyph-name="aacute" unicode="&#xe1;" horiz-adv-x="1028" 
d="M464 -10q-163 0 -246 83.5t-61 225.5q25 153 146 232q59 38 132.5 53t177.5 19l311 14q43 283 -253 283q-104 0 -178.5 -41t-155.5 -144l-83 78q96 120 200 174t236 54q189 0 288.5 -106.5t68.5 -301.5l-97 -613h-124l22 140q-78 -70 -181 -110t-203 -40zM280 299
q-14 -93 37 -142t169 -49q144 0 266 98t145 244l8 49l-303 -13q-169 -5 -237 -50q-37 -24 -57 -55.5t-28 -81.5zM651 1229l205 292h156l-229 -292h-132z" />
    <glyph glyph-name="acircumflex" unicode="&#xe2;" horiz-adv-x="1028" 
d="M464 -10q-163 0 -246 83.5t-61 225.5q25 153 146 232q59 38 132.5 53t177.5 19l311 14q43 283 -253 283q-104 0 -178.5 -41t-155.5 -144l-83 78q96 120 200 174t236 54q189 0 288.5 -106.5t68.5 -301.5l-97 -613h-124l22 140q-78 -70 -181 -110t-203 -40zM280 299
q-14 -93 37 -142t169 -49q144 0 266 98t145 244l8 49l-303 -13q-169 -5 -237 -50q-37 -24 -57 -55.5t-28 -81.5zM528 1229l218 292h93l127 -292h-146l-54 132l-94 -132h-144z" />
    <glyph glyph-name="atilde" unicode="&#xe3;" horiz-adv-x="1028" 
d="M464 -10q-163 0 -246 83.5t-61 225.5q25 153 146 232q59 38 132.5 53t177.5 19l311 14q43 283 -253 283q-104 0 -178.5 -41t-155.5 -144l-83 78q96 120 200 174t236 54q189 0 288.5 -106.5t68.5 -301.5l-97 -613h-124l22 140q-78 -70 -181 -110t-203 -40zM280 299
q-14 -93 37 -142t169 -49q144 0 266 98t145 244l8 49l-303 -13q-90 -4 -144 -14t-93 -36q-37 -24 -57 -55.5t-28 -81.5zM576 1323q-2 70 33.5 116.5t98.5 46.5q41 0 117 -28q38 -14 58 -17q6 31 7 37h117q5 -75 -32 -119t-98 -44q-40 0 -118 26q-42 17 -58 19q-2 -18 -6 -37
h-119z" />
    <glyph glyph-name="adieresis" unicode="&#xe4;" horiz-adv-x="1028" 
d="M464 -10q-163 0 -246 83.5t-61 225.5q25 153 146 232q60 39 134.5 54t176.5 18l310 14q43 283 -253 283q-104 0 -178.5 -41t-155.5 -144l-83 78q96 120 200 174t236 54q189 0 288.5 -106.5t68.5 -301.5l-97 -613h-124l22 140q-78 -70 -181 -110t-203 -40zM280 299
q-14 -93 37 -142t169 -49q144 0 266 98t145 244l8 49l-303 -13q-88 -3 -143 -13.5t-94 -36.5q-37 -24 -57 -55.5t-28 -81.5zM571 1373q6 34 33 57.5t61 23.5q33 0 53 -23.5t14 -57.5q-5 -32 -32 -56t-60 -24t-53.5 23.5t-15.5 56.5zM808 1373q6 34 33 57.5t61 23.5
q33 0 52.5 -24t13.5 -57q-5 -32 -32 -56t-59 -24q-33 0 -53.5 23.5t-15.5 56.5z" />
    <glyph glyph-name="aring" unicode="&#xe5;" horiz-adv-x="1028" 
d="M464 -10q-163 0 -246 83.5t-61 225.5q25 153 146 232q59 38 132.5 53t177.5 19l311 14q43 283 -253 283q-104 0 -178.5 -41t-155.5 -144l-83 78q96 120 200 174t236 54q189 0 288.5 -106.5t68.5 -301.5l-97 -613h-124l22 140q-78 -70 -181 -110t-203 -40zM280 299
q-14 -93 37 -142t169 -49q144 0 266 98t145 244l8 49l-303 -13q-169 -5 -237 -50q-37 -24 -57 -55.5t-28 -81.5zM618 1373q12 71 66 115.5t120 44.5q67 0 106.5 -44.5t27.5 -115.5q-11 -71 -64.5 -114.5t-120.5 -43.5q-66 0 -106 43.5t-29 114.5zM749 1373q-3 -21 1.5 -27.5
t22.5 -6.5q19 0 26 6.5t10 27.5q4 21 -1 27.5t-24 6.5q-18 0 -24.5 -6.5t-10.5 -27.5z" />
    <glyph glyph-name="ae" unicode="&#xe6;" horiz-adv-x="1821" 
d="M464 -10q-163 0 -246 83.5t-61 225.5q25 153 146 232q60 39 134.5 54t176.5 18l310 14q43 283 -253 283q-104 0 -178.5 -41t-155.5 -144l-83 78q96 120 200 174t236 54q131 0 222.5 -53.5t124.5 -154.5q42 54 95 95t109 65.5t115.5 37t115.5 8.5t109.5 -21t97 -50t78 -78
t52.5 -107t21 -136t-17 -164h-787q-14 -164 62 -258.5t224 -94.5h19q217 0 338 201l105 -50q-77 -125 -198.5 -198t-263.5 -73h-19q-135 0 -230.5 65.5t-135.5 181.5q-90 -118 -215 -182.5t-248 -64.5zM280 299q-14 -93 37 -142t169 -49q144 0 266 98t145 244l8 49l-303 -13
q-88 -3 -143 -13.5t-94 -36.5q-37 -24 -57 -55.5t-28 -81.5zM1047 580h659q4 126 -50.5 211t-140 105.5t-177.5 -0.5t-173.5 -105.5t-117.5 -210.5z" />
    <glyph glyph-name="ccedilla" unicode="&#xe7;" horiz-adv-x="1064" 
d="M404 -429q-91 0 -137 37l24 150q45 -40 66 -50.5t67 -10.5q55 0 81.5 16t32.5 55q8 48 -31.5 61.5t-172.5 -0.5l114 171q-161 34 -240 171.5t-48 335.5q36 227 188.5 370.5t360.5 143.5h19q144 0 243 -72t132 -198l-121 -49q-58 198 -273 198h-19q-158 0 -267.5 -105.5
t-138.5 -287.5q-29 -183 46.5 -290t233.5 -107h19q215 0 339 201l103 -50q-139 -230 -417 -235l-55 -82q64 -17 95.5 -61t19.5 -115q-10 -66 -54.5 -112.5t-98.5 -65.5t-111 -19z" />
    <glyph glyph-name="egrave" unicode="&#xe8;" horiz-adv-x="1074" 
d="M545 -10q-205 0 -313 145t-72 372q35 223 184.5 366t354.5 148q140 -3 236 -75t130.5 -198t0.5 -285h-787q-14 -164 61.5 -258.5t223.5 -94.5h19q215 0 339 201l103 -50q-75 -125 -197 -198t-264 -73h-19zM299 580h660q4 148 -69 232t-210 88q-137 -4 -237.5 -88.5
t-143.5 -231.5zM566 1521h156l114 -292h-133z" />
    <glyph glyph-name="eacute" unicode="&#xe9;" horiz-adv-x="1074" 
d="M545 -10q-205 0 -313 145t-72 372q35 223 184.5 366t354.5 148q140 -3 236 -75t130.5 -198t0.5 -285h-787q-14 -164 61.5 -258.5t223.5 -94.5h19q215 0 339 201l103 -50q-75 -125 -197 -198t-264 -73h-19zM299 580h660q4 148 -69 232t-210 88q-137 -4 -237.5 -88.5
t-143.5 -231.5zM638 1229l206 292h155l-230 -292h-131z" />
    <glyph glyph-name="ecircumflex" unicode="&#xea;" horiz-adv-x="1074" 
d="M545 -10q-205 0 -313 145t-72 372q35 223 184.5 366t354.5 148q140 -3 236 -75t130.5 -198t0.5 -285h-787q-14 -164 61.5 -258.5t223.5 -94.5h19q215 0 339 201l103 -50q-75 -125 -197 -198t-264 -73h-19zM299 580h660q4 148 -69 232t-210 88q-137 -4 -237.5 -88.5
t-143.5 -231.5zM515 1229l218 292h93l127 -292h-146l-54 132l-95 -132h-143z" />
    <glyph glyph-name="edieresis" unicode="&#xeb;" horiz-adv-x="1074" 
d="M545 -10q-205 0 -313 145t-72 372q35 223 184.5 366t354.5 148q140 -3 236 -75t130.5 -198t0.5 -285h-787q-14 -164 61.5 -258.5t223.5 -94.5h19q215 0 339 201l103 -50q-75 -125 -197 -198t-264 -73h-19zM299 580h660q4 148 -69 232t-210 88q-137 -4 -237.5 -88.5
t-143.5 -231.5zM558 1373q6 34 33 57.5t60 23.5t53.5 -24t14.5 -57q-5 -32 -32.5 -56t-60.5 -24t-53 23.5t-15 56.5zM794 1373q6 34 33 57.5t61 23.5q33 0 53.5 -24t14.5 -57q-4 -32 -32.5 -56t-60.5 -24q-33 0 -53.5 23.5t-15.5 56.5z" />
    <glyph glyph-name="igrave" unicode="&#xec;" horiz-adv-x="445" 
d="M154 0l160 1011h124l-160 -1011h-124zM209 1521h156l113 -292h-131z" />
    <glyph glyph-name="iacute" unicode="&#xed;" horiz-adv-x="447" 
d="M192 0l160 1011h124l-160 -1011h-124zM357 1229l207 292h156l-229 -292h-134z" />
    <glyph glyph-name="icircumflex" unicode="&#xee;" horiz-adv-x="235" 
d="M93 1229l220 292h92l127 -292h-146l-53 132l-96 -132h-144zM55 0l160 1011h124l-160 -1011h-124z" />
    <glyph glyph-name="idieresis" unicode="&#xef;" horiz-adv-x="250" 
d="M63 0l160 1011h124l-160 -1011h-124zM144 1373q6 34 33.5 57.5t60.5 23.5t53.5 -24t14.5 -57q-5 -32 -32.5 -56t-60.5 -24t-53.5 23.5t-15.5 56.5zM381 1373q6 34 33 57.5t61 23.5q33 0 53 -24t14 -57q-4 -32 -32 -56t-60 -24q-33 0 -53.5 23.5t-15.5 56.5z" />
    <glyph glyph-name="eth" unicode="&#xf0;" horiz-adv-x="1123" 
d="M545 -10q-205 0 -313 145t-72 372t188.5 370.5t360.5 143.5h19q84 0 154 -26l-40 112l-178 -45l-11 121l151 39l-63 177h137l51 -144l154 40l13 -123l-128 -33l141 -398h-2q12 -32 14.5 -94.5t-8.5 -139.5q-36 -227 -189 -372t-360 -145h-19zM284 507q-29 -183 46.5 -290
t233.5 -107h19q159 0 268 107t138 290q29 182 -46.5 287.5t-233.5 105.5h-19q-158 0 -267.5 -105.5t-138.5 -287.5z" />
    <glyph glyph-name="ntilde" unicode="&#xf1;" horiz-adv-x="1126" 
d="M162 0l160 1011h124l-16 -100q121 110 322 110q394 0 327 -421l-95 -600h-123l94 591q27 169 -22 239t-200 70q-154 0 -244.5 -95.5t-124.5 -309.5l-78 -495h-124zM565 1323q-2 70 33.5 116.5t98.5 46.5q41 0 117 -28q39 -14 58 -17q6 31 7 37h117q5 -75 -32 -119
t-98 -44q-40 0 -118 26q-42 17 -58 19q-2 -18 -6 -37h-119z" />
    <glyph glyph-name="ograve" unicode="&#xf2;" horiz-adv-x="1113" 
d="M545 -10q-205 0 -313 145t-72 372t188.5 370.5t360.5 143.5h19q208 0 314.5 -143.5t70.5 -370.5t-189 -372t-360 -145h-19zM284 507q-29 -183 46.5 -290t233.5 -107h19q159 0 268 107t138 290q29 182 -46.5 287.5t-233.5 105.5h-19q-158 0 -267.5 -105.5t-138.5 -287.5z
M583 1521h156l114 -292h-132z" />
    <glyph glyph-name="oacute" unicode="&#xf3;" horiz-adv-x="1113" 
d="M545 -10q-205 0 -313 145t-72 372t188.5 370.5t360.5 143.5h19q208 0 314.5 -143.5t70.5 -370.5t-189 -372t-360 -145h-19zM284 507q-29 -183 46.5 -290t233.5 -107h19q159 0 268 107t138 290q29 182 -46.5 287.5t-233.5 105.5h-19q-158 0 -267.5 -105.5t-138.5 -287.5z
M656 1229l205 292h156l-229 -292h-132z" />
    <glyph glyph-name="ocircumflex" unicode="&#xf4;" horiz-adv-x="1113" 
d="M545 -10q-205 0 -313 145t-72 372t188.5 370.5t360.5 143.5h19q208 0 314.5 -143.5t70.5 -370.5t-189 -372t-360 -145h-19zM284 507q-29 -183 46.5 -290t233.5 -107h19q159 0 268 107t138 290q29 182 -46.5 287.5t-233.5 105.5h-19q-158 0 -267.5 -105.5t-138.5 -287.5z
M532 1229l219 292h93l127 -292h-146l-54 132l-94 -132h-145z" />
    <glyph glyph-name="otilde" unicode="&#xf5;" horiz-adv-x="1113" 
d="M545 -10q-205 0 -313 145t-72 372t188.5 370.5t360.5 143.5h19q208 0 314.5 -143.5t70.5 -370.5t-189 -372t-360 -145h-19zM284 507q-29 -183 46.5 -290t233.5 -107h19q159 0 268 107t138 290q29 182 -46.5 287.5t-233.5 105.5h-19q-158 0 -267.5 -105.5t-138.5 -287.5z
M565 1323q-2 70 33.5 116.5t98.5 46.5q41 0 117 -28q39 -14 58 -17q6 31 7 37h117q5 -75 -32 -119t-98 -44q-40 0 -118 26q-42 17 -58 19q-2 -18 -6 -37h-119z" />
    <glyph glyph-name="odieresis" unicode="&#xf6;" horiz-adv-x="1113" 
d="M545 -10q-205 0 -313 145t-72 372t188.5 370.5t360.5 143.5h19q208 0 314.5 -143.5t70.5 -370.5t-189 -372t-360 -145h-19zM284 507q-29 -183 46.5 -290t233.5 -107h19q159 0 268 107t138 290q29 182 -46.5 287.5t-233.5 105.5h-19q-158 0 -267.5 -105.5t-138.5 -287.5z
M574 1373q6 34 33.5 57.5t61.5 23.5q33 0 53 -23.5t14 -57.5q-5 -32 -32 -56t-60 -24q-34 0 -54.5 24t-15.5 56zM811 1373q6 34 33.5 57.5t60.5 23.5t53 -23.5t14 -57.5q-5 -32 -32 -56t-60 -24t-53.5 24t-15.5 56z" />
    <glyph glyph-name="divide" unicode="&#xf7;" horiz-adv-x="1029" 
d="M187 576l20 126h837l-20 -126h-837zM478 347q6 39 37 65.5t70 26.5q38 0 60.5 -26.5t16.5 -65.5t-37.5 -66t-69.5 -27q-39 0 -61 27.5t-16 65.5zM570 929q6 38 37 65t70 27q38 0 60.5 -26.5t16.5 -65.5t-37 -65.5t-69 -26.5q-39 0 -61.5 26.5t-16.5 65.5z" />
    <glyph glyph-name="oslash" unicode="&#xf8;" horiz-adv-x="1298" 
d="M164 -34l-75 90l191 166q-49 129 -24 285q36 226 189 370t360 144h20q166 0 271 -96l209 182l74 -91l-212 -183q73 -132 42 -326q-36 -227 -189 -372t-359 -145h-20q-192 0 -299 131zM380 507q-17 -109 7 -194l608 525q-71 62 -189 62h-20q-158 0 -267.5 -105.5
t-138.5 -287.5zM440 206q77 -96 220 -96h20q159 0 268 107t138 290q22 140 -22 237z" />
    <glyph glyph-name="ugrave" unicode="&#xf9;" horiz-adv-x="1105" 
d="M535 -10q-395 0 -328 420l95 601h124l-93 -591q-27 -169 21.5 -239.5t199.5 -70.5q154 0 244 96t124 310l78 495h123l-160 -1011h-123l16 100q-121 -110 -321 -110zM552 1521h155l114 -292h-131z" />
    <glyph glyph-name="uacute" unicode="&#xfa;" horiz-adv-x="1105" 
d="M535 -10q-395 0 -328 420l95 601h124l-93 -591q-27 -169 21.5 -239.5t199.5 -70.5q154 0 244 96t124 310l78 495h123l-160 -1011h-123l16 100q-121 -110 -321 -110zM652 1229l205 292h156l-229 -292h-132z" />
    <glyph glyph-name="ucircumflex" unicode="&#xfb;" horiz-adv-x="1105" 
d="M535 -10q-395 0 -328 420l95 601h124l-93 -591q-27 -169 21.5 -239.5t199.5 -70.5q154 0 244 96t124 310l78 495h123l-160 -1011h-123l16 100q-121 -110 -321 -110zM529 1229l218 292h93l127 -292h-146l-53 132l-95 -132h-144z" />
    <glyph glyph-name="udieresis" unicode="&#xfc;" horiz-adv-x="1105" 
d="M535 -10q-395 0 -328 420l95 601h124l-93 -591q-27 -169 21.5 -239.5t199.5 -70.5q154 0 244 96t124 310l78 495h123l-160 -1011h-123l16 100q-121 -110 -321 -110zM570 1373q6 34 33 57.5t61 23.5q33 0 53 -23.5t14 -57.5q-5 -32 -32 -56t-60 -24t-53.5 23.5t-15.5 56.5
zM807 1373q6 34 33 57.5t61 23.5q33 0 52.5 -24t13.5 -57q-5 -32 -32 -56t-59 -24q-33 0 -53.5 23.5t-15.5 56.5z" />
    <glyph glyph-name="yacute" unicode="&#xfd;" horiz-adv-x="1027" 
d="M186 -240q41 -31 70.5 -20.5t69.5 81.5l127 225l-243 965h136l197 -806l460 806h134l-706 -1240q-68 -118 -147 -148.5t-165 29.5zM614 1229l206 292h156l-230 -292h-132z" />
    <glyph glyph-name="thorn" unicode="&#xfe;" horiz-adv-x="1201" 
d="M101 -384l282 1778h124l-85 -537q76 78 172 121t198 43h26q201 0 309.5 -148t73.5 -368q-35 -221 -191 -368t-356 -147h-26q-103 0 -185 43t-133 121l-85 -538h-124zM364 505q-28 -177 49 -285t231 -108h27q154 0 266.5 108.5t140.5 284.5t-50.5 284.5t-232.5 108.5h-27
q-153 0 -264.5 -108.5t-139.5 -284.5z" />
    <glyph glyph-name="ydieresis" unicode="&#xff;" horiz-adv-x="1027" 
d="M186 -240q41 -31 70.5 -20.5t69.5 81.5l127 225l-243 965h136l197 -806l460 806h134l-706 -1240q-140 -240 -312 -120zM534 1373q6 34 34 57.5t61 23.5t52.5 -24t13.5 -57q-5 -32 -32 -56t-59 -24q-34 0 -54.5 24t-15.5 56zM770 1373q6 34 34 57.5t60 23.5q33 0 53.5 -24
t14.5 -57q-5 -32 -32.5 -56t-60.5 -24q-32 0 -52.5 24t-16.5 56z" />
    <glyph glyph-name="Amacron" unicode="&#x100;" horiz-adv-x="1161" 
d="M40 0l707 1394h107l267 -1394h-134l-85 451h-501l-227 -451h-134zM462 572h420l-114 606zM658 1589l20 126h349l-20 -126h-349z" />
    <glyph glyph-name="amacron" unicode="&#x101;" horiz-adv-x="1028" 
d="M464 -10q-163 0 -246 83.5t-61 225.5q25 153 146 232q59 38 132.5 53t177.5 19l311 14q43 283 -253 283q-104 0 -178.5 -41t-155.5 -144l-83 78q96 120 200 174t236 54q189 0 288.5 -106.5t68.5 -301.5l-97 -613h-124l22 140q-78 -70 -181 -110t-203 -40zM280 299
q-14 -93 37 -142t169 -49q144 0 266 98t145 244l8 49l-303 -13q-169 -5 -237 -50q-37 -24 -57 -55.5t-28 -81.5zM584 1304l19 126h349l-19 -126h-349z" />
    <glyph glyph-name="Abreve" unicode="&#x102;" horiz-adv-x="1161" 
d="M40 0l707 1394h107l267 -1394h-134l-85 451h-501l-227 -451h-134zM462 572h420l-114 606zM641 1785h120q-21 -89 -1.5 -126.5t79.5 -37.5t92 39t36 125h120q-5 -128 -82 -209t-186 -81q-111 0 -161.5 80.5t-16.5 209.5z" />
    <glyph glyph-name="abreve" unicode="&#x103;" horiz-adv-x="1028" 
d="M464 -10q-163 0 -246 83.5t-61 225.5q25 153 146 232q60 39 134.5 54t176.5 18l310 14q43 283 -253 283q-104 0 -178.5 -41t-155.5 -144l-83 78q96 120 200 174t236 54q189 0 288.5 -106.5t68.5 -301.5l-97 -613h-124l22 140q-78 -70 -181 -110t-203 -40zM280 299
q-14 -93 37 -142t169 -49q144 0 266 98t145 244l8 49l-303 -13q-88 -3 -143 -13.5t-94 -36.5q-37 -24 -57 -55.5t-28 -81.5zM567 1511h121q-22 -89 -3 -126.5t78 -37.5q60 0 92.5 38.5t37.5 125.5h120q-6 -129 -82.5 -209t-186.5 -80t-160.5 80.5t-16.5 208.5z" />
    <glyph glyph-name="Aogonek" unicode="&#x104;" horiz-adv-x="1155" 
d="M848 -419q-66 0 -107.5 41t-27.5 132q16 99 85.5 185t173.5 138l-70 374h-501l-227 -451h-134l707 1394h107l264 -1375q-116 -40 -189.5 -106t-87.5 -154q-6 -35 0.5 -44.5t33.5 -9.5q39 0 73.5 25t113.5 107l-28 -177q-84 -79 -186 -79zM462 572h420l-114 606z" />
    <glyph glyph-name="aogonek" unicode="&#x105;" horiz-adv-x="1068" 
d="M690 -419q-66 0 -108 41t-28 132q17 106 95.5 199.5t191.5 139.5l7 47q-78 -70 -181 -110t-203 -40q-163 0 -246 83.5t-61 225.5q25 153 146 232q59 38 132.5 53t177.5 19l311 14q43 283 -253 283q-104 0 -178.5 -41t-155.5 -144l-83 78q96 120 200 174t236 54
q189 0 288.5 -106.5t68.5 -301.5l-96 -606q-105 -15 -179.5 -85t-88.5 -163q-6 -35 0.5 -44.5t33.5 -9.5q38 0 74 25.5t112 106.5l-28 -177q-81 -79 -185 -79zM280 299q-14 -93 37 -142t169 -49q144 0 266 98t145 244l8 49l-303 -13q-169 -5 -237 -50q-37 -24 -57 -55.5
t-28 -81.5z" />
    <glyph glyph-name="Cacute" unicode="&#x106;" horiz-adv-x="1349" 
d="M693 -12q-275 0 -414.5 193t-88.5 515q34 215 137.5 376.5t256.5 247.5t334 86h20q200 0 331 -104.5t170 -288.5l-122 -43q-33 153 -133.5 232.5t-265.5 79.5h-20q-230 0 -385 -155t-199 -431q-43 -274 63 -429t336 -155h20q331 0 497 312l110 -42q-98 -184 -262.5 -289
t-364.5 -105h-20zM825 1522l190 263h158l-215 -263h-133z" />
    <glyph glyph-name="cacute" unicode="&#x107;" horiz-adv-x="1064" 
d="M545 -10q-205 0 -313 145t-72 372t188.5 370.5t360.5 143.5h19q144 0 243 -72t132 -198l-121 -49q-58 198 -273 198h-19q-158 0 -267.5 -105.5t-138.5 -287.5q-29 -183 46.5 -290t233.5 -107h19q215 0 339 201l103 -50q-75 -125 -197 -198t-264 -73h-19zM647 1229
l205 292h156l-229 -292h-132z" />
    <glyph glyph-name="Ccircumflex" unicode="&#x108;" horiz-adv-x="1349" 
d="M693 -12q-275 0 -414.5 193t-88.5 515q34 215 137.5 376.5t256.5 247.5t334 86h20q200 0 331 -104.5t170 -288.5l-122 -43q-33 153 -133.5 232.5t-265.5 79.5h-20q-230 0 -385 -155t-199 -431q-43 -274 63 -429t336 -155h20q331 0 497 312l110 -42q-98 -184 -262.5 -289
t-364.5 -105h-20zM724 1522l223 263h89l140 -263h-151l-58 115l-95 -115h-148z" />
    <glyph glyph-name="ccircumflex" unicode="&#x109;" horiz-adv-x="1064" 
d="M545 -10q-205 0 -313 145t-72 372t188.5 370.5t360.5 143.5h19q144 0 243 -72t132 -198l-121 -49q-58 198 -273 198h-19q-158 0 -267.5 -105.5t-138.5 -287.5q-29 -183 46.5 -290t233.5 -107h19q215 0 339 201l103 -50q-75 -125 -197 -198t-264 -73h-19zM532 1229
l219 292h93l127 -292h-146l-54 132l-94 -132h-145z" />
    <glyph glyph-name="Cdotaccent" unicode="&#x10a;" horiz-adv-x="1349" 
d="M693 -12q-275 0 -414.5 193t-88.5 515q34 215 137.5 376.5t256.5 247.5t334 86h20q200 0 331 -104.5t170 -288.5l-122 -43q-33 153 -133.5 232.5t-265.5 79.5h-20q-230 0 -385 -155t-199 -431q-43 -274 63 -429t336 -155h20q331 0 497 312l110 -42q-98 -184 -262.5 -289
t-364.5 -105h-20zM869 1653q5 33 32.5 57t60.5 24q34 0 54 -24t15 -57t-33.5 -56.5t-61.5 -23.5q-32 0 -52 23.5t-15 56.5z" />
    <glyph glyph-name="cdotaccent" unicode="&#x10b;" horiz-adv-x="1064" 
d="M545 -10q-205 0 -313 145t-72 372t188.5 370.5t360.5 143.5h19q144 0 243 -72t132 -198l-121 -49q-58 198 -273 198h-19q-158 0 -267.5 -105.5t-138.5 -287.5q-29 -183 46.5 -290t233.5 -107h19q215 0 339 201l103 -50q-75 -125 -197 -198t-264 -73h-19zM683 1372
q5 33 33 56.5t61 23.5q34 0 53.5 -23.5t14.5 -56.5t-32.5 -57t-61.5 -24q-32 0 -52.5 24t-15.5 57z" />
    <glyph glyph-name="Ccaron" unicode="&#x10c;" horiz-adv-x="1349" 
d="M693 -12q-275 0 -414.5 193t-88.5 515q34 215 137.5 376.5t256.5 247.5t334 86h20q200 0 331 -104.5t170 -288.5l-122 -43q-33 153 -133.5 232.5t-265.5 79.5h-20q-230 0 -385 -155t-199 -431q-43 -274 63 -429t336 -155h20q331 0 497 312l110 -42q-98 -184 -262.5 -289
t-364.5 -105h-20zM746 1785h151l56 -116l96 116h148l-223 -263h-88z" />
    <glyph glyph-name="ccaron" unicode="&#x10d;" horiz-adv-x="1064" 
d="M545 -10q-205 0 -313 145t-72 372t188.5 370.5t360.5 143.5h19q144 0 243 -72t132 -198l-121 -49q-58 198 -273 198h-19q-158 0 -267.5 -105.5t-138.5 -287.5q-29 -183 46.5 -290t233.5 -107h19q215 0 339 201l103 -50q-75 -125 -197 -198t-264 -73h-19zM570 1521h146
l52 -131l96 131h144l-219 -292h-92z" />
    <glyph glyph-name="Dcaron" unicode="&#x10e;" horiz-adv-x="1254" 
d="M170 0l221 1394h304q332 0 486.5 -186.5t101.5 -521.5q-53 -329 -263.5 -507.5t-547.5 -178.5h-302zM313 122h175q290 0 456 140t211 424q46 292 -76 439t-406 147h-178zM677 1785h151l57 -116l95 116h148l-223 -263h-88z" />
    <glyph glyph-name="dcaron" unicode="&#x10f;" horiz-adv-x="1302" 
d="M543 -10q-132 0 -228 68t-137 186.5t-18 262.5q35 221 191 367.5t356 146.5h27q103 0 184.5 -42.5t132.5 -120.5l85 536h124l-221 -1394h-124l24 154q-75 -78 -171 -121t-198 -43h-27zM284 507q-28 -177 50.5 -286t231.5 -109h28q152 0 263.5 109t139.5 286
q28 176 -49 283.5t-230 107.5h-28q-153 0 -265.5 -107.5t-140.5 -283.5zM1269 1149l160 315h121l-10 -61l-146 -254h-125z" />
    <glyph glyph-name="Dcroat" unicode="&#x110;" horiz-adv-x="1237" 
d="M154 0l96 606h-104l20 127h104l105 661h303q331 0 486 -186.5t102 -521.5q-53 -329 -263.5 -507.5t-547.5 -178.5h-301zM295 122h175q291 0 457 140t211 424q46 291 -76.5 438.5t-405.5 147.5h-179l-85 -539h360l-20 -127h-360z" />
    <glyph glyph-name="dcroat" unicode="&#x111;" horiz-adv-x="1149" 
d="M543 -10q-132 0 -228 68t-137 186.5t-18 262.5q35 221 191 367.5t356 146.5h27q103 0 184.5 -42.5t132.5 -120.5l40 253h-216l20 126h216l25 157h124l-25 -157h88l-20 -126h-88l-176 -1111h-124l24 154q-75 -78 -171 -121t-198 -43h-27zM284 507q-28 -177 50.5 -286
t231.5 -109h28q152 0 263.5 109t139.5 286q28 176 -49 283.5t-230 107.5h-28q-153 0 -265.5 -107.5t-140.5 -283.5z" />
    <glyph glyph-name="Emacron" unicode="&#x112;" horiz-adv-x="1157" 
d="M170 0l221 1394h897l-20 -122h-773l-80 -508h708l-19 -122h-708l-83 -520h773l-19 -122h-897zM663 1589l20 126h349l-20 -126h-349z" />
    <glyph glyph-name="emacron" unicode="&#x113;" horiz-adv-x="1074" 
d="M545 -10q-205 0 -313 145t-72 372q35 223 184.5 366t354.5 148q140 -3 236 -75t130.5 -198t0.5 -285h-787q-14 -164 61.5 -258.5t223.5 -94.5h19q215 0 339 201l103 -50q-75 -125 -197 -198t-264 -73h-19zM299 580h660q4 148 -69 232t-210 88q-137 -4 -237.5 -88.5
t-143.5 -231.5zM570 1304l19 126h349l-19 -126h-349z" />
    <glyph glyph-name="Ebreve" unicode="&#x114;" horiz-adv-x="1157" 
d="M170 0l221 1394h897l-20 -122h-773l-80 -508h708l-19 -122h-708l-83 -520h773l-19 -122h-897zM720 1835h120q-22 -89 -2.5 -126t79.5 -37q59 0 91 38.5t38 124.5h119q-7 -128 -83 -208.5t-185 -80.5q-111 0 -162 80.5t-15 208.5z" />
    <glyph glyph-name="ebreve" unicode="&#x115;" horiz-adv-x="1074" 
d="M545 -10q-205 0 -313 145t-72 372q40 249 212 392q139 115 311 120q165 6 276 -94q135 -122 123 -347q-3 -55 -16 -115h-787q-14 -164 61.5 -258.5t223.5 -94.5h19q215 0 339 201l103 -50q-75 -125 -197 -198t-264 -73h-19zM299 580h660q4 126 -50.5 211t-140.5 105.5
t-178 -0.5t-173.5 -105.5t-117.5 -210.5zM552 1511h120q-21 -89 -2 -126.5t79 -37.5q122 0 129 164h119q-4 -128 -81 -208.5t-186 -80.5q-110 0 -161 80.5t-17 208.5z" />
    <glyph glyph-name="Edotaccent" unicode="&#x116;" horiz-adv-x="1157" 
d="M170 0l221 1394h897l-20 -122h-773l-80 -508h708l-19 -122h-708l-83 -520h773l-19 -122h-897zM767 1653q5 33 33 57t61 24t53 -24t15 -57t-32.5 -56.5t-61.5 -23.5q-33 0 -53 23.5t-15 56.5z" />
    <glyph glyph-name="edotaccent" unicode="&#x117;" horiz-adv-x="1074" 
d="M545 -10q-205 0 -313 145t-72 372q35 223 184.5 366t354.5 148q140 -3 236 -75t130.5 -198t0.5 -285h-787q-14 -164 61.5 -258.5t223.5 -94.5h19q215 0 339 201l103 -50q-75 -125 -197 -198t-264 -73h-19zM299 580h660q4 148 -69 232t-210 88q-137 -4 -237.5 -88.5
t-143.5 -231.5zM675 1372q5 33 32.5 56.5t59.5 23.5q34 0 53.5 -23.5t14.5 -56.5t-32.5 -57t-61.5 -24q-32 0 -51.5 24t-14.5 57z" />
    <glyph glyph-name="Eogonek" unicode="&#x118;" horiz-adv-x="1160" 
d="M815 -419q-66 0 -108.5 41t-28.5 132q22 139 145 246h-653l221 1394h897l-20 -122h-773l-80 -508h708l-19 -122h-708l-83 -520h776l-17 -107q-112 -40 -182 -105.5t-83 -150.5q-6 -35 0.5 -44.5t34.5 -9.5q38 0 73.5 26t111.5 107l-28 -178q-81 -79 -184 -79z" />
    <glyph glyph-name="eogonek" unicode="&#x119;" horiz-adv-x="1074" 
d="M470 -419q-67 0 -108.5 41t-27.5 132q11 66 46 133t77 111q-165 32 -246.5 170.5t-50.5 338.5q35 223 184.5 366t354.5 148q140 -3 236 -75t130.5 -198t0.5 -285h-787q-14 -164 61.5 -258.5t223.5 -94.5h19q215 0 339 201l103 -50q-62 -102 -156 -170.5t-206 -90.5
q-79 -32 -133.5 -98t-66.5 -143q-6 -35 0 -44.5t33 -9.5q39 0 75 26t112 108l-29 -179q-79 -79 -184 -79zM299 580h660q4 148 -69 232t-210 88q-137 -4 -237.5 -88.5t-143.5 -231.5zM570 1304l19 126h349l-19 -126h-349z" />
    <glyph glyph-name="Ecaron" unicode="&#x11a;" horiz-adv-x="1157" 
d="M170 0l221 1394h897l-20 -122h-773l-80 -508h708l-19 -122h-708l-83 -520h773l-19 -122h-897zM644 1785h150l58 -116l95 116h149l-225 -263h-88z" />
    <glyph glyph-name="ecaron" unicode="&#x11b;" horiz-adv-x="1074" 
d="M545 -10q-205 0 -313 145t-72 372q35 223 184.5 366t354.5 148q140 -3 236 -75t130.5 -198t0.5 -285h-787q-14 -164 61.5 -258.5t223.5 -94.5h19q215 0 339 201l103 -50q-75 -125 -197 -198t-264 -73h-19zM299 580h660q4 148 -69 232t-210 88q-137 -4 -237.5 -88.5
t-143.5 -231.5zM561 1521h145l53 -131l96 131h144l-219 -292h-93z" />
    <glyph glyph-name="Gcircumflex" unicode="&#x11c;" horiz-adv-x="1323" 
d="M693 -12q-275 0 -414 193t-88 517q51 323 251.5 515.5t475.5 192.5q204 0 334.5 -107.5t159.5 -294.5l-121 -46q-24 155 -122 239.5t-271 84.5q-230 0 -385 -155t-198 -429q-44 -275 62 -430.5t336 -155.5q157 0 274.5 70.5t193.5 199.5l36 228h-467l19 123h588
l-116 -733h-121l25 160q-91 -83 -207.5 -127.5t-244.5 -44.5zM705 1522l225 263h88l139 -263h-150l-59 115l-93 -115h-150z" />
    <glyph glyph-name="gcircumflex" unicode="&#x11d;" horiz-adv-x="1200" 
d="M501 -388q-183 0 -285 105.5t-91 287.5h123q-2 -132 67 -201t205 -69h28q326 0 390 411l1 6q-75 -78 -171 -121t-198 -43h-10q-202 0 -318.5 149t-81.5 368q35 221 190.5 367.5t355.5 146.5h27q103 0 185 -42.5t133 -120.5l24 157h124l-139 -878q-39 -248 -182 -385.5
t-349 -137.5h-28zM284 505q-28 -177 50 -286t231 -109h28q143 0 250 95.5t145 254.5l14 90q12 158 -64.5 252t-219.5 94h-28q-154 0 -266 -107.5t-140 -283.5zM556 1229l219 292h92l126 -292h-145l-53 132l-95 -132h-144z" />
    <glyph glyph-name="Gbreve" unicode="&#x11e;" horiz-adv-x="1323" 
d="M693 -12q-275 0 -414 193t-88 517q51 323 251.5 515.5t475.5 192.5q204 0 334.5 -107.5t159.5 -294.5l-121 -46q-24 155 -122 239.5t-271 84.5q-230 0 -385 -155t-198 -429q-44 -275 62 -430.5t336 -155.5q157 0 274.5 70.5t193.5 199.5l36 228h-467l19 123h588
l-116 -733h-121l25 160q-91 -83 -207.5 -127.5t-244.5 -44.5zM765 1835h119q-22 -89 -2.5 -126t79.5 -37t92.5 38.5t37.5 124.5h119q-6 -127 -83 -208t-186 -81q-111 0 -161 80.5t-15 208.5z" />
    <glyph glyph-name="gbreve" unicode="&#x11f;" horiz-adv-x="1200" 
d="M501 -388q-183 0 -285 105.5t-91 287.5h123q-2 -132 67 -201t205 -69h28q326 0 390 411l1 6q-75 -78 -171 -121t-198 -43h-10q-202 0 -318.5 149t-81.5 368q35 221 190.5 367.5t355.5 146.5h27q103 0 185 -42.5t133 -120.5l24 157h124l-139 -878q-39 -248 -182 -385.5
t-349 -137.5h-28zM284 505q-28 -177 50 -286t231 -109h28q143 0 250 95.5t145 254.5l14 90q12 158 -64.5 252t-219.5 94h-28q-154 0 -266 -107.5t-140 -283.5zM582 1511h118q-21 -89 -1.5 -126.5t79.5 -37.5t92.5 38.5t36.5 125.5h119q-4 -128 -81 -208.5t-186 -80.5
q-111 0 -161.5 80.5t-15.5 208.5z" />
    <glyph glyph-name="Gdotaccent" unicode="&#x120;" horiz-adv-x="1323" 
d="M693 -12q-275 0 -414 193t-88 517q51 323 251.5 515.5t475.5 192.5q204 0 334.5 -107.5t159.5 -294.5l-121 -46q-24 155 -122 239.5t-271 84.5q-230 0 -385 -155t-198 -429q-44 -275 62 -430.5t336 -155.5q157 0 274.5 70.5t193.5 199.5l36 228h-467l19 123h588
l-116 -733h-121l25 160q-91 -83 -207.5 -127.5t-244.5 -44.5zM878 1653q5 33 32.5 57t60.5 24t52.5 -24t14.5 -57t-32.5 -56.5t-60.5 -23.5q-32 0 -52 23.5t-15 56.5z" />
    <glyph glyph-name="gdotaccent" unicode="&#x121;" horiz-adv-x="1200" 
d="M501 -388q-183 0 -285 105.5t-91 287.5h123q-2 -132 67 -201t205 -69h28q326 0 390 411l1 6q-75 -78 -171 -121t-198 -43h-10q-202 0 -318.5 149t-81.5 368q35 221 190.5 367.5t355.5 146.5h27q103 0 185 -42.5t133 -120.5l24 157h124l-139 -878q-39 -248 -182 -385.5
t-349 -137.5h-28zM284 505q-28 -177 50 -286t231 -109h28q143 0 250 95.5t145 254.5l14 90q12 158 -64.5 252t-219.5 94h-28q-154 0 -266 -107.5t-140 -283.5zM723 1372q5 33 32.5 56.5t60.5 23.5t53.5 -23.5t15.5 -56.5t-33 -57t-62 -24q-33 0 -52.5 24t-14.5 57z" />
    <glyph glyph-name="uni0122" unicode="&#x122;" horiz-adv-x="1532" 
d="M780 -12q-275 0 -414.5 193t-88.5 517q51 323 251.5 515.5t476.5 192.5q203 0 333.5 -107.5t160.5 -295.5l-123 -45q-22 154 -120 239t-271 85q-230 0 -385.5 -155t-198.5 -429q-44 -275 62 -430.5t337 -155.5q309 0 467 270l36 228h-467l19 123h589l-116 -733h-122
l25 160q-91 -83 -207 -127.5t-244 -44.5zM559 -372l163 316h119l-10 -61l-146 -255h-126z" />
    <glyph glyph-name="uni0123" unicode="&#x123;" horiz-adv-x="1228" 
d="M556 -388q-183 0 -285.5 105.5t-90.5 287.5h122q-2 -133 67 -201.5t206 -68.5h28q325 0 389 411l1 6q-75 -78 -171 -121t-198 -43h-9q-202 0 -319 149t-82 368q35 221 191 367.5t356 146.5h26q103 0 185 -42.5t133 -120.5l24 157h125l-139 -878q-39 -248 -182 -385.5
t-349 -137.5h-28zM338 505q-28 -177 50 -286t233 -109h26q143 0 250 95.5t145 254.5l14 90q12 158 -64.5 252t-219.5 94h-26q-155 0 -267.5 -107.5t-140.5 -283.5zM769 1231l10 61l146 254h125l-161 -315h-120z" />
    <glyph glyph-name="Hcircumflex" unicode="&#x124;" horiz-adv-x="1237" 
d="M170 0l221 1394h124l-99 -626h648l99 626h125l-221 -1394h-125l102 646h-648l-102 -646h-124zM642 1522l225 263h88l139 -263h-150l-59 115l-94 -115h-149z" />
    <glyph glyph-name="hcircumflex" unicode="&#x125;" horiz-adv-x="1015" 
d="M51 0l221 1394h124l-77 -483q119 110 322 110q394 0 327 -421l-95 -600h-123l94 591q26 169 -23 239t-199 70q-155 0 -245 -95.5t-124 -309.5l-78 -495h-124zM131 1522l224 263h88l140 -263h-151l-58 115l-94 -115h-149z" />
    <glyph glyph-name="Hbar" unicode="&#x126;" horiz-adv-x="1145" 
d="M128 0l155 976h-76l19 125h76l47 293h125l-47 -293h646l47 293h127l-47 -293h69l-19 -125h-69l-155 -976h-127l102 646h-646l-102 -646h-125zM375 768h646l33 208h-646z" />
    <glyph glyph-name="hbar" unicode="&#x127;" horiz-adv-x="1086" 
d="M121 0l176 1111h-99l20 126h99l25 157h125l-25 -157h205l-20 -126h-205l-32 -200q119 110 321 110q395 0 328 -421l-95 -600h-124l94 591q27 169 -22 239t-200 70q-154 0 -244 -95.5t-124 -309.5l-78 -495h-125z" />
    <glyph glyph-name="Itilde" unicode="&#x128;" horiz-adv-x="220" 
d="M49 0l221 1394h124l-221 -1394h-124zM155 1577q-2 70 34 116.5t99 46.5q40 0 116 -28q41 -14 58 -17q6 31 7 37h117q5 -75 -32 -119t-97 -44q-42 0 -118 26q-44 17 -58 19q-6 -31 -7 -37h-119z" />
    <glyph glyph-name="itilde" unicode="&#x129;" horiz-adv-x="204" 
d="M25 0l160 1011h124l-160 -1011h-124zM105 1323q-2 70 33.5 116.5t98.5 46.5q41 0 117 -28q38 -14 58 -17q6 31 7 37h117q5 -75 -32 -119t-98 -44q-40 0 -118 26q-42 17 -58 19q-2 -18 -6 -37h-119z" />
    <glyph glyph-name="Imacron" unicode="&#x12a;" horiz-adv-x="245" 
d="M61 0l221 1394h123l-221 -1394h-123zM200 1589l20 126h349l-20 -126h-349z" />
    <glyph glyph-name="imacron" unicode="&#x12b;" horiz-adv-x="229" 
d="M52 0l160 1011h124l-160 -1011h-124zM147 1304l19 126h349l-19 -126h-349z" />
    <glyph glyph-name="Ibreve" unicode="&#x12c;" horiz-adv-x="276" 
d="M77 0l221 1394h123l-221 -1394h-123zM207 1835h119q-21 -89 -1.5 -126t78.5 -37q60 0 92 38.5t38 124.5h119q-6 -127 -83 -208t-186 -81q-111 0 -161 80.5t-15 208.5z" />
    <glyph glyph-name="ibreve" unicode="&#x12d;" horiz-adv-x="290" 
d="M338 1222q-111 0 -161 80t-16 209h118q-20 -89 -0.5 -126.5t78.5 -37.5q60 0 92 38.5t36 125.5h121q-5 -128 -82 -208.5t-186 -80.5zM79 0l160 1011h124l-160 -1011h-124z" />
    <glyph glyph-name="Iogonek" unicode="&#x12e;" horiz-adv-x="453" 
d="M94 -419q-67 0 -109 41t-28 132q17 107 94.5 196.5t194.5 141.5l-8 4l206 1298h124l-218 -1378q-112 -41 -181.5 -106.5t-82.5 -150.5q-6 -35 0.5 -44.5t33.5 -9.5q39 0 74 25.5t112 106.5l-28 -177q-81 -79 -184 -79z" />
    <glyph glyph-name="iogonek" unicode="&#x12f;" horiz-adv-x="477" 
d="M86 -415q-66 0 -108.5 40.5t-27.5 131.5q16 108 101.5 205t201.5 142l144 907h123l-160 -1011h-65q-87 -28 -145.5 -92.5t-71.5 -144.5q-5 -35 1.5 -44.5t34.5 -9.5q38 0 73 25.5t112 106.5l-28 -177q-81 -79 -185 -79zM413 1234q6 34 33 57.5t61 23.5q33 0 53 -23.5
t14 -57.5q-4 -32 -31.5 -55.5t-60.5 -23.5q-34 0 -54 23.5t-15 55.5z" />
    <glyph glyph-name="Idotaccent" unicode="&#x130;" horiz-adv-x="457" 
d="M166 0l221 1394h124l-221 -1394h-124zM410 1653q5 33 32.5 57t60.5 24t53 -24t15 -57t-32.5 -56.5t-61.5 -23.5q-33 0 -52.5 23.5t-14.5 56.5z" />
    <glyph glyph-name="dotlessi" unicode="&#x131;" horiz-adv-x="544" 
d="M210 0l160 1011h124l-160 -1011h-124z" />
    <glyph glyph-name="IJ" unicode="&#x132;" horiz-adv-x="1526" 
d="M508 505l9 56h125q-52 -235 51 -366q77 -98 207 -101q136 -4 252 93q144 122 179 341l137 866h125l-138 -868q-41 -261 -220 -413q-143 -122 -319 -131q-169 -9 -284 89q-139 117 -133 338q1 47 9 96zM154 0l221 1394h122l-221 -1394h-122z" />
    <glyph glyph-name="ij" unicode="&#x133;" horiz-adv-x="756" 
d="M267 -391q-116 0 -180 59l64 102q40 -25 65.5 -33.5t68.5 -8.5h12q72 0 108.5 35t50.5 123l178 1125h124l-178 -1125q-21 -135 -100.5 -206t-199.5 -71h-13zM181 0l160 1011h124l-160 -1011h-124zM358 1231q5 33 32.5 56.5t60.5 23.5q32 0 52.5 -23.5t15.5 -56.5
t-33 -56.5t-61 -23.5t-52.5 23.5t-14.5 56.5zM650 1232q5 33 32.5 56.5t61.5 23.5q32 0 52 -23.5t15 -56.5t-33 -56.5t-60 -23.5q-34 0 -53.5 23.5t-14.5 56.5z" />
    <glyph glyph-name="Jcircumflex" unicode="&#x134;" horiz-adv-x="1051" 
d="M150 505l9 56h126q-51 -235 52 -366q76 -97 206 -101q135 -4 251 92q146 121 181 342l137 866h123l-138 -868q-41 -261 -220 -413q-143 -122 -319 -131q-169 -9 -284 89q-139 117 -133 338q1 47 9 96zM962 1522l224 263h88l140 -263h-151l-57 115l-96 -115h-148z" />
    <glyph glyph-name="jcircumflex" unicode="&#x135;" horiz-adv-x="342" 
d="M-40 -391q-119 0 -180 60l64 101q41 -25 65.5 -33.5t67.5 -8.5h13q72 0 108 35t50 123l178 1125h124l-178 -1125q-21 -135 -100 -206t-199 -71h-13zM200 1229l221 292h91l127 -292h-145l-54 132l-95 -132h-145z" />
    <glyph glyph-name="uni0136" unicode="&#x136;" horiz-adv-x="1327" 
d="M224 0l221 1394h123l-116 -729l817 729h171l-672 -601l433 -793h-151l-385 703l-241 -214l-77 -489h-123zM419 -372l162 316h120l-10 -61l-147 -255h-125z" />
    <glyph glyph-name="uni0137" unicode="&#x137;" horiz-adv-x="1111" 
d="M206 0l221 1394h123l-139 -879l559 496h172l-436 -384l297 -627h-148l-251 536l-221 -195l-54 -341h-123zM299 -372l160 316h122l-10 -61l-147 -255h-125z" />
    <glyph glyph-name="kgreenlandic" unicode="&#x138;" horiz-adv-x="1010" 
d="M162 0l161 1015h124l-79 -500l559 496h172l-436 -384l297 -627h-148l-251 536l-221 -195l-54 -341h-124z" />
    <glyph glyph-name="Lacute" unicode="&#x139;" horiz-adv-x="1127" 
d="M191 0l221 1394h123l-202 -1272h773l-19 -122h-896zM397 1522l190 263h159l-217 -263h-132z" />
    <glyph glyph-name="lacute" unicode="&#x13a;" horiz-adv-x="508" 
d="M404 -6q-112 -17 -161 40.5t-30 182.5l187 1177h124l-186 -1173q-12 -74 4 -93.5t74 -15.5zM404 1614l205 293h157l-230 -293h-132z" />
    <glyph glyph-name="uni013B" unicode="&#x13b;" horiz-adv-x="1238" 
d="M224 0l221 1394h123l-202 -1272h773l-19 -122h-896zM406 -372l161 316h120l-10 -61l-146 -255h-125z" />
    <glyph glyph-name="uni013C" unicode="&#x13c;" horiz-adv-x="464" 
d="M403 -6q-111 -17 -160.5 40.5t-30.5 182.5l187 1177h124l-186 -1173q-12 -74 4 -93.5t74 -15.5zM81 -372l161 316h121l-10 -61l-147 -255h-125z" />
    <glyph glyph-name="Lcaron" unicode="&#x13d;" horiz-adv-x="1107" 
d="M170 0l221 1394h124l-202 -1272h773l-19 -122h-897zM670 1100l150 294h97l-157 -294h-90z" />
    <glyph glyph-name="lcaron" unicode="&#x13e;" horiz-adv-x="448" 
d="M387 -6q-111 -17 -160.5 40.5t-30.5 182.5l187 1177h124l-186 -1173q-12 -74 4 -93.5t74 -15.5zM487 1070l161 315h121l-9 -61l-147 -254h-126z" />
    <glyph glyph-name="Ldot" unicode="&#x13f;" horiz-adv-x="1107" 
d="M170 0l221 1394h124l-202 -1272h773l-19 -122h-897zM696 794q5 33 32.5 56.5t60.5 23.5t53.5 -23.5t15.5 -56.5t-33 -57t-61 -24t-53 23.5t-15 57.5z" />
    <glyph glyph-name="ldot" unicode="&#x140;" horiz-adv-x="527" 
d="M387 -6q-111 -17 -160.5 40.5t-30.5 182.5l187 1177h124l-186 -1173q-12 -74 4 -93.5t74 -15.5zM491 794q5 33 32.5 56.5t61.5 23.5q33 0 53 -24t15 -56q-5 -33 -32.5 -57t-60.5 -24q-34 0 -54 23.5t-15 57.5z" />
    <glyph glyph-name="Lslash" unicode="&#x141;" horiz-adv-x="1170" 
d="M233 2l88 553l-235 -128l23 145l235 129l110 695h124l-98 -622l379 207l-23 -147l-380 -206l-79 -504h773l-20 -122h-897z" />
    <glyph glyph-name="lslash" unicode="&#x142;" horiz-adv-x="365" 
d="M344 -6q-111 -17 -161 40.5t-31 182.5l49 308l-118 -78l24 155l119 77l113 715h125l-99 -625l122 78l-24 -155l-123 -78l-62 -393q-12 -75 3.5 -94t74.5 -15z" />
    <glyph glyph-name="Nacute" unicode="&#x143;" horiz-adv-x="1282" 
d="M170 0l221 1394h120l516 -1152l183 1152h123l-221 -1394h-122l-514 1148l-182 -1148h-124zM785 1522l190 263h159l-215 -263h-134z" />
    <glyph glyph-name="nacute" unicode="&#x144;" horiz-adv-x="1126" 
d="M162 0l160 1011h124l-16 -100q121 110 322 110q394 0 327 -421l-95 -600h-123l94 591q27 169 -22 239t-200 70q-154 0 -244.5 -95.5t-124.5 -309.5l-78 -495h-124zM660 1229l206 292h156l-229 -292h-133z" />
    <glyph glyph-name="uni0145" unicode="&#x145;" horiz-adv-x="1390" 
d="M224 0l221 1394h120l514 -1152l183 1152h125l-221 -1394h-122l-515 1148l-182 -1148h-123zM472 -372l161 316h120l-10 -61l-146 -255h-125z" />
    <glyph glyph-name="uni0146" unicode="&#x146;" horiz-adv-x="1224" 
d="M206 0l160 1011h123l-16 -100q121 110 322 110q395 0 328 -421l-95 -600h-125l94 591q27 169 -21.5 239t-199.5 70q-154 0 -244.5 -95.5t-124.5 -309.5l-78 -495h-123zM381 -372l160 316h122l-10 -61l-147 -255h-125z" />
    <glyph glyph-name="Ncaron" unicode="&#x147;" horiz-adv-x="1282" 
d="M170 0l221 1394h120l516 -1152l183 1152h123l-221 -1394h-122l-514 1148l-182 -1148h-124zM699 1785h150l58 -116l95 116h149l-224 -263h-89z" />
    <glyph glyph-name="ncaron" unicode="&#x148;" horiz-adv-x="1126" 
d="M162 0l160 1011h124l-16 -100q121 110 322 110q394 0 327 -421l-95 -600h-123l94 591q27 169 -22 239t-200 70q-154 0 -244.5 -95.5t-124.5 -309.5l-78 -495h-124zM584 1521h146l52 -131l96 131h144l-219 -292h-93z" />
    <glyph glyph-name="napostrophe" unicode="&#x149;" horiz-adv-x="1237" 
d="M272 0l160 1011h125l-16 -100q119 110 321 110q395 0 328 -421l-95 -600h-125l94 591q27 169 -22 239t-199 70q-155 0 -244.5 -95.5t-123.5 -309.5l-78 -495h-125zM263 977l229 489h127l-242 -544h-112z" />
    <glyph glyph-name="Eng" unicode="&#x14a;" horiz-adv-x="1282" 
d="M720 -292q66 -3 105 2t70 24t46.5 55.5t25.5 98.5l21 132h-7l-505 1128l-182 -1148h-124l221 1394h120l516 -1152l183 1152h123l-234 -1477q-7 -48 -15 -79q-32 -140 -126.5 -199.5t-257.5 -57.5z" />
    <glyph glyph-name="eng" unicode="&#x14b;" horiz-adv-x="1126" 
d="M653 -391q-118 0 -181 59l64 102q43 -25 67 -33.5t67 -8.5h12q72 0 107.5 35t51.5 123l114 705q27 169 -22 239t-200 70q-154 0 -244.5 -95.5t-124.5 -309.5l-78 -495h-124l160 1011h124l-16 -100q121 110 322 110q394 0 327 -421l-115 -714q-23 -136 -101 -206.5
t-198 -70.5h-12z" />
    <glyph glyph-name="Omacron" unicode="&#x14c;" horiz-adv-x="1411" 
d="M692 -17q-275 0 -414.5 192.5t-88.5 514.5q34 215 137.5 376.5t256.5 247.5t334 86h20q279 0 416 -195.5t87 -514.5q-50 -318 -249 -512.5t-479 -194.5h-20zM313 690q-43 -274 63 -429t336 -155h20q232 0 387 155t198 429q44 276 -62 431t-338 155h-20q-230 0 -385 -155
t-199 -431zM788 1589l20 126h349l-20 -126h-349z" />
    <glyph glyph-name="omacron" unicode="&#x14d;" horiz-adv-x="1113" 
d="M545 -10q-205 0 -313 145t-72 372t188.5 370.5t360.5 143.5h19q208 0 314.5 -143.5t70.5 -370.5t-189 -372t-360 -145h-19zM284 507q-29 -183 46.5 -290t233.5 -107h19q159 0 268 107t138 290q29 182 -46.5 287.5t-233.5 105.5h-19q-158 0 -267.5 -105.5t-138.5 -287.5z
M589 1304l19 126h349l-19 -126h-349z" />
    <glyph glyph-name="Obreve" unicode="&#x14e;" horiz-adv-x="1411" 
d="M693 -12q-275 0 -414.5 193t-88.5 515q34 215 137.5 376.5t256.5 247.5t334 86h20q185 0 311 -89t175.5 -250t16.5 -371q-50 -318 -249.5 -513t-478.5 -195h-20zM314 696q-43 -274 63 -429t336 -155h20q232 0 386.5 155t198.5 429q44 276 -62.5 431t-337.5 155h-20
q-230 0 -385 -155t-199 -431zM771 1835h120q-22 -89 -2.5 -126t79.5 -37t92.5 38.5t36.5 124.5h119q-5 -127 -82 -208t-186 -81q-111 0 -161.5 80.5t-15.5 208.5z" />
    <glyph glyph-name="obreve" unicode="&#x14f;" horiz-adv-x="1113" 
d="M545 -10q-205 0 -313 145t-72 372t188.5 370.5t360.5 143.5h19q208 0 314.5 -143.5t70.5 -370.5t-189 -372t-360 -145h-19zM284 507q-29 -183 46.5 -290t233.5 -107h19q159 0 268 107t138 290q29 182 -46.5 287.5t-233.5 105.5h-19q-158 0 -267.5 -105.5t-138.5 -287.5z
M573 1511h119q-21 -89 -1.5 -126.5t78.5 -37.5q60 0 92.5 38.5t37.5 125.5h119q-5 -128 -81.5 -208.5t-186.5 -80.5q-111 0 -161 80t-16 209z" />
    <glyph glyph-name="Ohungarumlaut" unicode="&#x150;" horiz-adv-x="1411" 
d="M692 -17q-275 0 -414.5 192.5t-88.5 514.5q34 215 137.5 376.5t256.5 247.5t334 86h20q279 0 416 -195.5t87 -514.5q-50 -318 -249 -512.5t-479 -194.5h-20zM313 690q-43 -274 63 -429t336 -155h20q232 0 387 155t198 429q44 276 -62 431t-338 155h-20q-230 0 -385 -155
t-199 -431zM718 1522l190 263h158l-215 -263h-133zM984 1522l191 263h158l-216 -263h-133z" />
    <glyph glyph-name="ohungarumlaut" unicode="&#x151;" horiz-adv-x="1113" 
d="M545 -10q-205 0 -313 145t-72 372t188.5 370.5t360.5 143.5h19q208 0 314.5 -143.5t70.5 -370.5t-189 -372t-360 -145h-19zM284 507q-29 -183 46.5 -290t233.5 -107h19q159 0 268 107t138 290q29 182 -46.5 287.5t-233.5 105.5h-19q-158 0 -267.5 -105.5t-138.5 -287.5z
M520 1230l190 263h158l-216 -263h-132zM787 1230l189 263h158l-215 -263h-132z" />
    <glyph glyph-name="OE" unicode="&#x152;" horiz-adv-x="2195" 
d="M692 -17q-275 0 -414.5 192.5t-88.5 514.5q34 215 137.5 376.5t256.5 247.5t334 86h20q158 0 274.5 -66.5t177.5 -188.5l40 249h897l-20 -122h-774l-80 -508h708l-19 -122h-708l-83 -520h774l-19 -122h-897l37 236q-100 -121 -238 -187t-295 -66h-20zM313 690
q-43 -274 63 -429t336 -155h20q232 0 387 155t198 429q44 276 -62 431t-338 155h-20q-230 0 -385 -155t-199 -431z" />
    <glyph glyph-name="oe" unicode="&#x153;" horiz-adv-x="1905" 
d="M545 -10q-205 0 -313 145t-72 372t188.5 370.5t360.5 143.5h19q136 0 232 -64.5t135 -179.5q75 111 189 175.5t247 68.5q212 -5 315 -161t51 -397h-788q-14 -164 62 -258.5t225 -94.5h18q217 0 339 201l105 -50q-76 -125 -198.5 -198t-264.5 -73h-18q-134 0 -230 66
t-137 181q-77 -116 -193.5 -181.5t-252.5 -65.5h-19zM284 507q-29 -183 46.5 -290t233.5 -107h19q159 0 268 107t138 290q29 182 -46.5 287.5t-233.5 105.5h-19q-158 0 -267.5 -105.5t-138.5 -287.5zM1131 580h659q4 147 -69 231.5t-209 88.5q-138 -4 -238.5 -88.5
t-142.5 -231.5z" />
    <glyph glyph-name="Racute" unicode="&#x154;" horiz-adv-x="1184" 
d="M170 0l221 1394h473q219 0 320.5 -99.5t70.5 -290.5v-2q-26 -163 -128.5 -261t-269.5 -121l257 -620h-143l-253 612h-327l-97 -612h-124zM410 734h349q173 0 260.5 64t110.5 206q22 140 -45.5 204t-240.5 64h-349zM756 1522l190 263h158l-216 -263h-132z" />
    <glyph glyph-name="racute" unicode="&#x155;" horiz-adv-x="841" 
d="M162 0l160 1011h124l-16 -100q121 110 322 110q101 0 176 -29l-45 -117q-75 25 -150 25q-154 0 -244.5 -95.5t-124.5 -309.5l-78 -495h-124zM515 1229l204 292h157l-230 -292h-131z" />
    <glyph glyph-name="uni0156" unicode="&#x156;" horiz-adv-x="1263" 
d="M224 0l221 1394h472q219 0 320.5 -99.5t70.5 -290.5v-2q-26 -164 -128.5 -261.5t-269.5 -120.5l257 -620h-142l-254 612h-327l-97 -612h-123zM422 -372l163 316h120l-10 -61l-147 -255h-126zM463 734h349q174 0 262 64t111 206q22 140 -46 204t-242 64h-349z" />
    <glyph glyph-name="uni0157" unicode="&#x157;" horiz-adv-x="922" 
d="M218 0l160 1011h124l-16 -100q121 110 322 110q102 0 175 -29l-44 -117q-75 25 -150 25q-154 0 -244.5 -95.5t-124.5 -309.5l-78 -495h-124zM58 -372l162 316h120l-10 -61l-147 -255h-125z" />
    <glyph glyph-name="Rcaron" unicode="&#x158;" horiz-adv-x="1184" 
d="M170 0l221 1394h473q219 0 320.5 -99.5t70.5 -290.5v-2q-26 -163 -128.5 -261t-269.5 -121l257 -620h-143l-253 612h-327l-97 -612h-124zM410 734h349q173 0 260.5 64t110.5 206q22 140 -45.5 204t-240.5 64h-349zM670 1785h150l57 -116l95 116h149l-224 -263h-88z" />
    <glyph glyph-name="rcaron" unicode="&#x159;" horiz-adv-x="718" 
d="M84 0l160 1011h123l-16 -100q121 110 323 110q100 0 175 -29l-45 -117q-73 25 -149 25q-156 0 -246 -95.5t-124 -309.5l-78 -495h-123zM358 1521h145l54 -131l94 131h146l-220 -292h-93z" />
    <glyph glyph-name="Sacute" unicode="&#x15a;" horiz-adv-x="1154" 
d="M593 -26q-78 0 -147.5 16.5t-128 52.5t-97.5 88t-55.5 127.5t-3.5 165.5h127q-21 -157 70.5 -241t256.5 -84q148 0 250.5 69.5t120.5 184.5q10 61 0 103t-48 75t-94.5 57.5t-154.5 53.5q-110 33 -179.5 65.5t-119.5 78.5t-65.5 108t-2.5 146q17 105 92 190t183.5 131
t224.5 46q84 0 152 -24t112 -65.5t72 -98t36.5 -121t0.5 -134.5h-126q8 153 -63.5 235.5t-205.5 82.5q-80 0 -153 -25.5t-128 -81t-67 -131.5q-9 -60 0.5 -100t49.5 -72t94.5 -54t154.5 -52q105 -32 175 -66t120 -82t67 -112.5t3 -149.5q-17 -107 -91 -194.5t-188 -137.5
t-244 -50zM736 1522l190 263h158l-215 -263h-133z" />
    <glyph glyph-name="sacute" unicode="&#x15b;" horiz-adv-x="986" 
d="M505 -14q-65 0 -121.5 13.5t-104.5 42.5t-79.5 72t-45 106.5t-3.5 140.5h126q-9 -140 54.5 -196.5t196.5 -56.5q111 0 182.5 39.5t83.5 114.5q12 76 -37 112t-214 72q-52 11 -93.5 24.5t-82.5 36.5t-66 52.5t-37 72.5t-4 96q19 122 131.5 202.5t263.5 80.5
q92 0 160 -28.5t105.5 -78t53 -111.5t9.5 -134h-125q-5 125 -56 177.5t-168 52.5q-97 0 -164.5 -41.5t-79.5 -117.5q-11 -69 38.5 -104t169.5 -60q184 -39 265 -107t61 -195q-20 -126 -138.5 -202t-280.5 -76zM587 1229l205 292h156l-229 -292h-132z" />
    <glyph glyph-name="Scircumflex" unicode="&#x15c;" horiz-adv-x="1154" 
d="M593 -26q-78 0 -147.5 16.5t-128 52.5t-97.5 88t-55.5 127.5t-3.5 165.5h127q-21 -157 70.5 -241t256.5 -84q148 0 250.5 69.5t120.5 184.5q10 61 0 103t-48 75t-94.5 57.5t-154.5 53.5q-110 33 -179.5 65.5t-119.5 78.5t-65.5 108t-2.5 146q17 105 92 190t183.5 131
t224.5 46q84 0 152 -24t112 -65.5t72 -98t36.5 -121t0.5 -134.5h-126q8 153 -63.5 235.5t-205.5 82.5q-80 0 -153 -25.5t-128 -81t-67 -131.5q-9 -60 0.5 -100t49.5 -72t94.5 -54t154.5 -52q105 -32 175 -66t120 -82t67 -112.5t3 -149.5q-17 -107 -91 -194.5t-188 -137.5
t-244 -50zM610 1522l224 263h88l140 -263h-151l-58 115l-94 -115h-149z" />
    <glyph glyph-name="scircumflex" unicode="&#x15d;" horiz-adv-x="986" 
d="M505 -14q-65 0 -121.5 13.5t-104.5 42.5t-79.5 72t-45 106.5t-3.5 140.5h126q-9 -140 54.5 -196.5t196.5 -56.5q111 0 182.5 39.5t83.5 114.5q12 76 -37 112t-214 72q-52 11 -93.5 24.5t-82.5 36.5t-66 52.5t-37 72.5t-4 96q19 122 131.5 202.5t263.5 80.5
q92 0 160 -28.5t105.5 -78t53 -111.5t9.5 -134h-125q-5 125 -56 177.5t-168 52.5q-97 0 -164.5 -41.5t-79.5 -117.5q-11 -69 38.5 -104t169.5 -60q184 -39 265 -107t61 -195q-20 -126 -138.5 -202t-280.5 -76zM465 1229l218 292h92l127 -292h-146l-53 132l-95 -132h-143z
" />
    <glyph glyph-name="Scedilla" unicode="&#x15e;" horiz-adv-x="1154" 
d="M446 -435q-90 0 -137 37l24 150q46 -41 66.5 -51t66.5 -10q55 0 81.5 16t32.5 55q8 49 -32 62t-174 -1l110 160q-166 28 -258 141t-65 300h127q-21 -157 70.5 -241t256.5 -84q148 0 250.5 69.5t120.5 184.5q10 61 0 103t-48 75t-94.5 57.5t-154.5 53.5
q-110 33 -179.5 65.5t-119.5 78.5t-65.5 108t-2.5 146q17 105 92 190t183.5 131t224.5 46q84 0 152 -24t112 -65.5t72 -98t36.5 -121t0.5 -134.5h-126q8 153 -63.5 235.5t-205.5 82.5q-80 0 -153 -25.5t-128 -81t-67 -131.5q-9 -60 0.5 -100t49.5 -72t94.5 -54t154.5 -52
q105 -32 175 -66t120 -82t67 -112.5t3 -149.5q-25 -157 -166 -265t-329 -116l-25 -37q136 -37 113 -176q-10 -66 -54.5 -112.5t-98.5 -65.5t-110 -19z" />
    <glyph glyph-name="scedilla" unicode="&#x15f;" horiz-adv-x="986" 
d="M372 -431q-91 0 -137 37l23 150q44 -40 66 -50.5t68 -10.5q55 0 81 16t32 55q8 48 -31.5 61.5t-168.5 -0.5l103 168q-133 23 -205.5 115t-51.5 251h126q-9 -140 54.5 -196.5t196.5 -56.5q111 0 182.5 39.5t83.5 114.5q12 76 -37 112t-214 72q-52 11 -93.5 24.5
t-82.5 36.5t-66 52.5t-37 72.5t-4 96q19 122 131.5 202.5t263.5 80.5q92 0 160 -28.5t105.5 -78t53 -111.5t9.5 -134h-125q-5 125 -56 177.5t-168 52.5q-97 0 -164.5 -41.5t-79.5 -117.5q-11 -69 38.5 -104t169.5 -60q184 -39 265 -107t61 -195q-19 -118 -125 -192t-256 -83
l-26 -45q66 -17 98.5 -62t20.5 -116q-10 -66 -54.5 -112.5t-98.5 -65.5t-111 -19z" />
    <glyph glyph-name="Scaron" unicode="&#x160;" horiz-adv-x="1154" 
d="M593 -26q-78 0 -147.5 16.5t-128 52.5t-97.5 88t-55.5 127.5t-3.5 165.5h127q-21 -157 70.5 -241t256.5 -84q148 0 250.5 69.5t120.5 184.5q10 61 0 103t-48 75t-94.5 57.5t-154.5 53.5q-110 33 -179.5 65.5t-119.5 78.5t-65.5 108t-2.5 146q17 105 92 190t183.5 131
t224.5 46q84 0 152 -24t112 -65.5t72 -98t36.5 -121t0.5 -134.5h-126q8 153 -63.5 235.5t-205.5 82.5q-80 0 -153 -25.5t-128 -81t-67 -131.5q-9 -60 0.5 -100t49.5 -72t94.5 -54t154.5 -52q105 -32 175 -66t120 -82t67 -112.5t3 -149.5q-17 -107 -91 -194.5t-188 -137.5
t-244 -50zM649 1785h151l57 -116l95 116h149l-224 -263h-88z" />
    <glyph glyph-name="scaron" unicode="&#x161;" horiz-adv-x="986" 
d="M505 -14q-65 0 -121.5 13.5t-104.5 42.5t-79.5 72t-45 106.5t-3.5 140.5h126q-9 -140 54.5 -196.5t196.5 -56.5q111 0 182.5 39.5t83.5 114.5q12 76 -37 112t-214 72q-52 11 -93.5 24.5t-82.5 36.5t-66 52.5t-37 72.5t-4 96q19 122 131.5 202.5t263.5 80.5
q92 0 160 -28.5t105.5 -78t53 -111.5t9.5 -134h-125q-5 125 -56 177.5t-168 52.5q-97 0 -164.5 -41.5t-79.5 -117.5q-11 -69 38.5 -104t169.5 -60q184 -39 265 -107t61 -195q-20 -126 -138.5 -202t-280.5 -76zM511 1521h145l53 -131l95 131h144l-219 -292h-92z" />
    <glyph glyph-name="uni0162" unicode="&#x162;" horiz-adv-x="1274" 
d="M494 -432q-94 0 -136 39l24 150q41 -41 63 -52t69 -11q55 0 81.5 16t32.5 55q8 49 -32.5 62t-175.5 -1l162 228l192 1218h-493l20 122h1112l-20 -122h-493l-196 -1239l-61 -91q136 -39 115 -177q-10 -66 -54.5 -112.5t-98.5 -65.5t-111 -19z" />
    <glyph glyph-name="uni0163" unicode="&#x163;" horiz-adv-x="735" 
d="M317 -431q-96 0 -136 39l24 150q42 -41 64 -52t68 -11q55 0 81.5 16t32.5 55q8 48 -33 62t-166 0l124 211q-80 70 -55 227l99 627h-229l19 118h229l60 381h124l-60 -381h234l-19 -118h-234l-99 -627q-13 -87 11.5 -122.5t95.5 -35.5h13q15 0 44 4.5t46 3.5l-19 -121
q-11 0 -41.5 -3.5t-50.5 -3.5h-11q-6 0 -42 3l-29 -47q66 -17 98 -61.5t20 -116.5q-10 -66 -54.5 -112.5t-98 -65.5t-110.5 -19z" />
    <glyph glyph-name="Tcaron" unicode="&#x164;" horiz-adv-x="1192" 
d="M533 0l201 1272h-493l20 122h1112l-20 -122h-493l-201 -1272h-126zM654 1785h150l58 -117l95 117h148l-223 -263h-89z" />
    <glyph glyph-name="tcaron" unicode="&#x165;" horiz-adv-x="685" 
d="M533 -12q-120 0 -176.5 71t-35.5 207l99 627h-229l19 118h229l60 381h124l-60 -381h234l-19 -118h-234l-99 -627q-13 -87 11.5 -122.5t95.5 -35.5h13q15 0 44 4.5t46 3.5l-19 -121q-11 0 -41.5 -3.5t-50.5 -3.5h-11zM626 1149l161 315h121l-10 -61l-146 -254h-126z" />
    <glyph glyph-name="Tbar" unicode="&#x166;" horiz-adv-x="1192" 
d="M533 0l96 606h-272l20 127h272l85 539h-493l20 122h1112l-20 -122h-493l-85 -539h271l-20 -127h-271l-96 -606h-126z" />
    <glyph glyph-name="tbar" unicode="&#x167;" horiz-adv-x="687" 
d="M533 -12q-120 0 -176.5 71t-35.5 207l42 267h-120l19 119h120l38 241h-229l19 118h229l60 381h124l-60 -381h234l-19 -118h-234l-38 -241h125l-19 -119h-125l-42 -267q-13 -87 11.5 -122.5t95.5 -35.5h13q15 0 44 4.5t46 3.5l-19 -121q-11 0 -41.5 -3.5t-50.5 -3.5h-11z
" />
    <glyph glyph-name="Utilde" unicode="&#x168;" 
d="M234 505l141 889h122l-139 -876q-35 -220 73 -338q83 -91 216 -86q137 5 249 109q129 121 161 325l137 866h125l-138 -868q-41 -261 -220 -413q-143 -122 -319 -131q-169 -9 -284 89q-139 117 -133 338q1 47 9 96zM671 1576q-2 70 33.5 116.5t98.5 46.5q41 0 117 -28
q38 -14 58 -17q6 31 7 37h117q5 -75 -32 -119t-98 -44q-40 0 -118 26q-42 17 -58 19q-2 -18 -6 -37h-119z" />
    <glyph glyph-name="utilde" unicode="&#x169;" horiz-adv-x="1105" 
d="M535 -10q-395 0 -328 420l95 601h124l-93 -591q-27 -169 21.5 -239.5t199.5 -70.5q154 0 244 96t124 310l78 495h123l-160 -1011h-123l16 100q-121 -110 -321 -110zM565 1323q-2 70 33.5 116.5t98.5 46.5q41 0 117 -28q39 -14 58 -17q6 31 7 37h117q5 -75 -32 -119
t-98 -44q-40 0 -118 26q-42 17 -58 19q-2 -18 -6 -37h-119z" />
    <glyph glyph-name="Umacron" unicode="&#x16a;" 
d="M234 505l141 889h122l-139 -876q-35 -220 73 -338q83 -91 216 -86q137 5 249 109q129 121 161 325l137 866h125l-138 -868q-41 -261 -220 -413q-143 -122 -319 -131q-169 -9 -284 89q-139 117 -133 338q1 47 9 96zM701 1589l20 126h349l-20 -126h-349z" />
    <glyph glyph-name="umacron" unicode="&#x16b;" horiz-adv-x="1105" 
d="M535 -10q-395 0 -328 420l95 601h124l-93 -591q-27 -169 21.5 -239.5t199.5 -70.5q154 0 244 96t124 310l78 495h123l-160 -1011h-123l16 100q-121 -110 -321 -110zM585 1304l19 126h349l-19 -126h-349z" />
    <glyph glyph-name="Ubreve" unicode="&#x16c;" 
d="M234 505l141 889h122l-139 -876q-35 -220 73 -338q83 -91 216 -86q137 5 249 109q129 121 161 325l137 866h125l-138 -868q-41 -261 -220 -413q-143 -122 -319 -131q-169 -9 -284 89q-139 117 -133 338q1 47 9 96zM691 1835h120q-21 -89 -2 -126t79 -37t92.5 38.5
t36.5 124.5h120q-6 -127 -83 -208t-186 -81q-110 0 -160.5 80.5t-16.5 208.5z" />
    <glyph glyph-name="ubreve" unicode="&#x16d;" horiz-adv-x="1105" 
d="M535 -10q-395 0 -328 420l95 601h124l-93 -591q-27 -169 21.5 -239.5t199.5 -70.5q154 0 244 96t124 310l78 495h123l-160 -1011h-123l16 100q-121 -110 -321 -110zM560 1511h120q-43 -164 76 -164q122 0 130 164h119q-5 -128 -81.5 -208.5t-186.5 -80.5t-161 80.5
t-16 208.5z" />
    <glyph glyph-name="Uring" unicode="&#x16e;" 
d="M234 505l141 889h122l-139 -876q-35 -220 73 -338q83 -91 216 -86q137 5 249 109q129 121 161 325l137 866h125l-138 -868q-41 -261 -220 -413q-143 -122 -319 -131q-169 -9 -284 89q-139 117 -133 338q1 47 9 96zM724 1653q11 71 65.5 114t120.5 43t106.5 -43t29.5 -114
q-12 -71 -66 -114.5t-120 -43.5t-107 44t-29 114zM856 1653q-3 -20 1 -26t23 -6t26 6t10 26t-2 26t-24 6t-25 -6t-9 -26z" />
    <glyph glyph-name="uring" unicode="&#x16f;" horiz-adv-x="1105" 
d="M535 -10q-395 0 -328 420l95 601h124l-93 -591q-27 -169 21.5 -239.5t199.5 -70.5q154 0 244 96t124 310l78 495h123l-160 -1011h-123l16 100q-121 -110 -321 -110zM610 1373q12 71 65.5 115.5t119.5 44.5t105.5 -44.5t27.5 -115.5q-11 -71 -64.5 -114.5t-119.5 -43.5
t-105.5 43.5t-28.5 114.5zM739 1373q-3 -21 1.5 -27.5t23.5 -6.5q18 0 25 6.5t10 27.5q4 21 -0.5 27.5t-23.5 6.5t-25.5 -6.5t-10.5 -27.5z" />
    <glyph glyph-name="Uhungarumlaut" unicode="&#x170;" 
d="M234 505l141 889h122l-139 -876q-35 -220 73 -338q83 -91 216 -86q137 5 249 109q129 121 161 325l137 866h125l-138 -868q-41 -261 -220 -413q-143 -122 -319 -131q-169 -9 -284 89q-139 117 -133 338q1 47 9 96zM640 1522l191 263h157l-215 -263h-133zM908 1522
l190 263h156l-215 -263h-131z" />
    <glyph glyph-name="uhungarumlaut" unicode="&#x171;" horiz-adv-x="1105" 
d="M535 -10q-395 0 -328 420l95 601h124l-93 -591q-27 -169 21.5 -239.5t199.5 -70.5q154 0 244 96t124 310l78 495h123l-160 -1011h-123l16 100q-121 -110 -321 -110zM524 1230l190 263h158l-216 -263h-132zM791 1230l189 263h158l-215 -263h-132z" />
    <glyph glyph-name="Uogonek" unicode="&#x172;" 
d="M536 -419q-67 0 -109 41t-28 132q21 129 132 234q-157 31 -244 165.5t-53 351.5l141 889h122l-139 -876q-35 -220 73 -338q83 -91 216 -86q137 5 249 109q129 121 161 325l137 866h125l-138 -868q-16 -103 -55.5 -191t-94.5 -151.5t-119.5 -107.5t-135.5 -68
q-104 -41 -169.5 -104.5t-78.5 -144.5q-6 -35 0.5 -44.5t33.5 -9.5q38 0 74.5 26t113.5 108l-29 -178q-82 -80 -185 -80z" />
    <glyph glyph-name="uogonek" unicode="&#x173;" horiz-adv-x="1105" 
d="M693 -413q-66 0 -108 40.5t-28 131.5q11 71 50 137.5t99 117.5q-75 -24 -171 -24q-395 0 -328 420l95 601h124l-93 -591q-27 -169 21.5 -239.5t199.5 -70.5q154 0 244 96t124 310l78 495h123l-160 -1011h-66q-85 -29 -142 -93t-69 -142q-6 -35 0 -44.5t34 -9.5
q38 0 74 25.5t112 106.5l-28 -178q-81 -78 -185 -78z" />
    <glyph glyph-name="Wcircumflex" unicode="&#x174;" horiz-adv-x="1755" 
d="M418 0l-167 1394h130l136 -1151l516 1086h107l174 -1086l503 1151h129l-609 -1394h-113l-174 1087l-520 -1087h-112zM891 1522l223 263h89l140 -263h-151l-58 115l-95 -115h-148z" />
    <glyph glyph-name="wcircumflex" unicode="&#x175;" horiz-adv-x="1465" 
d="M345 0l-121 1011h131l91 -773l395 773h106l151 -771l335 771h128l-439 -1011h-110l-152 794l-407 -794h-108zM709 1229l219 292h92l126 -292h-145l-54 132l-94 -132h-144z" />
    <glyph glyph-name="Ycircumflex" unicode="&#x176;" horiz-adv-x="1150" 
d="M513 0l62 419l-334 975h142l278 -827l547 827h143l-652 -974l-62 -420h-124zM590 1522l224 263h88l139 -263h-150l-59 115l-93 -115h-149z" />
    <glyph glyph-name="ycircumflex" unicode="&#x177;" horiz-adv-x="1027" 
d="M186 -240q41 -31 70.5 -20.5t69.5 81.5l127 225l-243 965h136l197 -806l460 806h134l-706 -1240q-68 -118 -147 -148.5t-165 29.5zM490 1229l221 292h92l126 -292h-145l-54 132l-95 -132h-145z" />
    <glyph glyph-name="Ydieresis" unicode="&#x178;" horiz-adv-x="1150" 
d="M513 0l62 419l-334 975h142l278 -827l547 827h143l-652 -974l-62 -420h-124zM639 1653q5 33 33 57t61 24t52.5 -24.5t14.5 -56.5q-5 -33 -32.5 -56.5t-60.5 -23.5q-34 0 -53.5 23.5t-14.5 56.5zM876 1653q5 32 32.5 56.5t59.5 24.5q33 0 53 -24t15 -57t-32.5 -56.5
t-61.5 -23.5q-32 0 -51.5 23.5t-14.5 56.5z" />
    <glyph glyph-name="Zacute" unicode="&#x179;" horiz-adv-x="1073" 
d="M66 0l16 102l963 1170h-778l20 122h941l-16 -99l-965 -1173h779l-19 -122h-941zM681 1522l190 263h158l-215 -263h-133z" />
    <glyph glyph-name="zacute" unicode="&#x17a;" horiz-adv-x="944" 
d="M66 0l16 99l769 792h-644l19 120h812l-17 -105l-759 -786h635l-19 -120h-812zM557 1229l206 292h156l-229 -292h-133z" />
    <glyph glyph-name="Zdotaccent" unicode="&#x17b;" horiz-adv-x="1073" 
d="M66 0l16 102l963 1170h-778l20 122h941l-16 -99l-965 -1173h779l-19 -122h-941zM719 1653q5 32 32.5 56.5t59.5 24.5q33 0 53 -24t15 -57t-32.5 -56.5t-61.5 -23.5q-32 0 -51.5 23.5t-14.5 56.5z" />
    <glyph glyph-name="zdotaccent" unicode="&#x17c;" horiz-adv-x="944" 
d="M66 0l16 99l769 792h-644l19 120h812l-17 -105l-759 -786h635l-19 -120h-812zM594 1372q5 33 32.5 56.5t60.5 23.5q32 0 52.5 -23.5t15.5 -56.5t-33 -57t-61 -24t-52.5 24t-14.5 57z" />
    <glyph glyph-name="Zcaron" unicode="&#x17d;" horiz-adv-x="1073" 
d="M66 0l16 102l963 1170h-778l20 122h941l-16 -99l-965 -1173h779l-19 -122h-941zM595 1785h150l57 -116l96 116h149l-225 -263h-88z" />
    <glyph glyph-name="zcaron" unicode="&#x17e;" horiz-adv-x="944" 
d="M66 0l16 99l769 792h-644l19 120h812l-17 -105l-759 -786h635l-19 -120h-812zM479 1521h146l54 -131l96 131h143l-218 -292h-92z" />
    <glyph glyph-name="uni0218" unicode="&#x218;" horiz-adv-x="1184" 
d="M608 -26q-78 0 -147.5 16.5t-128 52.5t-97.5 88t-55.5 127.5t-4.5 165.5h128q-22 -157 70 -241t257 -84q148 0 250 69.5t120 184.5q10 61 0 103t-47.5 75t-94 57.5t-154.5 53.5q-109 33 -179 65.5t-120 78.5t-66 108t-3 146q25 158 173 262.5t328 104.5q84 0 151.5 -24
t112 -65.5t72.5 -98t36.5 -121t0.5 -134.5h-126q8 153 -63.5 235.5t-205.5 82.5q-80 0 -153 -25.5t-127.5 -81t-66.5 -131.5q-9 -60 0.5 -100t49 -72t94 -54t154.5 -52q105 -32 175.5 -66t120.5 -82t67 -112.5t3 -149.5q-17 -107 -91.5 -194.5t-188.5 -137.5t-244 -50z
M384 -372l160 316h122l-10 -61l-147 -255h-125z" />
    <glyph glyph-name="uni0219" unicode="&#x219;" horiz-adv-x="1007" 
d="M520 -14q-82 0 -150 22t-119 65.5t-74 117.5t-10 170h126q-9 -140 54 -196.5t196 -56.5q111 0 182 39.5t83 114.5q13 77 -35.5 112.5t-214.5 71.5q-66 14 -115.5 33t-94 51t-63.5 82.5t-9 115.5q19 122 131.5 202.5t263.5 80.5q91 0 159 -28.5t105.5 -78t53 -111.5
t8.5 -134h-124q-6 125 -56.5 177.5t-166.5 52.5q-98 0 -165.5 -41.5t-79.5 -117.5q-11 -69 38.5 -104t170.5 -60q183 -39 264 -107t61 -195q-20 -126 -138.5 -202t-280.5 -76zM298 -372l160 316h122l-10 -61l-147 -255h-125z" />
    <glyph glyph-name="uni021A" unicode="&#x21a;" horiz-adv-x="1274" 
d="M573 0l201 1272h-493l20 122h1112l-20 -122h-493l-201 -1272h-126zM412 -372l162 316h120l-10 -61l-147 -255h-125z" />
    <glyph glyph-name="uni021B" unicode="&#x21b;" horiz-adv-x="735" 
d="M533 -12q-120 0 -176.5 71t-35.5 207l99 627h-229l19 118h229l60 381h124l-60 -381h234l-19 -118h-234l-99 -627q-13 -87 11.5 -122.5t95.5 -35.5h13q15 0 44 4.5t46 3.5l-19 -121q-11 0 -41.5 -3.5t-50.5 -3.5h-11zM221 -372l160 316h121l-10 -61l-146 -255h-125z" />
    <glyph glyph-name="uni0237" unicode="&#x237;" horiz-adv-x="527" 
d="M-5 -391q-118 0 -179 60l64 101q41 -25 65.5 -33.5t66.5 -8.5h14q72 0 108 35t50 123l178 1125h123l-178 -1125q-21 -135 -100 -206t-198 -71h-14z" />
    <glyph glyph-name="circumflex" unicode="&#x2c6;" horiz-adv-x="731" 
d="M385 1511l220 292h92l127 -292h-147l-53 132l-96 -132h-143z" />
    <glyph glyph-name="caron" unicode="&#x2c7;" horiz-adv-x="731" 
d="M558 1511l-126 292h145l54 -131l95 131h145l-221 -292h-92z" />
    <glyph glyph-name="breve" unicode="&#x2d8;" horiz-adv-x="786" 
d="M631 1503q-111 0 -161.5 80.5t-15.5 208.5h119q-21 -88 -1.5 -125.5t79.5 -37.5q120 0 128 163h120q-6 -128 -83 -208.5t-185 -80.5z" />
    <glyph glyph-name="dotaccent" unicode="&#x2d9;" horiz-adv-x="937" 
d="M717 1573q-33 0 -52.5 23.5t-14.5 56.5t32.5 57t60.5 24t53 -24t15 -57t-33 -56.5t-61 -23.5z" />
    <glyph glyph-name="ring" unicode="&#x2da;" horiz-adv-x="872" 
d="M673 1495q-66 0 -106 44.5t-29 115.5t64.5 115t120.5 44t106.5 -44t28.5 -115t-64.5 -115.5t-120.5 -44.5zM668 1655q-3 -21 1.5 -27.5t23.5 -6.5t26 6.5t10 27.5q4 21 -1 27.5t-24 6.5t-25.5 -6.5t-10.5 -27.5z" />
    <glyph glyph-name="ogonek" unicode="&#x2db;" horiz-adv-x="980" 
d="M273 -419q-67 0 -108.5 41t-27.5 132q20 125 120.5 227.5t239.5 134.5l80 -98q-135 -23 -215.5 -93.5t-95.5 -165.5q-6 -35 0 -44.5t34 -9.5q38 0 74 25.5t112 106.5l-28 -177q-82 -79 -185 -79z" />
    <glyph glyph-name="tilde" unicode="&#x2dc;" horiz-adv-x="701" 
d="M400 1605q-2 70 34 116.5t99 46.5q39 0 117 -28q40 -14 58 -17q6 31 7 37h117q4 -75 -33 -119t-97 -44q-42 0 -118 26q-42 17 -58 19q-6 -31 -7 -37h-119z" />
    <glyph glyph-name="hungarumlaut" unicode="&#x2dd;" horiz-adv-x="885" 
d="M723 1511l191 263h158l-216 -263h-133zM457 1511l190 263h158l-215 -263h-133z" />
    <glyph glyph-name="uni0326" unicode="&#x326;" horiz-adv-x="0" 
d="M169 -324l162 315h120l-10 -61l-147 -254h-125z" />
    <glyph glyph-name="Wgrave" unicode="&#x1e80;" horiz-adv-x="1755" 
d="M418 0l-167 1394h130l136 -1151l516 1086h107l174 -1086l503 1151h129l-609 -1394h-113l-174 1087l-520 -1087h-112zM947 1785h157l107 -263h-133z" />
    <glyph glyph-name="wgrave" unicode="&#x1e81;" horiz-adv-x="1465" 
d="M345 0l-121 1011h131l91 -773l395 773h106l151 -771l335 771h128l-439 -1011h-110l-152 794l-407 -794h-108zM756 1521h157l112 -292h-131z" />
    <glyph glyph-name="Wacute" unicode="&#x1e82;" horiz-adv-x="1755" 
d="M418 0l-167 1394h130l136 -1151l516 1086h107l174 -1086l503 1151h129l-609 -1394h-113l-174 1087l-520 -1087h-112zM1006 1522l190 263h158l-215 -263h-133z" />
    <glyph glyph-name="wacute" unicode="&#x1e83;" horiz-adv-x="1465" 
d="M345 0l-121 1011h131l91 -773l395 773h106l151 -771l335 771h128l-439 -1011h-110l-152 794l-407 -794h-108zM831 1229l206 292h156l-229 -292h-133z" />
    <glyph glyph-name="Wdieresis" unicode="&#x1e84;" horiz-adv-x="1755" 
d="M418 0l-167 1394h130l136 -1151l516 1086h107l174 -1086l503 1151h129l-609 -1394h-113l-174 1087l-520 -1087h-112zM943 1653q5 33 32.5 57t60.5 24t53 -24t15 -57t-33 -56.5t-61 -23.5t-52.5 23.5t-14.5 56.5zM1179 1653q5 33 33 57t61 24t53 -24t15 -57t-33 -56.5
t-61 -23.5q-34 0 -53.5 23.5t-14.5 56.5z" />
    <glyph glyph-name="wdieresis" unicode="&#x1e85;" horiz-adv-x="1465" 
d="M345 0l-121 1011h131l91 -773l395 773h106l151 -771l335 771h128l-439 -1011h-110l-152 794l-407 -794h-108zM752 1373q6 34 33.5 57.5t59.5 23.5q33 0 53 -23.5t14 -57.5q-5 -32 -32 -56t-60 -24t-53 23.5t-15 56.5zM988 1373q6 34 33 57.5t61 23.5q33 0 53 -23.5
t14 -57.5q-5 -32 -32 -56t-60 -24t-53.5 23.5t-15.5 56.5z" />
    <glyph glyph-name="uni1E9E" unicode="&#x1e9e;" horiz-adv-x="1270" 
d="M725 -8q-133 0 -242 28l21 132q125 -34 241 -34q242 0 268 167q9 55 -12.5 102t-97.5 129q-75 80 -96.5 135.5t-9.5 128.5q12 74 51 129.5t139 135.5q102 83 138.5 129.5t44.5 101.5q13 84 -41 126t-174 42h-375l-229 -1444h-127l249 1569h504q172 0 259 -79.5t65 -218.5
q-13 -84 -74 -161.5t-177 -168.5q-66 -50 -90 -82.5t-31 -78.5q-7 -45 6.5 -77.5t63.5 -82.5q87 -90 124 -167.5t23 -161.5q-22 -141 -135 -220t-286 -79z" />
    <glyph glyph-name="Ygrave" unicode="&#x1ef2;" horiz-adv-x="1150" 
d="M513 0l62 419l-334 975h142l278 -827l547 827h143l-652 -974l-62 -420h-124zM641 1785h158l106 -263h-132z" />
    <glyph glyph-name="ygrave" unicode="&#x1ef3;" horiz-adv-x="1027" 
d="M186 -240q41 -31 70.5 -20.5t69.5 81.5l127 225l-243 965h136l197 -806l460 806h134l-706 -1240q-68 -118 -147 -148.5t-165 29.5zM538 1521h157l113 -292h-131z" />
    <glyph glyph-name="endash" unicode="&#x2013;" horiz-adv-x="1062" 
d="M233 526l20 125h762l-20 -125h-762z" />
    <glyph glyph-name="emdash" unicode="&#x2014;" horiz-adv-x="1860" 
d="M163 526l20 125h1700l-20 -125h-1700z" />
    <glyph glyph-name="quoteleft" unicode="&#x2018;" horiz-adv-x="491" 
d="M264 922l-5 54l229 490h127l-242 -544h-109z" />
    <glyph glyph-name="quoteright" unicode="&#x2019;" horiz-adv-x="490" 
d="M254 922l242 544h111l2 -55l-229 -489h-126z" />
    <glyph glyph-name="quotesinglbase" unicode="&#x201a;" horiz-adv-x="460" 
d="M69 -218l171 350h110l2 -57l-158 -293h-125z" />
    <glyph glyph-name="quotedblleft" unicode="&#x201c;" horiz-adv-x="691" 
d="M264 922l-5 54l229 490h127l-242 -544h-109zM460 977l229 489h126l-242 -544h-111z" />
    <glyph glyph-name="quotedblright" unicode="&#x201d;" horiz-adv-x="688" 
d="M452 922l242 544h111l2 -55l-228 -489h-127zM254 922l242 544h111l2 -55l-229 -489h-126z" />
    <glyph glyph-name="quotedblbase" unicode="&#x201e;" horiz-adv-x="646" 
d="M255 -218l171 350h110l2 -57l-158 -293h-125zM69 -218l171 350h110l2 -57l-158 -293h-125z" />
    <glyph glyph-name="dagger" unicode="&#x2020;" horiz-adv-x="1093" 
d="M436 -300l166 1057l-352 -2l20 130l351 -1l78 496h134l-81 -496l351 1l-20 -130l-351 2l-166 -1057h-130z" />
    <glyph glyph-name="daggerdbl" unicode="&#x2021;" horiz-adv-x="1093" 
d="M436 -300l77 493l-353 -2l21 130l352 -1l69 437l-352 -2l20 130l351 -1l78 496h134l-81 -496l351 1l-20 -130l-351 2l-69 -437l351 1l-21 -130l-350 2l-77 -493h-130z" />
    <glyph glyph-name="bullet" unicode="&#x2022;" horiz-adv-x="573" 
d="M363 487q-54 0 -84 37t-22 91q9 54 51 90.5t96 36.5t84.5 -36.5t21.5 -90.5q-8 -54 -50 -91t-97 -37z" />
    <glyph glyph-name="ellipsis" unicode="&#x2026;" horiz-adv-x="777" 
d="M573 -26q-34 0 -54 23.5t-15 56.5q5 34 32.5 57.5t61.5 23.5q33 0 53 -24t15 -57q-5 -32 -32.5 -56t-60.5 -24zM129 54q5 33 32.5 57t60.5 24t53 -24t15 -57q-5 -32 -32.5 -56t-60.5 -24t-53 24t-15 56zM317 54q5 33 32.5 57t60.5 24t53 -24t15 -57t-33 -56.5t-60 -23.5
q-34 0 -53.5 24t-14.5 56z" />
    <glyph glyph-name="perthousand" unicode="&#x2030;" horiz-adv-x="1868" 
d="M123 0l1113 1380h152l-1114 -1380h-151zM249 1066q23 146 115 243.5t222 97.5t191 -97.5t38 -243.5q-23 -144 -115 -243t-222 -99q-129 0 -190.5 99t-38.5 243zM380 1066q-34 -216 118 -216q153 0 187 216t-119 216q-152 0 -186 -216zM695 315q23 146 115 244t222 98
t191 -98t38 -244q-23 -143 -115 -242t-222 -99q-129 0 -190.5 99t-38.5 242zM826 315q-34 -216 118 -216t186 216q34 215 -118 215t-186 -215zM1271 315q23 146 115 244t222 98t191.5 -98t38.5 -244q-23 -143 -115.5 -242t-222.5 -99q-129 0 -190.5 99t-38.5 242zM1402 315
q-34 -216 118 -216q153 0 187 216q34 215 -119 215q-152 0 -186 -215z" />
    <glyph glyph-name="guilsinglleft" unicode="&#x2039;" horiz-adv-x="629" 
d="M396 154l-235 355l348 355h167l-348 -355l235 -355h-167z" />
    <glyph glyph-name="guilsinglright" unicode="&#x203a;" horiz-adv-x="629" 
d="M114 154l349 355l-236 355h165l238 -355l-351 -355h-165z" />
    <glyph glyph-name="fraction" unicode="&#x2044;" horiz-adv-x="155" 
d="M-291 -68l746 1493l135 21l-745 -1492z" />
    <glyph glyph-name="Euro" unicode="&#x20ac;" horiz-adv-x="1185" 
d="M710 -26q-228 0 -341 137.5t-99 414.5h-194l81 125h125l5 33q2 10 5.5 26.5t4.5 21.5h-141l81 126h89q79 268 244 408.5t375 140.5q123 0 200.5 -36t139.5 -119l-101 -93q-53 72 -108 97.5t-155 25.5q-71 0 -136.5 -22.5t-127.5 -70.5t-113.5 -132.5t-85.5 -198.5h717
l-86 -126h-662l-6 -40l-7 -41h645l-74 -125h-583q-8 -225 74.5 -326t263.5 -101q86 0 163 28t161 92l-25 -157q-152 -88 -329 -88z" />
    <glyph glyph-name="trademark" unicode="&#x2122;" horiz-adv-x="1052" 
d="M592 855l56 348h-122l-56 -348h-128l56 348h-157l19 122h443v-2h95l60 -269l147 269h127l-75 -468h-124l27 154l-83 -150h-103l-34 150l-24 -154h-124z" />
    <glyph glyph-name="partialdiff" unicode="&#x2202;" horiz-adv-x="1094" 
d="M516 -26q-183 0 -276.5 128.5t-61.5 329.5q37 233 188.5 372.5t350.5 139.5q154 0 255 -101q46 540 -242 540q-82 0 -143.5 -24.5t-138.5 -88.5l-64 96q93 76 181.5 109.5t189.5 33.5q457 0 322 -860q-25 -155 -70 -276.5t-113 -212t-163.5 -138.5t-214.5 -48zM309 436
q-26 -161 36.5 -249t190.5 -88q161 0 258.5 122.5t148.5 411.5q-30 96 -94.5 140.5t-149.5 44.5q-155 0 -258.5 -103t-131.5 -279z" />
    <glyph glyph-name="emptyset" unicode="&#x2205;" horiz-adv-x="1733" 
d="M862 -28q-131 0 -246.5 45.5t-199.5 128.5l-182 -156l-76 88l186 160q-133 203 -92 472q33 205 159 375t307.5 265.5t376.5 95.5q132 0 247 -45.5t199 -128.5l182 157l75 -89l-185 -159q64 -97 88.5 -218t3.5 -253q-24 -154 -104.5 -292t-194 -235.5t-256 -154
t-288.5 -56.5zM384 710q-33 -218 66 -380l986 851q-142 140 -361 140q-163 0 -311 -78t-250 -218.5t-130 -314.5zM522 238q140 -140 360 -140q250 0 449.5 174t241.5 438q35 216 -67 379z" />
    <glyph glyph-name="product" unicode="&#x220f;" horiz-adv-x="1099" 
d="M162 -207l232 1463h-105l20 124h919l-20 -124h-104l-232 -1463h-128l232 1463h-454l-232 -1463h-128z" />
    <glyph glyph-name="summation" unicode="&#x2211;" horiz-adv-x="1094" 
d="M17 -207l15 96l645 720l-366 678l15 93h898l-20 -124h-723l352 -651l-615 -686h785l-20 -126h-966z" />
    <glyph glyph-name="minus" unicode="&#x2212;" horiz-adv-x="1029" 
d="M187 576l20 126h837l-20 -126h-837z" />
    <glyph glyph-name="radical" unicode="&#x221a;" horiz-adv-x="1116" 
d="M442 -300l-114 842h-134l20 127h228l96 -724l624 1605h133l-725 -1850h-128z" />
    <glyph glyph-name="infinity" unicode="&#x221e;" horiz-adv-x="2019" 
d="M565 -26q-213 0 -321.5 157t-68.5 407q40 252 198 410t371 158q152 0 251 -80.5t139 -234.5q84 152 212 233.5t281 81.5q140 0 237.5 -72t136.5 -201t13 -295q-40 -250 -197 -407t-369 -157q-153 0 -253 81t-139 237q-85 -156 -211.5 -237t-279.5 -81zM307 538
q-16 -116 -2.5 -199t55.5 -136t98.5 -78.5t126.5 -25.5q67 0 129 22t122 70.5t109.5 137.5t79.5 210q3 123 -20 212t-66 138t-95.5 71t-118.5 22q-70 0 -135.5 -26.5t-123 -78.5t-99.5 -139t-60 -200zM1166 542q-3 -99 11.5 -176.5t41.5 -127t67 -81.5t84.5 -45t97.5 -13
q147 0 264 111t152 328q16 117 2.5 201t-55.5 138t-98 79.5t-125 25.5q-53 0 -103 -13t-102 -45t-95.5 -81t-81 -126t-60.5 -175z" />
    <glyph glyph-name="integral" unicode="&#x222b;" horiz-adv-x="633" 
d="M191 -300q-51 0 -93 25t-60 74l101 93q18 -42 33 -54.5t41 -12.5q39 0 67 49t48 174q20 135 18 540q-2 249 2.5 365t19.5 214q28 175 102.5 255t162.5 80q50 0 92.5 -26t59.5 -75l-100 -92q-18 42 -32.5 54t-41.5 12q-38 0 -66 -48.5t-48 -174.5q-22 -145 -19 -539
q2 -254 -2 -368.5t-20 -210.5q-28 -174 -102.5 -254t-162.5 -80z" />
    <glyph glyph-name="approxequal" unicode="&#x2248;" horiz-adv-x="1180" 
d="M241 726q120 188 301 188q53 0 97 -16.5t115 -58.5q68 -37 94 -47t61 -10q43 0 71.5 12.5t54 38t74.5 87.5l81 -75q-119 -188 -301 -188q-53 0 -97 16.5t-115 58.5q-64 36 -91 46t-64 10q-61 0 -95.5 -25t-103.5 -111zM188 389q120 187 300 187q52 0 96 -16.5t117 -57.5
q64 -36 91 -46.5t63 -10.5q62 0 96.5 24.5t103.5 112.5l81 -75q-121 -189 -301 -189q-52 0 -95.5 17t-116.5 59q-65 37 -91.5 47t-63.5 10q-61 0 -95.5 -25t-102.5 -112z" />
    <glyph glyph-name="notequal" unicode="&#x2260;" horiz-adv-x="1107" 
d="M251 193l158 214h-229l20 126h302l159 212h-427l20 125h500l159 217h145l-160 -217h231l-20 -125h-304l-158 -212h428l-20 -126h-501l-158 -214h-145z" />
    <glyph glyph-name="lessequal" unicode="&#x2264;" horiz-adv-x="1029" 
d="M956 147l-779 365l15 94l895 365l-22 -138l-676 -274l589 -273zM96 0l20 126h837l-20 -126h-837z" />
    <glyph glyph-name="greaterequal" unicode="&#x2265;" horiz-adv-x="1029" 
d="M119 147l22 139l677 273l-590 274l22 138l779 -365l-15 -94zM96 0l20 126h837l-20 -126h-837z" />
    <glyph glyph-name="lozenge" unicode="&#x25ca;" horiz-adv-x="945" 
d="M424 0l-225 690l444 690h96l225 -690l-444 -690h-96zM340 690l162 -503l321 503l-162 501z" />
    <glyph glyph-name="uniF8FF" unicode="&#xf8ff;" horiz-adv-x="1602" 
d="M788 253q-151 0 -279.5 75.5t-203 204.5t-74.5 280q0 152 75 280.5t203.5 203t280.5 74.5q151 0 279.5 -75t203.5 -203.5t75 -279.5q0 -152 -74.5 -281t-203.5 -204t-282 -75zM230 29v146h59q26 0 44 -9q37 -17 37 -64q0 -23 -10 -39q-21 -34 -71 -34h-59zM265 56h22
q18 0 26 4q22 10 22 42q0 18 -5 27q-12 20 -43 20h-22v-93zM298 814q0 -205 144 -350t348 -145q203 0 347.5 144.5t144.5 347.5q0 100 -39 191.5t-104.5 157.5t-156 105t-190.5 40q-134 0 -248 -65.5t-180 -178.5t-66 -247zM382 84q0 16 8 29q16 27 52 27q26 0 42 -14
q18 -15 18 -42v-8h-85q0 -8 3 -13q7 -13 25 -13q7 0 10 1q9 3 14 12l31 -3q-2 -10 -10 -17q-14 -16 -45 -16q-17 0 -33 7q-30 14 -30 50zM417 95h52l-3 10q-6 12 -23 12q-10 0 -14 -3q-10 -6 -12 -19zM472 912q10 -2 12 -4q52 -21 98 -27q41 -3 72 2q43 11 47 12
q3 0 8.5 2.5t7.5 3.5q-5 2 -16.5 8t-17 9t-13 8.5t-13.5 12.5h19q39 0 75 19q65 40 136 61q24 8 58 11q4 0 19.5 1t23.5 0q54 -2 89 -33q10 -11 28 -33v-2l-6 2q-45 17 -83 3.5t-62 -53.5q-7 -13 -25 -55q-9 -21 -27 -63.5t-20 -48.5q-33 -64 -65 -101q-27 -33 -66 -58
q-45 -34 -116 -55h-5l24 22q12 11 25 44q41 116 45 127q24 73 57 131v3q-2 -4 -11 -13q-8 -10 -10 -12q-23 -36 -31 -57q-2 -6 -8 -6q-99 3 -177 67q-40 38 -59 55q-1 1 -5 7t-8 10zM511 61l33 2q5 -14 23 -14q20 0 20 11q0 8 -16 11l-21 4q-36 6 -36 31q0 10 6 18
q13 16 46 16q48 0 53 -32l-31 -3q-4 14 -21 14q-19 0 -19 -11q0 -8 16 -12l22 -3q36 -6 36 -30q0 -9 -7 -18q-13 -18 -48 -18q-51 0 -56 34zM635 168q0 15 19 15q18 0 18 -15t-18 -15q-19 0 -19 15zM637 29v109h34v-109h-34zM686 84q0 20 7 31q13 25 43 25q10 0 18 -3
q12 -5 18 -17h1v18h35v-110q0 -14 -9 -23q-15 -19 -52 -19q-50 0 -57 31l31 3l2 -2q2 -3 4 -4q5 -6 21 -6q25 0 25 21v19h-1q-2 -3 -7 -8q-11 -9 -29 -9q-13 0 -25 5q-25 13 -25 48zM721 84q0 -10 3 -16q6 -14 24 -14q25 0 25 30q0 10 -3 17q-6 15 -22 15q-7 0 -15 -4
q-12 -7 -12 -28zM828 29v109h34v-19q10 21 37 21q13 0 23 -5q20 -10 20 -36v-70h-35v64q0 22 -21 22q-7 0 -13 -3q-11 -6 -11 -19v-64h-34zM957 84q0 15 7 29q16 27 54 27q20 0 33 -7q28 -16 28 -49q0 -17 -7 -30q-16 -27 -54 -27q-16 0 -33 7q-28 16 -28 50zM992 84
q0 -9 3 -18q7 -15 23 -15q10 0 15 4q12 9 12 29q0 2 -3 17q-8 16 -24 16q-7 0 -14 -5q-12 -7 -12 -28zM1081 138h36l26 -78h1l26 78h36l-43 -109h-39zM1207 60q0 17 15 25q13 8 32 8l17 3q13 0 13 7v1q0 14 -19 14q-17 0 -22 -13l-32 3q3 10 10 17q15 15 45 15q20 0 37 -9
q15 -8 15 -28v-74h-33v16q-5 -7 -9 -9q-9 -9 -27 -9q-13 0 -21 4q-21 8 -21 29zM1240 60q0 -12 18 -12q8 0 14 3q12 5 12 18v11q-4 -2 -23 -5q-7 0 -12 -3q-9 -3 -9 -12zM1297 177q0 16 11 26.5t27 10.5t26.5 -10.5t10.5 -26.5t-10.5 -27t-26.5 -11t-27 11t-11 27zM1309 177
q0 -11 7.5 -19t18.5 -8t18.5 8t7.5 19t-7.5 18.5t-18.5 7.5t-18.5 -7.5t-7.5 -18.5zM1322 160v35h14q12 0 12 -11q0 -5 -5 -10l8 -14h-10l-6 11h-5v-11h-8zM1330 180h6q5 0 5 3t-5 3h-6v-6z" />
    <glyph glyph-name="_Designova" horiz-adv-x="1752" 
d="M874 41q-174 0 -322.5 87t-235 235.5t-86.5 323.5q1 131 52 250.5t137.5 205.5t206 137t250.5 51q175 0 323.5 -86t235.5 -234.5t87 -323.5q0 -176 -87 -324.5t-236 -235t-325 -86.5zM308 687q0 -116 45 -221.5t120.5 -181.5t181 -121t221.5 -45q154 0 285 76t207 207
t76 285q0 116 -45 221.5t-120.5 181.5t-180.5 121t-221 45t-221 -45t-181.5 -120.5t-121.5 -181t-45 -221.5zM510 800q7 0 13 -4q58 -22 115 -31q45 -5 81 3q29 4 53 14q5 0 11.5 3t8.5 4q-5 3 -22.5 11.5t-27.5 15.5t-19 17h21q39 0 86 20q85 53 158 73q37 10 66 10
q6 0 24.5 1.5t26.5 0.5q67 -4 102 -39q6 -5 33 -37v-2q-3 2 -7 2q-53 20 -95.5 4.5t-71.5 -59.5q-5 -9 -10 -20.5t-11 -25t-9 -21.5q-6 -14 -25 -59t-30 -68q-36 -74 -74 -119q-20 -27 -74 -66q-52 -38 -136 -63h-7l28 24q18 17 30 51q7 20 25 71t27 78q31 90 65 150v1
q-3 -3 -11 -13q-9 -7 -11 -16q-23 -27 -38 -65q-3 -5 -9 -5q-117 5 -204 78q-10 10 -32.5 31t-33.5 32q-12 14 -16 18z" />
    <glyph glyph-name="_Origin" horiz-adv-x="2255" 
d="M150 1055v50h1955v-50h-1955zM150 236v50h1955v-50h-1955zM228 437v177h42v-177h-42zM260 734v177h148v-32h-107v-39h97v-31h-97v-42h107v-33h-148zM298 437v177h34l89 -107v107h40v-177h-33l-88 109v-109h-42zM438 734v177h34l88 -107v107h40v-177h-33l-88 109v-109h-41
zM554 437v177h87q72 0 72 -45q0 -28 -26 -40q3 0 3 -2q28 -12 28 -42q0 -48 -71 -48h-93zM596 468h48q32 0 32 22t-32 22h-48v-44zM596 545h42q33 0 33 20q0 22 -33 22h-42v-42zM629 879v32h156v-32h-57v-145h-41v145h-58zM738 437v177h148v-33h-107v-38h96v-31h-96v-41h105
v-34h-146zM803 911h44l40 -124l42 124h38l40 -126l42 126h39l-57 -177h-45l-39 121l-41 -121h-43zM914 437v177h81q28 0 42 -6q36 -19 36 -57q0 -21 -10 -35q-15 -18 -29 -23l37 -56h-43l-35 50h-37v-50h-42zM956 520h37q38 0 38 31q0 30 -38 30h-37v-61zM1093 437v177h40
v-143h106v-34h-146zM1096 823q0 39 28 65q26 26 69 26t69 -26q28 -25 28 -65q0 -39 -28 -65q-26 -27 -68 -27q-44 0 -70 27q-28 28 -28 65zM1138 823q0 -25 15.5 -40.5t39.5 -15.5t39.5 15.5t15.5 40.5t-15.5 41.5t-39.5 16.5t-39.5 -16.5t-15.5 -41.5zM1268 437v177h41
v-177h-41zM1313 734v177h81q28 0 41 -6q36 -17 36 -57q0 -21 -10 -35q-9 -15 -29 -23l39 -56h-45l-33 50h-39v-50h-41zM1338 437v177h35l87 -107v107h42v-177h-34l-89 109v-109h-41zM1354 817h37q38 0 38 31t-38 31h-37v-62zM1491 734v177h148v-32h-107v-39h96v-31h-96v-75
h-41zM1528 461q0 24 25 24q10 0 17 -7t7 -17q0 -11 -7 -25l-14 -38h-26l12 41q-14 5 -14 22zM1655 734v177h147v-32h-106v-39h95v-31h-95v-42h106v-33h-147zM1678 437v177h80q30 0 52 -11q46 -21 46 -77q0 -28 -12 -47q-23 -42 -86 -42h-80zM1720 471h37q17 0 31 7
q26 14 26 48q0 21 -6 29q-14 26 -51 26h-37v-110zM1832 734v177h33l90 -107v107h40v-177h-34l-89 109v-109h-40zM1880 437v177h147v-33h-107v-38h97v-31h-97v-41h106v-34h-146z" />
    <glyph glyph-name="_VendorID" horiz-adv-x="1176" 
d="M103 154v1187h974v-1187h-974zM106 63q0 13 7.5 20.5t18.5 7.5q9 0 12 -3l4 -5v26h13v-72h-13v9l-4 -7q-8 -5 -15 -5q-23 0 -23 29zM120 63q0 -17 13 -17q15 0 15 17v1q0 18 -13 18q-15 0 -15 -19zM156 205h869v1084h-869v-1084zM171 63q0 13 7.5 20.5t19.5 7.5
q11 0 18.5 -7.5t7.5 -19.5q0 -2 -2 -5h-37q1 -13 13 -13q10 0 12 9h12q-4 -21 -24 -21q-27 0 -27 29zM185 67h25q-3 15 -12 15q-12 0 -13 -15zM228 52h14q3 -9 9 -9q9 0 9 7q0 3 -12 9q-18 5 -18 16q0 16 21 16t21 -16h-14q-1 7 -7 7q-7 0 -7 -6q0 -4 12 -9q17 -5 17 -15
q0 -18 -22 -18q-20 0 -23 18zM270 455q0 59 46 125l97 137h64l-84 -120q11 3 23 3q62 0 102.5 -41.5t40.5 -103.5q0 -61 -41.5 -103.5t-101.5 -42.5q-61 0 -103.5 42.5t-42.5 103.5zM270 926q0 56 46 123l97 142h64l-84 -122q7 2 23 2q63 0 103 -41t40 -104
q0 -61 -41 -102.5t-102 -41.5t-103.5 42t-42.5 102zM281 102q0 7 8 7t8 -7q0 -8 -8 -8t-8 8zM282 37v54h14v-54h-14zM306 63q0 28 26 28q9 0 12 -3l4 -5v8h14v-41q0 -8 -2 -11q0 -24 -27 -24q-26 0 -26 18v1h14v-1q0 -8 12 -8q11 0 15 13v8l-4 -7q-8 -2 -14 -2q-24 0 -24 26
zM321 64q0 -18 12 -18q15 0 15 17v1q0 18 -15 18q-12 0 -12 -18zM324 455q0 -42 25.5 -68t66.5 -26q39 0 64.5 26t25.5 68q0 40 -25.5 65t-64.5 25q-41 0 -66.5 -25t-25.5 -65zM324 926q0 -41 25.5 -67t66.5 -26q39 0 64.5 26.5t25.5 66.5t-25.5 66t-64.5 26
q-41 0 -66.5 -25t-25.5 -67zM373 37v54h14v-10l4 7q5 3 13 3q17 0 20 -15q1 -3 1 -9v-30h-15v34q0 11 -10 11q-13 0 -13 -21v-24h-14zM432 63q0 13 7.5 20.5t19.5 7.5q28 0 28 -28q0 -29 -28 -29q-12 0 -19.5 8t-7.5 21zM446 63q0 -17 13 -17q15 0 15 17q0 19 -15 19
q-13 0 -13 -19zM492 91h14l14 -45l13 45h14l-19 -54h-18zM552 52q0 16 30 16h3v7q0 7 -9 7q-11 0 -11 -9h-13q0 18 24 18q19 0 21 -15v-39h-12v6l-3 -5q-8 -4 -14 -4q-16 0 -16 18zM565 52q0 -6 8 -6q12 0 12 9v6q-20 2 -20 -9zM606 80v9h6v8q0 15 19 15h6v-11q-11 2 -11 -5
v-7h11v-9h-11v-43h-14v43h-6zM619 455q0 62 44 125l97 137h66l-86 -120q11 3 25 3q61 0 102 -41.5t41 -103.5q0 -61 -41.5 -103.5t-101.5 -42.5q-61 0 -103.5 42.5t-42.5 103.5zM619 926q0 57 44 123l97 142h66l-87 -122q8 2 26 2q61 0 102 -41.5t41 -103.5
q0 -61 -41.5 -102.5t-101.5 -41.5q-61 0 -103.5 41.5t-42.5 102.5zM641 63q0 28 28 28q27 0 27 -28q0 -29 -27 -29q-28 0 -28 29zM655 63q0 -17 14 -17q13 0 13 17q0 19 -13 19q-14 0 -14 -19zM672 455q0 -42 26 -68t67 -26q38 0 62.5 26t24.5 68q0 40 -24.5 65t-62.5 25
q-41 0 -67 -25t-26 -65zM672 926q0 -41 26 -67t67 -26q38 0 62.5 26t24.5 67q0 40 -24.5 66t-62.5 26q-41 0 -67 -25.5t-26 -66.5zM705 37v54h12v-10l6 7q4 3 13 3q16 0 19 -15v-39h-14v34q-4 11 -9 11q-15 0 -15 -21v-24h-12zM762 80v9h8v13h14v-13h10v-9h-10v-28
q2 -10 9 -6v-10h-8q-15 0 -15 10v34h-8zM798 52h15q1 -9 10 -9q8 0 8 7q0 3 -12 9q-17 5 -17 16q0 16 20 16q19 0 24 -16h-16q0 7 -9 7q-5 0 -5 -6q0 -5 11 -9q19 -6 19 -15q0 -18 -23 -18q-21 0 -25 18zM850 42q0 10 9 10t9 -10q0 -8 -9 -8t-9 8zM874 63q0 13 8 20.5
t18 7.5q25 0 25 -20h-13q-3 11 -12 11q-12 0 -12 -19q0 -17 12 -17q10 0 12 9h13q-1 -21 -25 -21q-26 0 -26 29zM930 63q0 28 29 28q26 0 26 -28q0 -29 -26 -29q-29 0 -29 29zM944 63q0 -17 15 -17q13 0 13 17q0 19 -13 19q-15 0 -15 -19zM995 37v54h14v-9l5 6q3 3 9 3
q13 0 18 -10l5 7q3 3 11 3q17 0 17 -12q1 -4 1 -12v-30h-13v27q0 2 -0.5 5t-0.5 4q0 9 -10 9q-9 0 -9 -18v-27h-13v36q-5 9 -10 9q-10 0 -10 -18v-27h-14z" />
    </font>
</defs>
</svg>
