<?xml version="1.0" standalone="no"?>
<!DOCTYPE svg PUBLIC "-//W3C//DTD SVG 1.1//EN" "http://www.w3.org/Graphics/SVG/1.1/DTD/svg11.dtd" >
<svg xmlns="http://www.w3.org/2000/svg" xmlns:xlink="http://www.w3.org/1999/xlink" version="1.1">
<metadata>
Created by FontForge 20201107 at Tue Feb 27 18:49:32 2024
 By 
Copyright (c) 2024 by Designova. All rights reserved.
</metadata>
<defs>
<font id="RovelleUno-Light" horiz-adv-x="1252" >
  <font-face 
    font-family="Rovelle Uno Light"
    font-weight="300"
    font-stretch="normal"
    units-per-em="2048"
    panose-1="0 0 0 0 0 0 0 0 0 0"
    ascent="1638"
    descent="-410"
    x-height="1011"
    cap-height="1394"
    bbox="-280 -435 2105 1907"
    underline-thickness="100"
    underline-position="-255"
    unicode-range="U+0020-F8FF"
  />
<missing-glyph horiz-adv-x="1277" 
d="M162 0v1380h953v-1380h-953zM276 240l296 457l-296 456v-913zM325 113h626l-313 482zM335 1268l303 -469l304 469h-607zM705 697l296 -457v913z" />
    <glyph glyph-name=".notdef" horiz-adv-x="1277" 
d="M162 0v1380h953v-1380h-953zM276 240l296 457l-296 456v-913zM325 113h626l-313 482zM335 1268l303 -469l304 469h-607zM705 697l296 -457v913z" />
    <glyph glyph-name=".null" horiz-adv-x="0" 
 />
    <glyph glyph-name="nonmarkingreturn" horiz-adv-x="682" 
 />
    <glyph glyph-name="space" unicode=" " horiz-adv-x="570" 
 />
    <glyph glyph-name="exclam" unicode="!" horiz-adv-x="541" 
d="M209 207l-8 1173h139l-8 -1173h-123zM190 54q0 33 24 57t56 24q34 0 57.5 -24t23.5 -57q0 -32 -23.5 -56t-57.5 -24q-32 0 -56 24t-24 56z" />
    <glyph glyph-name="quotedbl" unicode="&#x22;" horiz-adv-x="612" 
d="M340 922l-6 544h128l-8 -544h-114zM150 1466h128l-8 -544h-114z" />
    <glyph glyph-name="numbersign" unicode="#" horiz-adv-x="1054" 
d="M193 0l98 459h-201v127h228l45 210h-216v125h242l98 459h128l-98 -459h120l98 459h127l-97 -459h199v-125h-227l-43 -210h215v-127h-243l-98 -459h-127l97 459h-121l-96 -459h-128zM445 586h121l45 210h-120z" />
    <glyph glyph-name="dollar" unicode="$" horiz-adv-x="1103" 
d="M505 -23q-170 21 -282.5 134.5t-118.5 312.5h127q6 -142 77.5 -222t196.5 -98v532q-72 23 -128.5 53.5t-107 76.5t-78.5 112.5t-28 149.5q0 153 96.5 253.5t245.5 121.5v147h128v-146q88 -10 157.5 -50t113 -101t67.5 -134t28 -155h-129q-16 278 -237 313v-538
q358 -116 358 -405q0 -137 -95 -238.5t-263 -118.5v-146h-128v146zM295 1028q0 -102 52.5 -158.5t157.5 -94.5v501q-95 -18 -152.5 -80t-57.5 -168zM633 102q113 13 170 73t57 155q0 100 -54.5 163t-172.5 107v-498z" />
    <glyph glyph-name="percent" unicode="%" horiz-adv-x="1291" 
d="M123 0l894 1380h152l-895 -1380h-151zM80 1066q0 146 76.5 243.5t206.5 97.5t206.5 -97.5t76.5 -243.5q0 -144 -76.5 -243t-206.5 -99q-129 0 -206 99t-77 243zM211 1066q0 -216 152 -216q153 0 153 216t-153 216q-152 0 -152 -216zM645 315q0 146 76.5 244t206.5 98
t206.5 -98t76.5 -244q0 -143 -76.5 -242t-206.5 -99q-129 0 -206 99t-77 242zM776 315q0 -216 152 -216t152 216q0 215 -152 215t-152 -215z" />
    <glyph glyph-name="ampersand" unicode="&#x26;" horiz-adv-x="1268" 
d="M944 138q-156 -157 -400 -174q-132 -8 -225 27q-101 36 -160.5 112t-67.5 184q-12 174 116 301q67 65 175 133q-5 7 -27 34t-32 41q-98 123 -107 247q-10 150 85 251t255 112q156 12 247.5 -64t100.5 -202q8 -117 -50 -205q-12 -18 -29 -35t-80 -64.5t-179 -129.5
l366 -380q89 151 96 386h121q-5 -227 -78 -389q-23 -49 -51 -89l198 -206l-87 -83zM215 296q8 -112 90.5 -166.5t229.5 -43.5q200 13 324 140l-392 404q-48 -29 -91 -61q-86 -59 -127 -123t-34 -150zM340 1053q4 -52 28 -98q33 -70 119 -169q84 51 152 101q77 55 112 111.5
t30 132.5q-11 171 -218 157q-113 -7 -171 -71t-52 -164z" />
    <glyph glyph-name="quotesingle" unicode="'" horiz-adv-x="428" 
d="M156 922l-6 544h128l-8 -544h-114z" />
    <glyph glyph-name="parenleft" unicode="(" horiz-adv-x="582" 
d="M369 -151q-108 155 -173.5 386.5t-65.5 464.5t65.5 464.5t173.5 385.5h143q-120 -170 -185 -389t-65 -461q0 -241 65 -460t185 -391h-143z" />
    <glyph glyph-name="parenright" unicode=")" horiz-adv-x="582" 
d="M70 -151q120 172 185.5 391t65.5 460q0 242 -65.5 461.5t-185.5 388.5h145q107 -154 172 -385.5t65 -464.5t-65 -464.5t-172 -386.5h-145z" />
    <glyph glyph-name="asterisk" unicode="*" horiz-adv-x="924" 
d="M269 171l-109 76l202 268l-282 91l38 126l282 -102l-6 345h133l-5 -345l281 102l41 -126l-283 -91l202 -268l-110 -76l-192 273z" />
    <glyph glyph-name="plus" unicode="+" horiz-adv-x="1029" 
d="M451 163v413h-355v126h355v412h127v-412h355v-126h-355v-413h-127z" />
    <glyph glyph-name="comma" unicode="," horiz-adv-x="460" 
d="M104 -218l115 350h110l11 -57l-111 -293h-125z" />
    <glyph glyph-name="hyphen" unicode="-" horiz-adv-x="680" 
d="M100 509v126h480v-126h-480z" />
    <glyph glyph-name="period" unicode="." horiz-adv-x="401" 
d="M201 -26q-33 0 -57 24t-24 56q0 33 23.5 57t57.5 24q33 0 56.5 -24t23.5 -57q0 -32 -23.5 -56t-56.5 -24z" />
    <glyph glyph-name="slash" unicode="/" horiz-adv-x="741" 
d="M40 -56l500 1494h133l-500 -1494h-133z" />
    <glyph glyph-name="zero" unicode="0" horiz-adv-x="1164" 
d="M583 -26q-101 0 -181 35.5t-134 98.5t-90 154t-52 197t-16 231q0 126 16 232.5t52 197t90 153.5t134 98.5t181 35.5q124 0 216.5 -54t147.5 -152.5t81 -225.5t26 -285t-26 -285.5t-81 -225.5t-147 -151.5t-217 -53.5zM240 690q0 -136 18 -240.5t57 -185t106.5 -123
t161.5 -42.5q75 0 133 28t97 78.5t64 125t36 163t11 196.5q0 592 -341 592q-94 0 -161.5 -42.5t-106.5 -123t-57 -185t-18 -241.5z" />
    <glyph glyph-name="one" unicode="1" horiz-adv-x="750" 
d="M508 0v1215l-356 -221v148l389 238h95v-1380h-128z" />
    <glyph glyph-name="two" unicode="2" horiz-adv-x="1064" 
d="M80 0v92l461 447q89 86 142.5 151.5t79 121.5t33 97.5t7.5 102.5q0 124 -70 197t-204 73q-133 0 -216.5 -81.5t-97.5 -227.5l-7 -57h-126l6 66q19 191 141.5 308t299.5 117q98 0 176 -31.5t127.5 -86t75.5 -125.5t26 -152q0 -140 -65.5 -268.5t-231.5 -287.5l-343 -330
h700v-126h-914z" />
    <glyph glyph-name="three" unicode="3" horiz-adv-x="1131" 
d="M568 -10q-231 0 -361.5 130t-115.5 334l125 6q-17 -165 76 -256.5t276 -91.5q166 0 258.5 78.5t92.5 212.5t-92.5 212.5t-258.5 78.5q-64 0 -130 -14v102l392 486h-716v126h914v-89l-401 -491q188 -17 301 -130t113 -281q0 -182 -130.5 -297.5t-342.5 -115.5zM451 781
l6 -7l1 1v6h-7z" />
    <glyph glyph-name="four" unicode="4" horiz-adv-x="1191" 
d="M774 0v317h-694v96l704 981h114v-955h217v-122h-217v-317h-124zM248 439h526v736z" />
    <glyph glyph-name="five" unicode="5" horiz-adv-x="1072" 
d="M519 -14q-75 0 -144.5 23.5t-130.5 69.5t-102.5 125.5t-51.5 181.5l-6 67h126l7 -58q13 -132 91.5 -207.5t212.5 -75.5q65 0 123 20t105 59.5t74.5 106t27.5 152.5q0 159 -81 247t-221 88h-26q-110 0 -183.5 -55.5t-104.5 -162.5h-127l106 827h739v-126h-628l-56 -433
q107 75 250 75h33q197 0 313.5 -130t116.5 -328q0 -142 -64.5 -249.5t-168.5 -162t-230 -54.5z" />
    <glyph glyph-name="six" unicode="6" horiz-adv-x="1098" 
d="M549 -10q-191 0 -325 132.5t-134 322.5q0 122 71 246l409 703h139l-297 -514q69 23 139 23q191 0 324 -133t133 -323q0 -191 -133.5 -324t-325.5 -133zM216 447q0 -147 94 -241t239 -94t240.5 95t95.5 241q0 145 -95.5 240t-240.5 95q-143 0 -238 -95t-95 -241z" />
    <glyph glyph-name="seven" unicode="7" horiz-adv-x="1124" 
d="M207 0l700 1272h-867v122h1014v-99l-707 -1295h-140z" />
    <glyph glyph-name="eight" unicode="8" horiz-adv-x="1115" 
d="M557 -28q-132 0 -236.5 45t-167.5 137t-63 218q0 116 58 207t162 142q-75 49 -115 128.5t-40 178.5q0 161 112.5 270t305.5 109q200 0 309 -108t109 -271q0 -100 -43.5 -180.5t-121.5 -128.5q97 -50 148 -140t51 -207q0 -126 -66.5 -218.5t-171 -137t-230.5 -44.5z
M222 372q0 -71 28 -125t76 -86t107.5 -47.5t127.5 -15.5q63 0 120.5 15.5t106 47.5t77.5 86t29 125q0 133 -82 207.5t-247 74.5q-168 0 -255.5 -75.5t-87.5 -206.5zM285 1028q0 -64 23.5 -113.5t64 -78.5t91 -43.5t109.5 -14.5q123 0 205 62.5t82 187.5q0 122 -74.5 188
t-212.5 66q-139 0 -213.5 -66t-74.5 -188z" />
    <glyph glyph-name="nine" unicode="9" horiz-adv-x="1098" 
d="M687 515q-70 -24 -141 -24q-189 0 -322.5 134t-133.5 323q0 191 133.5 323.5t324.5 132.5q192 0 326 -131.5t134 -322.5q0 -120 -72 -248l-409 -702h-139zM214 947q0 -145 95 -240.5t239 -95.5t239.5 95.5t95.5 241.5q0 147 -94 240.5t-241 93.5q-144 0 -239 -94.5
t-95 -240.5z" />
    <glyph glyph-name="colon" unicode=":" horiz-adv-x="442" 
d="M220 939q-33 0 -56.5 23.5t-23.5 56.5t23.5 57t56.5 24q34 0 58 -24t24 -57t-24 -56.5t-58 -23.5zM140 54q0 33 23.5 57t56.5 24q34 0 58 -23.5t24 -57.5q0 -33 -24 -56.5t-58 -23.5q-33 0 -56.5 24t-23.5 56z" />
    <glyph glyph-name="semicolon" unicode=";" horiz-adv-x="520" 
d="M124 -218l114 350h110l11 -57l-110 -293h-125zM218 1019q0 32 24 56.5t57 24.5t57 -24.5t24 -56.5q0 -33 -24 -56.5t-57 -23.5t-57 23.5t-24 56.5z" />
    <glyph glyph-name="less" unicode="&#x3c;" horiz-adv-x="1031" 
d="M935 87l-839 408v91l839 408v-143l-640 -311l640 -310v-143z" />
    <glyph glyph-name="equal" unicode="=" horiz-adv-x="1107" 
d="M116 407v126h875v-126h-875zM116 745v125h875v-125h-875z" />
    <glyph glyph-name="greater" unicode="&#x3e;" horiz-adv-x="1031" 
d="M96 87v143l640 310l-640 311v143l839 -408v-91z" />
    <glyph glyph-name="question" unicode="?" horiz-adv-x="1037" 
d="M426 207q0 69 2 112t10 90.5t22 81t39 74.5t60 80t86 90q79 76 113.5 144.5t34.5 150.5q0 123 -70.5 187.5t-200.5 64.5q-152 0 -230 -92.5t-80 -262.5h-126q-6 209 116.5 344.5t319.5 135.5q188 0 294.5 -107.5t106.5 -269.5q0 -204 -187 -382q-55 -52 -87.5 -90.5
t-54 -73t-30.5 -78t-12 -85t-2 -114.5h-124zM409 54q0 33 23.5 57t57.5 24q33 0 57 -23.5t24 -57.5q0 -33 -24 -56.5t-57 -23.5q-34 0 -57.5 24t-23.5 56z" />
    <glyph glyph-name="at" unicode="@" horiz-adv-x="1667" 
d="M769 -195q-100 0 -195.5 26.5t-181.5 83.5t-151 137.5t-103 196t-38 252.5q0 151 47 285.5t127.5 232.5t184 170t219.5 107.5t232 35.5q192 0 342 -83.5t232.5 -232.5t82.5 -339q0 -126 -32 -229.5t-86.5 -169.5t-123.5 -101.5t-146 -35.5q-69 0 -130 26.5t-80 76.5
q-104 -119 -241 -119q-47 0 -91.5 15.5t-87 50.5t-68.5 102t-26 159q0 142 56 265.5t158.5 199.5t225.5 76q118 0 179 -86l-9 22l7 30h135l-107 -445q-23 -109 -23 -156q0 -49 24.5 -70t80.5 -21q110 0 182 107.5t72 294.5q0 255 -144.5 396.5t-392.5 141.5
q-94 0 -189 -29.5t-181 -89.5t-152.5 -142.5t-106 -196t-39.5 -242.5q0 -141 43.5 -252.5t119 -181t171 -106t204.5 -36.5q156 0 269.5 38.5t256.5 143.5l69 -110q-167 -118 -298 -158t-297 -40zM586 459q0 -112 37 -160t113 -48q175 0 248 325l18 75q22 98 -9 157t-105 59
q-123 0 -212.5 -117t-89.5 -291z" />
    <glyph glyph-name="A" unicode="A" horiz-adv-x="1161" 
d="M40 0l486 1394h107l488 -1394h-134l-156 451h-501l-156 -451h-134zM371 572h420l-210 606z" />
    <glyph glyph-name="B" unicode="B" horiz-adv-x="1228" 
d="M170 0v1394h506q189 0 299.5 -97.5t110.5 -266.5q0 -91 -34.5 -165.5t-97.5 -122.5q92 -44 143 -134.5t51 -215.5q0 -192 -117 -292t-336 -100h-525zM294 122h401q174 0 252 64.5t78 205.5q0 269 -258 269h-473v-539zM294 782h431q114 0 175.5 63.5t61.5 180.5
q0 246 -286 246h-382v-490z" />
    <glyph glyph-name="C" unicode="C" horiz-adv-x="1349" 
d="M695 -12q-275 0 -445 193t-170 515q0 324 170 517t445 193h20q200 0 348 -104.5t216 -288.5l-116 -43q-57 153 -170 232.5t-278 79.5h-20q-230 0 -360.5 -155.5t-130.5 -430.5q0 -274 130.5 -429t360.5 -155h20q165 0 278 80t170 232l116 -42q-68 -184 -216 -289
t-348 -105h-20z" />
    <glyph glyph-name="D" unicode="D" horiz-adv-x="1254" 
d="M170 0v1394h304q332 0 516 -186.5t184 -521.5q0 -329 -182.5 -507.5t-519.5 -178.5h-302zM294 122h175q290 0 433.5 140t143.5 424q0 292 -145 439t-429 147h-178v-1150z" />
    <glyph glyph-name="E" unicode="E" horiz-adv-x="1157" 
d="M170 0v1394h897v-122h-773v-508h708v-122h-708v-520h773v-122h-897z" />
    <glyph glyph-name="F" unicode="F" horiz-adv-x="1157" 
d="M170 0v1394h897v-122h-773v-508h708v-122h-708v-642h-124z" />
    <glyph glyph-name="G" unicode="G" horiz-adv-x="1323" 
d="M695 -12q-275 0 -445 193t-170 517q0 323 170 515.5t445 192.5q204 0 351.5 -107.5t206.5 -294.5l-114 -46q-48 154 -159.5 239t-284.5 85q-230 0 -360.5 -155t-130.5 -429q0 -275 130.5 -430.5t360.5 -155.5q157 0 263.5 70.5t161.5 199.5v228h-467v123h588v-733h-121
v160q-163 -172 -425 -172z" />
    <glyph glyph-name="H" unicode="H" horiz-adv-x="1237" 
d="M170 0v1394h124v-626h648v626h125v-1394h-125v646h-648v-646h-124z" />
    <glyph glyph-name="I" unicode="I" horiz-adv-x="464" 
d="M170 0v1394h124v-1394h-124z" />
    <glyph glyph-name="J" unicode="J" horiz-adv-x="1168" 
d="M70 505v56h126q-14 -236 111 -367q94 -99 227 -100q134 -2 232 93q125 122 125 341v866h123v-868q0 -261 -154 -413q-121 -119 -293 -131q-169 -11 -302 87q-157 117 -188 336q-7 48 -7 100z" />
    <glyph glyph-name="K" unicode="K" horiz-adv-x="1217" 
d="M170 0v1394h124v-729l701 729h172l-579 -601l561 -793h-152l-496 703l-207 -214v-489h-124z" />
    <glyph glyph-name="L" unicode="L" horiz-adv-x="1107" 
d="M170 0v1394h124v-1272h773v-122h-897z" />
    <glyph glyph-name="M" unicode="M" horiz-adv-x="1577" 
d="M170 0v1394h133l486 -1097l487 1097h131v-1394h-124v1110l-446 -1006h-97l-446 1006v-1110h-124z" />
    <glyph glyph-name="N" unicode="N" horiz-adv-x="1282" 
d="M170 0v1394h120l699 -1152v1152h123v-1394h-122l-696 1148v-1148h-124z" />
    <glyph glyph-name="O" unicode="O" horiz-adv-x="1411" 
d="M695 -12q-275 0 -445 193t-170 515q0 324 170 517t445 193h20q279 0 447.5 -195.5t168.5 -514.5q0 -318 -168.5 -513t-447.5 -195h-20zM204 696q0 -274 130.5 -429t360.5 -155h20q232 0 362.5 155t130.5 429q0 276 -131 431t-362 155h-20q-230 0 -360.5 -155.5
t-130.5 -430.5z" />
    <glyph glyph-name="P" unicode="P" horiz-adv-x="1156" 
d="M170 0v1394h473q219 0 336 -99.5t117 -290.5v-2q0 -191 -117 -290.5t-336 -99.5h-349v-612h-124zM294 734h349q173 0 250.5 64t77.5 206q0 140 -77.5 204t-250.5 64h-349v-538z" />
    <glyph glyph-name="Q" unicode="Q" horiz-adv-x="1409" 
d="M1112 131q-162 -143 -397 -143h-20q-275 0 -445 193t-170 515q0 324 170 517t445 193h20q279 0 447.5 -195.5t168.5 -514.5q0 -289 -139 -476l153 -152l-85 -86zM204 696q0 -274 130.5 -429t360.5 -155h20q184 0 309 104l-287 286l83 89l284 -283q104 148 104 388
q0 276 -131 431t-362 155h-20q-230 0 -360.5 -155.5t-130.5 -430.5z" />
    <glyph glyph-name="R" unicode="R" horiz-adv-x="1184" 
d="M170 0v1394h473q219 0 336 -99.5t117 -290.5v-2q0 -163 -87 -261t-250 -121l355 -620h-143l-350 612h-327v-612h-124zM294 734h349q173 0 250.5 64t77.5 206q0 140 -77.5 204t-250.5 64h-349v-538z" />
    <glyph glyph-name="S" unicode="S" horiz-adv-x="1154" 
d="M597 -26q-99 0 -186.5 27.5t-158.5 80.5t-113.5 141.5t-44.5 200.5h127q4 -157 108.5 -241t269.5 -84q148 0 239.5 69.5t91.5 184.5q0 61 -16.5 103t-59.5 75t-104 57.5t-163 53.5q-115 33 -190 65.5t-132 78.5t-82.5 108t-25.5 146q0 105 62 190t163 131t217 46
q105 0 189 -36.5t137.5 -99t83 -141t33.5 -166.5h-126q-16 153 -100.5 235.5t-218.5 82.5q-80 0 -149 -25.5t-115 -81t-46 -131.5q0 -48 12 -83.5t34 -62t66.5 -49.5t95.5 -41t135 -42q223 -64 326.5 -155t103.5 -255q0 -163 -133 -272.5t-330 -109.5z" />
    <glyph glyph-name="T" unicode="T" horiz-adv-x="1192" 
d="M533 0v1272h-493v122h1112v-122h-493v-1272h-126z" />
    <glyph glyph-name="U" unicode="U" 
d="M154 505v889h122v-876q0 -118 38.5 -210t100 -138.5t135.5 -68t148.5 2t136 72t100 141.5t38.5 211v866h125v-868q0 -261 -154 -413q-121 -119 -293 -131q-169 -11 -302 87q-157 117 -188 336q-7 48 -7 100z" />
    <glyph glyph-name="V" unicode="V" horiz-adv-x="1256" 
d="M578 0l-548 1394h135l464 -1188l464 1188h133l-546 -1394h-102z" />
    <glyph glyph-name="W" unicode="W" horiz-adv-x="1755" 
d="M418 0l-388 1394h130l319 -1151l344 1086h107l346 -1086l320 1151h129l-388 -1394h-113l-346 1087l-348 -1087h-112z" />
    <glyph glyph-name="X" unicode="X" horiz-adv-x="1263" 
d="M50 0l502 708l-488 686h153l413 -582l416 582h151l-488 -686l504 -708h-153l-430 601l-428 -601h-152z" />
    <glyph glyph-name="Y" unicode="Y" horiz-adv-x="1150" 
d="M513 0l-4 419l-489 975h142l409 -827l416 827h143l-498 -974l5 -420h-124z" />
    <glyph glyph-name="Z" unicode="Z" horiz-adv-x="1073" 
d="M66 0v102l778 1170h-778v122h941v-99l-779 -1173h779v-122h-941z" />
    <glyph glyph-name="bracketleft" unicode="[" horiz-adv-x="574" 
d="M170 -151v1701h374v-126h-246v-1449h246v-126h-374z" />
    <glyph glyph-name="backslash" unicode="\" horiz-adv-x="739" 
d="M567 -56l-499 1494h132l499 -1494h-132z" />
    <glyph glyph-name="bracketright" unicode="]" horiz-adv-x="573" 
d="M30 -151v126h246v1449h-246v126h373v-1701h-373z" />
    <glyph glyph-name="asciicircum" unicode="^" horiz-adv-x="1123" 
d="M150 403l360 838h107l356 -838h-141l-270 645l-273 -645h-139z" />
    <glyph glyph-name="underscore" unicode="_" horiz-adv-x="937" 
d="M50 -151v126h837v-126h-837z" />
    <glyph glyph-name="grave" unicode="`" horiz-adv-x="945" 
d="M401 1511l-185 292h157l160 -292h-132z" />
    <glyph glyph-name="a" unicode="a" horiz-adv-x="1092" 
d="M466 -10q-163 0 -259.5 83.5t-96.5 225.5q0 153 109 232q53 38 124 53t174 19l309 14q-1 144 -78 213.5t-220 69.5q-104 0 -171.5 -41t-132.5 -144l-96 78q78 120 173 174t227 54q189 0 305.5 -106.5t116.5 -301.5v-613h-124v140q-66 -70 -163 -110t-197 -40zM233 299
q0 -93 59 -142t177 -49q144 0 250.5 98t106.5 244v49l-301 -13q-86 -2 -140 -13t-89 -37q-33 -24 -48 -55.5t-15 -81.5z" />
    <glyph glyph-name="b" unicode="b" horiz-adv-x="1201" 
d="M630 -10q-102 0 -191 43t-153 121v-154h-124v1394h124v-536q63 78 152 120.5t192 42.5h26q200 0 332.5 -146.5t132.5 -367.5q0 -220 -132 -368.5t-333 -148.5h-26zM284 507q0 -177 95 -286t247 -109h27q154 0 249.5 109t95.5 286q0 176 -95.5 283.5t-249.5 107.5h-27
q-154 0 -248 -107.5t-94 -283.5z" />
    <glyph glyph-name="c" unicode="c" horiz-adv-x="1064" 
d="M547 -10q-205 0 -336 145t-131 372t129.5 370.5t337.5 143.5h19q144 0 254.5 -72t163.5 -198l-113 -49q-91 198 -305 198h-19q-158 0 -250.5 -105.5t-92.5 -287.5t92.5 -289.5t250.5 -107.5h19q214 0 307 201l111 -50q-56 -125 -166 -198t-252 -73h-19z" />
    <glyph glyph-name="d" unicode="d" horiz-adv-x="1201" 
d="M545 -10q-132 0 -239 68t-166.5 186.5t-59.5 262.5q0 221 132.5 367.5t332.5 146.5h27q103 0 191.5 -42.5t151.5 -120.5v536h124v-1394h-124v154q-63 -78 -152 -121t-191 -43h-27zM204 507q0 -177 95.5 -286t248.5 -109h28q152 0 246.5 109t94.5 286q0 176 -94 283.5
t-247 107.5h-28q-153 0 -248.5 -107.5t-95.5 -283.5z" />
    <glyph glyph-name="e" unicode="e" horiz-adv-x="1074" 
d="M547 -10q-205 0 -336 145t-131 372q0 249 150 392q119 113 286 120t296 -93q154 -121 178 -345q6 -57 3 -118h-787q11 -164 102 -258.5t239 -94.5h19q214 0 307 201l111 -50q-56 -125 -166 -198t-252 -73h-19zM207 580h660q-10 80 -42 144t-77 103.5t-100 61t-111 21.5
t-111 -21.5t-100 -61.5t-77 -103.5t-42 -143.5z" />
    <glyph glyph-name="f" unicode="f" horiz-adv-x="790" 
d="M292 0v893h-242v118h242v115q0 135 67.5 206.5t186.5 71.5h14q114 0 190 -61l-47 -100q-36 17 -50 23.5t-38 12t-53 5.5h-14q-71 0 -102 -36t-31 -122v-115h245v-118h-245v-893h-123z" />
    <glyph glyph-name="g" unicode="g" horiz-adv-x="1200" 
d="M562 -388q-183 0 -301.5 105.5t-136.5 287.5h123q20 -132 99.5 -201t215.5 -69h28q325 0 325 411v6q-63 -78 -152 -121t-191 -43h-10q-202 0 -342 149t-140 368q0 221 132.5 367.5t332.5 146.5h27q103 0 191.5 -42.5t151.5 -120.5v157h124v-878q0 -248 -121.5 -385.5
t-327.5 -137.5h-28zM204 505q0 -177 95.5 -286t248.5 -109h28q143 0 234.5 95.5t104.5 254.5v90q-13 158 -104.5 252t-234.5 94h-28q-153 0 -248.5 -107.5t-95.5 -283.5z" />
    <glyph glyph-name="h" unicode="h" horiz-adv-x="1126" 
d="M162 0v1394h124v-483q102 110 304 110q394 0 394 -421v-600h-123v591q0 169 -60 239t-211 70q-154 0 -229 -95.5t-75 -309.5v-495h-124z" />
    <glyph glyph-name="i" unicode="i" horiz-adv-x="442" 
d="M161 0v1011h123v-1011h-123zM140 1232q0 33 23.5 56.5t56.5 23.5q34 0 58 -23.5t24 -56.5t-24 -56.5t-58 -23.5q-33 0 -56.5 23.5t-23.5 56.5z" />
    <glyph glyph-name="j" unicode="j" horiz-adv-x="449" 
d="M22 -391q-119 0 -190 60l48 101q45 -25 71 -33.5t69 -8.5h13q72 0 102.5 35t30.5 123v1125h124v-1125q0 -135 -67.5 -206t-187.5 -71h-13zM148 1232q0 33 23.5 56.5t56.5 23.5q34 0 57.5 -23.5t23.5 -56.5t-23.5 -56.5t-57.5 -23.5q-33 0 -56.5 23.5t-23.5 56.5z" />
    <glyph glyph-name="k" unicode="k" horiz-adv-x="1010" 
d="M162 0v1394h124v-879l481 496h172l-375 -384l396 -627h-148l-336 536l-190 -195v-341h-124z" />
    <glyph glyph-name="l" unicode="l" horiz-adv-x="448" 
d="M388 -6q-109 -17 -167.5 40.5t-58.5 182.5v1177h124v-1173q0 -74 19 -93.5t76 -15.5z" />
    <glyph glyph-name="m" unicode="m" horiz-adv-x="1579" 
d="M162 0v1011h124v-90q95 100 243 100q202 0 283 -165q97 165 291 165q90 0 155.5 -33.5t104 -94.5t56.5 -140t18 -178v-575h-125v569q0 107 -22 186q-22 77 -66 111t-129 34q-62 0 -113 -33q-121 -81 -121 -320v-547h-124v591q0 168 -50 238.5t-164 70.5q-58 0 -113 -35
q-122 -86 -122 -355v-510h-126z" />
    <glyph glyph-name="n" unicode="n" horiz-adv-x="1126" 
d="M162 0v1011h124v-100q102 110 304 110q394 0 394 -421v-600h-123v591q0 169 -60 239t-211 70q-154 0 -229 -95.5t-75 -309.5v-495h-124z" />
    <glyph glyph-name="o" unicode="o" horiz-adv-x="1113" 
d="M547 -10q-205 0 -336 145t-131 372t129.5 370.5t337.5 143.5h19q208 0 337.5 -143.5t129.5 -370.5t-130 -372t-337 -145h-19zM204 507q0 -182 92.5 -289.5t250.5 -107.5h19q159 0 251 107t92 290q0 182 -92.5 287.5t-250.5 105.5h-19q-158 0 -250.5 -105.5t-92.5 -287.5z
" />
    <glyph glyph-name="p" unicode="p" horiz-adv-x="1201" 
d="M162 -384v1395h124v-154q64 78 153 121t191 43h26q201 0 333 -148t132 -368q0 -221 -132.5 -368t-332.5 -147h-26q-103 0 -192 43t-152 121v-538h-124zM284 505q0 -177 94 -285t248 -108h27q154 0 249.5 108.5t95.5 284.5t-95.5 284.5t-249.5 108.5h-27
q-153 0 -247.5 -108.5t-94.5 -284.5z" />
    <glyph glyph-name="q" unicode="q" horiz-adv-x="1201" 
d="M915 154q-63 -78 -151.5 -121t-191.5 -43h-27q-199 0 -332 147t-133 368q0 144 59.5 262t166.5 186t239 68h27q102 0 191 -43t152 -120v153h124v-1395h-124v538zM204 505q0 -176 95.5 -284.5t248.5 -108.5h28q153 0 247 108t94 285q0 176 -94.5 284.5t-246.5 108.5h-28
q-153 0 -248.5 -108.5t-95.5 -284.5z" />
    <glyph glyph-name="r" unicode="r" horiz-adv-x="841" 
d="M162 0v1011h124v-100q102 110 304 110q101 0 181 -29l-27 -117q-78 25 -154 25q-154 0 -229 -95.5t-75 -309.5v-495h-124z" />
    <glyph glyph-name="s" unicode="s" horiz-adv-x="990" 
d="M509 -14q-82 0 -153.5 22t-129.5 65.5t-92.5 117.5t-37.5 170h126q14 -140 86 -196.5t205 -56.5q111 0 176.5 39.5t65.5 114.5q0 76 -55 112t-226 72q-54 11 -97.5 24.5t-87.5 36.5t-74 52.5t-49 72.5t-19 96q0 122 99.5 202.5t250.5 80.5q178 0 275.5 -100.5
t108.5 -251.5h-125q-26 125 -85 177.5t-176 52.5q-97 0 -158 -41.5t-61 -117.5q0 -69 55 -104t179 -60q190 -39 282 -107t92 -195q0 -126 -106.5 -202t-268.5 -76z" />
    <glyph glyph-name="t" unicode="t" horiz-adv-x="687" 
d="M535 -12q-120 0 -188 71t-68 207v627h-229v118h229v381h124v-381h234v-118h-234v-627q0 -87 30.5 -122.5t101.5 -35.5h13q15 0 43 4.5t46 3.5v-121q-11 0 -41 -3.5t-50 -3.5h-11z" />
    <glyph glyph-name="u" unicode="u" horiz-adv-x="1105" 
d="M537 -10q-395 0 -395 420v601h124v-591q0 -169 60 -239.5t211 -70.5q154 0 228.5 96t74.5 310v495h123v-1011h-123v100q-102 -110 -303 -110z" />
    <glyph glyph-name="v" unicode="v" horiz-adv-x="1025" 
d="M464 0l-414 1011h136l325 -809l326 809h138l-414 -1011h-97z" />
    <glyph glyph-name="w" unicode="w" horiz-adv-x="1465" 
d="M345 0l-281 1011h131l213 -773l273 773h106l273 -771l213 771h128l-279 -1011h-110l-278 794l-281 -794h-108z" />
    <glyph glyph-name="x" unicode="x" horiz-adv-x="1021" 
d="M40 0l392 505l-391 506h155l315 -405l312 405h156l-391 -506l393 -505h-156l-314 406l-313 -406h-158z" />
    <glyph glyph-name="y" unicode="y" horiz-adv-x="1027" 
d="M224 -240q46 -31 74 -20.5t56 81.5l92 225l-396 965h136l325 -806l332 806h134l-510 -1240q-49 -118 -123 -148.5t-170 29.5z" />
    <glyph glyph-name="z" unicode="z" horiz-adv-x="944" 
d="M66 0v99l644 792h-644v120h812v-105l-635 -786h635v-120h-812z" />
    <glyph glyph-name="braceleft" unicode="{" horiz-adv-x="603" 
d="M497 -151q-128 0 -206.5 60.5t-78.5 192.5q0 59 21 201q19 127 19 200q0 67 -34 102.5t-118 31.5v125q84 -3 118 32.5t34 102.5q0 73 -19 200q-21 143 -21 202q0 131 78.5 191t206.5 60h76v-126h-78q-84 0 -120 -25.5t-36 -97.5q0 -24 19 -173q21 -154 21 -231
q0 -130 -84 -196q44 -37 64 -91.5t20 -106.5q0 -77 -21 -231q-19 -149 -19 -172q0 -73 36 -99t120 -26h78v-126h-76z" />
    <glyph glyph-name="bar" unicode="|" horiz-adv-x="548" 
d="M210 -376v1963h128v-1963h-128z" />
    <glyph glyph-name="braceright" unicode="}" horiz-adv-x="603" 
d="M30 -151v126h78q83 0 118.5 26t35.5 99q0 39 -17 172q-22 153 -22 231q0 129 85 195q-85 70 -85 199q0 78 22 231q17 133 17 173q0 72 -35 97.5t-119 25.5h-78v126h76q127 0 206 -60t79 -191q0 -60 -22 -202q-18 -138 -18 -200q0 -67 33.5 -102.5t118.5 -32.5v-125
q-85 4 -118.5 -31t-33.5 -103q0 -62 18 -200q22 -141 22 -201q0 -132 -78.5 -192.5t-206.5 -60.5h-76z" />
    <glyph glyph-name="asciitilde" unicode="~" horiz-adv-x="1123" 
d="M128 430q-10 152 44.5 229t157.5 77q59 0 110 -18.5t156 -74.5q89 -51 125.5 -65.5t72.5 -14.5q51 0 66.5 37t11.5 142h125q10 -152 -44.5 -228.5t-160.5 -76.5q-58 0 -108 18t-155 76q-87 49 -125 64t-76 15q-49 0 -65 -38t-11 -142h-124z" />
    <glyph glyph-name="uni00A0" unicode="&#xa0;" horiz-adv-x="542" 
 />
    <glyph glyph-name="exclamdown" unicode="&#xa1;" horiz-adv-x="541" 
d="M201 -300l8 1174h123l8 -1174h-139zM190 1026q0 33 24 56.5t56 23.5q34 0 57.5 -23.5t23.5 -56.5q0 -32 -23.5 -56t-57.5 -24q-32 0 -56 24t-24 56z" />
    <glyph glyph-name="cent" unicode="&#xa2;" horiz-adv-x="1117" 
d="M507 -22q-182 25 -299.5 175.5t-117.5 386.5q0 226 118 378t299 183v148h128v-144q169 -16 276.5 -130.5t115.5 -286.5h-127q-28 266 -265 292v-878q108 18 176.5 88.5t83.5 190.5h127q-16 -167 -122.5 -275.5t-264.5 -128.5v-146h-128v147zM222 549q0 -195 79.5 -307
t205.5 -137v869q-122 -30 -203.5 -138.5t-81.5 -286.5z" />
    <glyph glyph-name="sterling" unicode="&#xa3;" horiz-adv-x="1033" 
d="M70 114q59 13 109 37t92.5 61.5t67 93t24.5 122.5q0 57 -18.5 109.5t-60.5 123.5h-196v125h123q-57 121 -57 240q0 167 112 274t279 107q102 0 179.5 -35.5t124 -98.5t70 -143t24.5 -177h-127q-2 169 -68 249t-207 80q-111 0 -184 -68.5t-73 -185.5q0 -110 76 -242h459
v-125h-385q61 -124 61 -233q0 -182 -138 -302h586v-126h-873v114z" />
    <glyph glyph-name="currency" unicode="&#xa4;" horiz-adv-x="1223" 
d="M284 183l-90 91l111 111q-67 97 -67 223q0 125 67 224l-111 111l90 89l111 -110q98 67 216 67t216 -67l111 110l91 -89l-111 -111q66 -96 66 -224q0 -127 -66 -223l111 -111l-91 -91l-111 111q-96 -67 -216 -67t-216 67zM369 608q0 -115 65.5 -185t176.5 -70t176.5 70
t65.5 185t-66 185t-176 70t-176 -70t-66 -185z" />
    <glyph glyph-name="yen" unicode="&#xa5;" horiz-adv-x="1190" 
d="M533 0v415h-345v125h345v62h-345v127h287l-415 651h159l378 -608l377 608h156l-414 -651h290v-127h-346v-62h346v-125h-346v-415h-127z" />
    <glyph glyph-name="brokenbar" unicode="&#xa6;" horiz-adv-x="548" 
d="M210 -300v724h128v-724h-128zM210 657v723h128v-723h-128z" />
    <glyph glyph-name="section" unicode="&#xa7;" horiz-adv-x="1150" 
d="M565 -326q-173 0 -280.5 97.5t-137.5 297.5h127q30 -145 99.5 -207.5t195.5 -62.5q110 0 177 45t67 126q0 66 -24 105.5t-95.5 73t-209.5 62.5q-67 15 -128.5 42t-119 69t-92 105t-34.5 138q0 111 56.5 187t150.5 115q-114 88 -114 230q0 141 97.5 225.5t250.5 84.5
q91 0 163 -30t118 -82.5t72 -119t35 -145.5h-126q-28 136 -88 194t-176 58q-98 0 -156.5 -45t-58.5 -134q0 -93 74.5 -142t204.5 -72q93 -17 168 -46t134.5 -72t92 -104.5t32.5 -137.5q0 -113 -60 -189.5t-160 -115.5q124 -90 124 -250q0 -136 -108 -218t-271 -82zM240 571
q0 -91 78.5 -150t202.5 -84q56 -11 114 -27q75 2 134.5 23t99 70.5t39.5 122.5q0 93 -78 147.5t-252 89.5q-26 3 -96 23q-242 -27 -242 -215z" />
    <glyph glyph-name="dieresis" unicode="&#xa8;" horiz-adv-x="746" 
d="M492 1573q-34 0 -57.5 23.5t-23.5 56.5t24 57t57 24t57 -24t24 -57t-24 -56.5t-57 -23.5zM175 1653q0 33 24 57t57 24q32 0 56 -24t24 -57t-24 -56.5t-56 -23.5q-34 0 -57.5 23.5t-23.5 56.5z" />
    <glyph glyph-name="copyright" unicode="&#xa9;" horiz-adv-x="1668" 
d="M833 -30q-199 0 -365 98.5t-262 269t-96 372.5t96 371.5t262 268t365 98.5t366 -98.5t263 -268t96 -371.5q0 -203 -96 -373t-263 -268.5t-366 -98.5zM237 710q0 -171 78 -311t214.5 -220t303.5 -80t304 80t215 220t78 311q0 128 -46 241t-125.5 194.5t-190 128.5
t-235.5 47q-167 0 -303.5 -80t-214.5 -220t-78 -311zM460 710q0 195 109.5 315t269.5 120q150 0 249 -90.5t103 -254.5h-124q-14 110 -67.5 165t-160.5 55q-116 0 -183.5 -88t-67.5 -220q0 -138 66.5 -222.5t176.5 -84.5q105 0 161.5 51.5t72.5 166.5h128
q-17 -167 -115.5 -255t-252.5 -88q-152 0 -258.5 119t-106.5 311z" />
    <glyph glyph-name="ordfeminine" unicode="&#xaa;" horiz-adv-x="789" 
d="M324 658q-117 0 -187.5 61t-70.5 164q0 111 80 172q39 28 89 37.5t126 13.5l199 10q-7 171 -192 171q-70 0 -114.5 -29t-93.5 -106l-85 68q56 92 126 133.5t167 41.5q136 0 220.5 -77t84.5 -217v-436h-113v79q-100 -86 -236 -86zM178 883q0 -117 149 -117q95 0 164 63
t69 160v19l-193 -9q-112 -3 -152 -32q-21 -15 -29 -33t-8 -51z" />
    <glyph glyph-name="guillemotleft" unicode="&#xab;" horiz-adv-x="1175" 
d="M600 154l-292 355l292 355h167l-293 -355l293 -355h-167zM533 509l292 355h166l-292 -355l292 -355h-166z" />
    <glyph glyph-name="logicalnot" unicode="&#xac;" horiz-adv-x="1001" 
d="M713 393v253h-617v125h745v-378h-128z" />
    <glyph glyph-name="registered" unicode="&#xae;" horiz-adv-x="1015" 
d="M508 646q-191 0 -314.5 123.5t-123.5 315.5q0 189 123.5 311.5t314.5 122.5q190 0 313.5 -123t123.5 -311q0 -192 -123 -315.5t-314 -123.5zM200 1085q0 -144 83.5 -229t224.5 -85t224.5 85t83.5 229q0 141 -83.5 225t-224.5 84t-224.5 -84t-83.5 -225zM341 845v462h173
q75 0 120.5 -39t45.5 -110q0 -88 -68 -128l107 -185h-146l-93 163h-14v-163h-125zM466 1134h48q31 0 36 3t5 21t-5 21t-36 3h-48v-48z" />
    <glyph glyph-name="macron" unicode="&#xaf;" horiz-adv-x="726" 
d="M188 1585v126h350v-126h-350z" />
    <glyph glyph-name="degree" unicode="&#xb0;" horiz-adv-x="710" 
d="M355 943q-101 0 -168 65.5t-67 166.5q0 100 67 166t168 66t168 -66t67 -166q0 -101 -67 -166.5t-168 -65.5zM250 1175q0 -107 105 -107q106 0 106 107t-106 107q-105 0 -105 -107z" />
    <glyph glyph-name="plusminus" unicode="&#xb1;" horiz-adv-x="1029" 
d="M451 182v394h-355v126h355v394h127v-394h355v-126h-355v-394h-127zM96 0v126h837v-126h-837z" />
    <glyph glyph-name="uni00B2" unicode="&#xb2;" horiz-adv-x="904" 
d="M163 916v78l294 270q103 95 131 146t28 119q0 143 -156 143q-78 0 -125 -42t-57 -121v-55h-120l11 62q12 117 93.5 191t197.5 74q128 0 199.5 -72.5t71.5 -179.5q0 -85 -43 -163.5t-150 -175.5l-182 -166h412v-108h-605z" />
    <glyph glyph-name="uni00B3" unicode="&#xb3;" horiz-adv-x="899" 
d="M443 908q-150 0 -233.5 90t-66.5 226h107q-14 -101 34.5 -154t158.5 -53q97 0 146.5 41.5t49.5 116.5q0 72 -49.5 110.5t-146.5 38.5q-42 0 -95 -7v91l215 262h-407v111h579v-79l-224 -271q105 -19 168.5 -89.5t63.5 -166.5q0 -118 -83.5 -192.5t-216.5 -74.5z" />
    <glyph glyph-name="acute" unicode="&#xb4;" horiz-adv-x="943" 
d="M412 1511l159 292h156l-183 -292h-132z" />
    <glyph glyph-name="paragraph" unicode="&#xb6;" horiz-adv-x="1122" 
d="M503 600q-75 0 -107 2q-105 6 -183 62.5t-115.5 141t-37.5 185.5q0 155 89.5 266.5t246.5 120.5q32 2 107 2h409v-1587h-127v1463h-154v-1463h-128v807z" />
    <glyph glyph-name="periodcentered" unicode="&#xb7;" horiz-adv-x="449" 
d="M224 530q-36 0 -60 25t-24 60q0 36 24 60.5t60 24.5q37 0 61 -24.5t24 -60.5q0 -35 -24.5 -60t-60.5 -25z" />
    <glyph glyph-name="cedilla" unicode="&#xb8;" horiz-adv-x="914" 
d="M397 -429q-95 0 -142 39v150q49 -41 72 -52t70 -11q55 0 79 16t24 55q0 48 -42 61.5t-172 -0.5l136 270h144l-80 -155q143 -37 143 -176q0 -66 -37 -112.5t-87.5 -65.5t-107.5 -19z" />
    <glyph glyph-name="uni00B9" unicode="&#xb9;" horiz-adv-x="585" 
d="M279 925v702l-203 -126v135l234 143h85v-854h-116z" />
    <glyph glyph-name="ordmasculine" unicode="&#xba;" horiz-adv-x="814" 
d="M401 669q-147 0 -241 104t-94 265t93.5 264t241.5 103h12q150 0 242.5 -103t92.5 -264q0 -162 -93 -265.5t-242 -103.5h-12zM178 1038q0 -122 59 -190.5t164 -68.5h12q106 0 164.5 68t58.5 191q0 121 -59 188.5t-164 67.5h-12q-105 0 -164 -67.5t-59 -188.5z" />
    <glyph glyph-name="guillemotright" unicode="&#xbb;" horiz-adv-x="1175" 
d="M409 154l293 355l-293 355h166l292 -355l-292 -355h-166zM184 154l292 355l-292 355h165l293 -355l-293 -355h-165z" />
    <glyph glyph-name="questiondown" unicode="&#xbf;" horiz-adv-x="1036" 
d="M515 -336q-126 0 -218.5 51.5t-137.5 135.5t-45 189q0 206 187 383q55 52 87.5 91t54 73.5t30.5 78t11.5 85.5t1.5 115h124q0 -104 -5.5 -162t-28.5 -121t-65.5 -117t-119.5 -129q-79 -76 -113 -145t-34 -152q0 -123 70 -186.5t201 -63.5q152 0 230 92.5t80 261.5h125
q7 -209 -115.5 -344.5t-319.5 -135.5zM466 1017q0 32 24 56.5t56 24.5q33 0 57 -24t24 -57t-23.5 -56.5t-57.5 -23.5q-32 0 -56 23.5t-24 56.5z" />
    <glyph glyph-name="Agrave" unicode="&#xc0;" horiz-adv-x="1161" 
d="M40 0l486 1394h107l488 -1394h-134l-156 451h-501l-156 -451h-134zM366 1785h159l148 -263h-134zM371 572h420l-210 606z" />
    <glyph glyph-name="Aacute" unicode="&#xc1;" horiz-adv-x="1161" 
d="M40 0l486 1394h107l488 -1394h-134l-156 451h-501l-156 -451h-134zM371 572h420l-210 606zM485 1522l148 263h158l-173 -263h-133z" />
    <glyph glyph-name="Acircumflex" unicode="&#xc2;" horiz-adv-x="1161" 
d="M40 0l486 1394h107l488 -1394h-134l-156 451h-501l-156 -451h-134zM357 1522l181 263h89l182 -263h-150l-77 115l-78 -115h-147zM371 572h420l-210 606z" />
    <glyph glyph-name="Atilde" unicode="&#xc3;" horiz-adv-x="1161" 
d="M40 0l486 1394h107l488 -1394h-134l-156 451h-501l-156 -451h-134zM371 572h420l-210 606zM377 1577q-13 70 15.5 116.5t91.5 46.5q40 0 121 -28q42 -14 61 -17q0 24 1 37h117q17 -75 -13.5 -119t-90.5 -44q-41 0 -122 26q-45 17 -61 19q0 -24 -1 -37h-119z" />
    <glyph glyph-name="Adieresis" unicode="&#xc4;" horiz-adv-x="1161" 
d="M40 0l486 1394h107l488 -1394h-134l-156 451h-501l-156 -451h-134zM371 572h420l-210 606zM388 1653q0 33 23.5 57t56.5 24t57 -24t24 -57t-24 -56.5t-57 -23.5t-56.5 23.5t-23.5 56.5zM624 1653q0 33 23.5 57t56.5 24t57 -24t24 -57t-24 -56.5t-57 -23.5q-32 0 -56 23.5
t-24 56.5z" />
    <glyph glyph-name="Aring" unicode="&#xc5;" horiz-adv-x="1161" 
d="M40 0l486 1394h107l488 -1394h-134l-156 451h-501l-156 -451h-134zM371 572h420l-210 606zM420 1653q0 71 48 114t114 43q65 0 113 -43t48 -114q0 -70 -48 -114t-113 -44q-66 0 -114 44t-48 114zM552 1653q0 -20 5.5 -26t24.5 -6t24.5 6t5.5 26t-5.5 26t-24.5 6t-24.5 -6
t-5.5 -26z" />
    <glyph glyph-name="AE" unicode="&#xc6;" horiz-adv-x="1636" 
d="M26 0l486 1394h1034v-122h-773v-508h707v-122h-707v-520h773v-122h-897v451h-332l-156 -451h-135zM358 572h291v694h-51z" />
    <glyph glyph-name="Ccedilla" unicode="&#xc7;" horiz-adv-x="1349" 
d="M654 -424q-94 0 -142 37v152q49 -41 72 -52.5t70 -11.5q54 0 78.5 16.5t24.5 55.5q0 48 -41.5 61.5t-171.5 -0.5l77 159q-246 27 -393.5 215t-147.5 488q0 324 170 517t445 193h20q200 0 348 -104.5t216 -288.5l-116 -43q-57 153 -170 232.5t-278 79.5h-20
q-230 0 -360.5 -155.5t-130.5 -430.5q0 -274 130.5 -429t360.5 -155h20q165 0 278 80t170 232l116 -43q-65 -172 -199.5 -275t-318.5 -115l-19 -41q145 -39 145 -177q0 -97 -71 -147t-162 -50z" />
    <glyph glyph-name="Egrave" unicode="&#xc8;" horiz-adv-x="1157" 
d="M170 0v1394h897v-122h-773v-508h708v-122h-708v-520h773v-122h-897zM370 1785h158l149 -263h-133z" />
    <glyph glyph-name="Eacute" unicode="&#xc9;" horiz-adv-x="1157" 
d="M170 0v1394h897v-122h-773v-508h708v-122h-708v-520h773v-122h-897zM490 1522l147 263h158l-172 -263h-133z" />
    <glyph glyph-name="Ecircumflex" unicode="&#xca;" horiz-adv-x="1157" 
d="M170 0v1394h897v-122h-773v-508h708v-122h-708v-520h773v-122h-897zM361 1522l181 263h88l183 -263h-151l-76 115l-77 -115h-148z" />
    <glyph glyph-name="Edieresis" unicode="&#xcb;" horiz-adv-x="1157" 
d="M170 0v1394h897v-122h-773v-508h708v-122h-708v-520h773v-122h-897zM389 1653q0 33 23.5 57t56.5 24t56.5 -24t23.5 -57t-24 -56.5t-56 -23.5q-33 0 -56.5 23.5t-23.5 56.5zM624 1653q0 33 24 57t57 24t56.5 -24t23.5 -57t-23.5 -56.5t-56.5 -23.5t-57 23.5t-24 56.5z
" />
    <glyph glyph-name="Igrave" unicode="&#xcc;" horiz-adv-x="365" 
d="M56 0v1394h124v-1394h-124zM-98 1785h158l149 -263h-133z" />
    <glyph glyph-name="Iacute" unicode="&#xcd;" horiz-adv-x="365" 
d="M191 0v1394h123v-1394h-123zM156 1522l148 263h159l-175 -263h-132z" />
    <glyph glyph-name="Icircumflex" unicode="&#xce;" horiz-adv-x="245" 
d="M60 0v1394h125v-1394h-125zM-102 1522l181 263h89l181 -263h-150l-76 115l-77 -115h-148z" />
    <glyph glyph-name="Idieresis" unicode="&#xcf;" horiz-adv-x="246" 
d="M62 0v1394h123v-1394h-123zM-75 1653q0 33 24 57t57 24t57 -24t24 -57t-24 -56.5t-57 -23.5t-57 23.5t-24 56.5zM162 1653q0 33 24 57t57 24q32 0 56 -24t24 -57t-24 -56.5t-56 -23.5q-34 0 -57.5 23.5t-23.5 56.5z" />
    <glyph glyph-name="Eth" unicode="&#xd0;" horiz-adv-x="1237" 
d="M154 0v606h-104v127h104v661h303q331 0 515.5 -186.5t184.5 -521.5q0 -329 -182.5 -507.5t-519.5 -178.5h-301zM276 122h175q291 0 434.5 140t143.5 424q0 291 -145.5 438.5t-428.5 147.5h-179v-539h360v-127h-360v-484z" />
    <glyph glyph-name="Ntilde" unicode="&#xd1;" horiz-adv-x="1282" 
d="M170 0v1394h120l699 -1152v1152h123v-1394h-122l-696 1148v-1148h-124zM436 1577q-13 70 15.5 116.5t91.5 46.5q40 0 121 -28q42 -14 61 -17q0 24 1 37h117q17 -75 -13.5 -119t-90.5 -44q-41 0 -122 26q-45 17 -61 19q0 -24 -1 -37h-119z" />
    <glyph glyph-name="Ograve" unicode="&#xd2;" horiz-adv-x="1411" 
d="M695 -17q-275 0 -445 192.5t-170 514.5q0 324 170 517t445 193h20q279 0 447.5 -195.5t168.5 -514.5q0 -318 -168 -512.5t-448 -194.5h-20zM204 690q0 -274 130.5 -429t360.5 -155h20q232 0 362.5 155t130.5 429q0 276 -131 431t-362 155h-20q-230 0 -360.5 -155
t-130.5 -431zM496 1785h157l148 -263h-133z" />
    <glyph glyph-name="Oacute" unicode="&#xd3;" horiz-adv-x="1411" 
d="M695 -17q-275 0 -445 192.5t-170 514.5q0 324 170 517t445 193h20q279 0 447.5 -195.5t168.5 -514.5q0 -318 -168 -512.5t-448 -194.5h-20zM204 690q0 -274 130.5 -429t360.5 -155h20q232 0 362.5 155t130.5 429q0 276 -131 431t-362 155h-20q-230 0 -360.5 -155
t-130.5 -431zM614 1522l148 263h158l-173 -263h-133z" />
    <glyph glyph-name="Ocircumflex" unicode="&#xd4;" horiz-adv-x="1411" 
d="M695 -17q-275 0 -445 192.5t-170 514.5q0 324 170 517t445 193h20q279 0 447.5 -195.5t168.5 -514.5q0 -318 -168 -512.5t-448 -194.5h-20zM204 690q0 -274 130.5 -429t360.5 -155h20q232 0 362.5 155t130.5 429q0 276 -131 431t-362 155h-20q-230 0 -360.5 -155
t-130.5 -431zM486 1522l181 263h89l181 -263h-150l-76 115l-77 -115h-148z" />
    <glyph glyph-name="Otilde" unicode="&#xd5;" horiz-adv-x="1411" 
d="M695 -17q-275 0 -445 192.5t-170 514.5q0 324 170 517t445 193h20q279 0 447.5 -195.5t168.5 -514.5q0 -318 -168 -512.5t-448 -194.5h-20zM204 690q0 -274 130.5 -429t360.5 -155h20q232 0 362.5 155t130.5 429q0 276 -131 431t-362 155h-20q-230 0 -360.5 -155
t-130.5 -431zM506 1577q-13 70 15.5 116.5t91.5 46.5q40 0 121 -28q42 -14 61 -17q0 24 1 37h117q17 -75 -13.5 -119t-90.5 -44q-41 0 -122 26q-45 17 -61 19q0 -24 -1 -37h-119z" />
    <glyph glyph-name="Odieresis" unicode="&#xd6;" horiz-adv-x="1411" 
d="M695 -17q-275 0 -445 192.5t-170 514.5q0 324 170 517t445 193h20q279 0 447.5 -195.5t168.5 -514.5q0 -318 -168 -512.5t-448 -194.5h-20zM204 690q0 -274 130.5 -429t360.5 -155h20q232 0 362.5 155t130.5 429q0 276 -131 431t-362 155h-20q-230 0 -360.5 -155
t-130.5 -431zM512 1653q0 33 23.5 57t56.5 24t57.5 -24t24.5 -57t-24.5 -56.5t-57.5 -23.5t-56.5 23.5t-23.5 56.5zM748 1653q0 33 23.5 57t56.5 24t57 -24t24 -57t-23.5 -56.5t-57.5 -23.5q-32 0 -56 23.5t-24 56.5z" />
    <glyph glyph-name="multiply" unicode="&#xd7;" horiz-adv-x="1019" 
d="M228 258l-90 89l284 283l-284 283l89 90l283 -283l284 283l89 -90l-283 -283l283 -283l-89 -89l-284 283z" />
    <glyph glyph-name="Oslash" unicode="&#xd8;" horiz-adv-x="1468" 
d="M719 -17q-260 0 -429 174l-121 -121l-89 90l132 133q-108 178 -108 431q0 324 170 517t445 193h18q132 0 244 -47t193 -134l125 126l89 -90l-139 -137q106 -182 106 -428q0 -318 -169 -512.5t-449 -194.5h-18zM227 690q0 -201 76 -342l783 783q-130 145 -349 145h-18
q-231 0 -361.5 -155t-130.5 -431zM377 244q130 -138 342 -138h18q233 0 363.5 155t130.5 429q0 196 -72 337z" />
    <glyph glyph-name="Ugrave" unicode="&#xd9;" 
d="M154 505v889h122v-876q0 -118 38.5 -210t100 -138.5t135.5 -68t148.5 2t136 72t100 141.5t38.5 211v866h125v-868q0 -261 -154 -413q-121 -119 -293 -131q-169 -11 -302 87q-157 117 -188 336q-7 48 -7 100zM408 1785h158l148 -263h-133z" />
    <glyph glyph-name="Uacute" unicode="&#xda;" 
d="M154 505v889h122v-876q0 -118 38.5 -210t100 -138.5t135.5 -68t148.5 2t136 72t100 141.5t38.5 211v866h125v-868q0 -261 -154 -413q-121 -119 -293 -131q-169 -11 -302 87q-157 117 -188 336q-7 48 -7 100zM528 1522l148 263h157l-174 -263h-131z" />
    <glyph glyph-name="Ucircumflex" unicode="&#xdb;" 
d="M154 505v889h122v-876q0 -118 38.5 -210t100 -138.5t135.5 -68t148.5 2t136 72t100 141.5t38.5 211v866h125v-868q0 -261 -154 -413q-121 -119 -293 -131q-169 -11 -302 87q-157 117 -188 336q-7 48 -7 100zM399 1522l182 263h88l181 -263h-150l-77 115l-76 -115h-148z
" />
    <glyph glyph-name="Udieresis" unicode="&#xdc;" 
d="M154 505v889h122v-876q0 -118 38.5 -210t100 -138.5t135.5 -68t148.5 2t136 72t100 141.5t38.5 211v866h125v-868q0 -261 -154 -413q-121 -119 -293 -131q-169 -11 -302 87q-157 117 -188 336q-7 48 -7 100zM428 1653q0 33 23.5 57t56.5 24t57 -24t24 -57t-23.5 -56.5
t-57.5 -23.5q-33 0 -56.5 23.5t-23.5 56.5zM664 1653q0 33 24 57t57 24t56 -24t23 -57t-23.5 -56.5t-55.5 -23.5q-33 0 -57 23.5t-24 56.5z" />
    <glyph glyph-name="Yacute" unicode="&#xdd;" horiz-adv-x="1150" 
d="M513 0l-4 419l-489 975h142l409 -827l416 827h143l-498 -974l5 -420h-124zM477 1522l149 263h158l-174 -263h-133z" />
    <glyph glyph-name="Thorn" unicode="&#xde;" horiz-adv-x="1174" 
d="M170 0v1380h124v-214h347q219 0 336 -99.5t117 -290.5v-2q0 -191 -117 -290t-336 -99h-347v-385h-124zM294 505h347q173 0 250.5 64.5t77.5 206.5q0 140 -77.5 204t-250.5 64h-347v-539z" />
    <glyph glyph-name="germandbls" unicode="&#xdf;" horiz-adv-x="1133" 
d="M677 -8q-85 0 -197.5 7.5t-142.5 23.5v106q219 -3 376 -10q205 12 205 166q0 55 -29 101.5t-119 129.5q-87 80 -117 135.5t-30 128.5t30 129t117 137q90 82 119 128t29 102q0 168 -241 168q-191 0 -282 -74t-101 -227q-4 -52 -4 -109v-1034h-128v1030q0 56 4 122
q12 198 144 307t368 110q171 1 271 -79t100 -219q0 -85 -48.5 -162.5t-149.5 -167.5q-59 -50 -78 -83t-19 -78q0 -44 19.5 -77t77.5 -83q101 -89 149.5 -166.5t48.5 -162.5q0 -141 -100 -220t-272 -79z" />
    <glyph glyph-name="agrave" unicode="&#xe0;" horiz-adv-x="1028" 
d="M466 -10q-163 0 -259.5 83.5t-96.5 225.5q0 153 109 232q53 38 124 53t174 19l309 14q-1 144 -78 213.5t-220 69.5q-104 0 -171.5 -41t-132.5 -144l-96 78q78 120 173 174t227 54q189 0 305.5 -106.5t116.5 -301.5v-613h-124v140q-66 -70 -163 -110t-197 -40zM233 299
q0 -93 59 -142t177 -49q144 0 250.5 98t106.5 244v49l-301 -13q-86 -2 -140 -13t-89 -37q-33 -24 -48 -55.5t-15 -81.5zM302 1521h157l158 -292h-131z" />
    <glyph glyph-name="aacute" unicode="&#xe1;" horiz-adv-x="1028" 
d="M466 -10q-163 0 -259.5 83.5t-96.5 225.5q0 153 109 232q53 38 124 53t174 19l309 14q-1 144 -78 213.5t-220 69.5q-104 0 -171.5 -41t-132.5 -144l-96 78q78 120 173 174t227 54q189 0 305.5 -106.5t116.5 -301.5v-613h-124v140q-66 -70 -163 -110t-197 -40zM233 299
q0 -93 59 -142t177 -49q144 0 250.5 98t106.5 244v49l-301 -13q-86 -2 -140 -13t-89 -37q-33 -24 -48 -55.5t-15 -81.5zM456 1229l159 292h156l-183 -292h-132z" />
    <glyph glyph-name="acircumflex" unicode="&#xe2;" horiz-adv-x="1028" 
d="M466 -10q-163 0 -259.5 83.5t-96.5 225.5q0 153 109 232q53 38 124 53t174 19l309 14q-1 144 -78 213.5t-220 69.5q-104 0 -171.5 -41t-132.5 -144l-96 78q78 120 173 174t227 54q189 0 305.5 -106.5t116.5 -301.5v-613h-124v140q-66 -70 -163 -110t-197 -40zM233 299
q0 -93 59 -142t177 -49q144 0 250.5 98t106.5 244v49l-301 -13q-86 -2 -140 -13t-89 -37q-33 -24 -48 -55.5t-15 -81.5zM333 1229l172 292h93l173 -292h-146l-75 132l-73 -132h-144z" />
    <glyph glyph-name="atilde" unicode="&#xe3;" horiz-adv-x="1028" 
d="M466 -10q-163 0 -259.5 83.5t-96.5 225.5q0 153 109 232q53 38 124 53t174 19l309 14q-1 144 -78 213.5t-220 69.5q-104 0 -171.5 -41t-132.5 -144l-96 78q78 120 173 174t227 54q189 0 305.5 -106.5t116.5 -301.5v-613h-124v140q-66 -70 -163 -110t-197 -40zM233 299
q0 -93 59 -142t177 -49q144 0 250.5 98t106.5 244v49l-301 -13q-89 -4 -141.5 -14t-87.5 -36q-33 -24 -48 -55.5t-15 -81.5zM366 1323q-13 70 15.5 116.5t91.5 46.5q40 0 121 -28q42 -14 61 -17q0 24 1 37h117q17 -75 -13.5 -119t-90.5 -44q-41 0 -122 26q-45 17 -61 19
q0 -24 -1 -37h-119z" />
    <glyph glyph-name="adieresis" unicode="&#xe4;" horiz-adv-x="1028" 
d="M466 -10q-163 0 -259.5 83.5t-96.5 225.5q0 153 109 232q54 39 126 54t173 18l308 14q-1 144 -78 213.5t-220 69.5q-104 0 -171.5 -41t-132.5 -144l-96 78q78 120 173 174t227 54q189 0 305.5 -106.5t116.5 -301.5v-613h-124v140q-66 -70 -163 -110t-197 -40zM233 299
q0 -93 59 -142t177 -49q144 0 250.5 98t106.5 244v49l-301 -13q-88 -3 -141.5 -13.5t-87.5 -36.5q-33 -24 -48 -55.5t-15 -81.5zM354 1373q0 34 23.5 57.5t57.5 23.5q33 0 56.5 -23.5t23.5 -57.5q0 -32 -23.5 -56t-56.5 -24t-57 23.5t-24 56.5zM591 1373q0 34 23.5 57.5
t57.5 23.5q32 0 55.5 -23.5t23.5 -57.5q0 -32 -23.5 -56t-55.5 -24q-34 0 -57.5 23.5t-23.5 56.5z" />
    <glyph glyph-name="aring" unicode="&#xe5;" horiz-adv-x="1028" 
d="M466 -10q-163 0 -259.5 83.5t-96.5 225.5q0 153 109 232q53 38 124 53t174 19l309 14q-1 144 -78 213.5t-220 69.5q-104 0 -171.5 -41t-132.5 -144l-96 78q78 120 173 174t227 54q189 0 305.5 -106.5t116.5 -301.5v-613h-124v140q-66 -70 -163 -110t-197 -40zM233 299
q0 -93 59 -142t177 -49q144 0 250.5 98t106.5 244v49l-301 -13q-86 -2 -140 -13t-89 -37q-33 -24 -48 -55.5t-15 -81.5zM401 1373q0 71 47 115.5t113 44.5t113 -44.5t47 -115.5t-46.5 -114.5t-113.5 -43.5q-66 0 -113 43.5t-47 114.5zM532 1373q0 -21 5.5 -27.5t23.5 -6.5
q19 0 25 6.5t6 27.5t-6 27.5t-25 6.5t-24 -6.5t-5 -27.5z" />
    <glyph glyph-name="ae" unicode="&#xe6;" horiz-adv-x="1821" 
d="M466 -10q-163 0 -259.5 83.5t-96.5 225.5q0 153 109 232q54 39 126 54t173 18l308 14q-1 144 -78 213.5t-220 69.5q-104 0 -171.5 -41t-132.5 -144l-96 78q78 120 173 174t227 54t231.5 -53.5t148.5 -154.5q56 89 144 141.5t182 63t189 -20.5t167.5 -97t115 -180
t34.5 -257h-787q11 -164 102.5 -258.5t239.5 -94.5h19q216 0 306 201l113 -50q-57 -125 -167 -198t-252 -73h-19q-135 0 -241 65.5t-165 181.5q-71 -118 -185.5 -182.5t-237.5 -64.5zM233 299q0 -93 59 -142t177 -49q144 0 250.5 98t106.5 244v49l-301 -13
q-88 -3 -141.5 -13.5t-87.5 -36.5q-33 -24 -48 -55.5t-15 -81.5zM955 580h659q-10 80 -42 144t-76.5 103.5t-99.5 61t-111 21.5t-111 -21.5t-100 -61.5t-77 -103.5t-42 -143.5z" />
    <glyph glyph-name="ccedilla" unicode="&#xe7;" horiz-adv-x="1064" 
d="M472 -429q-92 0 -143 37v150q51 -40 74 -50.5t69 -10.5q55 0 79 16t24 55q0 48 -41.5 61.5t-172.5 -0.5l87 171q-167 34 -267.5 171.5t-100.5 335.5q0 227 129.5 370.5t337.5 143.5h19q144 0 254.5 -72t163.5 -198l-113 -49q-91 198 -305 198h-19q-158 0 -250.5 -105.5
t-92.5 -287.5t92.5 -289.5t250.5 -107.5h19q214 0 307 201l111 -50q-103 -230 -380 -235l-42 -82q143 -37 143 -176q0 -66 -37 -112.5t-88 -65.5t-108 -19z" />
    <glyph glyph-name="egrave" unicode="&#xe8;" horiz-adv-x="1074" 
d="M547 -10q-205 0 -336 145t-131 372q0 223 126.5 366t330.5 148q214 -5 341.5 -161t114.5 -397h-787q11 -164 102 -258.5t239 -94.5h19q214 0 307 201l111 -50q-56 -125 -166 -198t-252 -73h-19zM207 580h660q-20 148 -106.5 232t-223.5 88q-136 -4 -223 -88.5
t-107 -231.5zM325 1521h156l160 -292h-133z" />
    <glyph glyph-name="eacute" unicode="&#xe9;" horiz-adv-x="1074" 
d="M547 -10q-205 0 -336 145t-131 372q0 223 126.5 366t330.5 148q214 -5 341.5 -161t114.5 -397h-787q11 -164 102 -258.5t239 -94.5h19q214 0 307 201l111 -50q-56 -125 -166 -198t-252 -73h-19zM207 580h660q-20 148 -106.5 232t-223.5 88q-136 -4 -223 -88.5
t-107 -231.5zM443 1229l160 292h155l-184 -292h-131z" />
    <glyph glyph-name="ecircumflex" unicode="&#xea;" horiz-adv-x="1074" 
d="M547 -10q-205 0 -336 145t-131 372q0 223 126.5 366t330.5 148q214 -5 341.5 -161t114.5 -397h-787q11 -164 102 -258.5t239 -94.5h19q214 0 307 201l111 -50q-56 -125 -166 -198t-252 -73h-19zM207 580h660q-20 148 -106.5 232t-223.5 88q-136 -4 -223 -88.5
t-107 -231.5zM320 1229l172 292h93l173 -292h-146l-75 132l-74 -132h-143z" />
    <glyph glyph-name="edieresis" unicode="&#xeb;" horiz-adv-x="1074" 
d="M547 -10q-205 0 -336 145t-131 372q0 223 126.5 366t330.5 148q214 -5 341.5 -161t114.5 -397h-787q11 -164 102 -258.5t239 -94.5h19q214 0 307 201l111 -50q-56 -125 -166 -198t-252 -73h-19zM207 580h660q-20 148 -106.5 232t-223.5 88q-136 -4 -223 -88.5
t-107 -231.5zM341 1373q0 34 23.5 57.5t56.5 23.5t57 -23.5t24 -57.5q0 -32 -24 -56t-57 -24t-56.5 23.5t-23.5 56.5zM577 1373q0 34 23.5 57.5t57.5 23.5q33 0 57 -24t24 -57q0 -32 -24.5 -56t-56.5 -24q-34 0 -57.5 23.5t-23.5 56.5z" />
    <glyph glyph-name="igrave" unicode="&#xec;" horiz-adv-x="445" 
d="M154 0v1011h124v-1011h-124zM-32 1521h156l159 -292h-131z" />
    <glyph glyph-name="iacute" unicode="&#xed;" horiz-adv-x="447" 
d="M192 0v1011h124v-1011h-124zM162 1229l161 292h156l-183 -292h-134z" />
    <glyph glyph-name="icircumflex" unicode="&#xee;" horiz-adv-x="235" 
d="M-102 1229l174 292h92l173 -292h-146l-74 132l-75 -132h-144zM55 0v1011h124v-1011h-124z" />
    <glyph glyph-name="idieresis" unicode="&#xef;" horiz-adv-x="250" 
d="M63 0v1011h124v-1011h-124zM-73 1373q0 34 24 57.5t57 23.5t57 -23.5t24 -57.5q0 -32 -24 -56t-57 -24q-34 0 -57.5 23.5t-23.5 56.5zM164 1373q0 34 23.5 57.5t57.5 23.5q33 0 56.5 -24t23.5 -57q0 -32 -24 -56t-56 -24q-33 0 -57 23.5t-24 56.5z" />
    <glyph glyph-name="eth" unicode="&#xf0;" horiz-adv-x="1123" 
d="M547 -10q-205 0 -336 145t-131 372t129.5 370.5t337.5 143.5h19q85 0 158 -26l-57 112l-171 -45l-30 121l144 39l-91 177h137l74 -144l148 40l32 -123l-122 -33l204 -398h-2q17 -33 30 -98t13 -136q0 -227 -130 -372t-337 -145h-19zM204 507q0 -182 92.5 -289.5
t250.5 -107.5h19q159 0 251 107t92 290q0 182 -92.5 287.5t-250.5 105.5h-19q-158 0 -250.5 -105.5t-92.5 -287.5z" />
    <glyph glyph-name="ntilde" unicode="&#xf1;" horiz-adv-x="1126" 
d="M162 0v1011h124v-100q102 110 304 110q394 0 394 -421v-600h-123v591q0 169 -60 239t-211 70q-154 0 -229 -95.5t-75 -309.5v-495h-124zM355 1323q-13 70 15.5 116.5t91.5 46.5q40 0 121 -28q42 -14 61 -17q0 24 1 37h117q17 -75 -13.5 -119t-90.5 -44q-41 0 -122 26
q-45 17 -61 19q0 -24 -1 -37h-119z" />
    <glyph glyph-name="ograve" unicode="&#xf2;" horiz-adv-x="1113" 
d="M547 -10q-205 0 -336 145t-131 372t129.5 370.5t337.5 143.5h19q208 0 337.5 -143.5t129.5 -370.5t-130 -372t-337 -145h-19zM204 507q0 -182 92.5 -289.5t250.5 -107.5h19q159 0 251 107t92 290q0 182 -92.5 287.5t-250.5 105.5h-19q-158 0 -250.5 -105.5t-92.5 -287.5z
M342 1521h156l160 -292h-132z" />
    <glyph glyph-name="oacute" unicode="&#xf3;" horiz-adv-x="1113" 
d="M547 -10q-205 0 -336 145t-131 372t129.5 370.5t337.5 143.5h19q208 0 337.5 -143.5t129.5 -370.5t-130 -372t-337 -145h-19zM204 507q0 -182 92.5 -289.5t250.5 -107.5h19q159 0 251 107t92 290q0 182 -92.5 287.5t-250.5 105.5h-19q-158 0 -250.5 -105.5t-92.5 -287.5z
M461 1229l159 292h156l-183 -292h-132z" />
    <glyph glyph-name="ocircumflex" unicode="&#xf4;" horiz-adv-x="1113" 
d="M547 -10q-205 0 -336 145t-131 372t129.5 370.5t337.5 143.5h19q208 0 337.5 -143.5t129.5 -370.5t-130 -372t-337 -145h-19zM204 507q0 -182 92.5 -289.5t250.5 -107.5h19q159 0 251 107t92 290q0 182 -92.5 287.5t-250.5 105.5h-19q-158 0 -250.5 -105.5t-92.5 -287.5z
M337 1229l173 292h93l173 -292h-146l-75 132l-73 -132h-145z" />
    <glyph glyph-name="otilde" unicode="&#xf5;" horiz-adv-x="1113" 
d="M547 -10q-205 0 -336 145t-131 372t129.5 370.5t337.5 143.5h19q208 0 337.5 -143.5t129.5 -370.5t-130 -372t-337 -145h-19zM204 507q0 -182 92.5 -289.5t250.5 -107.5h19q159 0 251 107t92 290q0 182 -92.5 287.5t-250.5 105.5h-19q-158 0 -250.5 -105.5t-92.5 -287.5z
M355 1323q-13 70 15.5 116.5t91.5 46.5q40 0 121 -28q42 -14 61 -17q0 24 1 37h117q17 -75 -13.5 -119t-90.5 -44q-41 0 -122 26q-45 17 -61 19q0 -24 -1 -37h-119z" />
    <glyph glyph-name="odieresis" unicode="&#xf6;" horiz-adv-x="1113" 
d="M547 -10q-205 0 -336 145t-131 372t129.5 370.5t337.5 143.5h19q208 0 337.5 -143.5t129.5 -370.5t-130 -372t-337 -145h-19zM204 507q0 -182 92.5 -289.5t250.5 -107.5h19q159 0 251 107t92 290q0 182 -92.5 287.5t-250.5 105.5h-19q-158 0 -250.5 -105.5t-92.5 -287.5z
M357 1373q0 34 24 57.5t58 23.5q33 0 56.5 -23.5t23.5 -57.5q0 -32 -23.5 -56t-56.5 -24q-34 0 -58 24t-24 56zM594 1373q0 34 24 57.5t57 23.5t56.5 -23.5t23.5 -57.5q0 -32 -23.5 -56t-56.5 -24t-57 24t-24 56z" />
    <glyph glyph-name="divide" unicode="&#xf7;" horiz-adv-x="1029" 
d="M96 576v126h837v-126h-837zM423 347q0 39 26.5 65.5t65.5 26.5q38 0 65 -26.5t27 -65.5t-27 -66t-65 -27q-39 0 -65.5 27.5t-26.5 65.5zM423 929q0 38 26.5 65t65.5 27q38 0 65 -26.5t27 -65.5t-27 -65.5t-65 -26.5q-39 0 -65.5 26.5t-26.5 65.5z" />
    <glyph glyph-name="oslash" unicode="&#xf8;" horiz-adv-x="1298" 
d="M169 -34l-89 90l165 166q-69 127 -69 285q0 226 130 370t337 144h20q166 0 286 -96l181 182l88 -91l-183 -183q94 -131 94 -326q0 -227 -130 -372t-336 -145h-20q-192 0 -320 131zM300 507q0 -108 37 -194l525 525q-80 62 -199 62h-20q-158 0 -250.5 -105.5t-92.5 -287.5
zM407 206q93 -96 236 -96h20q159 0 251 107t92 290q0 139 -60 237z" />
    <glyph glyph-name="ugrave" unicode="&#xf9;" horiz-adv-x="1105" 
d="M537 -10q-395 0 -395 420v601h124v-591q0 -169 60 -239.5t211 -70.5q154 0 228.5 96t74.5 310v495h123v-1011h-123v100q-102 -110 -303 -110zM311 1521h155l160 -292h-131z" />
    <glyph glyph-name="uacute" unicode="&#xfa;" horiz-adv-x="1105" 
d="M537 -10q-395 0 -395 420v601h124v-591q0 -169 60 -239.5t211 -70.5q154 0 228.5 96t74.5 310v495h123v-1011h-123v100q-102 -110 -303 -110zM457 1229l159 292h156l-183 -292h-132z" />
    <glyph glyph-name="ucircumflex" unicode="&#xfb;" horiz-adv-x="1105" 
d="M537 -10q-395 0 -395 420v601h124v-591q0 -169 60 -239.5t211 -70.5q154 0 228.5 96t74.5 310v495h123v-1011h-123v100q-102 -110 -303 -110zM334 1229l172 292h93l173 -292h-146l-74 132l-74 -132h-144z" />
    <glyph glyph-name="udieresis" unicode="&#xfc;" horiz-adv-x="1105" 
d="M537 -10q-395 0 -395 420v601h124v-591q0 -169 60 -239.5t211 -70.5q154 0 228.5 96t74.5 310v495h123v-1011h-123v100q-102 -110 -303 -110zM353 1373q0 34 23.5 57.5t57.5 23.5q33 0 56.5 -23.5t23.5 -57.5q0 -32 -23.5 -56t-56.5 -24q-34 0 -57.5 23.5t-23.5 56.5z
M590 1373q0 34 23.5 57.5t57.5 23.5q32 0 55.5 -23.5t23.5 -57.5q0 -32 -23.5 -56t-55.5 -24q-33 0 -57 23.5t-24 56.5z" />
    <glyph glyph-name="yacute" unicode="&#xfd;" horiz-adv-x="1027" 
d="M224 -240q46 -31 74 -20.5t56 81.5l92 225l-396 965h136l325 -806l332 806h134l-510 -1240q-49 -118 -123 -148.5t-170 29.5zM419 1229l160 292h156l-184 -292h-132z" />
    <glyph glyph-name="thorn" unicode="&#xfe;" horiz-adv-x="1201" 
d="M162 -384v1778h124v-537q64 78 153 121t191 43h26q201 0 333 -148t132 -368q0 -221 -132.5 -368t-332.5 -147h-26q-103 0 -192 43t-152 121v-538h-124zM284 505q0 -177 94 -285t248 -108h27q154 0 249.5 108.5t95.5 284.5t-95.5 284.5t-249.5 108.5h-27
q-153 0 -247.5 -108.5t-94.5 -284.5z" />
    <glyph glyph-name="ydieresis" unicode="&#xff;" horiz-adv-x="1027" 
d="M224 -240q46 -31 73.5 -20.5t56.5 81.5l92 225l-396 965h136l325 -806l332 806h134l-510 -1240q-101 -240 -293 -120zM317 1373q0 33 24.5 57t57.5 24q32 0 55.5 -23.5t23.5 -57.5q0 -32 -23.5 -56t-55.5 -24q-34 0 -58 24t-24 56zM553 1373q0 33 24 57t57 24t57 -23.5
t24 -57.5q0 -32 -24 -56t-57 -24q-32 0 -56.5 24t-24.5 56z" />
    <glyph glyph-name="Amacron" unicode="&#x100;" horiz-adv-x="1161" 
d="M40 0l486 1394h107l488 -1394h-134l-156 451h-501l-156 -451h-134zM371 572h420l-210 606zM406 1589v126h349v-126h-349z" />
    <glyph glyph-name="amacron" unicode="&#x101;" horiz-adv-x="1028" 
d="M466 -10q-163 0 -259.5 83.5t-96.5 225.5q0 153 109 232q53 38 124 53t174 19l309 14q-1 144 -78 213.5t-220 69.5q-104 0 -171.5 -41t-132.5 -144l-96 78q78 120 173 174t227 54q189 0 305.5 -106.5t116.5 -301.5v-613h-124v140q-66 -70 -163 -110t-197 -40zM233 299
q0 -93 59 -142t177 -49q144 0 250.5 98t106.5 244v49l-301 -13q-86 -2 -140 -13t-89 -37q-33 -24 -48 -55.5t-15 -81.5zM377 1304v126h349v-126h-349z" />
    <glyph glyph-name="Abreve" unicode="&#x102;" horiz-adv-x="1161" 
d="M40 0l486 1394h107l488 -1394h-134l-156 451h-501l-156 -451h-134zM358 1785h120q-9 -86 17.5 -125t86.5 -39t85.5 39t16.5 125h120q15 -128 -49 -209t-173 -81q-111 0 -174 80.5t-50 209.5zM371 572h420l-210 606z" />
    <glyph glyph-name="abreve" unicode="&#x103;" horiz-adv-x="1028" 
d="M466 -10q-163 0 -259.5 83.5t-96.5 225.5q0 153 109 232q54 39 126 54t173 18l308 14q-1 144 -78 213.5t-220 69.5q-104 0 -171.5 -41t-132.5 -144l-96 78q78 120 173 174t227 54q189 0 305.5 -106.5t116.5 -301.5v-613h-124v140q-66 -70 -163 -110t-197 -40zM233 299
q0 -93 59 -142t177 -49q144 0 250.5 98t106.5 244v49l-301 -13q-88 -3 -141.5 -13.5t-87.5 -36.5q-33 -24 -48 -55.5t-15 -81.5zM328 1511h121q-18 -164 101 -164q60 0 86.5 38.5t17.5 125.5h120q14 -129 -50 -209t-174 -80t-173 80.5t-49 208.5z" />
    <glyph glyph-name="Aogonek" unicode="&#x104;" horiz-adv-x="1155" 
d="M914 -419q-66 0 -114 41t-48 132q0 99 56 185t152 138l-129 374h-501l-156 -451h-134l486 1394h107l482 -1375q-110 -40 -173 -106t-63 -154q0 -35 7.5 -44.5t35.5 -9.5q39 0 69.5 25t96.5 107v-177q-71 -79 -174 -79zM371 572h420l-210 606z" />
    <glyph glyph-name="aogonek" unicode="&#x105;" horiz-adv-x="1068" 
d="M756 -419q-66 0 -114.5 41t-48.5 132q0 106 64 199.5t169 139.5v47q-66 -70 -163 -110t-197 -40q-163 0 -259.5 83.5t-96.5 225.5q0 153 109 232q53 38 124 53t174 19l309 14q-1 144 -78 213.5t-220 69.5q-104 0 -171.5 -41t-132.5 -144l-96 78q78 120 173 174t227 54
q189 0 305.5 -106.5t116.5 -301.5v-606q-103 -15 -166 -85t-63 -163q0 -35 7.5 -44.5t35.5 -9.5q38 0 70 25.5t95 106.5v-177q-68 -79 -173 -79zM233 299q0 -93 59 -142t177 -49q144 0 250.5 98t106.5 244v49l-301 -13q-86 -2 -140 -13t-89 -37q-33 -24 -48 -55.5t-15 -81.5
z" />
    <glyph glyph-name="Cacute" unicode="&#x106;" horiz-adv-x="1349" 
d="M695 -12q-275 0 -445 193t-170 515q0 324 170 517t445 193h20q200 0 348 -104.5t216 -288.5l-116 -43q-57 153 -170 232.5t-278 79.5h-20q-230 0 -360.5 -155.5t-130.5 -430.5q0 -274 130.5 -429t360.5 -155h20q165 0 278 80t170 232l116 -42q-68 -184 -216 -289
t-348 -105h-20zM584 1522l148 263h158l-173 -263h-133z" />
    <glyph glyph-name="cacute" unicode="&#x107;" horiz-adv-x="1064" 
d="M547 -10q-205 0 -336 145t-131 372t129.5 370.5t337.5 143.5h19q144 0 254.5 -72t163.5 -198l-113 -49q-91 198 -305 198h-19q-158 0 -250.5 -105.5t-92.5 -287.5t92.5 -289.5t250.5 -107.5h19q214 0 307 201l111 -50q-56 -125 -166 -198t-252 -73h-19zM452 1229l159 292
h156l-183 -292h-132z" />
    <glyph glyph-name="Ccircumflex" unicode="&#x108;" horiz-adv-x="1349" 
d="M695 -12q-275 0 -445 193t-170 515q0 324 170 517t445 193h20q200 0 348 -104.5t216 -288.5l-116 -43q-57 153 -170 232.5t-278 79.5h-20q-230 0 -360.5 -155.5t-130.5 -430.5q0 -274 130.5 -429t360.5 -155h20q165 0 278 80t170 232l116 -42q-68 -184 -216 -289
t-348 -105h-20zM483 1522l181 263h89l182 -263h-151l-76 115l-77 -115h-148z" />
    <glyph glyph-name="ccircumflex" unicode="&#x109;" horiz-adv-x="1064" 
d="M547 -10q-205 0 -336 145t-131 372t129.5 370.5t337.5 143.5h19q144 0 254.5 -72t163.5 -198l-113 -49q-91 198 -305 198h-19q-158 0 -250.5 -105.5t-92.5 -287.5t92.5 -289.5t250.5 -107.5h19q214 0 307 201l111 -50q-56 -125 -166 -198t-252 -73h-19zM337 1229l173 292
h93l173 -292h-146l-75 132l-73 -132h-145z" />
    <glyph glyph-name="Cdotaccent" unicode="&#x10a;" horiz-adv-x="1349" 
d="M695 -12q-275 0 -445 193t-170 515q0 324 170 517t445 193h20q200 0 348 -104.5t216 -288.5l-116 -43q-57 153 -170 232.5t-278 79.5h-20q-230 0 -360.5 -155.5t-130.5 -430.5q0 -274 130.5 -429t360.5 -155h20q165 0 278 80t170 232l116 -42q-68 -184 -216 -289
t-348 -105h-20zM607 1653q0 33 23.5 57t56.5 24q34 0 58 -24t24 -57t-24.5 -56.5t-57.5 -23.5q-32 0 -56 23.5t-24 56.5z" />
    <glyph glyph-name="cdotaccent" unicode="&#x10b;" horiz-adv-x="1064" 
d="M547 -10q-205 0 -336 145t-131 372t129.5 370.5t337.5 143.5h19q144 0 254.5 -72t163.5 -198l-113 -49q-91 198 -305 198h-19q-158 0 -250.5 -105.5t-92.5 -287.5t92.5 -289.5t250.5 -107.5h19q214 0 307 201l111 -50q-56 -125 -166 -198t-252 -73h-19zM466 1372
q0 33 24 56.5t57 23.5q34 0 57.5 -23.5t23.5 -56.5t-23.5 -57t-57.5 -24q-32 0 -56.5 24t-24.5 57z" />
    <glyph glyph-name="Ccaron" unicode="&#x10c;" horiz-adv-x="1349" 
d="M695 -12q-275 0 -445 193t-170 515q0 324 170 517t445 193h20q200 0 348 -104.5t216 -288.5l-116 -43q-57 153 -170 232.5t-278 79.5h-20q-230 0 -360.5 -155.5t-130.5 -430.5q0 -274 130.5 -429t360.5 -155h20q165 0 278 80t170 232l116 -42q-68 -184 -216 -289
t-348 -105h-20zM463 1785h151l75 -116l77 116h148l-181 -263h-88z" />
    <glyph glyph-name="ccaron" unicode="&#x10d;" horiz-adv-x="1064" 
d="M547 -10q-205 0 -336 145t-131 372t129.5 370.5t337.5 143.5h19q144 0 254.5 -72t163.5 -198l-113 -49q-91 198 -305 198h-19q-158 0 -250.5 -105.5t-92.5 -287.5t92.5 -289.5t250.5 -107.5h19q214 0 307 201l111 -50q-56 -125 -166 -198t-252 -73h-19zM329 1521h146
l73 -131l75 131h144l-173 -292h-92z" />
    <glyph glyph-name="Dcaron" unicode="&#x10e;" horiz-adv-x="1254" 
d="M170 0v1394h304q332 0 516 -186.5t184 -521.5q0 -329 -182.5 -507.5t-519.5 -178.5h-302zM294 122h175q290 0 433.5 140t143.5 424q0 292 -145 439t-429 147h-178v-1150zM394 1785h151l76 -116l76 116h148l-181 -263h-88z" />
    <glyph glyph-name="dcaron" unicode="&#x10f;" horiz-adv-x="1302" 
d="M545 -10q-132 0 -239 68t-166.5 186.5t-59.5 262.5q0 221 132.5 367.5t332.5 146.5h27q103 0 191.5 -42.5t151.5 -120.5v536h124v-1394h-124v154q-63 -78 -152 -121t-191 -43h-27zM204 507q0 -177 95.5 -286t248.5 -109h28q152 0 246.5 109t94.5 286q0 176 -94 283.5
t-247 107.5h-28q-153 0 -248.5 -107.5t-95.5 -283.5zM1087 1149l110 315h121v-61l-106 -254h-125z" />
    <glyph glyph-name="Dcroat" unicode="&#x110;" horiz-adv-x="1237" 
d="M154 0v606h-104v127h104v661h303q331 0 515.5 -186.5t184.5 -521.5q0 -329 -182.5 -507.5t-519.5 -178.5h-301zM276 122h175q291 0 434.5 140t143.5 424q0 291 -145.5 438.5t-428.5 147.5h-179v-539h360v-127h-360v-484z" />
    <glyph glyph-name="dcroat" unicode="&#x111;" horiz-adv-x="1149" 
d="M545 -10q-132 0 -239 68t-166.5 186.5t-59.5 262.5q0 221 132.5 367.5t332.5 146.5h27q103 0 191.5 -42.5t151.5 -120.5v253h-216v126h216v157h124v-157h88v-126h-88v-1111h-124v154q-63 -78 -152 -121t-191 -43h-27zM204 507q0 -177 95.5 -286t248.5 -109h28
q152 0 246.5 109t94.5 286q0 176 -94 283.5t-247 107.5h-28q-153 0 -248.5 -107.5t-95.5 -283.5z" />
    <glyph glyph-name="Emacron" unicode="&#x112;" horiz-adv-x="1157" 
d="M170 0v1394h897v-122h-773v-508h708v-122h-708v-520h773v-122h-897zM411 1589v126h349v-126h-349z" />
    <glyph glyph-name="emacron" unicode="&#x113;" horiz-adv-x="1074" 
d="M547 -10q-205 0 -336 145t-131 372q0 223 126.5 366t330.5 148q214 -5 341.5 -161t114.5 -397h-787q11 -164 102 -258.5t239 -94.5h19q214 0 307 201l111 -50q-56 -125 -166 -198t-252 -73h-19zM207 580h660q-20 148 -106.5 232t-223.5 88q-136 -4 -223 -88.5
t-107 -231.5zM363 1304v126h349v-126h-349z" />
    <glyph glyph-name="Ebreve" unicode="&#x114;" horiz-adv-x="1157" 
d="M170 0v1394h897v-122h-773v-508h708v-122h-708v-520h773v-122h-897zM429 1835h120q-9 -86 17 -124.5t86 -38.5q59 0 85 38.5t18 124.5h119q14 -128 -49.5 -208.5t-172.5 -80.5q-111 0 -174.5 80.5t-48.5 208.5z" />
    <glyph glyph-name="ebreve" unicode="&#x115;" horiz-adv-x="1074" 
d="M547 -10q-205 0 -336 145t-131 372q0 249 150 392q119 113 286 120t296 -93q154 -121 178 -345q6 -57 3 -118h-787q11 -164 102 -258.5t239 -94.5h19q214 0 307 201l111 -50q-56 -125 -166 -198t-252 -73h-19zM207 580h660q-10 80 -42 144t-77 103.5t-100 61t-111 21.5
t-111 -21.5t-100 -61.5t-77 -103.5t-42 -143.5zM313 1511h120q-18 -164 103 -164t103 164h119q15 -128 -49 -208.5t-173 -80.5q-110 0 -173.5 80.5t-49.5 208.5z" />
    <glyph glyph-name="Edotaccent" unicode="&#x116;" horiz-adv-x="1157" 
d="M170 0v1394h897v-122h-773v-508h708v-122h-708v-520h773v-122h-897zM505 1653q0 33 24 57t57 24t57 -24t24 -57t-23.5 -56.5t-57.5 -23.5q-33 0 -57 23.5t-24 56.5z" />
    <glyph glyph-name="edotaccent" unicode="&#x117;" horiz-adv-x="1074" 
d="M547 -10q-205 0 -336 145t-131 372q0 223 126.5 366t330.5 148q214 -5 341.5 -161t114.5 -397h-787q11 -164 102 -258.5t239 -94.5h19q214 0 307 201l111 -50q-56 -125 -166 -198t-252 -73h-19zM207 580h660q-20 148 -106.5 232t-223.5 88q-136 -4 -223 -88.5
t-107 -231.5zM458 1372q0 33 23.5 56.5t55.5 23.5q34 0 57.5 -23.5t23.5 -56.5t-23.5 -57t-57.5 -24q-32 0 -55.5 24t-23.5 57z" />
    <glyph glyph-name="Eogonek" unicode="&#x118;" horiz-adv-x="1160" 
d="M881 -419q-66 0 -115 41t-49 132q0 140 106 246h-653v1394h897v-122h-773v-508h708v-122h-708v-520h776v-107q-106 -40 -165.5 -105.5t-59.5 -150.5q0 -35 8 -44.5t36 -9.5q38 0 69.5 26t94.5 107v-178q-68 -79 -172 -79z" />
    <glyph glyph-name="eogonek" unicode="&#x119;" horiz-adv-x="1074" 
d="M536 -419q-66 0 -114.5 41t-48.5 132q0 66 24.5 133t59.5 111q-170 32 -273.5 170.5t-103.5 338.5q0 223 126.5 366t330.5 148q214 -5 341.5 -161t114.5 -397h-787q11 -164 102 -258.5t239 -94.5h19q214 0 307 201l111 -50q-46 -102 -129 -170.5t-192 -90.5
q-74 -32 -118 -98t-44 -143q0 -35 7.5 -44.5t34.5 -9.5q39 0 71 26t94 108v-179q-67 -79 -172 -79zM207 580h660q-20 148 -106.5 232t-223.5 88q-136 -4 -223 -88.5t-107 -231.5zM363 1304v126h349v-126h-349z" />
    <glyph glyph-name="Ecaron" unicode="&#x11a;" horiz-adv-x="1157" 
d="M170 0v1394h897v-122h-773v-508h708v-122h-708v-520h773v-122h-897zM361 1785h150l77 -116l76 116h149l-183 -263h-88z" />
    <glyph glyph-name="ecaron" unicode="&#x11b;" horiz-adv-x="1074" 
d="M547 -10q-205 0 -336 145t-131 372q0 223 126.5 366t330.5 148q214 -5 341.5 -161t114.5 -397h-787q11 -164 102 -258.5t239 -94.5h19q214 0 307 201l111 -50q-56 -125 -166 -198t-252 -73h-19zM207 580h660q-20 148 -106.5 232t-223.5 88q-136 -4 -223 -88.5
t-107 -231.5zM320 1521h145l74 -131l75 131h144l-173 -292h-93z" />
    <glyph glyph-name="Gcircumflex" unicode="&#x11c;" horiz-adv-x="1323" 
d="M695 -12q-275 0 -445 193t-170 517q0 323 170 515.5t445 192.5q204 0 351.5 -107.5t206.5 -294.5l-114 -46q-48 154 -159.5 239t-284.5 85q-230 0 -360.5 -155t-130.5 -429q0 -275 130.5 -430.5t360.5 -155.5q157 0 263.5 70.5t161.5 199.5v228h-467v123h588v-733h-121
v160q-163 -172 -425 -172zM464 1522l183 263h88l181 -263h-150l-77 115l-75 -115h-150z" />
    <glyph glyph-name="gcircumflex" unicode="&#x11d;" horiz-adv-x="1200" 
d="M562 -388q-183 0 -301.5 105.5t-136.5 287.5h123q20 -132 99.5 -201t215.5 -69h28q325 0 325 411v6q-63 -78 -152 -121t-191 -43h-10q-202 0 -342 149t-140 368q0 221 132.5 367.5t332.5 146.5h27q103 0 191.5 -42.5t151.5 -120.5v157h124v-878q0 -248 -121.5 -385.5
t-327.5 -137.5h-28zM204 505q0 -177 95.5 -286t248.5 -109h28q143 0 234.5 95.5t104.5 254.5v90q-13 158 -104.5 252t-234.5 94h-28q-153 0 -248.5 -107.5t-95.5 -283.5zM361 1229l173 292h92l172 -292h-145l-74 132l-74 -132h-144z" />
    <glyph glyph-name="Gbreve" unicode="&#x11e;" horiz-adv-x="1323" 
d="M695 -12q-275 0 -445 193t-170 517q0 323 170 515.5t445 192.5q204 0 351.5 -107.5t206.5 -294.5l-114 -46q-48 154 -159.5 239t-284.5 85q-230 0 -360.5 -155t-130.5 -429q0 -275 130.5 -430.5t360.5 -155.5q157 0 263.5 70.5t161.5 199.5v228h-467v123h588v-733h-121
v160q-163 -172 -425 -172zM474 1835h119q-9 -86 17 -124.5t86 -38.5t86.5 38.5t17.5 124.5h119q15 -127 -49 -208t-174 -81t-173 80.5t-49 208.5z" />
    <glyph glyph-name="gbreve" unicode="&#x11f;" horiz-adv-x="1200" 
d="M562 -388q-183 0 -301.5 105.5t-136.5 287.5h123q20 -132 99.5 -201t215.5 -69h28q325 0 325 411v6q-63 -78 -152 -121t-191 -43h-10q-202 0 -342 149t-140 368q0 221 132.5 367.5t332.5 146.5h27q103 0 191.5 -42.5t151.5 -120.5v157h124v-878q0 -248 -121.5 -385.5
t-327.5 -137.5h-28zM204 505q0 -177 95.5 -286t248.5 -109h28q143 0 234.5 95.5t104.5 254.5v90q-13 158 -104.5 252t-234.5 94h-28q-153 0 -248.5 -107.5t-95.5 -283.5zM343 1511h118q-8 -87 18 -125.5t86 -38.5t86 38.5t17 125.5h119q15 -128 -49 -208.5t-173 -80.5
q-111 0 -174 80.5t-48 208.5z" />
    <glyph glyph-name="Gdotaccent" unicode="&#x120;" horiz-adv-x="1323" 
d="M695 -12q-275 0 -445 193t-170 517q0 323 170 515.5t445 192.5q204 0 351.5 -107.5t206.5 -294.5l-114 -46q-48 154 -159.5 239t-284.5 85q-230 0 -360.5 -155t-130.5 -429q0 -275 130.5 -430.5t360.5 -155.5q157 0 263.5 70.5t161.5 199.5v228h-467v123h588v-733h-121
v160q-163 -172 -425 -172zM616 1653q0 33 23.5 57t56.5 24t56.5 -24t23.5 -57t-23.5 -56.5t-56.5 -23.5q-32 0 -56 23.5t-24 56.5z" />
    <glyph glyph-name="gdotaccent" unicode="&#x121;" horiz-adv-x="1200" 
d="M562 -388q-183 0 -301.5 105.5t-136.5 287.5h123q20 -132 99.5 -201t215.5 -69h28q325 0 325 411v6q-63 -78 -152 -121t-191 -43h-10q-202 0 -342 149t-140 368q0 221 132.5 367.5t332.5 146.5h27q103 0 191.5 -42.5t151.5 -120.5v157h124v-878q0 -248 -121.5 -385.5
t-327.5 -137.5h-28zM204 505q0 -177 95.5 -286t248.5 -109h28q143 0 234.5 95.5t104.5 254.5v90q-13 158 -104.5 252t-234.5 94h-28q-153 0 -248.5 -107.5t-95.5 -283.5zM506 1372q0 33 23.5 56.5t56.5 23.5t57.5 -23.5t24.5 -56.5t-24 -57t-58 -24q-33 0 -56.5 24t-23.5 57
z" />
    <glyph glyph-name="uni0122" unicode="&#x122;" horiz-adv-x="1532" 
d="M782 -12q-275 0 -445.5 193t-170.5 517q0 323 170.5 515.5t445.5 192.5q203 0 350.5 -107.5t207.5 -295.5l-116 -45q-46 154 -157.5 239t-284.5 85q-230 0 -361 -155t-131 -429q0 -276 130.5 -431t361.5 -155q157 0 263.5 70.5t160.5 199.5v228h-467v123h589v-733h-122
v160q-78 -83 -187 -127.5t-237 -44.5zM618 -372l113 316h119v-61l-106 -255h-126z" />
    <glyph glyph-name="uni0123" unicode="&#x123;" horiz-adv-x="1228" 
d="M617 -388q-183 0 -302 105.5t-136 287.5h122q20 -133 99.5 -201.5t216.5 -68.5h28q324 0 324 411v6q-63 -78 -152 -121t-191 -43h-9q-202 0 -342.5 149t-140.5 368q0 221 133 367.5t333 146.5h26q103 0 191.5 -42.5t151.5 -120.5v157h125v-878q0 -248 -121.5 -385.5
t-327.5 -137.5h-28zM258 505q0 -177 95.5 -286t250.5 -109h26q143 0 234.5 95.5t104.5 254.5v90q-13 158 -104.5 252t-234.5 94h-26q-155 0 -250.5 -107.5t-95.5 -283.5zM574 1231v61l106 254h125l-111 -315h-120z" />
    <glyph glyph-name="Hcircumflex" unicode="&#x124;" horiz-adv-x="1237" 
d="M170 0v1394h124v-626h648v626h125v-1394h-125v646h-648v-646h-124zM401 1522l183 263h88l181 -263h-150l-77 115l-76 -115h-149z" />
    <glyph glyph-name="hcircumflex" unicode="&#x125;" horiz-adv-x="1015" 
d="M51 0v1394h124v-483q101 110 304 110q394 0 394 -421v-600h-123v591q0 169 -60.5 239t-210.5 70q-155 0 -229.5 -95.5t-74.5 -309.5v-495h-124zM-110 1522l182 263h88l182 -263h-151l-76 115l-76 -115h-149z" />
    <glyph glyph-name="Hbar" unicode="&#x126;" horiz-adv-x="1145" 
d="M128 0v976h-76v125h76v293h125v-293h646v293h127v-293h69v-125h-69v-976h-127v646h-646v-646h-125zM253 768h646v208h-646v-208z" />
    <glyph glyph-name="hbar" unicode="&#x127;" horiz-adv-x="1086" 
d="M121 0v1111h-99v126h99v157h125v-157h205v-126h-205v-200q101 110 303 110q395 0 395 -421v-600h-124v591q0 169 -60 239t-211 70q-154 0 -228.5 -95.5t-74.5 -309.5v-495h-125z" />
    <glyph glyph-name="Itilde" unicode="&#x128;" horiz-adv-x="220" 
d="M49 0v1394h124v-1394h-124zM-95 1577q-13 70 15.5 116.5t91.5 46.5q40 0 121 -28q42 -14 61 -17q0 24 1 37h117q17 -75 -13.5 -119t-90.5 -44q-41 0 -122 26q-45 17 -61 19q0 -24 -1 -37h-119z" />
    <glyph glyph-name="itilde" unicode="&#x129;" horiz-adv-x="204" 
d="M25 0v1011h124v-1011h-124zM-105 1323q-13 70 15.5 116.5t91.5 46.5q40 0 121 -28q42 -14 61 -17q0 24 1 37h117q17 -75 -13.5 -119t-90.5 -44q-41 0 -122 26q-45 17 -61 19q0 -24 -1 -37h-119z" />
    <glyph glyph-name="Imacron" unicode="&#x12a;" horiz-adv-x="245" 
d="M61 0v1394h123v-1394h-123zM-52 1589v126h349v-126h-349z" />
    <glyph glyph-name="imacron" unicode="&#x12b;" horiz-adv-x="229" 
d="M52 0v1011h124v-1011h-124zM-60 1304v126h349v-126h-349z" />
    <glyph glyph-name="Ibreve" unicode="&#x12c;" horiz-adv-x="276" 
d="M77 0v1394h123v-1394h-123zM-84 1835h119q-8 -86 18 -124.5t85 -38.5q60 0 86 38.5t18 124.5h119q15 -127 -49 -208t-174 -81t-173 80.5t-49 208.5z" />
    <glyph glyph-name="ibreve" unicode="&#x12d;" horiz-adv-x="290" 
d="M144 1222q-111 0 -173.5 80t-48.5 209h118q-7 -87 19 -125.5t85 -38.5q60 0 86 38.5t16 125.5h121q15 -128 -49.5 -208.5t-173.5 -80.5zM79 0v1011h124v-1011h-124z" />
    <glyph glyph-name="Iogonek" unicode="&#x12e;" horiz-adv-x="453" 
d="M160 -419q-67 0 -115.5 41t-48.5 132q0 107 63.5 196.5t171.5 141.5l-8 4v1298h124v-1378q-105 -41 -164 -106.5t-59 -150.5q0 -35 8 -44.5t35 -9.5q39 0 70 25.5t95 106.5v-177q-68 -79 -172 -79z" />
    <glyph glyph-name="iogonek" unicode="&#x12f;" horiz-adv-x="477" 
d="M152 -415q-66 0 -115 40.5t-49 131.5q0 108 70 205t179 142v907h123v-1011h-65q-83 -28 -131 -92.5t-48 -144.5q0 -35 8 -44.5t36 -9.5q38 0 69.5 25.5t94.5 106.5v-177q-68 -79 -172 -79zM218 1234q0 34 23.5 57.5t57.5 23.5q33 0 56.5 -23.5t23.5 -57.5
q0 -32 -23.5 -55.5t-56.5 -23.5q-34 0 -57.5 23.5t-23.5 55.5z" />
    <glyph glyph-name="Idotaccent" unicode="&#x130;" horiz-adv-x="457" 
d="M166 0v1394h124v-1394h-124zM148 1653q0 33 23.5 57t56.5 24t57 -24t24 -57t-23.5 -56.5t-57.5 -23.5q-33 0 -56.5 23.5t-23.5 56.5z" />
    <glyph glyph-name="dotlessi" unicode="&#x131;" horiz-adv-x="544" 
d="M210 0v1011h124v-1011h-124z" />
    <glyph glyph-name="IJ" unicode="&#x132;" horiz-adv-x="1526" 
d="M428 505v56h125q-14 -235 109 -366q93 -99 227 -101q133 -3 232 93q126 121 126 341v866h125v-868q0 -261 -154 -413q-121 -119 -293 -131q-169 -11 -302 87q-157 117 -188 336q-7 48 -7 100zM154 0v1394h122v-1394h-122z" />
    <glyph glyph-name="ij" unicode="&#x133;" horiz-adv-x="756" 
d="M329 -391q-116 0 -189 59l47 102q44 -25 71 -33.5t70 -8.5h12q72 0 103 35t31 123v1125h124v-1125q0 -135 -68 -206t-188 -71h-13zM163 1231q0 33 23.5 56.5t56.5 23.5t57 -23.5t24 -56.5t-24 -56.5t-57 -23.5t-56.5 23.5t-23.5 56.5zM181 0v1011h124v-1011h-124z
M455 1232q0 33 23.5 56.5t57.5 23.5q32 0 56 -23.5t24 -56.5t-24 -56.5t-56 -23.5q-34 0 -57.5 23.5t-23.5 56.5z" />
    <glyph glyph-name="Jcircumflex" unicode="&#x134;" horiz-adv-x="1051" 
d="M70 505v56h126q-14 -236 111 -367q94 -99 227 -100q134 -2 232 93q125 122 125 341v866h123v-868q0 -261 -154 -413q-121 -119 -293 -131q-169 -11 -302 87q-157 117 -188 336q-7 48 -7 100zM721 1522l182 263h88l182 -263h-151l-75 115l-78 -115h-148z" />
    <glyph glyph-name="jcircumflex" unicode="&#x135;" horiz-adv-x="342" 
d="M22 -391q-119 0 -190 60l48 101q45 -25 71 -33.5t69 -8.5h13q72 0 102.5 35t30.5 123v1125h124v-1125q0 -135 -67.5 -206t-187.5 -71h-13zM5 1229l175 292h91l173 -292h-145l-75 132l-74 -132h-145z" />
    <glyph glyph-name="uni0136" unicode="&#x136;" horiz-adv-x="1327" 
d="M224 0v1394h123v-729l701 729h171l-577 -601l559 -793h-151l-496 703l-207 -214v-489h-123zM478 -372l112 316h120v-61l-107 -255h-125z" />
    <glyph glyph-name="uni0137" unicode="&#x137;" horiz-adv-x="1111" 
d="M206 0v1394h123v-879l481 496h172l-375 -384l396 -627h-148l-336 536l-190 -195v-341h-123zM358 -372l110 316h122v-61l-107 -255h-125z" />
    <glyph glyph-name="kgreenlandic" unicode="&#x138;" horiz-adv-x="1010" 
d="M162 0v1015h124v-500l481 496h172l-375 -384l396 -627h-148l-336 536l-190 -195v-341h-124z" />
    <glyph glyph-name="Lacute" unicode="&#x139;" horiz-adv-x="1127" 
d="M191 0v1394h123v-1272h773v-122h-896zM156 1522l148 263h159l-175 -263h-132z" />
    <glyph glyph-name="lacute" unicode="&#x13a;" horiz-adv-x="508" 
d="M405 -6q-109 -17 -167.5 40.5t-58.5 182.5v1177h124v-1173q0 -74 19 -93.5t76 -15.5zM148 1614l159 293h157l-184 -293h-132z" />
    <glyph glyph-name="uni013B" unicode="&#x13b;" horiz-adv-x="1238" 
d="M224 0v1394h123v-1272h773v-122h-896zM465 -372l111 316h120v-61l-106 -255h-125z" />
    <glyph glyph-name="uni013C" unicode="&#x13c;" horiz-adv-x="464" 
d="M404 -6q-109 -17 -167.5 40.5t-58.5 182.5v1177h124v-1173q0 -74 19 -93.5t76 -15.5zM140 -372l111 316h121v-61l-107 -255h-125z" />
    <glyph glyph-name="Lcaron" unicode="&#x13d;" horiz-adv-x="1107" 
d="M170 0v1394h124v-1272h773v-122h-897zM496 1100l103 294h97l-110 -294h-90z" />
    <glyph glyph-name="lcaron" unicode="&#x13e;" horiz-adv-x="448" 
d="M388 -6q-109 -17 -167.5 40.5t-58.5 182.5v1177h124v-1173q0 -74 19 -93.5t76 -15.5zM318 1070l111 315h121v-61l-106 -254h-126z" />
    <glyph glyph-name="Ldot" unicode="&#x13f;" horiz-adv-x="1107" 
d="M170 0v1394h124v-1272h773v-122h-897zM570 794q0 33 24 56.5t57 23.5t57 -23.5t24 -56.5t-24 -57t-57 -24t-57 23.5t-24 57.5z" />
    <glyph glyph-name="ldot" unicode="&#x140;" horiz-adv-x="527" 
d="M388 -6q-109 -17 -167.5 40.5t-58.5 182.5v1177h124v-1173q0 -74 19 -93.5t76 -15.5zM365 794q0 33 24 56.5t58 23.5q33 0 56.5 -24t23.5 -56q0 -33 -23.5 -57t-56.5 -24q-34 0 -58 23.5t-24 57.5z" />
    <glyph glyph-name="Lslash" unicode="&#x141;" horiz-adv-x="1170" 
d="M233 2v553l-215 -128v145l215 129v695h124v-622l347 207v-147l-347 -206v-504h773v-122h-897z" />
    <glyph glyph-name="lslash" unicode="&#x142;" horiz-adv-x="365" 
d="M345 -6q-109 -17 -168 40.5t-59 182.5v308l-106 -78v155l106 77v715h125v-625l110 78v-155l-110 -78v-393q0 -75 18.5 -94t76.5 -15z" />
    <glyph glyph-name="Nacute" unicode="&#x143;" horiz-adv-x="1282" 
d="M170 0v1394h120l699 -1152v1152h123v-1394h-122l-696 1148v-1148h-124zM544 1522l148 263h159l-173 -263h-134z" />
    <glyph glyph-name="nacute" unicode="&#x144;" horiz-adv-x="1126" 
d="M162 0v1011h124v-100q102 110 304 110q394 0 394 -421v-600h-123v591q0 169 -60 239t-211 70q-154 0 -229 -95.5t-75 -309.5v-495h-124zM465 1229l160 292h156l-183 -292h-133z" />
    <glyph glyph-name="uni0145" unicode="&#x145;" horiz-adv-x="1390" 
d="M224 0v1394h120l697 -1152v1152h125v-1394h-122l-697 1148v-1148h-123zM531 -372l111 316h120v-61l-106 -255h-125z" />
    <glyph glyph-name="uni0146" unicode="&#x146;" horiz-adv-x="1224" 
d="M206 0v1011h123v-100q102 110 304 110q395 0 395 -421v-600h-125v591q0 169 -59.5 239t-210.5 70q-154 0 -229 -95.5t-75 -309.5v-495h-123zM440 -372l110 316h122v-61l-107 -255h-125z" />
    <glyph glyph-name="Ncaron" unicode="&#x147;" horiz-adv-x="1282" 
d="M170 0v1394h120l699 -1152v1152h123v-1394h-122l-696 1148v-1148h-124zM416 1785h150l77 -116l76 116h149l-182 -263h-89z" />
    <glyph glyph-name="ncaron" unicode="&#x148;" horiz-adv-x="1126" 
d="M162 0v1011h124v-100q102 110 304 110q394 0 394 -421v-600h-123v591q0 169 -60 239t-211 70q-154 0 -229 -95.5t-75 -309.5v-495h-124zM343 1521h146l73 -131l75 131h144l-173 -292h-93z" />
    <glyph glyph-name="napostrophe" unicode="&#x149;" horiz-adv-x="1237" 
d="M272 0v1011h125v-100q101 110 303 110q395 0 395 -421v-600h-125v591q0 169 -60 239t-210 70q-155 0 -229 -95.5t-74 -309.5v-495h-125zM108 977l152 489h127l-156 -544h-112z" />
    <glyph glyph-name="Eng" unicode="&#x14a;" horiz-adv-x="1282" 
d="M766 -292q67 -3 105 2t66 24t38 55.5t10 98.5v132h-7l-684 1128v-1148h-124v1394h120l699 -1152v1152h123v-1477q0 -51 -2 -79q-10 -140 -95.5 -199.5t-248.5 -57.5v127z" />
    <glyph glyph-name="eng" unicode="&#x14b;" horiz-adv-x="1126" 
d="M715 -391q-119 0 -190 59l47 102q47 -25 72.5 -33.5t68.5 -8.5h12q72 0 102.5 35t31.5 123l2 705q0 169 -60 239t-211 70q-154 0 -229 -95.5t-75 -309.5v-495h-124v1011h124v-100q102 110 304 110q394 0 394 -421l-2 -714q-1 -136 -68 -206.5t-187 -70.5h-12z" />
    <glyph glyph-name="Omacron" unicode="&#x14c;" horiz-adv-x="1411" 
d="M695 -17q-275 0 -445 192.5t-170 514.5q0 324 170 517t445 193h20q279 0 447.5 -195.5t168.5 -514.5q0 -318 -168 -512.5t-448 -194.5h-20zM204 690q0 -274 130.5 -429t360.5 -155h20q232 0 362.5 155t130.5 429q0 276 -131 431t-362 155h-20q-230 0 -360.5 -155
t-130.5 -431zM536 1589v126h349v-126h-349z" />
    <glyph glyph-name="omacron" unicode="&#x14d;" horiz-adv-x="1113" 
d="M547 -10q-205 0 -336 145t-131 372t129.5 370.5t337.5 143.5h19q208 0 337.5 -143.5t129.5 -370.5t-130 -372t-337 -145h-19zM204 507q0 -182 92.5 -289.5t250.5 -107.5h19q159 0 251 107t92 290q0 182 -92.5 287.5t-250.5 105.5h-19q-158 0 -250.5 -105.5t-92.5 -287.5z
M382 1304v126h349v-126h-349z" />
    <glyph glyph-name="Obreve" unicode="&#x14e;" horiz-adv-x="1411" 
d="M695 -12q-275 0 -445 193t-170 515q0 324 170 517t445 193h20q279 0 447.5 -195.5t168.5 -514.5q0 -318 -168.5 -513t-447.5 -195h-20zM204 696q0 -274 130.5 -429t360.5 -155h20q232 0 362.5 155t130.5 429q0 276 -131 431t-362 155h-20q-230 0 -360.5 -155.5
t-130.5 -430.5zM480 1835h120q-9 -86 17 -124.5t86 -38.5t86 38.5t17 124.5h119q16 -127 -48.5 -208t-173.5 -81q-111 0 -174 80.5t-49 208.5z" />
    <glyph glyph-name="obreve" unicode="&#x14f;" horiz-adv-x="1113" 
d="M547 -10q-205 0 -336 145t-131 372t129.5 370.5t337.5 143.5h19q208 0 337.5 -143.5t129.5 -370.5t-130 -372t-337 -145h-19zM204 507q0 -182 92.5 -289.5t250.5 -107.5h19q159 0 251 107t92 290q0 182 -92.5 287.5t-250.5 105.5h-19q-158 0 -250.5 -105.5t-92.5 -287.5z
M334 1511h119q-8 -87 18 -125.5t85 -38.5q60 0 86.5 38.5t17.5 125.5h119q15 -128 -49 -208.5t-174 -80.5q-111 0 -173.5 80t-48.5 209z" />
    <glyph glyph-name="Ohungarumlaut" unicode="&#x150;" horiz-adv-x="1411" 
d="M695 -17q-275 0 -445 192.5t-170 514.5q0 324 170 517t445 193h20q279 0 447.5 -195.5t168.5 -514.5q0 -318 -168 -512.5t-448 -194.5h-20zM204 690q0 -274 130.5 -429t360.5 -155h20q232 0 362.5 155t130.5 429q0 276 -131 431t-362 155h-20q-230 0 -360.5 -155
t-130.5 -431zM477 1522l148 263h158l-173 -263h-133zM743 1522l149 263h158l-174 -263h-133z" />
    <glyph glyph-name="ohungarumlaut" unicode="&#x151;" horiz-adv-x="1113" 
d="M547 -10q-205 0 -336 145t-131 372t129.5 370.5t337.5 143.5h19q208 0 337.5 -143.5t129.5 -370.5t-130 -372t-337 -145h-19zM204 507q0 -182 92.5 -289.5t250.5 -107.5h19q159 0 251 107t92 290q0 182 -92.5 287.5t-250.5 105.5h-19q-158 0 -250.5 -105.5t-92.5 -287.5z
M325 1230l149 263h158l-175 -263h-132zM592 1230l148 263h158l-174 -263h-132z" />
    <glyph glyph-name="OE" unicode="&#x152;" horiz-adv-x="2195" 
d="M695 -17q-275 0 -445 192.5t-170 514.5q0 324 170 517t445 193h20q158 0 285 -66.5t208 -188.5v249h897v-122h-774v-508h708v-122h-708v-520h774v-122h-897v236q-81 -121 -208.5 -187t-284.5 -66h-20zM204 690q0 -274 130.5 -429t360.5 -155h20q232 0 362.5 155
t130.5 429q0 276 -131 431t-362 155h-20q-230 0 -360.5 -155t-130.5 -431z" />
    <glyph glyph-name="oe" unicode="&#x153;" horiz-adv-x="1905" 
d="M547 -10q-205 0 -336 145t-131 372t129.5 370.5t337.5 143.5h19q136 0 242 -65t164 -179q58 111 161.5 175.5t235.5 68.5q213 -5 340.5 -161.5t114.5 -396.5h-788q11 -164 102.5 -258.5t240.5 -94.5h18q216 0 307 201l113 -50q-56 -125 -167 -198t-253 -73h-18
q-134 0 -240.5 65.5t-166.5 181.5q-58 -115 -164 -181t-242 -66h-19zM204 507q0 -182 92.5 -289.5t250.5 -107.5h19q159 0 251 107t92 290q0 182 -92.5 287.5t-250.5 105.5h-19q-158 0 -250.5 -105.5t-92.5 -287.5zM1039 580h659q-20 147 -106 231.5t-223 88.5
q-137 -4 -224 -88.5t-106 -231.5z" />
    <glyph glyph-name="Racute" unicode="&#x154;" horiz-adv-x="1184" 
d="M170 0v1394h473q219 0 336 -99.5t117 -290.5v-2q0 -163 -87 -261t-250 -121l355 -620h-143l-350 612h-327v-612h-124zM294 734h349q173 0 250.5 64t77.5 206q0 140 -77.5 204t-250.5 64h-349v-538zM515 1522l148 263h158l-174 -263h-132z" />
    <glyph glyph-name="racute" unicode="&#x155;" horiz-adv-x="841" 
d="M162 0v1011h124v-100q102 110 304 110q101 0 181 -29l-27 -117q-78 25 -154 25q-154 0 -229 -95.5t-75 -309.5v-495h-124zM320 1229l158 292h157l-184 -292h-131z" />
    <glyph glyph-name="uni0156" unicode="&#x156;" horiz-adv-x="1263" 
d="M224 0v1394h472q219 0 336 -99.5t117 -290.5v-2q0 -164 -86.5 -261.5t-250.5 -120.5l355 -620h-142l-351 612h-327v-612h-123zM347 734h349q174 0 252 64t78 206q0 140 -78 204t-252 64h-349v-538zM481 -372l113 316h120v-61l-107 -255h-126z" />
    <glyph glyph-name="uni0157" unicode="&#x157;" horiz-adv-x="922" 
d="M218 0v1011h124v-100q102 110 304 110q102 0 180 -29l-26 -117q-78 25 -154 25q-154 0 -229 -95.5t-75 -309.5v-495h-124zM117 -372l112 316h120v-61l-107 -255h-125z" />
    <glyph glyph-name="Rcaron" unicode="&#x158;" horiz-adv-x="1184" 
d="M170 0v1394h473q219 0 336 -99.5t117 -290.5v-2q0 -163 -87 -261t-250 -121l355 -620h-143l-350 612h-327v-612h-124zM294 734h349q173 0 250.5 64t77.5 206q0 140 -77.5 204t-250.5 64h-349v-538zM387 1785h150l76 -116l76 116h149l-182 -263h-88z" />
    <glyph glyph-name="rcaron" unicode="&#x159;" horiz-adv-x="718" 
d="M84 0v1011h123v-100q102 110 305 110q100 0 180 -29l-27 -117q-77 25 -153 25q-155 0 -230 -95.5t-75 -309.5v-495h-123zM117 1521h145l75 -131l73 131h146l-174 -292h-93z" />
    <glyph glyph-name="Sacute" unicode="&#x15a;" horiz-adv-x="1154" 
d="M597 -26q-99 0 -186.5 27.5t-158.5 80.5t-113.5 141.5t-44.5 200.5h127q4 -157 108.5 -241t269.5 -84q148 0 239.5 69.5t91.5 184.5q0 61 -16.5 103t-59.5 75t-104 57.5t-163 53.5q-115 33 -190 65.5t-132 78.5t-82.5 108t-25.5 146q0 105 62 190t163 131t217 46
q105 0 189 -36.5t137.5 -99t83 -141t33.5 -166.5h-126q-16 153 -100.5 235.5t-218.5 82.5q-80 0 -149 -25.5t-115 -81t-46 -131.5q0 -48 12 -83.5t34 -62t66.5 -49.5t95.5 -41t135 -42q223 -64 326.5 -155t103.5 -255q0 -163 -133 -272.5t-330 -109.5zM495 1522l148 263h158
l-173 -263h-133z" />
    <glyph glyph-name="sacute" unicode="&#x15b;" horiz-adv-x="986" 
d="M507 -14q-82 0 -153.5 22t-129.5 65.5t-92.5 117.5t-37.5 170h126q14 -140 86 -196.5t205 -56.5q111 0 176.5 39.5t65.5 114.5q0 76 -55 112t-226 72q-54 11 -97.5 24.5t-87.5 36.5t-74 52.5t-49 72.5t-19 96q0 122 99.5 202.5t250.5 80.5q92 0 164.5 -28.5t118 -78
t71 -111.5t30.5 -134h-125q-26 125 -85 177.5t-176 52.5q-97 0 -158 -41.5t-61 -117.5q0 -69 55 -104t179 -60q190 -39 282 -107t92 -195q0 -126 -106.5 -202t-268.5 -76zM392 1229l159 292h156l-183 -292h-132z" />
    <glyph glyph-name="Scircumflex" unicode="&#x15c;" horiz-adv-x="1154" 
d="M597 -26q-99 0 -186.5 27.5t-158.5 80.5t-113.5 141.5t-44.5 200.5h127q4 -157 108.5 -241t269.5 -84q148 0 239.5 69.5t91.5 184.5q0 61 -16.5 103t-59.5 75t-104 57.5t-163 53.5q-115 33 -190 65.5t-132 78.5t-82.5 108t-25.5 146q0 105 62 190t163 131t217 46
q105 0 189 -36.5t137.5 -99t83 -141t33.5 -166.5h-126q-16 153 -100.5 235.5t-218.5 82.5q-80 0 -149 -25.5t-115 -81t-46 -131.5q0 -48 12 -83.5t34 -62t66.5 -49.5t95.5 -41t135 -42q223 -64 326.5 -155t103.5 -255q0 -163 -133 -272.5t-330 -109.5zM369 1522l182 263h88
l182 -263h-151l-76 115l-76 -115h-149z" />
    <glyph glyph-name="scircumflex" unicode="&#x15d;" horiz-adv-x="986" 
d="M507 -14q-82 0 -153.5 22t-129.5 65.5t-92.5 117.5t-37.5 170h126q14 -140 86 -196.5t205 -56.5q111 0 176.5 39.5t65.5 114.5q0 76 -55 112t-226 72q-54 11 -97.5 24.5t-87.5 36.5t-74 52.5t-49 72.5t-19 96q0 122 99.5 202.5t250.5 80.5q92 0 164.5 -28.5t118 -78
t71 -111.5t30.5 -134h-125q-26 125 -85 177.5t-176 52.5q-97 0 -158 -41.5t-61 -117.5q0 -69 55 -104t179 -60q190 -39 282 -107t92 -195q0 -126 -106.5 -202t-268.5 -76zM270 1229l172 292h92l173 -292h-146l-74 132l-74 -132h-143z" />
    <glyph glyph-name="Scedilla" unicode="&#x15e;" horiz-adv-x="1154" 
d="M515 -435q-90 0 -143 37v150q39 -30 53 -39t35.5 -15.5t54.5 -6.5q55 0 79 16t24 55q0 49 -42 62t-174 -1l85 160q-81 13 -150.5 47t-124 87.5t-86 132t-32.5 174.5h127q4 -157 108.5 -241t269.5 -84q148 0 239.5 69.5t91.5 184.5q0 61 -16.5 103t-59.5 75t-104 57.5
t-163 53.5q-115 33 -190 65.5t-132 78.5t-82.5 108t-25.5 146q0 105 62 190t163 131t217 46q105 0 189 -36.5t137.5 -99t83 -141t33.5 -166.5h-126q-16 153 -100.5 235.5t-218.5 82.5q-80 0 -149 -25.5t-115 -81t-46 -131.5q0 -48 12 -83.5t34 -62t66.5 -49.5t95.5 -41
t135 -42q223 -64 326.5 -155t103.5 -255q0 -157 -124 -265t-311 -116l-19 -37q141 -37 141 -176q0 -66 -37 -112.5t-88 -65.5t-107 -19z" />
    <glyph glyph-name="scedilla" unicode="&#x15f;" horiz-adv-x="986" 
d="M440 -431q-91 0 -143 37v150q50 -40 73.5 -50.5t69.5 -10.5q55 0 78.5 16t23.5 55q0 48 -41 61.5t-169 -0.5l77 168q-137 23 -224 115t-91 251h126q14 -140 86 -196.5t205 -56.5q111 0 176.5 39.5t65.5 114.5q0 76 -55 112t-226 72q-54 11 -97.5 24.5t-87.5 36.5
t-74 52.5t-49 72.5t-19 96q0 122 99.5 202.5t250.5 80.5q92 0 164.5 -28.5t118 -78t71 -111.5t30.5 -134h-125q-26 125 -85 177.5t-176 52.5q-97 0 -158 -41.5t-61 -117.5q0 -69 55 -104t179 -60q190 -39 282 -107t92 -195q0 -117 -94.5 -191.5t-242.5 -83.5l-19 -45
q68 -17 107.5 -62t39.5 -116q0 -66 -37 -112.5t-88 -65.5t-108 -19z" />
    <glyph glyph-name="Scaron" unicode="&#x160;" horiz-adv-x="1154" 
d="M597 -26q-99 0 -186.5 27.5t-158.5 80.5t-113.5 141.5t-44.5 200.5h127q4 -157 108.5 -241t269.5 -84q148 0 239.5 69.5t91.5 184.5q0 61 -16.5 103t-59.5 75t-104 57.5t-163 53.5q-115 33 -190 65.5t-132 78.5t-82.5 108t-25.5 146q0 105 62 190t163 131t217 46
q105 0 189 -36.5t137.5 -99t83 -141t33.5 -166.5h-126q-16 153 -100.5 235.5t-218.5 82.5q-80 0 -149 -25.5t-115 -81t-46 -131.5q0 -48 12 -83.5t34 -62t66.5 -49.5t95.5 -41t135 -42q223 -64 326.5 -155t103.5 -255q0 -163 -133 -272.5t-330 -109.5zM366 1785h151l76 -116
l76 116h149l-182 -263h-88z" />
    <glyph glyph-name="scaron" unicode="&#x161;" horiz-adv-x="986" 
d="M507 -14q-82 0 -153.5 22t-129.5 65.5t-92.5 117.5t-37.5 170h126q14 -140 86 -196.5t205 -56.5q111 0 176.5 39.5t65.5 114.5q0 76 -55 112t-226 72q-54 11 -97.5 24.5t-87.5 36.5t-74 52.5t-49 72.5t-19 96q0 122 99.5 202.5t250.5 80.5q92 0 164.5 -28.5t118 -78
t71 -111.5t30.5 -134h-125q-26 125 -85 177.5t-176 52.5q-97 0 -158 -41.5t-61 -117.5q0 -69 55 -104t179 -60q190 -39 282 -107t92 -195q0 -126 -106.5 -202t-268.5 -76zM270 1521h145l74 -131l74 131h144l-173 -292h-92z" />
    <glyph glyph-name="uni0162" unicode="&#x162;" horiz-adv-x="1274" 
d="M562 -432q-93 0 -142 39v150q49 -41 72.5 -52t69.5 -11q55 0 79 16t24 55q0 49 -42.5 62t-174.5 -1l125 228v1218h-493v122h1112v-122h-493v-1239l-47 -91q143 -39 143 -177q0 -66 -37 -112.5t-88 -65.5t-108 -19z" />
    <glyph glyph-name="uni0163" unicode="&#x163;" horiz-adv-x="735" 
d="M385 -431q-95 0 -142 39v150q49 -41 72.5 -52t69.5 -11q55 0 79 16t24 55q0 48 -43 62t-166 0l91 211q-91 71 -91 227v627h-229v118h229v381h124v-381h234v-118h-234v-627q0 -87 30.5 -122.5t101.5 -35.5h13q15 0 43 4.5t46 3.5v-121q-11 0 -41 -3.5t-50 -3.5h-11
q-4 0 -43 3l-21 -47q68 -17 107 -61.5t39 -116.5q0 -66 -37 -112.5t-87.5 -65.5t-107.5 -19z" />
    <glyph glyph-name="Tcaron" unicode="&#x164;" horiz-adv-x="1192" 
d="M533 0v1272h-493v122h1112v-122h-493v-1272h-126zM371 1785h150l77 -117l76 117h148l-181 -263h-89z" />
    <glyph glyph-name="tcaron" unicode="&#x165;" horiz-adv-x="685" 
d="M535 -12q-120 0 -188 71t-68 207v627h-229v118h229v381h124v-381h234v-118h-234v-627q0 -87 30.5 -122.5t101.5 -35.5h13q15 0 43 4.5t46 3.5v-121q-11 0 -41 -3.5t-50 -3.5h-11zM444 1149l111 315h121v-61l-106 -254h-126z" />
    <glyph glyph-name="Tbar" unicode="&#x166;" horiz-adv-x="1192" 
d="M533 0v606h-272v127h272v539h-493v122h1112v-122h-493v-539h271v-127h-271v-606h-126z" />
    <glyph glyph-name="tbar" unicode="&#x167;" horiz-adv-x="687" 
d="M535 -12q-120 0 -188 71t-68 207v267h-120v119h120v241h-229v118h229v381h124v-381h234v-118h-234v-241h125v-119h-125v-267q0 -87 30.5 -122.5t101.5 -35.5h13q15 0 43 4.5t46 3.5v-121q-11 0 -41 -3.5t-50 -3.5h-11z" />
    <glyph glyph-name="Utilde" unicode="&#x168;" 
d="M154 505v889h122v-876q0 -118 38.5 -210t100 -138.5t135.5 -68t148.5 2t136 72t100 141.5t38.5 211v866h125v-868q0 -261 -154 -413q-121 -119 -293 -131q-169 -11 -302 87q-157 117 -188 336q-7 48 -7 100zM421 1576q-13 70 15.5 116.5t91.5 46.5q40 0 121 -28
q42 -14 61 -17q0 24 1 37h117q17 -75 -13.5 -119t-90.5 -44q-41 0 -122 26q-45 17 -61 19q0 -24 -1 -37h-119z" />
    <glyph glyph-name="utilde" unicode="&#x169;" horiz-adv-x="1105" 
d="M537 -10q-395 0 -395 420v601h124v-591q0 -169 60 -239.5t211 -70.5q154 0 228.5 96t74.5 310v495h123v-1011h-123v100q-102 -110 -303 -110zM355 1323q-13 70 15.5 116.5t91.5 46.5q40 0 121 -28q42 -14 61 -17q0 24 1 37h117q17 -75 -13.5 -119t-90.5 -44
q-41 0 -122 26q-45 17 -61 19q0 -24 -1 -37h-119z" />
    <glyph glyph-name="Umacron" unicode="&#x16a;" 
d="M154 505v889h122v-876q0 -118 38.5 -210t100 -138.5t135.5 -68t148.5 2t136 72t100 141.5t38.5 211v866h125v-868q0 -261 -154 -413q-121 -119 -293 -131q-169 -11 -302 87q-157 117 -188 336q-7 48 -7 100zM449 1589v126h349v-126h-349z" />
    <glyph glyph-name="umacron" unicode="&#x16b;" horiz-adv-x="1105" 
d="M537 -10q-395 0 -395 420v601h124v-591q0 -169 60 -239.5t211 -70.5q154 0 228.5 96t74.5 310v495h123v-1011h-123v100q-102 -110 -303 -110zM378 1304v126h349v-126h-349z" />
    <glyph glyph-name="Ubreve" unicode="&#x16c;" 
d="M154 505v889h122v-876q0 -118 38.5 -210t100 -138.5t135.5 -68t148.5 2t136 72t100 141.5t38.5 211v866h125v-868q0 -261 -154 -413q-121 -119 -293 -131q-169 -11 -302 87q-157 117 -188 336q-7 48 -7 100zM400 1835h120q-9 -86 17 -124.5t86 -38.5t86 38.5t17 124.5
h120q15 -127 -49.5 -208t-173.5 -81q-110 0 -173 80.5t-50 208.5z" />
    <glyph glyph-name="ubreve" unicode="&#x16d;" horiz-adv-x="1105" 
d="M537 -10q-395 0 -395 420v601h124v-591q0 -169 60 -239.5t211 -70.5q154 0 228.5 96t74.5 310v495h123v-1011h-123v100q-102 -110 -303 -110zM321 1511h120q-18 -164 102 -164q121 0 104 164h119q15 -128 -49 -208.5t-174 -80.5t-173.5 80.5t-48.5 208.5z" />
    <glyph glyph-name="Uring" unicode="&#x16e;" 
d="M154 505v889h122v-876q0 -118 38.5 -210t100 -138.5t135.5 -68t148.5 2t136 72t100 141.5t38.5 211v866h125v-868q0 -261 -154 -413q-121 -119 -293 -131q-169 -11 -302 87q-157 117 -188 336q-7 48 -7 100zM462 1653q0 71 47.5 114t113.5 43q67 0 114 -43t47 -114
q0 -70 -47.5 -114t-113.5 -44t-113.5 44t-47.5 114zM594 1653q0 -20 5 -26t24 -6t25 6t6 26t-6 26t-25 6t-24 -6t-5 -26z" />
    <glyph glyph-name="uring" unicode="&#x16f;" horiz-adv-x="1105" 
d="M537 -10q-395 0 -395 420v601h124v-591q0 -169 60 -239.5t211 -70.5q154 0 228.5 96t74.5 310v495h123v-1011h-123v100q-102 -110 -303 -110zM393 1373q0 71 46.5 115.5t112.5 44.5t112.5 -44.5t46.5 -115.5t-46.5 -114.5t-112.5 -43.5t-112.5 43.5t-46.5 114.5z
M522 1373q0 -21 5.5 -27.5t24.5 -6.5t24.5 6.5t5.5 27.5t-5.5 27.5t-24.5 6.5t-24.5 -6.5t-5.5 -27.5z" />
    <glyph glyph-name="Uhungarumlaut" unicode="&#x170;" 
d="M154 505v889h122v-876q0 -118 38.5 -210t100 -138.5t135.5 -68t148.5 2t136 72t100 141.5t38.5 211v866h125v-868q0 -261 -154 -413q-121 -119 -293 -131q-169 -11 -302 87q-157 117 -188 336q-7 48 -7 100zM399 1522l149 263h157l-173 -263h-133zM667 1522l148 263h156
l-173 -263h-131z" />
    <glyph glyph-name="uhungarumlaut" unicode="&#x171;" horiz-adv-x="1105" 
d="M537 -10q-395 0 -395 420v601h124v-591q0 -169 60 -239.5t211 -70.5q154 0 228.5 96t74.5 310v495h123v-1011h-123v100q-102 -110 -303 -110zM329 1230l149 263h158l-175 -263h-132zM596 1230l148 263h158l-174 -263h-132z" />
    <glyph glyph-name="Uogonek" unicode="&#x172;" 
d="M602 -419q-67 0 -115.5 41t-48.5 132q0 129 95 234q-77 15 -144.5 55t-120.5 103t-83.5 155.5t-30.5 203.5v889h122v-876q0 -118 38.5 -210t100 -138.5t135.5 -68t148.5 2t136 72t100 141.5t38.5 211v866h125v-868q0 -201 -91 -334.5t-232 -183.5q-98 -41 -153.5 -104.5
t-55.5 -144.5q0 -35 8 -44.5t35 -9.5q38 0 70.5 26t95.5 108v-178q-69 -80 -173 -80z" />
    <glyph glyph-name="uogonek" unicode="&#x173;" horiz-adv-x="1105" 
d="M758 -413q-66 0 -114.5 40.5t-48.5 131.5q0 146 109 255q-72 -24 -167 -24q-395 0 -395 420v601h124v-591q0 -169 60 -239.5t211 -70.5q154 0 228.5 96t74.5 310v495h123v-1011h-66q-80 -29 -127 -93t-47 -142q0 -35 7.5 -44.5t35.5 -9.5q38 0 70 25.5t95 106.5v-178
q-69 -78 -173 -78z" />
    <glyph glyph-name="Wcircumflex" unicode="&#x174;" horiz-adv-x="1755" 
d="M418 0l-388 1394h130l319 -1151l344 1086h107l346 -1086l320 1151h129l-388 -1394h-113l-346 1087l-348 -1087h-112zM650 1522l181 263h89l182 -263h-151l-76 115l-77 -115h-148z" />
    <glyph glyph-name="wcircumflex" unicode="&#x175;" horiz-adv-x="1465" 
d="M345 0l-281 1011h131l213 -773l273 773h106l273 -771l213 771h128l-279 -1011h-110l-278 794l-281 -794h-108zM514 1229l173 292h92l172 -292h-145l-75 132l-73 -132h-144z" />
    <glyph glyph-name="Ycircumflex" unicode="&#x176;" horiz-adv-x="1150" 
d="M513 0l-4 419l-489 975h142l409 -827l416 827h143l-498 -974l5 -420h-124zM349 1522l182 263h88l181 -263h-150l-77 115l-75 -115h-149z" />
    <glyph glyph-name="ycircumflex" unicode="&#x177;" horiz-adv-x="1027" 
d="M224 -240q46 -31 74 -20.5t56 81.5l92 225l-396 965h136l325 -806l332 806h134l-510 -1240q-49 -118 -123 -148.5t-170 29.5zM295 1229l175 292h92l172 -292h-145l-75 132l-74 -132h-145z" />
    <glyph glyph-name="Ydieresis" unicode="&#x178;" horiz-adv-x="1150" 
d="M513 0l-4 419l-489 975h142l409 -827l416 827h143l-498 -974l5 -420h-124zM377 1653q0 33 24 57t57 24t56.5 -24t23.5 -57t-23.5 -56.5t-56.5 -23.5q-34 0 -57.5 23.5t-23.5 56.5zM614 1653q0 32 23.5 56.5t55.5 24.5q33 0 57 -24t24 -57t-23.5 -56.5t-57.5 -23.5
q-32 0 -55.5 23.5t-23.5 56.5z" />
    <glyph glyph-name="Zacute" unicode="&#x179;" horiz-adv-x="1073" 
d="M66 0v102l778 1170h-778v122h941v-99l-779 -1173h779v-122h-941zM440 1522l148 263h158l-173 -263h-133z" />
    <glyph glyph-name="zacute" unicode="&#x17a;" horiz-adv-x="944" 
d="M66 0v99l644 792h-644v120h812v-105l-635 -786h635v-120h-812zM362 1229l160 292h156l-183 -292h-133z" />
    <glyph glyph-name="Zdotaccent" unicode="&#x17b;" horiz-adv-x="1073" 
d="M66 0v102l778 1170h-778v122h941v-99l-779 -1173h779v-122h-941zM457 1653q0 32 23.5 56.5t55.5 24.5q33 0 57 -24t24 -57t-23.5 -56.5t-57.5 -23.5q-32 0 -55.5 23.5t-23.5 56.5z" />
    <glyph glyph-name="zdotaccent" unicode="&#x17c;" horiz-adv-x="944" 
d="M66 0v99l644 792h-644v120h812v-105l-635 -786h635v-120h-812zM377 1372q0 33 23.5 56.5t56.5 23.5t57 -23.5t24 -56.5t-24 -57t-57 -24t-56.5 24t-23.5 57z" />
    <glyph glyph-name="Zcaron" unicode="&#x17d;" horiz-adv-x="1073" 
d="M66 0v102l778 1170h-778v122h941v-99l-779 -1173h779v-122h-941zM312 1785h150l76 -116l77 116h149l-183 -263h-88z" />
    <glyph glyph-name="zcaron" unicode="&#x17e;" horiz-adv-x="944" 
d="M66 0v99l644 792h-644v120h812v-105l-635 -786h635v-120h-812zM238 1521h146l75 -131l75 131h143l-172 -292h-92z" />
    <glyph glyph-name="uni0218" unicode="&#x218;" horiz-adv-x="1184" 
d="M612 -26q-99 0 -186.5 27.5t-158.5 80.5t-113.5 141.5t-45.5 200.5h128q3 -157 108 -241t270 -84q148 0 239 69.5t91 184.5q0 118 -71 175t-271 114q-115 33 -190 65.5t-132 78.5t-83 108t-26 146q0 158 131.5 262.5t311.5 104.5q104 0 188.5 -36.5t138 -99t83.5 -141
t33 -166.5h-126q-16 153 -100.5 235.5t-218.5 82.5q-80 0 -149 -25.5t-114.5 -81t-45.5 -131.5q0 -60 16 -100t60.5 -72t102.5 -54t163 -52q223 -64 327 -155t104 -255q0 -163 -133.5 -272.5t-330.5 -109.5zM443 -372l110 316h122v-61l-107 -255h-125z" />
    <glyph glyph-name="uni0219" unicode="&#x219;" horiz-adv-x="1007" 
d="M522 -14q-82 0 -153.5 22t-129.5 65.5t-92 117.5t-37 170h126q14 -140 85.5 -196.5t204.5 -56.5q111 0 176 39.5t65 114.5q0 77 -54 112.5t-226 71.5q-53 11 -96.5 24.5t-88 36.5t-74 52.5t-48.5 72.5t-19 96q0 122 99.5 202.5t250.5 80.5q178 0 275 -100.5t107 -251.5
h-124q-26 125 -85 177.5t-175 52.5q-98 0 -159 -41.5t-61 -117.5q0 -69 55 -104t180 -60q190 -39 281.5 -107t91.5 -195q0 -126 -106.5 -202t-268.5 -76zM357 -372l110 316h122v-61l-107 -255h-125z" />
    <glyph glyph-name="uni021A" unicode="&#x21a;" horiz-adv-x="1274" 
d="M573 0v1272h-493v122h1112v-122h-493v-1272h-126zM471 -372l112 316h120v-61l-107 -255h-125z" />
    <glyph glyph-name="uni021B" unicode="&#x21b;" horiz-adv-x="735" 
d="M535 -12q-120 0 -188 71t-68 207v627h-229v118h229v381h124v-381h234v-118h-234v-627q0 -87 30.5 -122.5t101.5 -35.5h13q15 0 43 4.5t46 3.5v-121q-11 0 -41 -3.5t-50 -3.5h-11zM280 -372l110 316h121v-61l-106 -255h-125z" />
    <glyph glyph-name="uni0237" unicode="&#x237;" horiz-adv-x="527" 
d="M57 -391q-118 0 -189 60l48 101q45 -25 71 -33.5t68 -8.5h14q72 0 102.5 35t30.5 123v1125h123v-1125q0 -135 -67.5 -206t-186.5 -71h-14z" />
    <glyph glyph-name="circumflex" unicode="&#x2c6;" horiz-adv-x="731" 
d="M146 1511l173 292h92l174 -292h-147l-74 132l-75 -132h-143z" />
    <glyph glyph-name="caron" unicode="&#x2c7;" horiz-adv-x="731" 
d="M319 1511l-173 292h145l75 -131l74 131h145l-174 -292h-92z" />
    <glyph glyph-name="breve" unicode="&#x2d8;" horiz-adv-x="786" 
d="M393 1503q-111 0 -174 80.5t-49 208.5h119q-9 -86 17.5 -124.5t86.5 -38.5q120 0 102 163h120q15 -128 -49.5 -208.5t-172.5 -80.5z" />
    <glyph glyph-name="dotaccent" unicode="&#x2d9;" horiz-adv-x="937" 
d="M468 1573q-33 0 -56.5 23.5t-23.5 56.5t23.5 57t56.5 24t57 -24t24 -57t-24 -56.5t-57 -23.5z" />
    <glyph glyph-name="ring" unicode="&#x2da;" horiz-adv-x="872" 
d="M436 1495q-66 0 -113 44.5t-47 115.5t46.5 115t113.5 44t113.5 -44t46.5 -115t-47 -115.5t-113 -44.5zM406 1655q0 -21 5.5 -27.5t24.5 -6.5t25 6.5t6 27.5t-6 27.5t-25 6.5t-24.5 -6.5t-5.5 -27.5z" />
    <glyph glyph-name="ogonek" unicode="&#x2db;" horiz-adv-x="980" 
d="M339 -419q-66 0 -114.5 41t-48.5 132q0 125 84.5 227.5t218.5 134.5l95 -98q-131 -23 -200.5 -93.5t-69.5 -165.5q0 -35 8 -44.5t35 -9.5q38 0 70 25.5t95 106.5v-177q-70 -79 -173 -79z" />
    <glyph glyph-name="tilde" unicode="&#x2dc;" horiz-adv-x="701" 
d="M146 1605q-13 70 15.5 116.5t91.5 46.5q40 0 121 -28q42 -14 61 -17q0 24 1 37h117q17 -75 -13.5 -119t-90.5 -44q-41 0 -122 26q-45 17 -61 19q0 -24 -1 -37h-119z" />
    <glyph glyph-name="hungarumlaut" unicode="&#x2dd;" horiz-adv-x="885" 
d="M484 1511l149 263h158l-174 -263h-133zM218 1511l148 263h158l-173 -263h-133z" />
    <glyph glyph-name="uni0326" unicode="&#x326;" horiz-adv-x="0" 
d="M220 -324l112 315h120v-61l-107 -254h-125z" />
    <glyph glyph-name="Wgrave" unicode="&#x1e80;" horiz-adv-x="1755" 
d="M418 0l-388 1394h130l319 -1151l344 1086h107l346 -1086l320 1151h129l-388 -1394h-113l-346 1087l-348 -1087h-112zM664 1785h157l149 -263h-133z" />
    <glyph glyph-name="wgrave" unicode="&#x1e81;" horiz-adv-x="1465" 
d="M345 0l-281 1011h131l213 -773l273 773h106l273 -771l213 771h128l-279 -1011h-110l-278 794l-281 -794h-108zM515 1521h157l158 -292h-131z" />
    <glyph glyph-name="Wacute" unicode="&#x1e82;" horiz-adv-x="1755" 
d="M418 0l-388 1394h130l319 -1151l344 1086h107l346 -1086l320 1151h129l-388 -1394h-113l-346 1087l-348 -1087h-112zM765 1522l148 263h158l-173 -263h-133z" />
    <glyph glyph-name="wacute" unicode="&#x1e83;" horiz-adv-x="1465" 
d="M345 0l-281 1011h131l213 -773l273 773h106l273 -771l213 771h128l-279 -1011h-110l-278 794l-281 -794h-108zM636 1229l160 292h156l-183 -292h-133z" />
    <glyph glyph-name="Wdieresis" unicode="&#x1e84;" horiz-adv-x="1755" 
d="M418 0l-388 1394h130l319 -1151l344 1086h107l346 -1086l320 1151h129l-388 -1394h-113l-346 1087l-348 -1087h-112zM681 1653q0 33 23.5 57t56.5 24t57 -24t24 -57t-24 -56.5t-57 -23.5t-56.5 23.5t-23.5 56.5zM917 1653q0 33 24 57t57 24t57 -24t24 -57t-24 -56.5
t-57 -23.5q-34 0 -57.5 23.5t-23.5 56.5z" />
    <glyph glyph-name="wdieresis" unicode="&#x1e85;" horiz-adv-x="1465" 
d="M345 0l-281 1011h131l213 -773l273 773h106l273 -771l213 771h128l-279 -1011h-110l-278 794l-281 -794h-108zM535 1373q0 33 23.5 57t56.5 24t56.5 -23.5t23.5 -57.5q0 -32 -23.5 -56t-56.5 -24t-56.5 24t-23.5 56zM771 1373q0 34 23.5 57.5t57.5 23.5q33 0 56.5 -23.5
t23.5 -57.5q0 -32 -23.5 -56t-56.5 -24q-34 0 -57.5 23.5t-23.5 56.5z" />
    <glyph glyph-name="uni1E9E" unicode="&#x1e9e;" horiz-adv-x="1270" 
d="M726 -8q-133 0 -246 28v132q131 -34 246 -34q242 0 242 167q0 55 -29 101.5t-118 129.5q-87 80 -117.5 136t-30.5 128q0 74 30.5 129.5t117.5 135.5q89 84 118 130t29 101q0 168 -242 168h-375v-1444h-127v1569h504q172 0 272 -79.5t100 -218.5q0 -84 -48.5 -161.5
t-150.5 -168.5q-58 -50 -77 -82.5t-19 -78.5q0 -44 19 -77t77 -83q101 -90 150 -167.5t49 -161.5q0 -141 -100.5 -220t-273.5 -79z" />
    <glyph glyph-name="Ygrave" unicode="&#x1ef2;" horiz-adv-x="1150" 
d="M513 0l-4 419l-489 975h142l409 -827l416 827h143l-498 -974l5 -420h-124zM358 1785h158l148 -263h-132z" />
    <glyph glyph-name="ygrave" unicode="&#x1ef3;" horiz-adv-x="1027" 
d="M224 -240q46 -31 74 -20.5t56 81.5l92 225l-396 965h136l325 -806l332 806h134l-510 -1240q-49 -118 -123 -148.5t-170 29.5zM297 1521h157l159 -292h-131z" />
    <glyph glyph-name="endash" unicode="&#x2013;" horiz-adv-x="1062" 
d="M150 526v125h762v-125h-762z" />
    <glyph glyph-name="emdash" unicode="&#x2014;" horiz-adv-x="1860" 
d="M80 526v125h1700v-125h-1700z" />
    <glyph glyph-name="quoteleft" unicode="&#x2018;" horiz-adv-x="491" 
d="M118 922l-14 54l152 490h127l-156 -544h-109z" />
    <glyph glyph-name="quoteright" unicode="&#x2019;" horiz-adv-x="490" 
d="M108 922l156 544h111l11 -55l-152 -489h-126z" />
    <glyph glyph-name="quotesinglbase" unicode="&#x201a;" horiz-adv-x="460" 
d="M104 -218l115 350h110l11 -57l-111 -293h-125z" />
    <glyph glyph-name="quotedblleft" unicode="&#x201c;" horiz-adv-x="691" 
d="M118 922l-14 54l152 490h127l-156 -544h-109zM305 977l152 489h126l-156 -544h-111z" />
    <glyph glyph-name="quotedblright" unicode="&#x201d;" horiz-adv-x="688" 
d="M306 922l156 544h111l11 -55l-151 -489h-127zM108 922l156 544h111l11 -55l-152 -489h-126z" />
    <glyph glyph-name="quotedblbase" unicode="&#x201e;" horiz-adv-x="646" 
d="M290 -218l115 350h110l11 -57l-111 -293h-125zM104 -218l115 350h110l11 -57l-111 -293h-125z" />
    <glyph glyph-name="dagger" unicode="&#x2020;" horiz-adv-x="1093" 
d="M484 -300l-2 1057l-352 -2v130l351 -1l-1 496h134l-2 -496l351 1v-130l-351 2l2 -1057h-130z" />
    <glyph glyph-name="daggerdbl" unicode="&#x2021;" horiz-adv-x="1093" 
d="M484 -300l-2 493l-352 -2v130l352 -1v437l-352 -2v130l351 -1l-1 496h134l-2 -496l351 1v-130l-351 2v-437l351 1v-130l-351 2l2 -493h-130z" />
    <glyph glyph-name="bullet" unicode="&#x2022;" horiz-adv-x="573" 
d="M286 487q-54 0 -90 37t-36 91t36 90.5t90 36.5t90.5 -36.5t36.5 -90.5t-36.5 -91t-90.5 -37z" />
    <glyph glyph-name="ellipsis" unicode="&#x2026;" horiz-adv-x="777" 
d="M577 -26q-34 0 -58 23.5t-24 56.5q0 34 24 57.5t58 23.5q33 0 56.5 -24t23.5 -57q0 -32 -23.5 -56t-56.5 -24zM120 54q0 33 23.5 57t57.5 24q33 0 56.5 -24t23.5 -57q0 -32 -23.5 -56t-56.5 -24t-57 24t-24 56zM308 54q0 33 23.5 57t57.5 24q33 0 56.5 -23.5t23.5 -57.5
q0 -33 -24 -56.5t-56 -23.5q-33 0 -57 24t-24 56z" />
    <glyph glyph-name="perthousand" unicode="&#x2030;" horiz-adv-x="1868" 
d="M123 0l894 1380h152l-895 -1380h-151zM80 1066q0 146 76.5 243.5t206.5 97.5t206.5 -97.5t76.5 -243.5q0 -144 -76.5 -243t-206.5 -99q-129 0 -206 99t-77 243zM211 1066q0 -216 152 -216q153 0 153 216t-153 216q-152 0 -152 -216zM645 315q0 146 76.5 244t206.5 98
t206.5 -98t76.5 -244q0 -143 -76.5 -242t-206.5 -99q-129 0 -206 99t-77 242zM776 315q0 -216 152 -216t152 216q0 215 -152 215t-152 -215zM1221 315q0 146 76.5 244t206.5 98t207 -98t77 -244q0 -143 -77 -242t-207 -99q-129 0 -206 99t-77 242zM1352 315q0 -216 152 -216
q153 0 153 216q0 215 -153 215q-152 0 -152 -215z" />
    <glyph glyph-name="guilsinglleft" unicode="&#x2039;" horiz-adv-x="629" 
d="M372 154l-292 355l292 355h167l-292 -355l292 -355h-167z" />
    <glyph glyph-name="guilsinglright" unicode="&#x203a;" horiz-adv-x="629" 
d="M90 154l292 355l-292 355h165l294 -355l-294 -355h-165z" />
    <glyph glyph-name="fraction" unicode="&#x2044;" horiz-adv-x="155" 
d="M-280 -68l509 1493l132 21l-509 -1492z" />
    <glyph glyph-name="Euro" unicode="&#x20ac;" horiz-adv-x="1185" 
d="M714 -26q-228 0 -362.5 137.5t-164.5 414.5h-194l61 125h125v33q0 18 2 48h-141l61 126h89q37 268 179.5 408.5t352.5 140.5q123 0 206 -36t159 -119l-87 -93q-64 72 -123 97.5t-159 25.5q-71 0 -133 -22.5t-116 -70.5t-92.5 -132.5t-54.5 -198.5h717l-66 -126h-662v-81
h645l-54 -125h-583q27 -225 125.5 -326t279.5 -101q86 0 158.5 28t146.5 92v-157q-138 -88 -315 -88z" />
    <glyph glyph-name="trademark" unicode="&#x2122;" horiz-adv-x="1052" 
d="M457 855v348h-122v-348h-128v348h-157v122h443v-2h95l103 -269l104 269h127v-468h-124l2 154l-59 -150h-103l-58 150l1 -154h-124z" />
    <glyph glyph-name="partialdiff" unicode="&#x2202;" horiz-adv-x="1094" 
d="M520 -26q-183 0 -296.5 128.5t-113.5 329.5q0 233 129 372.5t328 139.5q155 0 271 -101q-39 540 -327 540q-82 0 -140 -24.5t-124 -88.5l-79 96q80 76 163.5 109.5t184.5 33.5q458 0 458 -860q0 -155 -26 -276.5t-79.5 -212t-141.5 -138.5t-207 -48zM240 436
q0 -161 76.5 -249t203.5 -88q107 0 175.5 50.5t106 169t41.5 314.5q-45 96 -117 140.5t-157 44.5q-155 0 -242 -103t-87 -279z" />
    <glyph glyph-name="emptyset" unicode="&#x2205;" horiz-adv-x="1733" 
d="M866 -28q-131 0 -253.5 45.5t-219.5 128.5l-157 -156l-90 88l160 160q-166 203 -166 472q0 154 58.5 291.5t156.5 234.5t231.5 153.5t279.5 56.5q132 0 254.5 -45.5t219.5 -128.5l157 157l89 -89l-160 -159q79 -97 123 -218t44 -253q0 -154 -58.5 -292t-157 -235.5
t-232 -154t-279.5 -56.5zM272 710q0 -218 126 -380l851 851q-163 140 -383 140q-163 0 -299 -78t-215.5 -218.5t-79.5 -314.5zM484 238q163 -140 382 -140q122 0 232 46t189.5 126t126.5 194.5t47 245.5q0 216 -127 379z" />
    <glyph glyph-name="product" unicode="&#x220f;" horiz-adv-x="1099" 
d="M195 -207v1463h-105v124h919v-124h-104v-1463h-128v1463h-454v-1463h-128z" />
    <glyph glyph-name="summation" unicode="&#x2211;" horiz-adv-x="1094" 
d="M50 -207v96l531 720l-474 678v93h898v-124h-723l455 -651l-506 -686h785v-126h-966z" />
    <glyph glyph-name="minus" unicode="&#x2212;" horiz-adv-x="1029" 
d="M96 576v126h837v-126h-837z" />
    <glyph glyph-name="radical" unicode="&#x221a;" horiz-adv-x="1116" 
d="M490 -300l-248 842h-134v127h228l211 -724l370 1605h133l-432 -1850h-128z" />
    <glyph glyph-name="infinity" unicode="&#x221e;" horiz-adv-x="2019" 
d="M569 -26q-213 0 -346 157t-133 407q0 252 133 410t346 158q151 0 263 -80t177 -235q60 152 175 233.5t268 81.5q213 0 345 -158t132 -410q0 -250 -132.5 -407t-344.5 -157q-153 0 -265.5 81t-176.5 237q-60 -156 -174 -237t-267 -81zM222 538q0 -112 28.5 -198
t77.5 -137.5t110 -77.5t131 -26q67 0 125.5 22t111 70.5t88 137.5t46.5 210q-17 123 -53.5 212t-88 138t-107.5 71t-122 22q-70 0 -131 -26.5t-110 -78.5t-77.5 -139t-28.5 -200zM1080 542q16 -123 52.5 -212t88 -138t108 -71t123.5 -22q69 0 130 26t110.5 77.5t78 138
t28.5 197.5q0 113 -29 200t-78.5 139t-110 78.5t-129.5 26.5q-67 0 -126 -22t-112.5 -70.5t-89 -137.5t-44.5 -210z" />
    <glyph glyph-name="integral" unicode="&#x222b;" horiz-adv-x="633" 
d="M239 -300q-51 0 -97 25t-72 74l86 93q24 -42 41.5 -54.5t43.5 -12.5q39 0 59 49t20 174q0 133 -67 540q-41 249 -55.5 365.5t-14.5 213.5q0 91 18.5 158.5t50 104.5t67 54.5t76.5 17.5q50 0 96.5 -26t71.5 -75l-85 -92q-25 42 -41.5 54t-43.5 12q-38 0 -58 -48.5
t-20 -174.5q0 -145 66 -539q41 -249 55.5 -365.5t14.5 -213.5q0 -91 -18.5 -158.5t-50 -104t-67.5 -54t-76 -17.5z" />
    <glyph glyph-name="approxequal" unicode="&#x2248;" horiz-adv-x="1180" 
d="M126 726q90 188 271 188q53 0 99.5 -16.5t124.5 -58.5q74 -37 101.5 -47t62.5 -10q43 0 69.5 12.5t48 38t60.5 87.5l93 -75q-90 -188 -271 -188q-53 0 -99.5 16.5t-124.5 58.5q-69 36 -98 46t-66 10q-61 0 -91.5 -25t-85.5 -111zM126 389q91 187 271 187q52 0 98.5 -16.5
t125.5 -57.5q70 -36 99 -46.5t65 -10.5q62 0 92.5 24.5t85.5 112.5l93 -75q-91 -189 -271 -189q-52 0 -98.5 17t-125.5 59q-72 37 -100 47t-64 10q-61 0 -91.5 -25t-85.5 -112z" />
    <glyph glyph-name="notequal" unicode="&#x2260;" horiz-adv-x="1107" 
d="M220 193l125 214h-229v126h302l125 212h-427v125h500l125 217h145l-126 -217h231v-125h-304l-124 -212h428v-126h-501l-125 -214h-145z" />
    <glyph glyph-name="lessequal" unicode="&#x2264;" horiz-adv-x="1029" 
d="M933 147l-837 365v94l837 365v-138l-633 -274l633 -273v-139zM96 0v126h837v-126h-837z" />
    <glyph glyph-name="greaterequal" unicode="&#x2265;" horiz-adv-x="1029" 
d="M96 147v139l633 273l-633 274v138l837 -365v-94zM96 0v126h837v-126h-837z" />
    <glyph glyph-name="lozenge" unicode="&#x25ca;" horiz-adv-x="945" 
d="M424 0l-334 690l334 690h96l335 -690l-335 -690h-96zM231 690l241 -503l242 503l-242 501z" />
    <glyph glyph-name="uniF8FF" unicode="&#xf8ff;" horiz-adv-x="1602" 
d="M788 253q-151 0 -279.5 75.5t-203 204.5t-74.5 280q0 152 75 280.5t203.5 203t280.5 74.5q151 0 279.5 -75t203.5 -203.5t75 -279.5q0 -152 -74.5 -281t-203.5 -204t-282 -75zM230 29v146h59q26 0 44 -9q37 -17 37 -64q0 -23 -10 -39q-21 -34 -71 -34h-59zM265 56h22
q18 0 26 4q22 10 22 42q0 18 -5 27q-12 20 -43 20h-22v-93zM298 814q0 -205 144 -350t348 -145q203 0 347.5 144.5t144.5 347.5q0 100 -39 191.5t-104.5 157.5t-156 105t-190.5 40q-134 0 -248 -65.5t-180 -178.5t-66 -247zM382 84q0 16 8 29q16 27 52 27q26 0 42 -14
q18 -15 18 -42v-8h-85q0 -8 3 -13q7 -13 25 -13q7 0 10 1q9 3 14 12l31 -3q-2 -10 -10 -17q-14 -16 -45 -16q-17 0 -33 7q-30 14 -30 50zM417 95h52l-3 10q-6 12 -23 12q-10 0 -14 -3q-10 -6 -12 -19zM472 912q10 -2 12 -4q52 -21 98 -27q41 -3 72 2q43 11 47 12
q3 0 8.5 2.5t7.5 3.5q-5 2 -16.5 8t-17 9t-13 8.5t-13.5 12.5h19q39 0 75 19q65 40 136 61q24 8 58 11q4 0 19.5 1t23.5 0q54 -2 89 -33q10 -11 28 -33v-2l-6 2q-45 17 -83 3.5t-62 -53.5q-7 -13 -25 -55q-9 -21 -27 -63.5t-20 -48.5q-33 -64 -65 -101q-27 -33 -66 -58
q-45 -34 -116 -55h-5l24 22q12 11 25 44q41 116 45 127q24 73 57 131v3q-2 -4 -11 -13q-8 -10 -10 -12q-23 -36 -31 -57q-2 -6 -8 -6q-99 3 -177 67q-40 38 -59 55q-1 1 -5 7t-8 10zM511 61l33 2q5 -14 23 -14q20 0 20 11q0 8 -16 11l-21 4q-36 6 -36 31q0 10 6 18
q13 16 46 16q48 0 53 -32l-31 -3q-4 14 -21 14q-19 0 -19 -11q0 -8 16 -12l22 -3q36 -6 36 -30q0 -9 -7 -18q-13 -18 -48 -18q-51 0 -56 34zM635 168q0 15 19 15q18 0 18 -15t-18 -15q-19 0 -19 15zM637 29v109h34v-109h-34zM686 84q0 20 7 31q13 25 43 25q10 0 18 -3
q12 -5 18 -17h1v18h35v-110q0 -14 -9 -23q-15 -19 -52 -19q-50 0 -57 31l31 3l2 -2q2 -3 4 -4q5 -6 21 -6q25 0 25 21v19h-1q-2 -3 -7 -8q-11 -9 -29 -9q-13 0 -25 5q-25 13 -25 48zM721 84q0 -10 3 -16q6 -14 24 -14q25 0 25 30q0 10 -3 17q-6 15 -22 15q-7 0 -15 -4
q-12 -7 -12 -28zM828 29v109h34v-19q10 21 37 21q13 0 23 -5q20 -10 20 -36v-70h-35v64q0 22 -21 22q-7 0 -13 -3q-11 -6 -11 -19v-64h-34zM957 84q0 15 7 29q16 27 54 27q20 0 33 -7q28 -16 28 -49q0 -17 -7 -30q-16 -27 -54 -27q-16 0 -33 7q-28 16 -28 50zM992 84
q0 -9 3 -18q7 -15 23 -15q10 0 15 4q12 9 12 29q0 2 -3 17q-8 16 -24 16q-7 0 -14 -5q-12 -7 -12 -28zM1081 138h36l26 -78h1l26 78h36l-43 -109h-39zM1207 60q0 17 15 25q13 8 32 8l17 3q13 0 13 7v1q0 14 -19 14q-17 0 -22 -13l-32 3q3 10 10 17q15 15 45 15q20 0 37 -9
q15 -8 15 -28v-74h-33v16q-5 -7 -9 -9q-9 -9 -27 -9q-13 0 -21 4q-21 8 -21 29zM1240 60q0 -12 18 -12q8 0 14 3q12 5 12 18v11q-4 -2 -23 -5q-7 0 -12 -3q-9 -3 -9 -12zM1297 177q0 16 11 26.5t27 10.5t26.5 -10.5t10.5 -26.5t-10.5 -27t-26.5 -11t-27 11t-11 27zM1309 177
q0 -11 7.5 -19t18.5 -8t18.5 8t7.5 19t-7.5 18.5t-18.5 7.5t-18.5 -7.5t-7.5 -18.5zM1322 160v35h14q12 0 12 -11q0 -5 -5 -10l8 -14h-10l-6 11h-5v-11h-8zM1330 180h6q5 0 5 3t-5 3h-6v-6z" />
    <glyph glyph-name="_Designova" horiz-adv-x="1752" 
d="M874 41q-174 0 -322.5 87t-235 235.5t-86.5 323.5q1 131 52 250.5t137.5 205.5t206 137t250.5 51q175 0 323.5 -86t235.5 -234.5t87 -323.5q0 -176 -87 -324.5t-236 -235t-325 -86.5zM308 687q0 -116 45 -221.5t120.5 -181.5t181 -121t221.5 -45q154 0 285 76t207 207
t76 285q0 116 -45 221.5t-120.5 181.5t-180.5 121t-221 45t-221 -45t-181.5 -120.5t-121.5 -181t-45 -221.5zM510 800q7 0 13 -4q58 -22 115 -31q45 -5 81 3q29 4 53 14q5 0 11.5 3t8.5 4q-5 3 -22.5 11.5t-27.5 15.5t-19 17h21q39 0 86 20q85 53 158 73q37 10 66 10
q6 0 24.5 1.5t26.5 0.5q67 -4 102 -39q6 -5 33 -37v-2q-3 2 -7 2q-53 20 -95.5 4.5t-71.5 -59.5q-5 -9 -10 -20.5t-11 -25t-9 -21.5q-6 -14 -25 -59t-30 -68q-36 -74 -74 -119q-20 -27 -74 -66q-52 -38 -136 -63h-7l28 24q18 17 30 51q7 20 25 71t27 78q31 90 65 150v1
q-3 -3 -11 -13q-9 -7 -11 -16q-23 -27 -38 -65q-3 -5 -9 -5q-117 5 -204 78q-10 10 -32.5 31t-33.5 32q-12 14 -16 18z" />
    <glyph glyph-name="_Origin" horiz-adv-x="2255" 
d="M150 1055v50h1955v-50h-1955zM150 236v50h1955v-50h-1955zM228 437v177h42v-177h-42zM260 734v177h148v-32h-107v-39h97v-31h-97v-42h107v-33h-148zM298 437v177h34l89 -107v107h40v-177h-33l-88 109v-109h-42zM438 734v177h34l88 -107v107h40v-177h-33l-88 109v-109h-41
zM554 437v177h87q72 0 72 -45q0 -28 -26 -40q3 0 3 -2q28 -12 28 -42q0 -48 -71 -48h-93zM596 468h48q32 0 32 22t-32 22h-48v-44zM596 545h42q33 0 33 20q0 22 -33 22h-42v-42zM629 879v32h156v-32h-57v-145h-41v145h-58zM738 437v177h148v-33h-107v-38h96v-31h-96v-41h105
v-34h-146zM803 911h44l40 -124l42 124h38l40 -126l42 126h39l-57 -177h-45l-39 121l-41 -121h-43zM914 437v177h81q28 0 42 -6q36 -19 36 -57q0 -21 -10 -35q-15 -18 -29 -23l37 -56h-43l-35 50h-37v-50h-42zM956 520h37q38 0 38 31q0 30 -38 30h-37v-61zM1093 437v177h40
v-143h106v-34h-146zM1096 823q0 39 28 65q26 26 69 26t69 -26q28 -25 28 -65q0 -39 -28 -65q-26 -27 -68 -27q-44 0 -70 27q-28 28 -28 65zM1138 823q0 -25 15.5 -40.5t39.5 -15.5t39.5 15.5t15.5 40.5t-15.5 41.5t-39.5 16.5t-39.5 -16.5t-15.5 -41.5zM1268 437v177h41
v-177h-41zM1313 734v177h81q28 0 41 -6q36 -17 36 -57q0 -21 -10 -35q-9 -15 -29 -23l39 -56h-45l-33 50h-39v-50h-41zM1338 437v177h35l87 -107v107h42v-177h-34l-89 109v-109h-41zM1354 817h37q38 0 38 31t-38 31h-37v-62zM1491 734v177h148v-32h-107v-39h96v-31h-96v-75
h-41zM1528 461q0 24 25 24q10 0 17 -7t7 -17q0 -11 -7 -25l-14 -38h-26l12 41q-14 5 -14 22zM1655 734v177h147v-32h-106v-39h95v-31h-95v-42h106v-33h-147zM1678 437v177h80q30 0 52 -11q46 -21 46 -77q0 -28 -12 -47q-23 -42 -86 -42h-80zM1720 471h37q17 0 31 7
q26 14 26 48q0 21 -6 29q-14 26 -51 26h-37v-110zM1832 734v177h33l90 -107v107h40v-177h-34l-89 109v-109h-40zM1880 437v177h147v-33h-107v-38h97v-31h-97v-41h106v-34h-146z" />
    <glyph glyph-name="_VendorID" horiz-adv-x="1176" 
d="M103 154v1187h974v-1187h-974zM106 63q0 13 7.5 20.5t18.5 7.5q9 0 12 -3l4 -5v26h13v-72h-13v9l-4 -7q-8 -5 -15 -5q-23 0 -23 29zM120 63q0 -17 13 -17q15 0 15 17v1q0 18 -13 18q-15 0 -15 -19zM156 205h869v1084h-869v-1084zM171 63q0 13 7.5 20.5t19.5 7.5
q11 0 18.5 -7.5t7.5 -19.5q0 -2 -2 -5h-37q1 -13 13 -13q10 0 12 9h12q-4 -21 -24 -21q-27 0 -27 29zM185 67h25q-3 15 -12 15q-12 0 -13 -15zM228 52h14q3 -9 9 -9q9 0 9 7q0 3 -12 9q-18 5 -18 16q0 16 21 16t21 -16h-14q-1 7 -7 7q-7 0 -7 -6q0 -4 12 -9q17 -5 17 -15
q0 -18 -22 -18q-20 0 -23 18zM270 455q0 59 46 125l97 137h64l-84 -120q11 3 23 3q62 0 102.5 -41.5t40.5 -103.5q0 -61 -41.5 -103.5t-101.5 -42.5q-61 0 -103.5 42.5t-42.5 103.5zM270 926q0 56 46 123l97 142h64l-84 -122q7 2 23 2q63 0 103 -41t40 -104
q0 -61 -41 -102.5t-102 -41.5t-103.5 42t-42.5 102zM281 102q0 7 8 7t8 -7q0 -8 -8 -8t-8 8zM282 37v54h14v-54h-14zM306 63q0 28 26 28q9 0 12 -3l4 -5v8h14v-41q0 -8 -2 -11q0 -24 -27 -24q-26 0 -26 18v1h14v-1q0 -8 12 -8q11 0 15 13v8l-4 -7q-8 -2 -14 -2q-24 0 -24 26
zM321 64q0 -18 12 -18q15 0 15 17v1q0 18 -15 18q-12 0 -12 -18zM324 455q0 -42 25.5 -68t66.5 -26q39 0 64.5 26t25.5 68q0 40 -25.5 65t-64.5 25q-41 0 -66.5 -25t-25.5 -65zM324 926q0 -41 25.5 -67t66.5 -26q39 0 64.5 26.5t25.5 66.5t-25.5 66t-64.5 26
q-41 0 -66.5 -25t-25.5 -67zM373 37v54h14v-10l4 7q5 3 13 3q17 0 20 -15q1 -3 1 -9v-30h-15v34q0 11 -10 11q-13 0 -13 -21v-24h-14zM432 63q0 13 7.5 20.5t19.5 7.5q28 0 28 -28q0 -29 -28 -29q-12 0 -19.5 8t-7.5 21zM446 63q0 -17 13 -17q15 0 15 17q0 19 -15 19
q-13 0 -13 -19zM492 91h14l14 -45l13 45h14l-19 -54h-18zM552 52q0 16 30 16h3v7q0 7 -9 7q-11 0 -11 -9h-13q0 18 24 18q19 0 21 -15v-39h-12v6l-3 -5q-8 -4 -14 -4q-16 0 -16 18zM565 52q0 -6 8 -6q12 0 12 9v6q-20 2 -20 -9zM606 80v9h6v8q0 15 19 15h6v-11q-11 2 -11 -5
v-7h11v-9h-11v-43h-14v43h-6zM619 455q0 62 44 125l97 137h66l-86 -120q11 3 25 3q61 0 102 -41.5t41 -103.5q0 -61 -41.5 -103.5t-101.5 -42.5q-61 0 -103.5 42.5t-42.5 103.5zM619 926q0 57 44 123l97 142h66l-87 -122q8 2 26 2q61 0 102 -41.5t41 -103.5
q0 -61 -41.5 -102.5t-101.5 -41.5q-61 0 -103.5 41.5t-42.5 102.5zM641 63q0 28 28 28q27 0 27 -28q0 -29 -27 -29q-28 0 -28 29zM655 63q0 -17 14 -17q13 0 13 17q0 19 -13 19q-14 0 -14 -19zM672 455q0 -42 26 -68t67 -26q38 0 62.5 26t24.5 68q0 40 -24.5 65t-62.5 25
q-41 0 -67 -25t-26 -65zM672 926q0 -41 26 -67t67 -26q38 0 62.5 26t24.5 67q0 40 -24.5 66t-62.5 26q-41 0 -67 -25.5t-26 -66.5zM705 37v54h12v-10l6 7q4 3 13 3q16 0 19 -15v-39h-14v34q-4 11 -9 11q-15 0 -15 -21v-24h-12zM762 80v9h8v13h14v-13h10v-9h-10v-28
q2 -10 9 -6v-10h-8q-15 0 -15 10v34h-8zM798 52h15q1 -9 10 -9q8 0 8 7q0 3 -12 9q-17 5 -17 16q0 16 20 16q19 0 24 -16h-16q0 7 -9 7q-5 0 -5 -6q0 -5 11 -9q19 -6 19 -15q0 -18 -23 -18q-21 0 -25 18zM850 42q0 10 9 10t9 -10q0 -8 -9 -8t-9 8zM874 63q0 13 8 20.5
t18 7.5q25 0 25 -20h-13q-3 11 -12 11q-12 0 -12 -19q0 -17 12 -17q10 0 12 9h13q-1 -21 -25 -21q-26 0 -26 29zM930 63q0 28 29 28q26 0 26 -28q0 -29 -26 -29q-29 0 -29 29zM944 63q0 -17 15 -17q13 0 13 17q0 19 -13 19q-15 0 -15 -19zM995 37v54h14v-9l5 6q3 3 9 3
q13 0 18 -10l5 7q3 3 11 3q17 0 17 -12q1 -4 1 -12v-30h-13v27q0 2 -0.5 5t-0.5 4q0 9 -10 9q-9 0 -9 -18v-27h-13v36q-5 9 -10 9q-10 0 -10 -18v-27h-14z" />
    </font>
</defs>
</svg>
