<?xml version="1.0" standalone="no"?>
<!DOCTYPE svg PUBLIC "-//W3C//DTD SVG 1.1//EN" "http://www.w3.org/Graphics/SVG/1.1/DTD/svg11.dtd" >
<svg xmlns="http://www.w3.org/2000/svg" xmlns:xlink="http://www.w3.org/1999/xlink" version="1.1">
<metadata>
Created by FontForge 20201107 at Tue Feb 27 18:50:51 2024
 By 
Copyright (c) 2024 by Designova. All rights reserved.
</metadata>
<defs>
<font id="RovelleUno-Italic" horiz-adv-x="1077" >
  <font-face 
    font-family="Rovelle Uno"
    font-weight="400"
    font-style="italic"
    font-stretch="normal"
    units-per-em="2048"
    panose-1="0 0 0 0 0 0 0 0 0 0"
    ascent="1638"
    descent="-410"
    x-height="1022"
    cap-height="1394"
    bbox="-296 -422 2303 1892"
    underline-thickness="100"
    underline-position="-255"
    unicode-range="U+0020-F8FF"
  />
<missing-glyph horiz-adv-x="1240" 
d="M160 19l213 1342h926l-213 -1342h-926zM308 253l357 444l-216 443zM335 129h609l-229 469zM523 1252l223 -456l367 456h-590zM795 697l217 -444l141 887z" />
    <glyph glyph-name=".notdef" horiz-adv-x="1240" 
d="M160 19l213 1342h926l-213 -1342h-926zM308 253l357 444l-216 443zM335 129h609l-229 469zM523 1252l223 -456l367 456h-590zM795 697l217 -444l141 887z" />
    <glyph glyph-name=".null" horiz-adv-x="0" 
 />
    <glyph glyph-name="nonmarkingreturn" horiz-adv-x="682" 
 />
    <glyph glyph-name="space" unicode=" " horiz-adv-x="543" 
 />
    <glyph glyph-name="exclam" unicode="!" horiz-adv-x="564" 
d="M239 236l179 1180h174l-194 -1180h-159zM197 77q7 40 39.5 68.5t73.5 28.5q40 0 64 -28.5t17 -68.5q-7 -41 -39.5 -69t-72.5 -28q-41 0 -65 28t-17 69z" />
    <glyph glyph-name="quotedbl" unicode="&#x22;" horiz-adv-x="651" 
d="M294 896l83 568h164l-98 -568h-149zM492 896l84 568h162l-96 -568h-150z" />
    <glyph glyph-name="numbersign" unicode="#" horiz-adv-x="1060" 
d="M182 0l165 447h-191l25 160h226l62 167h-205l25 160h239l167 447h162l-165 -447h77l166 447h163l-165 -447h190l-25 -160h-226l-61 -167h205l-25 -160h-240l-166 -447h-163l165 447h-77l-166 -447h-162zM570 607h78l62 167h-77z" />
    <glyph glyph-name="dollar" unicode="$" horiz-adv-x="1107" 
d="M486 -20q-79 12 -142.5 47t-109.5 91.5t-63.5 142t-0.5 190.5h163q-40 -266 179 -308l76 481q-66 24 -115.5 54.5t-92 76.5t-59 113.5t-3.5 150.5q24 151 134 253t259 128l23 145h163l-23 -144q86 -13 148.5 -57.5t93 -107t43 -140.5t-1.5 -158h-163q15 132 -20.5 205
t-125.5 94l-77 -485q330 -119 283 -408q-21 -137 -130 -240t-275 -124l-23 -144h-163zM484 1019q-14 -87 19 -136t113 -83l69 436q-173 -42 -201 -217zM674 141q188 30 215 199q13 87 -21.5 140.5t-124.5 93.5z" />
    <glyph glyph-name="percent" unicode="%" horiz-adv-x="1288" 
d="M100 0l1113 1381h194l-1114 -1381h-193zM242 1056q24 149 119.5 249.5t230.5 100.5t199 -100.5t40 -249.5q-23 -148 -119 -250t-231 -102q-134 0 -198 102t-41 250zM408 1056q-15 -98 8.5 -144.5t89.5 -46.5q67 0 105.5 47t53.5 144q16 98 -7.5 144t-91.5 46
q-66 0 -104 -46t-54 -144zM676 326q23 149 118.5 250t230.5 101t199 -101t41 -250q-24 -147 -120 -249t-231 -102q-90 0 -150 49t-81.5 128t-6.5 174zM842 326q-16 -98 7.5 -145t89.5 -47q68 0 106.5 47t54.5 145q15 99 -8.5 144.5t-91.5 45.5q-66 0 -104.5 -46.5
t-53.5 -143.5z" />
    <glyph glyph-name="ampersand" unicode="&#x26;" horiz-adv-x="1274" 
d="M954 126q-172 -144 -412 -162q-131 -8 -222 28q-98 37 -147 115.5t-40 189.5q16 178 168 308q76 63 174 120q-19 28 -35 55q-78 125 -67 253q13 152 126.5 256.5t279.5 115.5q162 12 244.5 -66.5t70.5 -208.5q-11 -122 -84 -212q-104 -125 -296 -223l264 -327
q99 147 135 363h157q-40 -240 -143 -406q-27 -43 -54 -77l163 -202l-130 -107zM295 308q-10 -103 55 -149.5t205 -37.5q181 13 308 118l-299 369q-18 -11 -83 -51q-90 -57 -135 -113.5t-51 -135.5zM532 1044q-3 -45 11 -88q18 -59 80 -148q53 29 147 89q81 53 119.5 102.5
t44.5 117.5q8 75 -30 108.5t-140 26.5q-105 -7 -164.5 -61.5t-67.5 -146.5z" />
    <glyph glyph-name="quotesingle" unicode="'" horiz-adv-x="454" 
d="M294 896l83 568h164l-98 -568h-149z" />
    <glyph glyph-name="parenleft" unicode="(" horiz-adv-x="618" 
d="M343 -147q-85 152 -114.5 381.5t7.5 465.5q37 234 139.5 464t235.5 381h187q-152 -166 -254.5 -384t-141.5 -461q-38 -248 -4.5 -463.5t132.5 -383.5h-187z" />
    <glyph glyph-name="parenright" unicode=")" horiz-adv-x="619" 
d="M43 -147q152 168 254.5 386t141.5 461q38 248 4 463.5t-133 381.5h189q84 -151 113 -380t-7 -465q-37 -233 -139.5 -463.5t-234.5 -383.5h-188z" />
    <glyph glyph-name="asterisk" unicode="*" horiz-adv-x="942" 
d="M314 159l-123 97l232 254l-254 86l76 159l252 -95l46 327h167l-55 -327l281 95l25 -159l-280 -86l152 -254l-155 -97l-142 259z" />
    <glyph glyph-name="plus" unicode="+" horiz-adv-x="1035" 
d="M461 158l64 402h-345l25 161h345l64 401h162l-64 -401h346l-25 -161h-346l-64 -402h-162z" />
    <glyph glyph-name="comma" unicode="," horiz-adv-x="489" 
d="M65 -212l184 378h138l1 -75l-161 -303h-162z" />
    <glyph glyph-name="hyphen" unicode="-" horiz-adv-x="695" 
d="M173 495l26 160h505l-26 -160h-505z" />
    <glyph glyph-name="period" unicode="." horiz-adv-x="425" 
d="M209 -25q-40 0 -64.5 28.5t-18.5 68.5q7 40 40.5 68.5t73.5 28.5t64 -28.5t17 -68.5q-6 -40 -39 -68.5t-73 -28.5z" />
    <glyph glyph-name="slash" unicode="/" horiz-adv-x="767" 
d="M26 -54l736 1491h170l-736 -1491h-170z" />
    <glyph glyph-name="zero" unicode="0" horiz-adv-x="1168" 
d="M580 -25q-102 0 -177 36t-120 100t-67 154.5t-21.5 196t19.5 228.5q25 156 71.5 283t118 225.5t174 153t229.5 54.5q102 0 177 -36t120 -100t67 -154.5t21.5 -196t-20.5 -229.5t-53 -229.5t-83.5 -196t-115.5 -154t-151.5 -99.5t-188.5 -36zM380 690
q-22 -126 -20.5 -228.5t24.5 -175.5t78.5 -112.5t142.5 -39.5t154.5 38.5t115 113.5t79 174t52.5 230q22 126 21 229t-24.5 175.5t-79 112t-142.5 39.5t-154.5 -38.5t-115 -113.5t-79 -173.5t-52.5 -230.5z" />
    <glyph glyph-name="one" unicode="1" horiz-adv-x="765" 
d="M493 0l185 1166l-380 -214l30 188l430 241h117l-219 -1381h-163z" />
    <glyph glyph-name="two" unicode="2" horiz-adv-x="1067" 
d="M75 0l18 116l524 441q98 83 158.5 144t93 114t45.5 91.5t22 96.5q18 115 -33.5 179t-176.5 64q-122 0 -208 -73t-121 -209l-20 -74h-161l21 86q51 193 194 311.5t321 118.5q132 0 219 -56t118 -146t14 -201q-22 -139 -108.5 -268t-274.5 -285l-346 -289h653l-25 -161
h-927z" />
    <glyph glyph-name="three" unicode="3" horiz-adv-x="1134" 
d="M567 -10q-238 0 -349 138t-54 351l162 8q-49 -164 20 -251.5t246 -87.5q156 0 250 70t114 194q20 123 -52 193t-228 70q-63 0 -148 -17l20 128l431 447h-675l26 161h927l-18 -113l-444 -455q171 -26 258 -139t61 -275q-29 -185 -181 -303.5t-366 -118.5zM578 780l5 -8
l4 8h-9z" />
    <glyph glyph-name="four" unicode="4" horiz-adv-x="1190" 
d="M750 0l49 309h-675l19 118l846 967h141l-147 -929h210l-25 -156h-210l-49 -309h-159zM369 465h455l101 637z" />
    <glyph glyph-name="five" unicode="5" 
d="M521 -14q-60 0 -115 14.5t-104.5 46t-85 78t-54.5 115.5t-14 153l7 85h161l-4 -73q-7 -123 52.5 -190t183.5 -67q130 0 228 76.5t123 232.5q24 148 -36 227t-189 79h-26q-212 0 -299 -212h-161l243 843h753l-26 -161h-611l-105 -364q106 54 227 54h33q132 0 222.5 -62
t126 -167t14.5 -235q-23 -143 -105.5 -252.5t-197 -165t-241.5 -55.5z" />
    <glyph glyph-name="six" unicode="6" horiz-adv-x="1101" 
d="M550 -10q-128 0 -225.5 61t-143 167t-25.5 233q20 125 113 250l513 693h179l-360 -488q52 11 98 11q126 0 223 -61.5t141.5 -168.5t24.5 -234q-31 -194 -187.5 -328.5t-350.5 -134.5zM319 453q-22 -136 49 -220.5t207 -84.5q135 0 234 85.5t121 221.5q21 134 -51 220
t-206 86t-233 -86t-121 -222z" />
    <glyph glyph-name="seven" unicode="7" horiz-adv-x="1125" 
d="M184 0l877 1237h-830l25 157h1025l-19 -121l-898 -1273h-180z" />
    <glyph glyph-name="eight" unicode="8" horiz-adv-x="1118" 
d="M555 -27q-206 0 -323 108t-87 300q18 110 83.5 199t168.5 143q-57 50 -79.5 127t-8.5 169q27 164 159.5 275.5t328.5 111.5q103 0 180 -31t120.5 -84.5t60 -123t3.5 -148.5q-15 -94 -65 -171.5t-126 -127.5q78 -54 109 -141.5t14 -197.5q-20 -128 -103 -223t-195.5 -140
t-239.5 -45zM311 381q-10 -65 7 -113.5t56.5 -77t92 -42.5t117.5 -14q81 0 151 23.5t124.5 81t67.5 142.5q20 124 -42.5 189.5t-217.5 65.5q-157 0 -247 -67t-109 -188zM475 1019q-18 -115 45.5 -169.5t179.5 -54.5q115 0 196.5 55t99.5 169q18 112 -39 169.5t-186 57.5
q-259 0 -296 -227z" />
    <glyph glyph-name="nine" unicode="9" horiz-adv-x="1101" 
d="M721 488q-50 -11 -96 -11q-126 0 -223.5 62t-142.5 168.5t-25 232.5q31 195 187.5 329.5t351.5 134.5q127 0 224.5 -61t142.5 -167t25 -234q-19 -121 -110 -250l-513 -692h-180zM394 939q-22 -135 50 -220.5t207 -85.5q134 0 233 85.5t121 221.5q22 137 -49.5 221.5
t-207.5 84.5q-135 0 -233.5 -85.5t-120.5 -221.5z" />
    <glyph glyph-name="colon" unicode=":" horiz-adv-x="466" 
d="M376 912q-40 0 -64 29t-17 69q6 40 39 69t73 29t65 -29t19 -69q-7 -41 -40.5 -69.5t-74.5 -28.5zM146 72q7 40 40 68.5t73 28.5q41 0 65.5 -28t17.5 -69q-6 -41 -39.5 -69t-74.5 -28q-40 0 -64 28.5t-18 68.5z" />
    <glyph glyph-name="semicolon" unicode=";" horiz-adv-x="549" 
d="M85 -212l184 378h137l3 -75l-163 -303h-161zM379 1010q6 40 39.5 69t72.5 29q40 0 64.5 -29t18.5 -69q-7 -41 -40.5 -69.5t-73.5 -28.5q-39 0 -63.5 28.5t-17.5 69.5z" />
    <glyph glyph-name="less" unicode="&#x3c;" horiz-adv-x="1036" 
d="M957 73l-789 415l18 113l920 415l-29 -182l-643 -289l551 -291z" />
    <glyph glyph-name="equal" unicode="=" horiz-adv-x="1110" 
d="M226 724l25 161h888l-25 -161h-888zM174 396l25 161h888l-25 -161h-888z" />
    <glyph glyph-name="greater" unicode="&#x3e;" horiz-adv-x="1036" 
d="M103 73l28 181l644 291l-552 289l29 182l788 -415l-18 -113z" />
    <glyph glyph-name="question" unicode="?" horiz-adv-x="1043" 
d="M448 226q14 88 25 139t30.5 106t51.5 98.5t79 92.5t120 111q86 72 127.5 134.5t53.5 138.5q35 225 -209 225q-286 0 -336 -345h-161q22 219 170.5 362.5t352.5 143.5q127 0 213 -52.5t119 -139t16 -194.5q-34 -208 -250 -386q-62 -51 -98.5 -87.5t-61.5 -68t-40 -76.5
t-23 -84t-20 -118h-159zM407 72q7 40 40 68.5t74 28.5q40 0 64.5 -28.5t17.5 -68.5q-6 -40 -39.5 -68.5t-73.5 -28.5q-41 0 -65 28.5t-18 68.5z" />
    <glyph glyph-name="at" unicode="@" horiz-adv-x="1655" 
d="M736 -190q-100 0 -191.5 27.5t-169 82.5t-129.5 138.5t-72.5 195t1.5 252.5q24 151 92 284.5t163.5 231.5t210 169.5t236 107t237.5 35.5q191 0 328 -83.5t196 -233t29 -339.5q-20 -127 -69 -231.5t-115 -171t-143 -102.5t-155 -36q-66 0 -124.5 22.5t-74.5 60.5
q-114 -98 -242 -98q-31 0 -61 6.5t-61 22t-53.5 40.5t-40.5 62.5t-21 88.5t6 117q22 143 99 267.5t193 201t241 76.5q25 0 50.5 -4t41.5 -7t22 -1l18 -71l20 50h171l-182 -456q-37 -95 -45 -148q-7 -41 8 -55.5t64 -14.5q100 0 179 97.5t107 274.5q39 242 -74 373t-349 131
q-90 0 -183.5 -28t-184 -84t-165 -133.5t-129 -185.5t-73.5 -230q-21 -133 2.5 -238t83 -170.5t144.5 -99t189 -33.5q152 0 268 38.5t278 146.5l65 -139q-191 -123 -330.5 -165t-305.5 -42zM679 467q-17 -105 6.5 -144.5t92.5 -39.5q74 0 140.5 67.5t129.5 233.5l28 73
q35 91 19 138.5t-81 47.5q-112 0 -210.5 -107t-124.5 -269zM1146 1048l14 -56q9 3 6 14.5t-20 41.5z" />
    <glyph glyph-name="A" unicode="A" horiz-adv-x="1176" 
d="M35 0l707 1394h132l267 -1394h-172l-82 438h-460l-221 -438h-171zM504 595h355l-96 511z" />
    <glyph glyph-name="B" unicode="B" horiz-adv-x="1230" 
d="M165 0l221 1394h510q193 0 290 -100.5t70 -272.5q-27 -173 -157 -278q76 -48 107 -136t12 -207q-31 -194 -166 -297t-356 -103h-531zM350 157h371q163 0 240.5 56t97.5 187q20 125 -26.5 183.5t-165.5 58.5h-440zM452 799h399q211 0 246 218q18 112 -37 166t-189 54h-350
z" />
    <glyph glyph-name="C" unicode="C" horiz-adv-x="1349" 
d="M690 -12q-136 0 -242.5 50t-172.5 142t-91.5 223t1.5 293q34 214 137.5 375.5t257 248t335.5 86.5h19q206 0 339 -110t168 -303l-158 -56q-53 309 -375 309h-19q-217 0 -360 -143.5t-185 -406.5q-41 -262 56.5 -405t314.5 -143h19q320 0 473 309l141 -56
q-97 -192 -265 -302.5t-374 -110.5h-19z" />
    <glyph glyph-name="D" unicode="D" horiz-adv-x="1255" 
d="M165 0l221 1394h315q330 0 485.5 -187.5t102.5 -520.5q-52 -327 -263.5 -506.5t-546.5 -179.5h-314zM350 157h150q277 0 430.5 129.5t196.5 399.5q86 551 -452 551h-154z" />
    <glyph glyph-name="E" unicode="E" horiz-adv-x="1161" 
d="M165 0l221 1394h911l-25 -157h-751l-72 -456h688l-25 -157h-688l-74 -467h751l-25 -157h-911z" />
    <glyph glyph-name="F" unicode="F" horiz-adv-x="1161" 
d="M165 0l221 1394h911l-25 -157h-751l-72 -456h688l-25 -157h-688l-99 -624h-160z" />
    <glyph glyph-name="G" unicode="G" horiz-adv-x="1323" 
d="M690 -12q-276 0 -415.5 193.5t-88.5 516.5q51 322 252 515t477 193q209 0 341 -113t158 -309l-156 -58q-40 320 -369 320q-217 0 -360 -143.5t-184 -404.5q-42 -263 55.5 -406.5t314.5 -143.5q289 0 432 246l32 199h-454l25 157h612l-119 -750h-158l21 130
q-183 -142 -416 -142z" />
    <glyph glyph-name="H" unicode="H" horiz-adv-x="1241" 
d="M165 0l221 1394h160l-97 -609h590l97 609h161l-221 -1394h-161l99 628h-590l-99 -628h-160z" />
    <glyph glyph-name="I" unicode="I" horiz-adv-x="490" 
d="M165 0l221 1394h160l-221 -1394h-160z" />
    <glyph glyph-name="J" unicode="J" horiz-adv-x="1169" 
d="M146 510l11 74h161q-56 -233 41 -363q70 -93 191 -97q126 -4 233 90q131 114 163 318l137 862h158l-137 -864q-42 -262 -221 -415q-144 -122 -322 -132q-171 -10 -288 88q-140 116 -136 337q1 49 9 102z" />
    <glyph glyph-name="K" unicode="K" horiz-adv-x="1243" 
d="M165 0l221 1394h160l-108 -680l761 680h220l-678 -606l433 -788h-196l-367 673l-209 -186l-77 -487h-160z" />
    <glyph glyph-name="L" unicode="L" horiz-adv-x="1111" 
d="M165 0l221 1394h160l-196 -1237h751l-25 -157h-911z" />
    <glyph glyph-name="M" unicode="M" horiz-adv-x="1571" 
d="M165 0l221 1394h161l295 -1038l626 1038h159l-221 -1394h-158l160 1008l-546 -908h-119l-258 908l-160 -1008h-160z" />
    <glyph glyph-name="N" unicode="N" horiz-adv-x="1286" 
d="M165 0l221 1394h147l479 -1070l170 1070h160l-221 -1394h-149l-478 1067l-169 -1067h-160z" />
    <glyph glyph-name="O" unicode="O" horiz-adv-x="1405" 
d="M690 -12q-136 0 -242.5 50t-172.5 142t-91.5 223t1.5 293q34 214 137.5 375.5t257 248t335.5 86.5h19q185 0 311.5 -89t177 -250t17.5 -371q-50 -318 -250.5 -513t-480.5 -195h-19zM344 696q-41 -262 56.5 -405t314.5 -143h19q219 0 362.5 143.5t184.5 404.5
q42 263 -56 406.5t-317 143.5h-19q-217 0 -360 -143.5t-185 -406.5z" />
    <glyph glyph-name="P" unicode="P" horiz-adv-x="1158" 
d="M165 0l221 1394h479q221 0 324 -102t72 -297l-1 -2q-31 -194 -166 -296t-356 -102h-319l-94 -595h-160zM444 752h319q164 0 241.5 56t98.5 187q20 130 -40 186t-223 56h-319z" />
    <glyph glyph-name="Q" unicode="Q" horiz-adv-x="1411" 
d="M1115 121q-179 -133 -406 -133h-19q-136 0 -242.5 50t-172.5 142t-91.5 223t1.5 293q34 214 137.5 375.5t257 248t335.5 86.5h19q185 0 311.5 -89t177 -250t17.5 -371q-43 -275 -203 -462l129 -148l-129 -112zM344 696q-41 -262 56.5 -405t314.5 -143h19q163 0 285 83
l-233 275l126 116l229 -274q106 134 140 348q42 263 -56 406.5t-317 143.5h-19q-217 0 -360 -143.5t-185 -406.5z" />
    <glyph glyph-name="R" unicode="R" horiz-adv-x="1201" 
d="M165 0l221 1394h479q221 0 324 -102t72 -297l-1 -2q-25 -159 -122 -257t-254 -128l252 -608h-184l-246 595h-287l-94 -595h-160zM444 752h319q164 0 241.5 56t98.5 187q20 130 -40 186t-223 56h-319z" />
    <glyph glyph-name="S" unicode="S" horiz-adv-x="1156" 
d="M594 -25q-101 0 -187 29t-149.5 85.5t-90.5 149.5t-7 212h162q-28 -155 55 -236t243 -81q139 0 230.5 62t108.5 166q18 108 -38.5 158.5t-239.5 104.5q-108 32 -178.5 65t-120.5 80t-66.5 110.5t-2.5 149.5q26 162 176.5 269t332.5 107q110 0 191 -39.5t124.5 -106
t59 -149t2.5 -173.5h-160q13 151 -51 229.5t-193 78.5q-118 0 -208.5 -55t-106.5 -157q-9 -54 -0.5 -89t44.5 -64t87.5 -49t147.5 -49q212 -64 302 -157t64 -261q-26 -166 -179 -278t-352 -112z" />
    <glyph glyph-name="T" unicode="T" horiz-adv-x="1189" 
d="M514 0l196 1237h-479l25 157h1119l-25 -157h-479l-196 -1237h-161z" />
    <glyph glyph-name="U" unicode="U" horiz-adv-x="1253" 
d="M230 510l140 884h157l-138 -871q-33 -210 69 -320q78 -86 202 -78q129 8 231 112q110 112 139 295l137 862h158l-137 -864q-42 -262 -221 -415q-144 -122 -322 -132q-171 -10 -288 88q-140 116 -136 337q1 49 9 102z" />
    <glyph glyph-name="V" unicode="V" horiz-adv-x="1269" 
d="M573 0l-327 1394h172l260 -1123l616 1123h171l-767 -1394h-125z" />
    <glyph glyph-name="W" unicode="W" horiz-adv-x="1749" 
d="M413 0l-167 1394h167l126 -1071l480 1008h132l161 -1008l467 1071h166l-609 -1394h-140l-161 1013l-484 -1013h-138z" />
    <glyph glyph-name="X" unicode="X" horiz-adv-x="1294" 
d="M45 0l614 708l-381 686h196l304 -553l484 553h193l-598 -686l392 -708h-196l-318 570l-496 -570h-194z" />
    <glyph glyph-name="Y" unicode="Y" horiz-adv-x="1170" 
d="M506 0l63 422l-333 972h180l263 -780l515 780h182l-650 -972l-62 -422h-158z" />
    <glyph glyph-name="Z" unicode="Z" horiz-adv-x="1075" 
d="M61 0l19 123l917 1114h-740l25 157h953l-20 -122l-917 -1115h741l-25 -157h-953z" />
    <glyph glyph-name="bracketleft" unicode="[" horiz-adv-x="593" 
d="M142 -147l268 1692h403l-26 -161h-240l-217 -1369h240l-25 -162h-403z" />
    <glyph glyph-name="backslash" unicode="\" horiz-adv-x="765" 
d="M552 -54l-261 1491h168l262 -1491h-169z" />
    <glyph glyph-name="bracketright" unicode="]" horiz-adv-x="591" 
d="M2 -147l25 162h239l217 1369h-239l26 161h401l-268 -1692h-401z" />
    <glyph glyph-name="asciicircum" unicode="^" horiz-adv-x="1148" 
d="M207 393l501 853h129l228 -853h-180l-153 596l-349 -596h-176z" />
    <glyph glyph-name="underscore" unicode="_" horiz-adv-x="943" 
d="M22 -147l25 162h853l-25 -162h-853z" />
    <glyph glyph-name="grave" unicode="`" horiz-adv-x="992" 
d="M647 1469l-152 323h198l125 -323h-171z" />
    <glyph glyph-name="a" unicode="a" horiz-adv-x="1097" 
d="M469 -10q-166 0 -252 87t-63 232q26 160 153 241q62 40 137 55.5t176 19.5l283 13q15 123 -45 180.5t-189 57.5q-99 0 -168 -41t-151 -149l-109 100q101 128 209 186.5t243 58.5q193 0 294 -109t70 -307l-97 -615h-157l18 112q-77 -58 -170 -90t-182 -32zM313 309
q-13 -83 31.5 -124t153.5 -41q87 0 168 39t138 111.5t71 162.5l5 27l-276 -11q-82 -2 -132.5 -12t-86.5 -33q-33 -21 -49 -47t-23 -72z" />
    <glyph glyph-name="b" unicode="b" horiz-adv-x="1202" 
d="M629 -10q-185 0 -294 130l-19 -120h-159l221 1394h159l-78 -491q148 128 335 128h25q203 0 313.5 -148t75.5 -371q-23 -145 -102 -264.5t-198.5 -188.5t-253.5 -69h-25zM395 512q-26 -166 43.5 -265t211.5 -99h26q144 0 246.5 99t128.5 265q26 165 -45 263.5t-215 98.5
h-26q-143 0 -243.5 -98t-126.5 -264z" />
    <glyph glyph-name="c" unicode="c" horiz-adv-x="1074" 
d="M547 -10q-208 0 -317.5 147t-73.5 375q36 229 190.5 374t365.5 145h17q151 0 253 -78t134 -214l-156 -63q-26 101 -87.5 150.5t-167.5 49.5h-17q-148 0 -247 -96.5t-126 -267.5q-27 -172 41 -269t216 -97h17q204 0 321 201l134 -64q-77 -135 -204 -214t-276 -79h-17z" />
    <glyph glyph-name="d" unicode="d" horiz-adv-x="1203" 
d="M545 -10q-134 0 -231 69t-139 188.5t-19 264.5q35 223 193 371t361 148h25q187 0 295 -128l78 491h159l-221 -1394h-159l19 119q-153 -129 -336 -129h-25zM315 512q-26 -166 44 -265t214 -99h26q142 0 243.5 99t127.5 265t-43.5 264t-212.5 98h-26q-144 0 -245.5 -98
t-127.5 -264z" />
    <glyph glyph-name="e" unicode="e" 
d="M547 -10q-208 0 -317.5 147t-73.5 375q40 251 214 395q141 116 314 122q168 6 281 -94q137 -121 126 -345q-3 -67 -20 -140h-763q-8 -144 61 -224t203 -80h17q204 0 321 201l134 -64q-77 -135 -204 -214t-276 -79h-17zM336 602h595q-1 69 -21.5 125t-55 90.5t-80 52.5
t-95 18t-101 -18.5t-97 -53t-84 -90t-61.5 -124.5z" />
    <glyph glyph-name="f" unicode="f" horiz-adv-x="804" 
d="M281 0l137 868h-236l25 154h236l14 92q22 139 105.5 214.5t207.5 75.5h13q126 0 197 -74l-81 -129q-6 3 -21.5 11.5t-19 10.5t-15 7.5t-16 7t-14 4.5t-16.5 3.5t-16.5 1.5t-20.5 1h-12q-63 0 -91.5 -28t-41.5 -106l-14 -92h238l-25 -154h-238l-137 -868h-158z" />
    <glyph glyph-name="g" unicode="g" horiz-adv-x="1202" 
d="M502 -377q-190 0 -293.5 114t-84.5 307h156q-5 -133 55.5 -198.5t191.5 -65.5h28q140 0 226.5 80.5t122.5 250.5q-49 -49 -142.5 -86t-191.5 -37h-10q-133 0 -234 68t-147 188.5t-23 265.5q35 223 193 371t361 148h25q187 0 295 -128l19 123h159l-138 -873
q-39 -249 -185 -388.5t-355 -139.5h-28zM315 510q-26 -166 44 -265t214 -99h26q132 0 229 86t133 235l13 85q11 149 -58 234.5t-202 85.5h-26q-144 0 -245.5 -98t-127.5 -264z" />
    <glyph glyph-name="h" unicode="h" horiz-adv-x="1131" 
d="M157 0l221 1394h159l-71 -445q117 82 289 82q202 0 285 -109.5t50 -317.5l-96 -604h-157l94 594q25 159 -17.5 220.5t-182.5 61.5q-143 0 -223.5 -86.5t-112.5 -288.5l-79 -501h-159z" />
    <glyph glyph-name="i" unicode="i" horiz-adv-x="466" 
d="M155 0l162 1022h159l-162 -1022h-159zM328 1217q6 40 39 68.5t73 28.5q41 0 65.5 -28t18.5 -69q-7 -41 -40.5 -69t-74.5 -28q-40 0 -64 28.5t-17 68.5z" />
    <glyph glyph-name="j" unicode="j" horiz-adv-x="468" 
d="M-25 -381q-131 0 -197 73l83 131q38 -24 51 -30.5t34.5 -12.5t50.5 -6h13q63 0 91 28t40 106l177 1114h159l-177 -1114q-22 -140 -105 -214.5t-207 -74.5h-13zM332 1217q6 40 39 68.5t73 28.5t64 -28.5t18 -68.5q-7 -40 -40 -68.5t-73 -28.5t-64 28.5t-17 68.5z" />
    <glyph glyph-name="k" unicode="k" horiz-adv-x="1031" 
d="M157 0l221 1394h159l-131 -827l512 455h220l-448 -397l296 -625h-188l-239 510l-189 -167l-54 -343h-159z" />
    <glyph glyph-name="l" unicode="l" horiz-adv-x="471" 
d="M416 -3q-125 -24 -184.5 36t-38.5 197l185 1164h159l-184 -1160q-10 -68 -1 -78.5t65 -7.5q9 1 14 1z" />
    <glyph glyph-name="m" unicode="m" horiz-adv-x="1572" 
d="M157 0l162 1022h159l-10 -64q100 73 227 73q189 0 255 -142q122 142 303 142q93 0 156 -35.5t91.5 -97t36 -144t-10.5 -177.5l-91 -577h-161l91 573q16 99 7 174q-8 71 -40 100t-110 29q-55 0 -104 -30q-121 -74 -156 -295l-87 -551h-160l94 594q25 159 -7.5 220.5
t-135.5 61.5q-51 0 -104 -32q-123 -77 -162 -329l-82 -515h-161z" />
    <glyph glyph-name="n" unicode="n" horiz-adv-x="1131" 
d="M157 0l162 1022h159l-12 -73q117 82 289 82q202 0 285 -109.5t50 -317.5l-96 -604h-157l94 594q25 159 -17.5 220.5t-182.5 61.5q-143 0 -223.5 -86.5t-112.5 -288.5l-79 -501h-159z" />
    <glyph glyph-name="o" unicode="o" horiz-adv-x="1115" 
d="M547 -10q-208 0 -317.5 147t-73.5 375q36 229 190.5 374t365.5 145h17q211 0 319.5 -145t72.5 -374t-192 -375.5t-365 -146.5h-17zM315 512q-27 -172 41 -269t216 -97h17q148 0 247 97t126 269t-41 268t-216 96h-17q-148 0 -247 -96.5t-126 -267.5z" />
    <glyph glyph-name="p" unicode="p" horiz-adv-x="1202" 
d="M98 -372l221 1394h159l-19 -120q149 129 335 129h25q203 0 313.5 -149.5t75.5 -371.5q-23 -146 -103 -265t-199 -187t-252 -68h-25q-185 0 -294 128l-78 -490h-159zM395 510q-26 -166 43 -264t212 -98h26q144 0 246.5 98.5t128.5 263.5t-45 264.5t-215 99.5h-26
q-142 0 -243 -99t-127 -265z" />
    <glyph glyph-name="q" unicode="q" horiz-adv-x="1203" 
d="M906 118q-150 -128 -336 -128h-25q-133 0 -230.5 68t-139.5 187t-19 265q35 222 193 371.5t361 149.5h25q184 0 295 -128l19 119h159l-221 -1394h-159zM315 510q-26 -166 44 -264t214 -98h26q144 0 244.5 98t126.5 264q26 165 -44 264.5t-212 99.5h-26q-144 0 -245.5 -99
t-127.5 -265z" />
    <glyph glyph-name="r" unicode="r" horiz-adv-x="855" 
d="M157 0l162 1022h159l-12 -73q117 82 289 82q119 0 193 -36l-58 -150q-88 31 -159 31q-143 0 -223.5 -86.5t-112.5 -288.5l-79 -501h-159z" />
    <glyph glyph-name="s" unicode="s" horiz-adv-x="996" 
d="M509 -14q-68 0 -126.5 14.5t-107.5 45.5t-80 78.5t-44 113.5t2 151h159q-13 -139 42 -192t184 -53q215 0 237 131q10 66 -32.5 95.5t-200.5 63.5q-66 14 -116.5 34t-96 53t-65.5 85.5t-9 120.5q20 128 136.5 211.5t270.5 83.5q96 0 167 -31.5t109 -86t51.5 -121.5
t3.5 -143h-157q-3 127 -46.5 175.5t-154.5 48.5q-90 0 -147.5 -34.5t-68.5 -100.5q-9 -59 34 -88t156 -53q184 -39 267.5 -109t62.5 -202q-21 -131 -143 -211t-287 -80z" />
    <glyph glyph-name="t" unicode="t" horiz-adv-x="700" 
d="M656 4q-182 -43 -276.5 29.5t-67.5 244.5l93 590h-223l25 154h223l58 370h159l-58 -370h228l-25 -154h-228l-93 -590q-11 -72 3.5 -101t64.5 -32.5t140 8.5z" />
    <glyph glyph-name="u" unicode="u" horiz-adv-x="1112" 
d="M537 -10q-202 0 -284.5 110t-49.5 318l96 604h159l-94 -594q-25 -159 17 -220.5t181 -61.5q145 0 224.5 86t111.5 289l79 501h160l-162 -1022h-160l11 72q-114 -82 -289 -82z" />
    <glyph glyph-name="v" unicode="v" horiz-adv-x="1047" 
d="M463 0l-256 1022h174l183 -755l424 755h176l-580 -1022h-121z" />
    <glyph glyph-name="w" unicode="w" horiz-adv-x="1469" 
d="M343 0l-122 1022h168l82 -707l363 707h129l137 -705l307 705h165l-444 -1022h-136l-140 733l-376 -733h-133z" />
    <glyph glyph-name="x" unicode="x" horiz-adv-x="1063" 
d="M35 0l476 510l-314 512h199l236 -383l355 383h201l-476 -512l316 -510h-201l-234 383l-357 -383h-201z" />
    <glyph glyph-name="y" unicode="y" horiz-adv-x="1049" 
d="M205 -187q48 -30 60 -31q19 -2 44 37q7 12 20 34l120 211l-242 958h174l185 -753l428 753h172l-702 -1232q-72 -128 -162.5 -158.5t-183.5 41.5z" />
    <glyph glyph-name="z" unicode="z" horiz-adv-x="950" 
d="M61 0l19 123l722 743h-604l25 156h828l-21 -129l-713 -737h597l-25 -156h-828z" />
    <glyph glyph-name="braceleft" unicode="{" horiz-adv-x="619" 
d="M478 -147q-62 0 -111.5 14.5t-86.5 44.5t-52 82.5t-4 123.5q8 55 50 199q39 121 49 191q10 64 -16 90.5t-114 19.5l26 163q85 -7 120 19.5t45 90.5q11 65 12 192q3 142 12 199q22 137 114.5 200t223.5 63h93l-26 -161h-95q-77 0 -108 -19t-41 -81q-2 -14 -8 -166
q-2 -152 -15 -227q-19 -120 -103 -190q61 -74 42 -193q-10 -72 -56 -227q-43 -151 -45 -165q-9 -62 15.5 -81.5t101.5 -19.5h95l-25 -162h-93z" />
    <glyph glyph-name="bar" unicode="|" horiz-adv-x="572" 
d="M147 -365l308 1946h162l-308 -1946h-162z" />
    <glyph glyph-name="braceright" unicode="}" horiz-adv-x="619" 
d="M2 -147l25 162h94q77 0 108 19.5t40 81.5q6 38 10 165q1 144 13 227q21 121 104 190q-62 75 -43 193q13 79 58 227q39 133 43 166q10 62 -14 81t-102 19h-94l26 161h92q62 0 111.5 -14t87 -44t52.5 -82t4 -123q-10 -59 -52 -199q-36 -119 -48 -192q-10 -64 16 -90.5
t115 -19.5l-26 -163q-87 7 -121 -19t-45 -91q-9 -63 -13 -191q-1 -141 -10 -199q-22 -138 -115 -201.5t-224 -63.5h-92z" />
    <glyph glyph-name="asciitilde" unicode="~" horiz-adv-x="1126" 
d="M190 418q11 166 83.5 251t184.5 85q60 0 108.5 -18.5t143.5 -75.5q78 -48 109 -61t63 -13q42 0 56.5 31t25.5 143h161q-12 -166 -84.5 -250.5t-186.5 -84.5q-59 0 -106.5 18t-143.5 76q-78 47 -109 60.5t-64 13.5q-40 0 -55 -32t-27 -143h-159z" />
    <glyph glyph-name="uni00A0" unicode="&#xa0;" horiz-adv-x="516" 
 />
    <glyph glyph-name="exclamdown" unicode="&#xa1;" horiz-adv-x="564" 
d="M145 -310l195 1180h159l-180 -1180h-174zM348 1030q7 41 39.5 69.5t73.5 28.5q40 0 64 -29t17 -69q-6 -40 -39 -68.5t-73 -28.5q-41 0 -64.5 28t-17.5 69z" />
    <glyph glyph-name="cent" unicode="&#xa2;" horiz-adv-x="1122" 
d="M488 -20q-173 31 -263 182.5t-54 382.5q35 221 174 372.5t321 187.5l23 148h163l-22 -142q166 -21 252 -143t61 -299h-162q21 246 -176 282l-129 -809q204 43 259 266h162q-38 -172 -160.5 -287t-285.5 -141l-23 -144h-163zM339 553q-28 -175 21.5 -276.5t153.5 -131.5
l126 796q-112 -34 -194 -131.5t-107 -256.5z" />
    <glyph glyph-name="sterling" unicode="&#xa3;" horiz-adv-x="1036" 
d="M88 146q82 16 147.5 48t117.5 94t65 147q8 51 -0.5 98t-34.5 109h-200l25 161h110q-29 108 -12 214q18 113 85.5 202t166.5 138t211 49q85 0 150.5 -25t104 -69.5t61.5 -104.5t23.5 -131t-10.5 -149h-162q27 169 -18.5 244t-178.5 75q-103 0 -176 -59.5t-91 -167.5
q-16 -98 31 -216h455l-25 -161h-363q31 -108 15 -207q-25 -158 -151 -274h542l-25 -161h-886z" />
    <glyph glyph-name="currency" unicode="&#xa4;" horiz-adv-x="1243" 
d="M331 170l-96 116l127 110q-45 93 -25 214q18 121 93 216l-93 109l134 115l92 -109q105 59 217 59q113 0 199 -59l126 109l97 -115l-126 -110q43 -95 25 -215q-19 -118 -93 -214l91 -110l-133 -116l-92 110q-105 -59 -217 -59q-113 0 -199 59zM503 610
q-17 -106 30.5 -167.5t148.5 -61.5t168 61.5t84 167.5t-30.5 167.5t-148.5 61.5t-168 -61.5t-84 -167.5z" />
    <glyph glyph-name="yen" unicode="&#xa5;" horiz-adv-x="1219" 
d="M530 0l58 369h-335l26 160h335l9 56h-335l25 161h263l-302 635h200l266 -574l447 574h196l-502 -635h266l-25 -161h-336l-9 -56h336l-26 -160h-336l-58 -369h-163z" />
    <glyph glyph-name="brokenbar" unicode="&#xa6;" horiz-adv-x="572" 
d="M159 -292l117 743h162l-117 -743h-162zM306 639l118 742h162l-118 -742h-162z" />
    <glyph glyph-name="section" unicode="&#xa7;" horiz-adv-x="1154" 
d="M517 -317q-181 0 -274.5 105t-85.5 318h162q3 -145 55 -204t172 -59q103 0 166.5 37.5t74.5 109.5q10 61 -5.5 95.5t-75.5 63.5t-187 57q-65 14 -124 41.5t-110.5 70.5t-76.5 108t-13 143q17 105 79.5 180t153.5 118q-80 89 -60 220q23 144 138 231.5t272 87.5
q96 0 165.5 -33t107 -90.5t52.5 -128t8 -153.5h-158q-6 138 -50 191.5t-153 53.5q-191 0 -215 -153q-13 -83 47 -126t179 -64q90 -17 161 -46.5t124.5 -73t76.5 -107.5t11 -142q-17 -107 -82.5 -183t-161.5 -119q88 -90 64 -238q-22 -141 -146 -226t-291 -85zM362 574
q-13 -80 49.5 -132t173.5 -76q68 -14 107 -27q109 4 184 50.5t90 140.5q13 84 -49 131.5t-222 80.5q-39 6 -88 22q-102 -12 -166 -55t-79 -135z" />
    <glyph glyph-name="dieresis" unicode="&#xa8;" horiz-adv-x="764" 
d="M740 1529q-41 0 -65 28.5t-17 68.5q6 40 39 69t74 29q40 0 64.5 -29t18.5 -69q-7 -40 -40.5 -68.5t-73.5 -28.5zM428 1626q6 40 39 69t73 29q41 0 65 -29t18 -69q-7 -40 -40.5 -68.5t-73.5 -28.5t-64 28.5t-17 68.5z" />
    <glyph glyph-name="copyright" unicode="&#xa9;" horiz-adv-x="1657" 
d="M824 -29q-199 0 -350 98.5t-220 268.5t-37 372t155 371t305 267t381 98q198 0 349 -98t220 -267t37 -371t-155 -372t-305 -268.5t-380 -98.5zM380 710q-26 -163 26 -295t169 -206.5t275 -74.5q240 0 426 164t225 412q26 162 -26 293.5t-168 206.5t-274 75t-299 -75
t-234.5 -206.5t-119.5 -293.5zM558 710q21 131 90 233t165.5 155t202.5 53q157 0 244.5 -98t57.5 -276h-157q7 112 -31 163t-139 51q-107 0 -179 -78t-91 -201q-20 -129 27 -204t148 -75q100 0 155.5 47.5t87.5 163.5h162q-40 -180 -157.5 -276t-279.5 -96
q-101 0 -177.5 52.5t-112.5 154t-16 231.5z" />
    <glyph glyph-name="ordfeminine" unicode="&#xaa;" horiz-adv-x="800" 
d="M433 640q-123 0 -186.5 64.5t-46.5 173.5q19 118 115 182q46 30 99.5 40.5t127.5 13.5l176 9q4 68 -31.5 98t-114.5 30q-68 0 -111.5 -28t-107.5 -113l-98 92q75 101 156 147t184 46q139 0 214.5 -80.5t52.5 -223.5l-71 -446h-148l9 58q-103 -63 -219 -63zM347 878
q-8 -51 17 -73t95 -22q87 0 155 55t82 142l-168 -9q-105 -3 -141 -27q-20 -13 -28 -25.5t-12 -40.5z" />
    <glyph glyph-name="guillemotleft" unicode="&#xab;" horiz-adv-x="1282" 
d="M628 150l-244 364l359 364h212l-360 -364l243 -364h-210zM674 514l356 364h212l-358 -364l243 -364h-212z" />
    <glyph glyph-name="logicalnot" unicode="&#xac;" horiz-adv-x="1009" 
d="M753 383l38 245h-601l26 159h763l-64 -404h-162z" />
    <glyph glyph-name="registered" unicode="&#xae;" horiz-adv-x="1015" 
d="M610 646q-191 0 -295 123.5t-73 315.5q30 189 173 311.5t334 122.5q190 0 294 -123t74 -311q-31 -192 -173.5 -315.5t-333.5 -123.5zM372 1085q-23 -144 47 -229t211 -85t238 85t120 229q23 141 -47.5 225t-211.5 84t-237.5 -84t-119.5 -225zM475 845l73 462h173
q75 0 114.5 -39t27.5 -110q-14 -89 -88 -128l78 -185h-146l-67 163h-14l-26 -163h-125zM646 1134h48q31 0 36.5 3t7.5 21q3 18 -1.5 21t-35.5 3h-48z" />
    <glyph glyph-name="macron" unicode="&#xaf;" horiz-adv-x="743" 
d="M427 1542l26 160h377l-26 -160h-377z" />
    <glyph glyph-name="degree" unicode="&#xb0;" horiz-adv-x="724" 
d="M507 916q-105 0 -164.5 70t-43.5 176q16 105 98.5 174.5t187.5 69.5q106 0 165.5 -69.5t42.5 -174.5q-16 -106 -97.5 -176t-188.5 -70zM463 1162q-7 -47 8.5 -66t61.5 -19t68 19t29 66q7 46 -9 65t-62 19q-45 0 -66.5 -19t-29.5 -65z" />
    <glyph glyph-name="plusminus" unicode="&#xb1;" horiz-adv-x="1035" 
d="M470 213l60 382h-345l26 161h345l60 383h162l-60 -383h346l-26 -161h-346l-60 -382h-162zM89 -13l25 161h853l-25 -161h-853z" />
    <glyph glyph-name="uni00B2" unicode="&#xb2;" horiz-adv-x="919" 
d="M302 890l16 104l335 268q79 63 118 105t51.5 69t19.5 70q9 61 -17.5 90t-97.5 29q-141 0 -179 -140l-11 -71h-160l27 82q33 122 129.5 197.5t216.5 75.5q132 0 194.5 -75.5t45.5 -187.5q-14 -87 -70 -167.5t-178 -176.5l-159 -128h369l-23 -144h-627z" />
    <glyph glyph-name="uni00B3" unicode="&#xb3;" horiz-adv-x="910" 
d="M588 884q-160 0 -231 98.5t-22 245.5h142q-36 -102 -4 -151.5t138 -49.5q172 0 193 135q10 63 -26.5 94.5t-125.5 31.5q-43 0 -113 -10l19 117l223 228h-375l23 146h602l-16 -102l-240 -244q92 -26 137.5 -97t30.5 -164q-19 -123 -118.5 -200.5t-236.5 -77.5z" />
    <glyph glyph-name="acute" unicode="&#xb4;" horiz-adv-x="992" 
d="M640 1469l227 323h198l-252 -323h-173z" />
    <glyph glyph-name="paragraph" unicode="&#xb6;" horiz-adv-x="1127" 
d="M578 584q-33 0 -85 2q-107 6 -178 63.5t-95.5 144.5t-8.5 189q25 157 135 272t272 124q33 2 106 2h417l-251 -1582h-162l225 1422h-111l-225 -1422h-163z" />
    <glyph glyph-name="periodcentered" unicode="&#xb7;" horiz-adv-x="472" 
d="M318 516q-43 0 -67.5 29.5t-17.5 71.5q7 43 40.5 72.5t76.5 29.5q44 0 68 -29.5t17 -72.5t-40 -72t-77 -29z" />
    <glyph glyph-name="cedilla" unicode="&#xb8;" horiz-adv-x="934" 
d="M342 -416q-104 0 -150 47l21 136q91 -48 163.5 -35.5t81.5 63.5q3 20 -2.5 30.5t-29.5 15t-67 2t-118 -11.5l202 303h182l-105 -157q62 -24 87 -72.5t14 -110.5q-12 -71 -59.5 -120.5t-104 -69.5t-115.5 -20z" />
    <glyph glyph-name="uni00B9" unicode="&#xb9;" horiz-adv-x="604" 
d="M409 899l106 667l-215 -123l28 179l263 145h108l-138 -868h-152z" />
    <glyph glyph-name="ordmasculine" unicode="&#xba;" horiz-adv-x="825" 
d="M510 650q-152 0 -232 106.5t-54 271.5t139 271t267 106h11q153 0 232.5 -106t53.5 -271t-140 -271.5t-266 -106.5h-11zM372 1028q-18 -113 23.5 -172.5t137.5 -59.5h11q97 0 157 59.5t78 172.5q18 112 -24 171t-138 59h-11q-96 0 -156 -59t-78 -171z" />
    <glyph glyph-name="guillemotright" unicode="&#xbb;" horiz-adv-x="1281" 
d="M490 150l359 364l-244 364h212l242 -364l-357 -364h-212zM203 150l357 364l-242 364h211l241 -364l-356 -364h-211z" />
    <glyph glyph-name="questiondown" unicode="&#xbf;" horiz-adv-x="1042" 
d="M465 -340q-128 0 -214.5 53t-119 139t-15.5 194q33 208 250 385q51 43 83.5 72.5t59 63t40.5 57.5t26 65.5t18 76.5t16 100h159q-14 -88 -25.5 -138.5t-31 -106t-51 -98.5t-78.5 -92.5t-120 -111.5q-86 -72 -127 -134t-53 -139q-35 -226 208 -226q285 0 337 345h159
q-21 -218 -169 -361.5t-352 -143.5zM614 1020q6 40 39 68.5t74 28.5q40 0 64 -28.5t18 -68.5q-7 -40 -40 -69t-73 -29q-41 0 -65 29t-17 69z" />
    <glyph glyph-name="Agrave" unicode="&#xc0;" horiz-adv-x="1176" 
d="M35 0l707 1394h132l267 -1394h-172l-82 438h-460l-221 -438h-171zM504 595h355l-96 511zM625 1773h200l119 -293h-172z" />
    <glyph glyph-name="Aacute" unicode="&#xc1;" horiz-adv-x="1176" 
d="M35 0l707 1394h132l267 -1394h-172l-82 438h-460l-221 -438h-171zM504 595h355l-96 511zM695 1480l213 293h202l-241 -293h-174z" />
    <glyph glyph-name="Acircumflex" unicode="&#xc2;" horiz-adv-x="1176" 
d="M35 0l707 1394h132l267 -1394h-172l-82 438h-460l-221 -438h-171zM504 595h355l-96 511zM567 1480l250 293h106l158 -293h-193l-49 97l-80 -97h-192z" />
    <glyph glyph-name="Atilde" unicode="&#xc3;" horiz-adv-x="1176" 
d="M35 0l707 1394h132l267 -1394h-172l-82 438h-460l-221 -438h-171zM504 595h355l-96 511zM622 1539q-5 76 34 129.5t110 53.5q44 0 119 -29q24 -8 46 -14q1 5 3.5 16.5t3.5 18.5h134q8 -83 -33 -133t-108 -50q-45 0 -120 27q-32 12 -46 16q-1 -11 -7 -35h-136z" />
    <glyph glyph-name="Adieresis" unicode="&#xc4;" horiz-adv-x="1176" 
d="M35 0l707 1394h132l267 -1394h-172l-82 438h-460l-221 -438h-171zM504 595h355l-96 511zM639 1626q6 40 39 69t73 29q41 0 65.5 -29t18.5 -69q-7 -40 -41 -68.5t-74 -28.5t-64 28.5t-17 68.5zM869 1626q6 40 39 69t73 29q41 0 65.5 -29t18.5 -69q-7 -40 -40.5 -68.5
t-74.5 -28.5q-40 0 -64 28.5t-17 68.5z" />
    <glyph glyph-name="Aring" unicode="&#xc5;" horiz-adv-x="1176" 
d="M35 0l707 1394h132l267 -1394h-172l-82 438h-460l-221 -438h-171zM504 595h355l-96 511zM671 1626q12 77 71.5 124.5t131.5 47.5t116.5 -47.5t32.5 -124.5q-12 -76 -72 -124t-132 -48t-116 48t-32 124zM805 1626q-4 -19 6 -29.5t29 -10.5q41 0 49 40q6 40 -36 40t-48 -40
z" />
    <glyph glyph-name="AE" unicode="&#xc6;" horiz-adv-x="1631" 
d="M21 0l707 1394h1039l-25 -157h-752l-72 -456h688l-25 -157h-688l-74 -467h752l-25 -157h-911l69 438h-290l-220 -438h-173zM493 595h236l101 637h-16z" />
    <glyph glyph-name="Ccedilla" unicode="&#xc7;" horiz-adv-x="1349" 
d="M587 -412q-104 0 -151 47l22 136q57 -32 113 -37t91 14t40 51q3 21 -2 31t-28.5 15t-66 2t-118.5 -13l104 162q-230 36 -341 223t-65 477q34 214 137.5 375.5t257 248t335.5 86.5h19q206 0 339 -110t168 -303l-158 -56q-53 309 -375 309h-19q-217 0 -360 -143.5
t-185 -406.5q-41 -262 56.5 -405t314.5 -143h19q320 0 473 309l141 -56q-91 -178 -242 -286t-338 -124l-6 -8q125 -47 104 -184q-9 -54 -38 -96.5t-70 -66.5t-84.5 -36t-86.5 -12z" />
    <glyph glyph-name="Egrave" unicode="&#xc8;" horiz-adv-x="1161" 
d="M165 0l221 1394h911l-25 -157h-751l-72 -456h688l-25 -157h-688l-74 -467h751l-25 -157h-911zM624 1773h201l119 -293h-171z" />
    <glyph glyph-name="Eacute" unicode="&#xc9;" horiz-adv-x="1161" 
d="M165 0l221 1394h911l-25 -157h-751l-72 -456h688l-25 -157h-688l-74 -467h751l-25 -157h-911zM696 1480l213 293h200l-240 -293h-173z" />
    <glyph glyph-name="Ecircumflex" unicode="&#xca;" horiz-adv-x="1161" 
d="M165 0l221 1394h911l-25 -157h-751l-72 -456h688l-25 -157h-688l-74 -467h751l-25 -157h-911zM568 1480l250 293h106l156 -293h-194l-47 96l-80 -96h-191z" />
    <glyph glyph-name="Edieresis" unicode="&#xcb;" horiz-adv-x="1161" 
d="M165 0l221 1394h911l-25 -157h-751l-72 -456h688l-25 -157h-688l-74 -467h751l-25 -157h-911zM636 1626q6 40 39 69t73 29t64 -29t18 -69q-7 -40 -40 -68.5t-73 -28.5t-64 28.5t-17 68.5zM865 1626q6 40 39.5 69t73.5 29t64 -29t18 -69q-7 -40 -40 -68.5t-73 -28.5
t-64.5 28.5t-17.5 68.5z" />
    <glyph glyph-name="Igrave" unicode="&#xcc;" horiz-adv-x="414" 
d="M63 0l221 1394h158l-221 -1394h-158zM178 1773h200l119 -293h-172z" />
    <glyph glyph-name="Iacute" unicode="&#xcd;" horiz-adv-x="414" 
d="M198 0l221 1394h158l-221 -1394h-158zM385 1480l213 293h200l-242 -293h-171z" />
    <glyph glyph-name="Icircumflex" unicode="&#xce;" horiz-adv-x="297" 
d="M69 0l221 1394h159l-221 -1394h-159zM127 1480l250 293h107l156 -293h-193l-49 96l-79 -96h-192z" />
    <glyph glyph-name="Idieresis" unicode="&#xcf;" horiz-adv-x="263" 
d="M52 0l221 1394h158l-221 -1394h-158zM178 1626q6 40 38.5 69t73.5 29q40 0 64.5 -29t18.5 -69q-7 -40 -40.5 -68.5t-73.5 -28.5t-64 28.5t-17 68.5zM407 1626q6 40 39 69t73 29q41 0 65.5 -28.5t18.5 -69.5q-7 -40 -40.5 -68.5t-74.5 -28.5q-40 0 -64 28.5t-17 68.5z" />
    <glyph glyph-name="Eth" unicode="&#xd0;" horiz-adv-x="1235" 
d="M146 0l93 589h-101l26 161h101l102 644h314q330 0 485.5 -187.5t102.5 -520.5q-52 -327 -263.5 -506.5t-547.5 -179.5h-312zM329 157h151q277 0 430 129.5t196 399.5q86 551 -452 551h-154l-77 -487h350l-26 -161h-350z" />
    <glyph glyph-name="Ntilde" unicode="&#xd1;" horiz-adv-x="1286" 
d="M165 0l221 1394h147l479 -1070l170 1070h160l-221 -1394h-149l-478 1067l-169 -1067h-160zM673 1539q-5 76 34 129.5t110 53.5q44 0 119 -29q24 -8 46 -14q1 5 3.5 16.5t3.5 18.5h134q8 -83 -33 -133t-108 -50q-45 0 -120 27q-32 12 -46 16q-1 -11 -7 -35h-136z" />
    <glyph glyph-name="Ograve" unicode="&#xd2;" horiz-adv-x="1405" 
d="M689 -16q-136 0 -242.5 49.5t-172.5 141.5t-91.5 222.5t1.5 292.5q34 214 137.5 375.5t257 248t335.5 86.5h19q185 0 311.5 -89t177 -250t17.5 -371q-50 -317 -250.5 -511.5t-480.5 -194.5h-19zM343 690q-41 -261 56.5 -404.5t314.5 -143.5h19q219 0 362.5 143.5
t184.5 404.5q42 263 -56 406.5t-317 143.5h-19q-217 0 -360 -143.5t-185 -406.5zM743 1773h200l119 -293h-172z" />
    <glyph glyph-name="Oacute" unicode="&#xd3;" horiz-adv-x="1405" 
d="M689 -16q-136 0 -242.5 49.5t-172.5 141.5t-91.5 222.5t1.5 292.5q34 214 137.5 375.5t257 248t335.5 86.5h19q185 0 311.5 -89t177 -250t17.5 -371q-50 -317 -250.5 -511.5t-480.5 -194.5h-19zM343 690q-41 -261 56.5 -404.5t314.5 -143.5h19q219 0 362.5 143.5
t184.5 404.5q42 263 -56 406.5t-317 143.5h-19q-217 0 -360 -143.5t-185 -406.5zM814 1480l213 293h201l-241 -293h-173z" />
    <glyph glyph-name="Ocircumflex" unicode="&#xd4;" horiz-adv-x="1405" 
d="M689 -16q-136 0 -242.5 49.5t-172.5 141.5t-91.5 222.5t1.5 292.5q34 214 137.5 375.5t257 248t335.5 86.5h19q185 0 311.5 -89t177 -250t17.5 -371q-50 -317 -250.5 -511.5t-480.5 -194.5h-19zM343 690q-41 -261 56.5 -404.5t314.5 -143.5h19q219 0 362.5 143.5
t184.5 404.5q42 263 -56 406.5t-317 143.5h-19q-217 0 -360 -143.5t-185 -406.5zM685 1480l250 293h106l157 -293h-193l-48 96l-80 -96h-192z" />
    <glyph glyph-name="Otilde" unicode="&#xd5;" horiz-adv-x="1405" 
d="M689 -16q-136 0 -242.5 49.5t-172.5 141.5t-91.5 222.5t1.5 292.5q34 214 137.5 375.5t257 248t335.5 86.5h19q185 0 311.5 -89t177 -250t17.5 -371q-50 -317 -250.5 -511.5t-480.5 -194.5h-19zM343 690q-41 -261 56.5 -404.5t314.5 -143.5h19q219 0 362.5 143.5
t184.5 404.5q42 263 -56 406.5t-317 143.5h-19q-217 0 -360 -143.5t-185 -406.5zM741 1539q-5 76 34 129.5t110 53.5q44 0 119 -29q24 -8 46 -14q1 5 3.5 16.5t3.5 18.5h134q8 -83 -33 -133t-108 -50q-45 0 -120 27q-32 12 -46 16q-1 -11 -7 -35h-136z" />
    <glyph glyph-name="Odieresis" unicode="&#xd6;" horiz-adv-x="1405" 
d="M689 -16q-136 0 -242.5 49.5t-172.5 141.5t-91.5 222.5t1.5 292.5q34 214 137.5 375.5t257 248t335.5 86.5h19q185 0 311.5 -89t177 -250t17.5 -371q-50 -317 -250.5 -511.5t-480.5 -194.5h-19zM343 690q-41 -261 56.5 -404.5t314.5 -143.5h19q219 0 362.5 143.5
t184.5 404.5q42 263 -56 406.5t-317 143.5h-19q-217 0 -360 -143.5t-185 -406.5zM752 1626q6 40 39 69t74 29q40 0 64.5 -29t18.5 -69q-7 -40 -40.5 -68.5t-73.5 -28.5t-64.5 28.5t-17.5 68.5zM983 1626q6 40 38.5 69t73.5 29q40 0 64 -29t18 -69q-7 -40 -40 -68.5
t-73 -28.5t-64 28.5t-17 68.5z" />
    <glyph glyph-name="multiply" unicode="&#xd7;" horiz-adv-x="1043" 
d="M836 243l-231 275l-318 -274l-98 112l320 276l-232 275l133 115l231 -275l321 275l93 -115l-318 -275l232 -275z" />
    <glyph glyph-name="Oslash" unicode="&#xd8;" horiz-adv-x="1474" 
d="M719 -16q-250 0 -391 161l-137 -118l-94 115l151 131q-71 175 -34 417q34 214 137.5 375.5t257 248t335.5 86.5h18q257 0 398 -168l140 121l95 -114l-157 -137q69 -175 31 -412q-50 -317 -251 -511.5t-481 -194.5h-18zM373 690q-28 -173 12 -300l845 730
q-99 120 -294 120h-18q-217 0 -360 -143.5t-185 -406.5zM458 256q99 -114 286 -114h18q220 0 364 143.5t185 404.5q27 168 -10 295z" />
    <glyph glyph-name="Ugrave" unicode="&#xd9;" horiz-adv-x="1253" 
d="M230 510l140 884h157l-138 -871q-33 -210 69 -320q78 -86 202 -78q129 8 231 112q110 112 139 295l137 862h158l-137 -864q-42 -262 -221 -415q-144 -122 -322 -132q-171 -10 -288 88q-140 116 -136 337q1 49 9 102zM660 1773h201l119 -293h-173z" />
    <glyph glyph-name="Uacute" unicode="&#xda;" horiz-adv-x="1253" 
d="M230 510l140 884h157l-138 -871q-33 -210 69 -320q78 -86 202 -78q129 8 231 112q110 112 139 295l137 862h158l-137 -864q-42 -262 -221 -415q-144 -122 -322 -132q-171 -10 -288 88q-140 116 -136 337q1 49 9 102zM732 1480l213 293h200l-242 -293h-171z" />
    <glyph glyph-name="Ucircumflex" unicode="&#xdb;" horiz-adv-x="1253" 
d="M230 510l140 884h157l-138 -871q-33 -210 69 -320q78 -86 202 -78q129 8 231 112q110 112 139 295l137 862h158l-137 -864q-42 -262 -221 -415q-144 -122 -322 -132q-171 -10 -288 88q-140 116 -136 337q1 49 9 102zM603 1480l251 293h106l156 -293h-194l-48 96l-80 -96
h-191z" />
    <glyph glyph-name="Udieresis" unicode="&#xdc;" horiz-adv-x="1253" 
d="M230 510l140 884h157l-138 -871q-33 -210 69 -320q78 -86 202 -78q129 8 231 112q110 112 139 295l137 862h158l-137 -864q-42 -262 -221 -415q-144 -122 -322 -132q-171 -10 -288 88q-140 116 -136 337q1 49 9 102zM673 1626q6 40 39 69t73 29q41 0 64.5 -29t17.5 -69
q-7 -40 -39.5 -68.5t-73.5 -28.5q-40 0 -64 28.5t-17 68.5zM902 1626q6 40 39.5 69t73.5 29t64.5 -29t18.5 -69q-7 -40 -40.5 -68.5t-73.5 -28.5t-64.5 28.5t-17.5 68.5z" />
    <glyph glyph-name="Yacute" unicode="&#xdd;" horiz-adv-x="1170" 
d="M506 0l63 422l-333 972h180l263 -780l515 780h182l-650 -972l-62 -422h-158zM691 1480l213 293h200l-241 -293h-172z" />
    <glyph glyph-name="Thorn" unicode="&#xde;" horiz-adv-x="1176" 
d="M165 0l219 1381h160l-33 -209h317q221 0 324 -102t72 -296l-1 -2q-31 -195 -166 -297t-356 -102h-317l-59 -373h-160zM409 530h317q163 0 241 56.5t99 187.5q20 130 -40 186t-223 56h-317z" />
    <glyph glyph-name="germandbls" unicode="&#xdf;" horiz-adv-x="1136" 
d="M674 -8q-105 0 -221.5 9.5t-121.5 32.5l21 131q218 -3 371 -11q101 4 153 38t63 104q8 50 -11.5 91t-92.5 120q-75 80 -97 137.5t-10 133.5t52 133t141 138q97 79 130 120t41 91q11 74 -36 108.5t-159 34.5q-179 0 -270 -65.5t-125 -208.5q-15 -75 -20 -105l-162 -1024
h-163l162 1021q11 65 22 119q44 201 195.5 312t389.5 112q174 1 263 -82t67 -227q-14 -87 -76 -166.5t-177 -168.5q-62 -47 -82.5 -74.5t-26.5 -67.5t5.5 -67t58.5 -74q87 -89 124 -168.5t23 -166.5q-23 -145 -139 -227.5t-292 -82.5z" />
    <glyph glyph-name="agrave" unicode="&#xe0;" horiz-adv-x="1033" 
d="M469 -10q-166 0 -252 87t-63 232q26 160 153 241q62 40 137 55.5t176 19.5l283 13q15 123 -45 180.5t-189 57.5q-99 0 -168 -41t-151 -149l-109 100q101 128 209 186.5t243 58.5q193 0 294 -109t70 -307l-97 -615h-157l18 112q-77 -58 -170 -90t-182 -32zM313 309
q-13 -83 31.5 -124t153.5 -41q87 0 168 39t138 111.5t71 162.5l5 27l-276 -11q-82 -2 -132.5 -12t-86.5 -33q-33 -21 -49 -47t-23 -72zM517 1518h199l124 -323h-171z" />
    <glyph glyph-name="aacute" unicode="&#xe1;" horiz-adv-x="1033" 
d="M469 -10q-166 0 -252 87t-63 232q26 160 153 241q62 40 137 55.5t176 19.5l283 13q15 123 -45 180.5t-189 57.5q-99 0 -168 -41t-151 -149l-109 100q101 128 209 186.5t243 58.5q193 0 294 -109t70 -307l-97 -615h-157l18 112q-77 -58 -170 -90t-182 -32zM313 309
q-13 -83 31.5 -124t153.5 -41q87 0 168 39t138 111.5t71 162.5l5 27l-276 -11q-82 -2 -132.5 -12t-86.5 -33q-33 -21 -49 -47t-23 -72zM618 1195l226 323h199l-253 -323h-172z" />
    <glyph glyph-name="acircumflex" unicode="&#xe2;" horiz-adv-x="1033" 
d="M469 -10q-166 0 -252 87t-63 232q26 160 153 241q62 40 137 55.5t176 19.5l283 13q15 123 -45 180.5t-189 57.5q-99 0 -168 -41t-151 -149l-109 100q101 128 209 186.5t243 58.5q193 0 294 -109t70 -307l-97 -615h-157l18 112q-77 -58 -170 -90t-182 -32zM313 309
q-13 -83 31.5 -124t153.5 -41q87 0 168 39t138 111.5t71 162.5l5 27l-276 -11q-82 -2 -132.5 -12t-86.5 -33q-33 -21 -49 -47t-23 -72zM498 1195l241 323h112l139 -323h-187l-43 108l-78 -108h-184z" />
    <glyph glyph-name="atilde" unicode="&#xe3;" horiz-adv-x="1033" 
d="M469 -10q-166 0 -252 87t-63 232q26 160 153 241q61 40 135.5 55.5t177.5 19.5l283 13q15 123 -45 180.5t-189 57.5q-99 0 -168 -41t-151 -149l-109 100q101 128 209 186.5t243 58.5q193 0 294 -109t70 -307l-97 -615h-157l18 112q-77 -58 -170 -90t-182 -32zM313 309
q-13 -83 31.5 -124t153.5 -41q87 0 168 39t138 111.5t71 162.5l5 27l-276 -11q-84 -3 -134 -12.5t-85 -32.5q-33 -21 -49 -47t-23 -72zM564 1287q-5 76 34 129.5t110 53.5q44 0 119 -29q24 -8 46 -14q2 11 8 35h134q8 -83 -33 -133t-108 -50q-46 0 -121 27q-32 12 -46 16
q-1 -11 -7 -35h-136z" />
    <glyph glyph-name="adieresis" unicode="&#xe4;" horiz-adv-x="1033" 
d="M469 -10q-166 0 -252 87t-63 232q26 160 153 241q106 70 314 75l282 13q15 123 -45 180.5t-189 57.5q-99 0 -168 -41t-151 -149l-109 100q101 128 209 186.5t243 58.5q193 0 294 -109t70 -307l-97 -615h-157l18 112q-77 -58 -170 -90t-182 -32zM313 309
q-13 -83 31.5 -124t153.5 -41q87 0 168 39t138 111.5t71 162.5l5 27l-275 -11q-163 -6 -220 -45q-33 -21 -49 -47t-23 -72zM559 1355q6 40 39 68.5t73 28.5t64 -28.5t18 -68.5q-7 -40 -40 -69t-73 -29q-41 0 -64.5 29t-16.5 69zM788 1355q6 40 39 68.5t73 28.5
q41 0 65 -28.5t18 -68.5q-7 -40 -40 -69t-74 -29q-40 0 -64 29t-17 69z" />
    <glyph glyph-name="aring" unicode="&#xe5;" horiz-adv-x="1033" 
d="M469 -10q-166 0 -252 87t-63 232q26 160 153 241q62 40 137 55.5t176 19.5l283 13q15 123 -45 180.5t-189 57.5q-99 0 -168 -41t-151 -149l-109 100q101 128 209 186.5t243 58.5q193 0 294 -109t70 -307l-97 -615h-157l18 112q-77 -58 -170 -90t-182 -32zM313 309
q-13 -83 31.5 -124t153.5 -41q87 0 168 39t138 111.5t71 162.5l5 27l-276 -11q-82 -2 -132.5 -12t-86.5 -33q-33 -21 -49 -47t-23 -72zM605 1355q12 77 71.5 124.5t130.5 47.5q72 0 116.5 -47.5t32.5 -124.5q-12 -76 -72 -124t-132 -48t-115.5 48t-31.5 124zM739 1355
q-7 -40 34 -40q42 0 49 40q6 40 -36 40q-41 0 -47 -40z" />
    <glyph glyph-name="ae" unicode="&#xe6;" horiz-adv-x="1805" 
d="M469 -10q-166 0 -252 87t-63 232q26 160 153 241q106 70 314 75l282 13q15 123 -45 180.5t-189 57.5q-99 0 -168 -41t-151 -149l-109 100q101 128 209 186.5t243 58.5q124 0 214 -47t130 -138q56 63 126 106t141.5 61t144.5 16.5t135.5 -28t115 -72.5t82 -116.5
t37.5 -159.5t-20 -203h-762q-8 -144 61 -224t202 -80h18q206 0 320 200l135 -63q-76 -135 -203 -214t-277 -79h-18q-127 0 -220.5 59t-139.5 163q-91 -107 -210 -164.5t-236 -57.5zM313 309q-13 -83 31.5 -124t153.5 -41q87 0 168 39t138 111.5t71 162.5l5 27l-275 -11
q-163 -6 -220 -45q-33 -21 -49 -47t-23 -72zM1064 602h596q-1 69 -21.5 125t-55 90.5t-80 52.5t-95 18t-101 -18.5t-97 -53t-84.5 -90t-62 -124.5z" />
    <glyph glyph-name="ccedilla" unicode="&#xe7;" horiz-adv-x="1074" 
d="M409 -417q-104 0 -151 47l22 136q57 -32 113 -37t91 14t40 51q4 21 -1.5 31.5t-29.5 15.5t-66.5 2t-120.5 -12l118 175q-152 41 -225 178t-43 328q36 229 190.5 374t365.5 145h17q151 0 253 -78t134 -214l-156 -63q-26 101 -87.5 150.5t-167.5 49.5h-17
q-148 0 -247 -96.5t-126 -267.5q-27 -172 41 -269t216 -97h17q204 0 321 201l134 -64q-140 -243 -412 -238l-46 -68q124 -47 102 -183q-9 -54 -38 -96.5t-70 -66.5t-84.5 -36t-86.5 -12z" />
    <glyph glyph-name="egrave" unicode="&#xe8;" 
d="M547 -10q-208 0 -317.5 147t-73.5 375q35 225 186.5 370t359.5 149q220 -5 324 -168.5t45 -412.5h-763q-8 -144 61 -224t203 -80h17q204 0 321 201l134 -64q-77 -135 -204 -214t-276 -79h-17zM336 602h595q-2 128 -67 199t-186 75q-123 -5 -212 -76t-130 -198zM538 1518
h197l126 -323h-173z" />
    <glyph glyph-name="eacute" unicode="&#xe9;" 
d="M547 -10q-208 0 -317.5 147t-73.5 375q35 225 186.5 370t359.5 149q220 -5 324 -168.5t45 -412.5h-763q-8 -144 61 -224t203 -80h17q204 0 321 201l134 -64q-77 -135 -204 -214t-276 -79h-17zM336 602h595q-2 128 -67 199t-186 75q-123 -5 -212 -76t-130 -198zM603 1195
l228 323h197l-253 -323h-172z" />
    <glyph glyph-name="ecircumflex" unicode="&#xea;" 
d="M547 -10q-208 0 -317.5 147t-73.5 375q35 225 186.5 370t359.5 149q220 -5 324 -168.5t45 -412.5h-763q-8 -144 61 -224t203 -80h17q204 0 321 201l134 -64q-77 -135 -204 -214t-276 -79h-17zM336 602h595q-2 128 -67 199t-186 75q-123 -5 -212 -76t-130 -198zM482 1195
l241 323h113l140 -323h-187l-44 108l-78 -108h-185z" />
    <glyph glyph-name="edieresis" unicode="&#xeb;" 
d="M547 -10q-208 0 -317.5 147t-73.5 375q35 225 186.5 370t359.5 149q220 -5 324 -168.5t45 -412.5h-763q-8 -144 61 -224t203 -80h17q204 0 321 201l134 -64q-77 -135 -204 -214t-276 -79h-17zM336 602h595q-2 128 -67 199t-186 75q-123 -5 -212 -76t-130 -198zM543 1355
q6 40 39 68.5t73 28.5t65 -28t19 -69q-7 -40 -40.5 -69t-74.5 -29q-40 0 -64 29t-17 69zM774 1355q6 40 38.5 68.5t73.5 28.5q40 0 64.5 -28t18.5 -69q-7 -40 -40.5 -69t-73.5 -29q-41 0 -64.5 29t-16.5 69z" />
    <glyph glyph-name="igrave" unicode="&#xec;" horiz-adv-x="494" 
d="M160 0l162 1022h159l-162 -1022h-159zM203 1518h198l125 -323h-170z" />
    <glyph glyph-name="iacute" unicode="&#xed;" horiz-adv-x="494" 
d="M199 0l162 1022h159l-162 -1022h-159zM346 1195l228 323h197l-253 -323h-172z" />
    <glyph glyph-name="icircumflex" unicode="&#xee;" horiz-adv-x="281" 
d="M61 0l162 1022h158l-162 -1022h-158zM82 1195l243 323h111l141 -323h-187l-44 108l-78 -108h-186z" />
    <glyph glyph-name="idieresis" unicode="&#xef;" horiz-adv-x="266" 
d="M54 0l162 1022h158l-162 -1022h-158zM137 1355q6 40 38.5 68.5t73.5 28.5q40 0 64.5 -28t18.5 -69q-7 -40 -40.5 -69t-73.5 -29q-41 0 -64.5 29t-16.5 69zM366 1355q6 40 39 68.5t73 28.5t64.5 -28t18.5 -69q-7 -40 -40 -69t-74 -29q-40 0 -64 29t-17 69z" />
    <glyph glyph-name="eth" unicode="&#xf0;" horiz-adv-x="1125" 
d="M547 -10q-208 0 -317.5 147t-73.5 375q36 229 190.5 374t365.5 145h17q61 0 115 -14l-20 56l-177 -45l-14 155l141 37l-62 179h176l48 -137l154 39l15 -156l-119 -31l140 -393h-2q5 -16 6 -72.5t-9 -136.5q-36 -229 -192 -375.5t-365 -146.5h-17zM315 512
q-27 -172 41 -269t216 -97h17q148 0 247 97t126 269t-41 268t-216 96h-17q-148 0 -247 -96.5t-126 -267.5z" />
    <glyph glyph-name="ntilde" unicode="&#xf1;" horiz-adv-x="1131" 
d="M157 0l162 1022h159l-12 -73q117 82 289 82q202 0 285 -109.5t50 -317.5l-96 -604h-157l94 594q25 159 -17.5 220.5t-182.5 61.5q-143 0 -223.5 -86.5t-112.5 -288.5l-79 -501h-159zM555 1287q-5 76 34 129.5t110 53.5q44 0 119 -29q24 -8 46 -14q2 11 8 35h134
q8 -83 -33 -133t-108 -50q-46 0 -121 27q-32 12 -46 16q-1 -11 -7 -35h-136z" />
    <glyph glyph-name="ograve" unicode="&#xf2;" horiz-adv-x="1115" 
d="M547 -10q-208 0 -317.5 147t-73.5 375q36 229 190.5 374t365.5 145h17q211 0 319.5 -145t72.5 -374t-192 -375.5t-365 -146.5h-17zM315 512q-27 -172 41 -269t216 -97h17q148 0 247 97t126 269t-41 268t-216 96h-17q-148 0 -247 -96.5t-126 -267.5zM554 1518h198
l126 -323h-171z" />
    <glyph glyph-name="oacute" unicode="&#xf3;" horiz-adv-x="1115" 
d="M547 -10q-208 0 -317.5 147t-73.5 375q36 229 190.5 374t365.5 145h17q211 0 319.5 -145t72.5 -374t-192 -375.5t-365 -146.5h-17zM315 512q-27 -172 41 -269t216 -97h17q148 0 247 97t126 269t-41 268t-216 96h-17q-148 0 -247 -96.5t-126 -267.5zM621 1195l226 323h199
l-254 -323h-171z" />
    <glyph glyph-name="ocircumflex" unicode="&#xf4;" horiz-adv-x="1115" 
d="M547 -10q-208 0 -317.5 147t-73.5 375q36 229 190.5 374t365.5 145h17q211 0 319.5 -145t72.5 -374t-192 -375.5t-365 -146.5h-17zM315 512q-27 -172 41 -269t216 -97h17q148 0 247 97t126 269t-41 268t-216 96h-17q-148 0 -247 -96.5t-126 -267.5zM499 1195l243 323h111
l139 -323h-186l-43 108l-78 -108h-186z" />
    <glyph glyph-name="otilde" unicode="&#xf5;" horiz-adv-x="1115" 
d="M547 -10q-208 0 -317.5 147t-73.5 375q36 229 190.5 374t365.5 145h17q211 0 319.5 -145t72.5 -374t-192 -375.5t-365 -146.5h-17zM315 512q-27 -172 41 -269t216 -97h17q148 0 247 97t126 269t-41 268t-216 96h-17q-148 0 -247 -96.5t-126 -267.5zM555 1287
q-5 76 34 129.5t110 53.5q44 0 119 -29q24 -8 46 -14q2 11 8 35h134q8 -83 -33 -133t-108 -50q-46 0 -121 27q-32 12 -46 16q-1 -11 -7 -35h-136z" />
    <glyph glyph-name="odieresis" unicode="&#xf6;" horiz-adv-x="1115" 
d="M547 -10q-208 0 -317.5 147t-73.5 375q36 229 190.5 374t365.5 145h17q211 0 319.5 -145t72.5 -374t-192 -375.5t-365 -146.5h-17zM315 512q-27 -172 41 -269t216 -97h17q148 0 247 97t126 269t-41 268t-216 96h-17q-148 0 -247 -96.5t-126 -267.5zM560 1355
q6 41 39.5 69t73.5 28t64 -28.5t18 -68.5q-7 -40 -40 -69t-73 -29q-41 0 -65 29t-17 69zM789 1355q6 41 39.5 69t73.5 28q41 0 65 -28.5t18 -68.5q-7 -40 -40 -69t-74 -29q-40 0 -64.5 29t-17.5 69z" />
    <glyph glyph-name="divide" unicode="&#xf7;" horiz-adv-x="1035" 
d="M180 560l25 161h853l-25 -161h-853zM466 357q7 46 43.5 77t82.5 31q45 0 72 -31t20 -77t-44.5 -77.5t-82.5 -31.5q-46 0 -72.5 32t-18.5 77zM555 922q7 46 43.5 77.5t82.5 31.5q45 0 72 -31.5t20 -77.5t-44 -77t-82 -31q-46 0 -72.5 31t-19.5 77z" />
    <glyph glyph-name="oslash" unicode="&#xf8;" horiz-adv-x="1310" 
d="M181 -40l-94 114l190 164q-45 124 -21 274q36 228 191 373.5t365 145.5h19q159 0 263 -87l206 178l95 -114l-209 -181q64 -130 35 -315q-36 -229 -191.5 -375.5t-363.5 -146.5h-19q-184 0 -293 120zM415 358l549 473q-63 45 -157 45h-19q-147 0 -246 -96.5t-126 -267.5
q-13 -86 -1 -154zM482 220q67 -74 190 -74h19q148 0 247 97t126 269q19 115 -12 199z" />
    <glyph glyph-name="ugrave" unicode="&#xf9;" horiz-adv-x="1112" 
d="M537 -10q-202 0 -284.5 110t-49.5 318l96 604h159l-94 -594q-25 -159 17 -220.5t181 -61.5q145 0 224.5 86t111.5 289l79 501h160l-162 -1022h-160l11 72q-114 -82 -289 -82zM525 1518h199l124 -323h-170z" />
    <glyph glyph-name="uacute" unicode="&#xfa;" horiz-adv-x="1112" 
d="M537 -10q-202 0 -284.5 110t-49.5 318l96 604h159l-94 -594q-25 -159 17 -220.5t181 -61.5q145 0 224.5 86t111.5 289l79 501h160l-162 -1022h-160l11 72q-114 -82 -289 -82zM619 1195l226 323h199l-253 -323h-172z" />
    <glyph glyph-name="ucircumflex" unicode="&#xfb;" horiz-adv-x="1112" 
d="M537 -10q-202 0 -284.5 110t-49.5 318l96 604h159l-94 -594q-25 -159 17 -220.5t181 -61.5q145 0 224.5 86t111.5 289l79 501h160l-162 -1022h-160l11 72q-114 -82 -289 -82zM499 1195l241 323h112l140 -323h-188l-43 108l-78 -108h-184z" />
    <glyph glyph-name="udieresis" unicode="&#xfc;" horiz-adv-x="1112" 
d="M537 -10q-202 0 -284.5 110t-49.5 318l96 604h159l-94 -594q-25 -159 17 -220.5t181 -61.5q145 0 224.5 86t111.5 289l79 501h160l-162 -1022h-160l11 72q-114 -82 -289 -82zM558 1355q6 40 39 68.5t73 28.5t64 -28.5t18 -68.5q-7 -40 -40 -69t-73 -29q-41 0 -64.5 29
t-16.5 69zM787 1355q6 40 39.5 68.5t73.5 28.5t64.5 -28.5t18.5 -68.5q-7 -40 -40.5 -69t-73.5 -29t-64.5 29t-17.5 69z" />
    <glyph glyph-name="yacute" unicode="&#xfd;" horiz-adv-x="1049" 
d="M205 -187q48 -30 60 -31q19 -2 44 37q7 12 20 34l120 211l-242 958h174l185 -753l428 753h172l-702 -1232q-72 -128 -162.5 -158.5t-183.5 41.5zM590 1195l227 323h198l-254 -323h-171z" />
    <glyph glyph-name="thorn" unicode="&#xfe;" horiz-adv-x="1202" 
d="M98 -372l280 1766h159l-78 -492q149 129 335 129h25q203 0 313.5 -149.5t75.5 -371.5q-23 -146 -103 -265t-199 -187t-252 -68h-25q-185 0 -294 128l-78 -490h-159zM395 510q-26 -166 43 -264t212 -98h26q144 0 246.5 98.5t128.5 263.5t-45 264.5t-215 99.5h-26
q-142 0 -243 -99t-127 -265z" />
    <glyph glyph-name="ydieresis" unicode="&#xff;" horiz-adv-x="1049" 
d="M204 -188q49 -29 61 -30q19 -2 43 35l21 36l120 211l-242 958h174l185 -753l428 753h172l-702 -1232q-74 -128 -163 -158.5t-183 41.5zM529 1355q6 41 39.5 69t73.5 28q41 0 65.5 -28.5t18.5 -68.5q-7 -40 -40.5 -69t-74.5 -29q-40 0 -64.5 29t-17.5 69zM760 1355
q6 41 39 69t73 28t64.5 -28t18.5 -69q-7 -40 -40.5 -69t-73.5 -29t-64 29t-17 69z" />
    <glyph glyph-name="Amacron" unicode="&#x100;" horiz-adv-x="1176" 
d="M35 0l707 1394h132l267 -1394h-172l-82 438h-460l-221 -438h-171zM504 595h355l-96 511zM645 1545l25 161h378l-25 -161h-378z" />
    <glyph glyph-name="amacron" unicode="&#x101;" horiz-adv-x="1033" 
d="M469 -10q-166 0 -252 87t-63 232q26 160 153 241q62 40 137 55.5t176 19.5l283 13q15 123 -45 180.5t-189 57.5q-99 0 -168 -41t-151 -149l-109 100q101 128 209 186.5t243 58.5q193 0 294 -109t70 -307l-97 -615h-157l18 112q-77 -58 -170 -90t-182 -32zM313 309
q-13 -83 31.5 -124t153.5 -41q87 0 168 39t138 111.5t71 162.5l5 27l-276 -11q-82 -2 -132.5 -12t-86.5 -33q-33 -21 -49 -47t-23 -72zM566 1267l25 162h377l-25 -162h-377z" />
    <glyph glyph-name="Abreve" unicode="&#x102;" horiz-adv-x="1176" 
d="M35 0l707 1394h132l267 -1394h-172l-82 438h-460l-221 -438h-171zM504 595h355l-96 511zM636 1773h155q-26 -92 -13.5 -125.5t67.5 -33.5q54 0 77.5 34.5t25.5 124.5h155q0 -139 -82.5 -229t-201.5 -90q-121 0 -173.5 89.5t-9.5 229.5z" />
    <glyph glyph-name="abreve" unicode="&#x103;" horiz-adv-x="1033" 
d="M469 -10q-166 0 -252 87t-63 232q26 160 153 241q106 70 314 75l282 13q15 123 -45 180.5t-189 57.5q-99 0 -168 -41t-151 -149l-109 100q101 128 209 186.5t243 58.5q193 0 294 -109t70 -307l-97 -615h-157l18 112q-77 -58 -170 -90t-182 -32zM313 309
q-13 -83 31.5 -124t153.5 -41q87 0 168 39t138 111.5t71 162.5l5 27l-275 -11q-163 -6 -220 -45q-33 -21 -49 -47t-23 -72zM560 1507h155q-26 -92 -13.5 -125.5t66.5 -33.5t77.5 34.5t25.5 124.5h156q-1 -139 -84 -229t-201 -90q-120 0 -172.5 89.5t-9.5 229.5z" />
    <glyph glyph-name="Aogonek" unicode="&#x104;" horiz-adv-x="1167" 
d="M849 -407q-32 0 -60 9.5t-52.5 29.5t-34.5 58.5t-2 89.5q16 98 82.5 183t167.5 140l-63 335h-460l-221 -438h-171l707 1394h132l262 -1368q-247 -80 -273 -240q-4 -26 -1.5 -30t20.5 -4q35 0 67.5 27t137.5 137l-38 -235q-88 -88 -200 -88zM504 595h355l-96 511z" />
    <glyph glyph-name="aogonek" unicode="&#x105;" horiz-adv-x="1073" 
d="M689 -407q-31 0 -59 9.5t-52.5 29.5t-35 58.5t-2.5 89.5q23 144 145 255q-110 -45 -216 -45q-166 0 -252 87t-63 232q26 160 153 241q62 40 137 55.5t176 19.5l283 13q15 123 -45 180.5t-189 57.5q-99 0 -168 -41t-151 -149l-109 100q101 128 209 186.5t243 58.5
q193 0 294 -109t70 -307l-95 -605q-102 -10 -173 -73.5t-85 -150.5q-4 -26 -1.5 -30t19.5 -4q36 0 69.5 27.5t136.5 136.5l-38 -235q-90 -88 -201 -88zM313 309q-13 -83 31.5 -124t153.5 -41q87 0 168 39t138 111.5t71 162.5l5 27l-276 -11q-82 -2 -132.5 -12t-86.5 -33
q-33 -21 -49 -47t-23 -72z" />
    <glyph glyph-name="Cacute" unicode="&#x106;" horiz-adv-x="1349" 
d="M690 -12q-136 0 -242.5 50t-172.5 142t-91.5 223t1.5 293q34 214 137.5 375.5t257 248t335.5 86.5h19q206 0 339 -110t168 -303l-158 -56q-53 309 -375 309h-19q-217 0 -360 -143.5t-185 -406.5q-41 -262 56.5 -405t314.5 -143h19q320 0 473 309l141 -56
q-97 -192 -265 -302.5t-374 -110.5h-19zM785 1480l213 293h201l-241 -293h-173z" />
    <glyph glyph-name="cacute" unicode="&#x107;" horiz-adv-x="1074" 
d="M547 -10q-208 0 -317.5 147t-73.5 375q36 229 190.5 374t365.5 145h17q151 0 253 -78t134 -214l-156 -63q-26 101 -87.5 150.5t-167.5 49.5h-17q-148 0 -247 -96.5t-126 -267.5q-27 -172 41 -269t216 -97h17q204 0 321 201l134 -64q-77 -135 -204 -214t-276 -79h-17z
M612 1195l228 323h197l-253 -323h-172z" />
    <glyph glyph-name="Ccircumflex" unicode="&#x108;" horiz-adv-x="1349" 
d="M690 -12q-136 0 -242.5 50t-172.5 142t-91.5 223t1.5 293q34 214 137.5 375.5t257 248t335.5 86.5h19q206 0 339 -110t168 -303l-158 -56q-53 309 -375 309h-19q-217 0 -360 -143.5t-185 -406.5q-41 -262 56.5 -405t314.5 -143h19q320 0 473 309l141 -56
q-97 -192 -265 -302.5t-374 -110.5h-19zM683 1480l249 293h106l158 -293h-194l-48 96l-80 -96h-191z" />
    <glyph glyph-name="ccircumflex" unicode="&#x109;" horiz-adv-x="1074" 
d="M547 -10q-208 0 -317.5 147t-73.5 375q36 229 190.5 374t365.5 145h17q151 0 253 -78t134 -214l-156 -63q-26 101 -87.5 150.5t-167.5 49.5h-17q-148 0 -247 -96.5t-126 -267.5q-27 -172 41 -269t216 -97h17q204 0 321 201l134 -64q-77 -135 -204 -214t-276 -79h-17z
M499 1195l243 323h111l139 -323h-186l-43 108l-78 -108h-186z" />
    <glyph glyph-name="Cdotaccent" unicode="&#x10a;" horiz-adv-x="1349" 
d="M690 -12q-136 0 -242.5 50t-172.5 142t-91.5 223t1.5 293q34 214 137.5 375.5t257 248t335.5 86.5h19q206 0 339 -110t168 -303l-158 -56q-53 309 -375 309h-19q-217 0 -360 -143.5t-185 -406.5q-41 -262 56.5 -405t314.5 -143h19q320 0 473 309l141 -56
q-97 -192 -265 -302.5t-374 -110.5h-19zM846 1626q6 40 38.5 69t73.5 29q40 0 64.5 -29t18.5 -69q-7 -40 -40.5 -68.5t-73.5 -28.5q-41 0 -64.5 28.5t-16.5 68.5z" />
    <glyph glyph-name="cdotaccent" unicode="&#x10b;" horiz-adv-x="1074" 
d="M547 -10q-208 0 -317.5 147t-73.5 375q36 229 190.5 374t365.5 145h17q151 0 253 -78t134 -214l-156 -63q-26 101 -87.5 150.5t-167.5 49.5h-17q-148 0 -247 -96.5t-126 -267.5q-27 -172 41 -269t216 -97h17q204 0 321 201l134 -64q-77 -135 -204 -214t-276 -79h-17z
M665 1353q7 41 40.5 69t73.5 28t64 -28.5t17 -68.5q-6 -40 -39 -69t-73 -29q-41 0 -65 29t-18 69z" />
    <glyph glyph-name="Ccaron" unicode="&#x10c;" horiz-adv-x="1349" 
d="M690 -12q-136 0 -242.5 50t-172.5 142t-91.5 223t1.5 293q34 214 137.5 375.5t257 248t335.5 86.5h19q206 0 339 -110t168 -303l-158 -56q-53 309 -375 309h-19q-217 0 -360 -143.5t-185 -406.5q-41 -262 56.5 -405t314.5 -143h19q320 0 473 309l141 -56
q-97 -192 -265 -302.5t-374 -110.5h-19zM711 1773h193l49 -96l78 96h192l-250 -293h-106z" />
    <glyph glyph-name="ccaron" unicode="&#x10d;" horiz-adv-x="1074" 
d="M547 -10q-208 0 -317.5 147t-73.5 375q36 229 190.5 374t365.5 145h17q151 0 253 -78t134 -214l-156 -63q-26 101 -87.5 150.5t-167.5 49.5h-17q-148 0 -247 -96.5t-126 -267.5q-27 -172 41 -269t216 -97h17q204 0 321 201l134 -64q-77 -135 -204 -214t-276 -79h-17z
M543 1518h186l44 -108l77 108h186l-242 -323h-112z" />
    <glyph glyph-name="Dcaron" unicode="&#x10e;" horiz-adv-x="1255" 
d="M165 0l221 1394h315q330 0 485.5 -187.5t102.5 -520.5q-52 -327 -263.5 -506.5t-546.5 -179.5h-314zM350 157h150q277 0 430.5 129.5t196.5 399.5q86 551 -452 551h-154zM647 1773h192l50 -96l78 96h192l-250 -293h-106z" />
    <glyph glyph-name="dcaron" unicode="&#x10f;" horiz-adv-x="1296" 
d="M545 -10q-134 0 -231 69t-139 188.5t-19 264.5q35 223 193 371t361 148h25q187 0 295 -128l78 491h159l-44 -274l176 342h150l-14 -83l-151 -262h-161l-177 -1117h-159l19 119q-153 -129 -336 -129h-25zM315 512q-26 -166 44 -265t214 -99h26q142 0 243.5 99t127.5 265
t-43.5 264t-212.5 98h-26q-144 0 -245.5 -98t-127.5 -264z" />
    <glyph glyph-name="Dcroat" unicode="&#x110;" horiz-adv-x="1235" 
d="M146 0l93 589h-101l26 161h101l102 644h314q330 0 485.5 -187.5t102.5 -520.5q-52 -327 -263.5 -506.5t-547.5 -179.5h-312zM329 157h151q277 0 430 129.5t196 399.5q86 551 -452 551h-154l-77 -487h350l-26 -161h-350z" />
    <glyph glyph-name="dcroat" unicode="&#x111;" horiz-adv-x="1148" 
d="M545 -10q-134 0 -231 69t-139 188.5t-19 264.5q35 223 193 371t361 148h25q187 0 295 -128l28 177h-211l26 161h211l24 153h159l-24 -153h85l-26 -161h-85l-171 -1080h-159l19 119q-153 -129 -336 -129h-25zM315 512q-26 -166 44 -265t214 -99h26q142 0 243.5 99
t127.5 265t-43.5 264t-212.5 98h-26q-144 0 -245.5 -98t-127.5 -264z" />
    <glyph glyph-name="Emacron" unicode="&#x112;" horiz-adv-x="1161" 
d="M165 0l221 1394h911l-25 -157h-751l-72 -456h688l-25 -157h-688l-74 -467h751l-25 -157h-911zM645 1545l25 161h377l-25 -161h-377z" />
    <glyph glyph-name="emacron" unicode="&#x113;" 
d="M547 -10q-208 0 -317.5 147t-73.5 375q35 225 186.5 370t359.5 149q220 -5 324 -168.5t45 -412.5h-763q-8 -144 61 -224t203 -80h17q204 0 321 201l134 -64q-77 -135 -204 -214t-276 -79h-17zM336 602h595q-2 128 -67 199t-186 75q-123 -5 -212 -76t-130 -198zM551 1267
l25 162h378l-25 -162h-378z" />
    <glyph glyph-name="Ebreve" unicode="&#x114;" horiz-adv-x="1161" 
d="M165 0l221 1394h911l-25 -157h-751l-72 -456h688l-25 -157h-688l-74 -467h751l-25 -157h-911zM708 1822h156q-26 -93 -14 -125.5t67 -32.5q54 0 77.5 34t25.5 124h155q-1 -139 -83 -228.5t-201 -89.5q-121 0 -173.5 89t-9.5 229z" />
    <glyph glyph-name="ebreve" unicode="&#x115;" 
d="M547 -10q-208 0 -317.5 147t-73.5 375q40 251 214 395q141 116 314 122q168 6 281 -94q137 -121 126 -345q-3 -67 -20 -140h-763q-8 -144 61 -224t203 -80h17q204 0 321 201l134 -64q-77 -135 -204 -214t-276 -79h-17zM336 602h595q-1 69 -21.5 125t-55 90.5t-80 52.5
t-95 18t-101 -18.5t-97 -53t-84 -90t-61.5 -124.5zM542 1507h156q-26 -92 -13.5 -125.5t66.5 -33.5q55 0 78.5 34.5t24.5 124.5h155q0 -139 -82.5 -229t-201.5 -90q-120 0 -173 90t-10 229z" />
    <glyph glyph-name="Edotaccent" unicode="&#x116;" horiz-adv-x="1161" 
d="M165 0l221 1394h911l-25 -157h-751l-72 -456h688l-25 -157h-688l-74 -467h751l-25 -157h-911zM749 1626q6 40 39.5 69t73.5 29t64.5 -29t18.5 -69q-7 -40 -40.5 -68.5t-73.5 -28.5t-64.5 28.5t-17.5 68.5z" />
    <glyph glyph-name="edotaccent" unicode="&#x117;" 
d="M547 -10q-208 0 -317.5 147t-73.5 375q35 225 186.5 370t359.5 149q220 -5 324 -168.5t45 -412.5h-763q-8 -144 61 -224t203 -80h17q204 0 321 201l134 -64q-77 -135 -204 -214t-276 -79h-17zM336 602h595q-2 128 -67 199t-186 75q-123 -5 -212 -76t-130 -198zM656 1353
q7 40 40 68.5t73 28.5t64 -28.5t17 -68.5q-6 -40 -38.5 -69t-73.5 -29q-40 0 -64 29t-18 69z" />
    <glyph glyph-name="Eogonek" unicode="&#x118;" horiz-adv-x="1164" 
d="M812 -407q-32 0 -60.5 9.5t-52.5 29.5t-34 58.5t-2 89.5q19 120 113 220h-611l221 1394h911l-25 -157h-751l-72 -456h688l-25 -157h-688l-74 -467h754l-22 -138q-231 -76 -256 -233q-4 -26 -1.5 -30t19.5 -4q36 0 68.5 27t136.5 139l-37 -236q-89 -89 -200 -89z" />
    <glyph glyph-name="eogonek" unicode="&#x119;" 
d="M473 -407q-32 0 -60 9.5t-52.5 29.5t-34.5 58.5t-2 89.5q19 119 105 225q-154 41 -229 178t-44 329q35 225 186.5 370t359.5 149q220 -5 324 -168.5t45 -412.5h-763q-8 -144 61 -224t203 -80h17q204 0 321 201l134 -64q-63 -110 -161.5 -184t-215.5 -98q-72 -30 -120 -88
t-59 -127q-4 -26 -1.5 -30t19.5 -4q36 0 70 28t135 138l-37 -236q-89 -89 -201 -89zM336 602h595q-2 128 -67 199t-186 75q-123 -5 -212 -76t-130 -198zM551 1267l25 162h378l-25 -162h-378z" />
    <glyph glyph-name="Ecaron" unicode="&#x11a;" horiz-adv-x="1161" 
d="M165 0l221 1394h911l-25 -157h-751l-72 -456h688l-25 -157h-688l-74 -467h751l-25 -157h-911zM615 1773h193l49 -96l78 96h192l-250 -293h-106z" />
    <glyph glyph-name="ecaron" unicode="&#x11b;" 
d="M547 -10q-208 0 -317.5 147t-73.5 375q35 225 186.5 370t359.5 149q220 -5 324 -168.5t45 -412.5h-763q-8 -144 61 -224t203 -80h17q204 0 321 201l134 -64q-77 -135 -204 -214t-276 -79h-17zM336 602h595q-2 128 -67 199t-186 75q-123 -5 -212 -76t-130 -198zM533 1518
h187l44 -109l78 109h185l-242 -323h-113z" />
    <glyph glyph-name="Gcircumflex" unicode="&#x11c;" horiz-adv-x="1323" 
d="M690 -12q-276 0 -415.5 193.5t-88.5 516.5q51 322 252 515t477 193q209 0 341 -113t158 -309l-156 -58q-40 320 -369 320q-217 0 -360 -143.5t-184 -404.5q-42 -263 55.5 -406.5t314.5 -143.5q289 0 432 246l32 199h-454l25 157h612l-119 -750h-158l21 130
q-183 -142 -416 -142zM665 1480l251 293h106l156 -293h-193l-48 96l-80 -96h-192z" />
    <glyph glyph-name="gcircumflex" unicode="&#x11d;" horiz-adv-x="1202" 
d="M502 -377q-190 0 -293.5 114t-84.5 307h156q-5 -133 55.5 -198.5t191.5 -65.5h28q140 0 226.5 80.5t122.5 250.5q-49 -49 -142.5 -86t-191.5 -37h-10q-133 0 -234 68t-147 188.5t-23 265.5q35 223 193 371t361 148h25q187 0 295 -128l19 123h159l-138 -873
q-39 -249 -185 -388.5t-355 -139.5h-28zM315 510q-26 -166 44 -265t214 -99h26q132 0 229 86t133 235l13 85q11 149 -58 234.5t-202 85.5h-26q-144 0 -245.5 -98t-127.5 -264zM523 1195l241 323h112l139 -323h-186l-44 108l-78 -108h-184z" />
    <glyph glyph-name="Gbreve" unicode="&#x11e;" horiz-adv-x="1323" 
d="M690 -12q-276 0 -415.5 193.5t-88.5 516.5q51 322 252 515t477 193q209 0 341 -113t158 -309l-156 -58q-40 320 -369 320q-217 0 -360 -143.5t-184 -404.5q-42 -263 55.5 -406.5t314.5 -143.5q289 0 432 246l32 199h-454l25 157h612l-119 -750h-158l21 130
q-183 -142 -416 -142zM749 1822h154q-25 -92 -12.5 -125t66.5 -33t77.5 34t26.5 124h154q0 -139 -82.5 -228.5t-201.5 -89.5q-120 0 -173 89.5t-9 228.5z" />
    <glyph glyph-name="gbreve" unicode="&#x11f;" horiz-adv-x="1202" 
d="M502 -377q-190 0 -293.5 114t-84.5 307h156q-5 -133 55.5 -198.5t191.5 -65.5h28q140 0 226.5 80.5t122.5 250.5q-49 -49 -142.5 -86t-191.5 -37h-10q-133 0 -234 68t-147 188.5t-23 265.5q35 223 193 371t361 148h25q187 0 295 -128l19 123h159l-138 -873
q-39 -249 -185 -388.5t-355 -139.5h-28zM315 510q-26 -166 44 -265t214 -99h26q132 0 229 86t133 235l13 85q11 149 -58 234.5t-202 85.5h-26q-144 0 -245.5 -98t-127.5 -264zM572 1507h154q-26 -92 -13.5 -125.5t66.5 -33.5q55 0 78.5 34.5t24.5 124.5h155
q0 -139 -82.5 -229t-201.5 -90t-172 90t-9 229z" />
    <glyph glyph-name="Gdotaccent" unicode="&#x120;" horiz-adv-x="1323" 
d="M690 -12q-276 0 -415.5 193.5t-88.5 516.5q51 322 252 515t477 193q209 0 341 -113t158 -309l-156 -58q-40 320 -369 320q-217 0 -360 -143.5t-184 -404.5q-42 -263 55.5 -406.5t314.5 -143.5q289 0 432 246l32 199h-454l25 157h612l-119 -750h-158l21 130
q-183 -142 -416 -142zM854 1626q6 40 39 69t73 29t64.5 -29t18.5 -69q-7 -40 -40.5 -68.5t-73.5 -28.5t-64 28.5t-17 68.5z" />
    <glyph glyph-name="gdotaccent" unicode="&#x121;" horiz-adv-x="1202" 
d="M502 -377q-190 0 -293.5 114t-84.5 307h156q-5 -133 55.5 -198.5t191.5 -65.5h28q140 0 226.5 80.5t122.5 250.5q-49 -49 -142.5 -86t-191.5 -37h-10q-133 0 -234 68t-147 188.5t-23 265.5q35 223 193 371t361 148h25q187 0 295 -128l19 123h159l-138 -873
q-39 -249 -185 -388.5t-355 -139.5h-28zM315 510q-26 -166 44 -265t214 -99h26q132 0 229 86t133 235l13 85q11 149 -58 234.5t-202 85.5h-26q-144 0 -245.5 -98t-127.5 -264zM703 1353q7 40 40 68.5t73 28.5t64.5 -28t17.5 -69q-6 -40 -39.5 -69t-73.5 -29t-64 29t-18 69z
" />
    <glyph glyph-name="uni0122" unicode="&#x122;" horiz-adv-x="1533" 
d="M777 -12q-275 0 -415.5 193.5t-89.5 516.5q51 321 253 514.5t477 193.5q209 0 341.5 -113.5t158.5 -309.5l-158 -57q-18 154 -108.5 237t-259.5 83q-217 0 -360 -143.5t-184 -404.5q-42 -263 55.5 -406.5t314.5 -143.5q291 0 432 246l32 199h-454l25 157h612l-119 -750
h-158l20 129q-182 -141 -415 -141zM527 -417l178 345h149l-13 -82l-152 -263h-162z" />
    <glyph glyph-name="uni0123" unicode="&#x123;" horiz-adv-x="1228" 
d="M557 -377q-191 0 -295 114t-85 307h158q-13 -264 247 -264h27q140 0 226.5 80.5t122.5 251.5q-50 -50 -143 -87t-191 -37h-9q-134 0 -235 68t-147 188.5t-23 265.5q35 223 193 371t360 148h26q185 0 295 -127l19 122h158l-138 -873q-39 -249 -184.5 -388.5t-354.5 -139.5
h-27zM368 510q-26 -166 44.5 -265t214.5 -99h26q132 0 229 86t133 235l13 85q11 149 -58 234.5t-202 85.5h-26q-144 0 -246 -98.5t-128 -263.5zM746 1197l13 82l150 263h162l-175 -345h-150z" />
    <glyph glyph-name="Hcircumflex" unicode="&#x124;" horiz-adv-x="1241" 
d="M165 0l221 1394h160l-97 -609h590l97 609h161l-221 -1394h-161l99 628h-590l-99 -628h-160zM607 1480l250 293h106l157 -293h-194l-48 96l-80 -96h-191z" />
    <glyph glyph-name="hcircumflex" unicode="&#x125;" horiz-adv-x="1035" 
d="M60 0l221 1394h159l-71 -445q115 82 289 82q202 0 285.5 -109.5t50.5 -317.5l-96 -604h-159l94 594q25 159 -17.5 220.5t-181.5 61.5q-143 0 -223.5 -86.5t-112.5 -288.5l-79 -501h-159zM119 1480l251 293h106l156 -293h-192l-48 96l-80 -96h-193z" />
    <glyph glyph-name="Hbar" unicode="&#x126;" horiz-adv-x="1144" 
d="M122 0l150 949h-75l26 161h75l45 284h159l-45 -284h591l45 284h161l-45 -284h66l-26 -161h-66l-150 -949h-161l99 628h-591l-99 -628h-159zM405 785h591l26 164h-591z" />
    <glyph glyph-name="hbar" unicode="&#x127;" horiz-adv-x="1089" 
d="M114 0l171 1080h-97l26 161h97l24 153h159l-24 -153h199l-26 -161h-199l-21 -131q117 82 290 82q202 0 285 -109.5t50 -317.5l-96 -604h-158l94 594q25 159 -17.5 220.5t-181.5 61.5q-144 0 -224.5 -86.5t-112.5 -288.5l-79 -501h-159z" />
    <glyph glyph-name="Itilde" unicode="&#x128;" horiz-adv-x="237" 
d="M40 0l221 1394h160l-221 -1394h-160zM153 1539q-5 76 34 129.5t110 53.5q44 0 119 -29q24 -8 46 -14q1 5 3.5 16.5t3.5 18.5h134q8 -83 -33 -133t-108 -50q-45 0 -120 27q-32 12 -46 16q-1 -11 -7 -35h-136z" />
    <glyph glyph-name="itilde" unicode="&#x129;" horiz-adv-x="222" 
d="M17 0l162 1022h159l-162 -1022h-159zM110 1287q-5 76 34 129.5t110 53.5q44 0 119 -29q24 -8 46 -14q2 11 8 35h134q8 -83 -33 -133t-108 -50q-46 0 -121 27q-32 12 -46 16q-1 -11 -7 -35h-136z" />
    <glyph glyph-name="Imacron" unicode="&#x12a;" horiz-adv-x="264" 
d="M53 0l221 1394h159l-221 -1394h-159zM188 1545l25 161h378l-25 -161h-378z" />
    <glyph glyph-name="imacron" unicode="&#x12b;" horiz-adv-x="248" 
d="M44 0l162 1022h160l-162 -1022h-160zM136 1267l25 162h378l-25 -162h-378z" />
    <glyph glyph-name="Ibreve" unicode="&#x12c;" horiz-adv-x="293" 
d="M68 0l221 1394h159l-221 -1394h-159zM203 1822h156q-26 -93 -14 -125.5t66 -32.5q55 0 78.5 34t24.5 124h156q-1 -139 -83.5 -228.5t-201.5 -89.5q-120 0 -172.5 89.5t-9.5 228.5z" />
    <glyph glyph-name="ibreve" unicode="&#x12d;" horiz-adv-x="306" 
d="M70 0l162 1022h160l-162 -1022h-160zM159 1507h154q-25 -92 -12.5 -125.5t66.5 -33.5t77.5 34.5t25.5 124.5h156q-1 -140 -83.5 -229.5t-201.5 -89.5q-120 0 -172.5 89.5t-9.5 229.5z" />
    <glyph glyph-name="Iogonek" unicode="&#x12e;" horiz-adv-x="472" 
d="M105 -407q-32 0 -60.5 9.5t-52.5 29.5t-34 58.5t-2 89.5q17 106 92.5 196.5t188.5 143.5l-6 4l201 1270h160l-218 -1372q-230 -81 -254 -236q-4 -26 -2 -30t19 -4q36 0 69.5 27.5t136.5 136.5l-38 -235q-90 -88 -200 -88z" />
    <glyph glyph-name="iogonek" unicode="&#x12f;" horiz-adv-x="494" 
d="M97 -403q-32 0 -59.5 9.5t-52 29.5t-34.5 58t-2 90q17 108 99.5 204.5t196.5 144.5l141 889h158l-162 -1022h-78q-80 -26 -130.5 -82t-61.5 -129q-3 -19 -3 -24.5t3.5 -7.5t16.5 -2q35 0 68.5 27t137.5 137l-37 -234q-88 -88 -201 -88zM399 1220q7 40 40 68.5t74 28.5
q40 0 64 -28.5t17 -68.5q-6 -40 -39 -68.5t-73 -28.5q-41 0 -65 28.5t-18 68.5z" />
    <glyph glyph-name="Idotaccent" unicode="&#x130;" horiz-adv-x="480" 
d="M160 0l221 1394h160l-221 -1394h-160zM401 1626q6 40 39 69t73 29q41 0 64.5 -29t17.5 -69q-7 -40 -40 -68.5t-73 -28.5t-64 28.5t-17 68.5z" />
    <glyph glyph-name="dotlessi" unicode="&#x131;" horiz-adv-x="569" 
d="M205 0l162 1022h159l-162 -1022h-159z" />
    <glyph glyph-name="IJ" unicode="&#x132;" horiz-adv-x="1519" 
d="M496 510l11 74h162q-57 -232 39 -362q69 -94 190 -98q126 -4 234 89q132 114 164 319l137 862h158l-137 -864q-42 -262 -221 -415q-144 -122 -322 -132q-171 -10 -288 88q-140 116 -136 337q1 49 9 102zM149 0l221 1394h157l-221 -1394h-157z" />
    <glyph glyph-name="ij" unicode="&#x133;" horiz-adv-x="777" 
d="M282 -381q-129 0 -196 73l81 131q37 -23 51 -30.5t35.5 -13t51.5 -5.5h12q64 0 91.5 27.5t40.5 106.5l177 1114h158l-177 -1114q-22 -140 -104.5 -214.5t-207.5 -74.5h-13zM179 0l162 1022h159l-162 -1022h-159zM354 1216q6 40 39.5 68.5t73.5 28.5t64 -28.5t18 -68.5
q-7 -40 -40 -68.5t-73 -28.5t-64.5 28.5t-17.5 68.5zM638 1217q6 40 39 68.5t73 28.5q41 0 66 -28t19 -69q-7 -41 -41 -69t-75 -28q-40 0 -64 28.5t-17 68.5z" />
    <glyph glyph-name="Jcircumflex" unicode="&#x134;" horiz-adv-x="1065" 
d="M146 510l11 74h161q-56 -233 41 -363q70 -93 191 -97q126 -4 233 90q131 114 163 318l137 862h158l-137 -864q-42 -262 -221 -415q-144 -122 -322 -132q-171 -10 -288 88q-140 116 -136 337q1 49 9 102zM914 1480l250 293h106l156 -293h-194l-47 96l-80 -96h-191z" />
    <glyph glyph-name="jcircumflex" unicode="&#x135;" horiz-adv-x="373" 
d="M-25 -381q-131 0 -197 73l83 131q38 -24 51 -30.5t34.5 -12.5t50.5 -6h13q63 0 91 28t40 106l177 1114h159l-177 -1114q-22 -140 -105 -214.5t-207 -74.5h-13zM175 1195l243 323h111l140 -323h-187l-44 108l-79 -108h-184z" />
    <glyph glyph-name="uni0136" unicode="&#x136;" horiz-adv-x="1355" 
d="M219 0l221 1394h158l-108 -680l762 680h221l-678 -606l431 -788h-195l-367 673l-210 -186l-77 -487h-158zM393 -409l177 345h150l-13 -82l-152 -263h-162z" />
    <glyph glyph-name="uni0137" unicode="&#x137;" horiz-adv-x="1134" 
d="M201 0l221 1394h160l-131 -827l511 455h221l-449 -397l297 -625h-189l-239 510l-188 -167l-54 -343h-160zM275 -417l176 345h150l-13 -82l-151 -263h-162z" />
    <glyph glyph-name="kgreenlandic" unicode="&#x138;" horiz-adv-x="1031" 
d="M157 0l162 1025h159l-72 -458l512 455h220l-448 -397l296 -625h-188l-239 510l-189 -167l-54 -343h-159z" />
    <glyph glyph-name="Lacute" unicode="&#x139;" horiz-adv-x="1143" 
d="M198 0l221 1394h158l-196 -1237h752l-25 -157h-910zM385 1480l213 293h200l-242 -293h-171z" />
    <glyph glyph-name="lacute" unicode="&#x13a;" horiz-adv-x="556" 
d="M445 -3q-126 -24 -185 35.5t-38 197.5l185 1164h159l-184 -1160q-10 -68 -1 -78.5t65 -7.5q9 1 14 1zM392 1569l226 323h199l-254 -323h-171z" />
    <glyph glyph-name="uni013B" unicode="&#x13b;" horiz-adv-x="1241" 
d="M219 0l221 1394h158l-196 -1237h751l-25 -157h-909zM381 -412l174 345h151l-13 -82l-151 -263h-161z" />
    <glyph glyph-name="uni013C" unicode="&#x13c;" horiz-adv-x="495" 
d="M440 -3q-125 -24 -185 36t-39 197l185 1164h160l-184 -1160q-10 -68 -1 -78.5t65 -7.5q9 1 14 1zM69 -416l177 345h150l-13 -82l-152 -263h-162z" />
    <glyph glyph-name="Lcaron" unicode="&#x13d;" horiz-adv-x="1111" 
d="M165 0l221 1394h160l-196 -1237h751l-25 -157h-911zM655 1060l170 334h140l-178 -334h-132z" />
    <glyph glyph-name="lcaron" unicode="&#x13e;" horiz-adv-x="471" 
d="M416 -3q-125 -24 -184.5 36t-38.5 197l185 1164h159l-184 -1160q-10 -68 -1 -78.5t65 -7.5q9 1 14 1zM540 1039l3 20l167 325h149l-13 -83l-150 -262h-156z" />
    <glyph glyph-name="Ldot" unicode="&#x13f;" horiz-adv-x="1111" 
d="M165 0l221 1394h160l-196 -1237h751l-25 -157h-911zM679 791q7 40 40.5 68.5t73.5 28.5t64 -28.5t17 -68.5q-6 -40 -39 -68.5t-73 -28.5t-64.5 28.5t-18.5 68.5z" />
    <glyph glyph-name="ldot" unicode="&#x140;" horiz-adv-x="545" 
d="M416 -3q-125 -24 -184.5 36t-38.5 197l185 1164h159l-184 -1160q-10 -68 -1 -78.5t65 -7.5q9 1 14 1zM479 791q7 40 40.5 68.5t73.5 28.5q41 0 65 -28.5t17 -68.5q-6 -40 -39 -68.5t-74 -28.5q-40 0 -64.5 28.5t-18.5 68.5z" />
    <glyph glyph-name="Lslash" unicode="&#x141;" horiz-adv-x="1168" 
d="M222 2l83 523l-228 -124l29 185l229 125l108 685h159l-94 -591l370 201l-29 -186l-370 -201l-73 -460h752l-25 -157h-911z" />
    <glyph glyph-name="lslash" unicode="&#x142;" horiz-adv-x="385" 
d="M370 -3q-125 -24 -184.5 36t-38.5 197l42 262l-116 -76l31 197l116 76l112 705h160l-94 -590l120 77l-32 -199l-119 -76l-59 -372q-4 -25 -5.5 -38.5t-0.5 -25t5 -15.5t13 -6.5t21 -2t31 1.5q9 1 14 1z" />
    <glyph glyph-name="Nacute" unicode="&#x143;" horiz-adv-x="1286" 
d="M165 0l221 1394h147l479 -1070l170 1070h160l-221 -1394h-149l-478 1067l-169 -1067h-160zM750 1480l213 293h200l-240 -293h-173z" />
    <glyph glyph-name="nacute" unicode="&#x144;" horiz-adv-x="1131" 
d="M157 0l162 1022h159l-12 -73q117 82 289 82q202 0 285 -109.5t50 -317.5l-96 -604h-157l94 594q25 159 -17.5 220.5t-182.5 61.5q-143 0 -223.5 -86.5t-112.5 -288.5l-79 -501h-159zM628 1195l226 323h199l-254 -323h-171z" />
    <glyph glyph-name="uni0145" unicode="&#x145;" horiz-adv-x="1392" 
d="M219 0l221 1394h147l478 -1070l170 1070h159l-221 -1394h-149l-478 1067l-169 -1067h-158zM443 -415l177 345h149l-13 -82l-151 -263h-162z" />
    <glyph glyph-name="uni0146" unicode="&#x146;" horiz-adv-x="1230" 
d="M201 0l162 1022h160l-12 -73q115 82 289 82q202 0 285 -109.5t50 -317.5l-96 -604h-159l94 594q25 159 -17.5 220.5t-180.5 61.5q-144 0 -224 -86t-112 -289l-79 -501h-160zM355 -416l176 345h150l-13 -82l-152 -263h-161z" />
    <glyph glyph-name="Ncaron" unicode="&#x147;" horiz-adv-x="1286" 
d="M165 0l221 1394h147l479 -1070l170 1070h160l-221 -1394h-149l-478 1067l-169 -1067h-160zM668 1773h194l48 -96l79 96h192l-251 -293h-106z" />
    <glyph glyph-name="ncaron" unicode="&#x148;" horiz-adv-x="1131" 
d="M157 0l162 1022h159l-12 -73q117 82 289 82q202 0 285 -109.5t50 -317.5l-96 -604h-157l94 594q25 159 -17.5 220.5t-182.5 61.5q-143 0 -223.5 -86.5t-112.5 -288.5l-79 -501h-159zM558 1518h187l43 -108l78 108h184l-241 -323h-111z" />
    <glyph glyph-name="napostrophe" unicode="&#x149;" horiz-adv-x="1237" 
d="M263 0l146 920l-11 -24h-138l-4 73l233 495h162l-197 -442h130l-12 -73q115 82 289 82q202 0 285 -109.5t50 -317.5l-96 -604h-158l94 594q25 159 -17 220.5t-182 61.5q-144 0 -224 -86t-112 -289l-79 -501h-159z" />
    <glyph glyph-name="Eng" unicode="&#x14a;" horiz-adv-x="1286" 
d="M706 -245q65 -1 106.5 -0.5t68 17.5t40 48t22.5 90l20 129h-9l-460 1028l-169 -1067h-160l221 1394h147l479 -1070l170 1070h160l-231 -1455q-7 -47 -14 -79q-35 -149 -139 -211t-277 -56z" />
    <glyph glyph-name="eng" unicode="&#x14b;" horiz-adv-x="1131" 
d="M653 -381q-130 0 -197 73l81 131q4 -3 17 -10.5t16 -9t13 -7t13 -6.5t11 -5t12 -4.5t11.5 -2.5t13.5 -2.5t14 -1t17 -0.5h12q63 0 90.5 27t42.5 107l111 686q25 159 -17.5 220.5t-182.5 61.5q-143 0 -223.5 -86.5t-112.5 -288.5l-79 -501h-159l162 1022h159l-12 -73
q117 82 289 82q202 0 285 -109.5t50 -317.5l-113 -696q-24 -140 -106 -214.5t-206 -74.5h-12z" />
    <glyph glyph-name="Omacron" unicode="&#x14c;" horiz-adv-x="1405" 
d="M689 -16q-136 0 -242.5 49.5t-172.5 141.5t-91.5 222.5t1.5 292.5q34 214 137.5 375.5t257 248t335.5 86.5h19q185 0 311.5 -89t177 -250t17.5 -371q-50 -317 -250.5 -511.5t-480.5 -194.5h-19zM343 690q-41 -261 56.5 -404.5t314.5 -143.5h19q219 0 362.5 143.5
t184.5 404.5q42 263 -56 406.5t-317 143.5h-19q-217 0 -360 -143.5t-185 -406.5zM763 1545l25 161h378l-25 -161h-378z" />
    <glyph glyph-name="omacron" unicode="&#x14d;" horiz-adv-x="1115" 
d="M547 -10q-208 0 -317.5 147t-73.5 375q36 229 190.5 374t365.5 145h17q211 0 319.5 -145t72.5 -374t-192 -375.5t-365 -146.5h-17zM315 512q-27 -172 41 -269t216 -97h17q148 0 247 97t126 269t-41 268t-216 96h-17q-148 0 -247 -96.5t-126 -267.5zM569 1267l25 162h377
l-25 -162h-377z" />
    <glyph glyph-name="Obreve" unicode="&#x14e;" horiz-adv-x="1405" 
d="M690 -12q-136 0 -242.5 50t-172.5 142t-91.5 223t1.5 293q34 214 137.5 375.5t257 248t335.5 86.5h19q185 0 311.5 -89t177 -250t17.5 -371q-50 -318 -250.5 -513t-480.5 -195h-19zM344 696q-41 -262 56.5 -405t314.5 -143h19q219 0 362.5 143.5t184.5 404.5
q42 263 -56 406.5t-317 143.5h-19q-217 0 -360 -143.5t-185 -406.5zM755 1822h155q-25 -93 -13 -125.5t67 -32.5q54 0 77.5 34t26.5 124h153q0 -139 -82.5 -228.5t-200.5 -89.5q-120 0 -173.5 89.5t-9.5 228.5z" />
    <glyph glyph-name="obreve" unicode="&#x14f;" horiz-adv-x="1115" 
d="M547 -10q-208 0 -317.5 147t-73.5 375q36 229 190.5 374t365.5 145h17q211 0 319.5 -145t72.5 -374t-192 -375.5t-365 -146.5h-17zM315 512q-27 -172 41 -269t216 -97h17q148 0 247 97t126 269t-41 268t-216 96h-17q-148 0 -247 -96.5t-126 -267.5zM563 1507h154
q-25 -92 -12 -125.5t66 -33.5q54 0 77.5 34t26.5 125h154q0 -139 -82.5 -229t-201.5 -90q-120 0 -173 90t-9 229z" />
    <glyph glyph-name="Ohungarumlaut" unicode="&#x150;" horiz-adv-x="1405" 
d="M689 -16q-136 0 -242.5 49.5t-172.5 141.5t-91.5 222.5t1.5 292.5q34 214 137.5 375.5t257 248t335.5 86.5h19q185 0 311.5 -89t177 -250t17.5 -371q-50 -317 -250.5 -511.5t-480.5 -194.5h-19zM343 690q-41 -261 56.5 -404.5t314.5 -143.5h19q219 0 362.5 143.5
t184.5 404.5q42 263 -56 406.5t-317 143.5h-19q-217 0 -360 -143.5t-185 -406.5zM680 1480l213 293h202l-241 -293h-174zM940 1480l213 293h200l-241 -293h-172z" />
    <glyph glyph-name="ohungarumlaut" unicode="&#x151;" horiz-adv-x="1115" 
d="M547 -10q-208 0 -317.5 147t-73.5 375q36 229 190.5 374t365.5 145h17q211 0 319.5 -145t72.5 -374t-192 -375.5t-365 -146.5h-17zM315 512q-27 -172 41 -269t216 -97h17q148 0 247 97t126 269t-41 268t-216 96h-17q-148 0 -247 -96.5t-126 -267.5zM489 1196l213 294h200
l-242 -294h-171zM747 1196l213 294h201l-242 -294h-172z" />
    <glyph glyph-name="OE" unicode="&#x152;" horiz-adv-x="2167" 
d="M689 -16q-136 0 -242.5 49.5t-172.5 141.5t-91.5 222.5t1.5 292.5q34 214 137.5 375.5t257 248t335.5 86.5h19q142 0 251.5 -54.5t175.5 -154.5l32 203h911l-25 -157h-752l-72 -456h688l-25 -157h-688l-74 -467h752l-25 -157h-911l30 190q-97 -99 -224 -152.5t-269 -53.5
h-19zM343 690q-41 -261 56.5 -404.5t314.5 -143.5h19q219 0 362.5 143.5t184.5 404.5q42 263 -56 406.5t-317 143.5h-19q-217 0 -360 -143.5t-185 -406.5z" />
    <glyph glyph-name="oe" unicode="&#x153;" horiz-adv-x="1885" 
d="M547 -10q-208 0 -317.5 147t-73.5 375q36 229 190.5 374t365.5 145h17q128 0 222 -57t140 -160q77 100 186 157t233 60q220 -5 324 -168.5t44 -412.5h-763q-7 -145 62 -224.5t203 -79.5h17q206 0 320 200l136 -63q-77 -135 -204 -214t-277 -79h-17q-127 0 -220.5 58
t-139.5 162q-78 -104 -190 -162t-241 -58h-17zM315 512q-27 -172 41 -269t216 -97h17q148 0 247 97t126 269t-41 268t-216 96h-17q-148 0 -247 -96.5t-126 -267.5zM1144 602h595q-1 128 -66 199t-187 75q-123 -5 -212 -76t-130 -198z" />
    <glyph glyph-name="Racute" unicode="&#x154;" horiz-adv-x="1201" 
d="M165 0l221 1394h479q221 0 324 -102t72 -297l-1 -2q-25 -159 -122 -257t-254 -128l252 -608h-184l-246 595h-287l-94 -595h-160zM444 752h319q164 0 241.5 56t98.5 187q20 130 -40 186t-223 56h-319zM721 1480l212 293h202l-241 -293h-173z" />
    <glyph glyph-name="racute" unicode="&#x155;" horiz-adv-x="855" 
d="M157 0l162 1022h159l-12 -73q117 82 289 82q119 0 193 -36l-58 -150q-88 31 -159 31q-143 0 -223.5 -86.5t-112.5 -288.5l-79 -501h-159zM486 1195l225 323h200l-255 -323h-170z" />
    <glyph glyph-name="uni0156" unicode="&#x156;" horiz-adv-x="1279" 
d="M219 0l221 1394h479q220 0 323.5 -102.5t72.5 -296.5l-1 -2q-25 -159 -122.5 -257.5t-255.5 -127.5l252 -608h-183l-247 595h-287l-94 -595h-158zM395 -418l177 345h150l-13 -82l-152 -263h-162zM496 752h321q163 0 240.5 56t98.5 187q20 130 -39.5 186t-222.5 56h-321z
" />
    <glyph glyph-name="uni0157" unicode="&#x157;" horiz-adv-x="941" 
d="M218 0l162 1022h158l-12 -73q117 82 290 82q120 0 192 -36l-56 -150q-93 31 -160 31q-143 0 -224 -86.5t-113 -288.5l-79 -501h-158zM46 -414l176 345h150l-13 -82l-151 -263h-162z" />
    <glyph glyph-name="Rcaron" unicode="&#x158;" horiz-adv-x="1201" 
d="M165 0l221 1394h479q221 0 324 -102t72 -297l-1 -2q-25 -159 -122 -257t-254 -128l252 -608h-184l-246 595h-287l-94 -595h-160zM444 752h319q164 0 241.5 56t98.5 187q20 130 -40 186t-223 56h-319zM639 1773h194l48 -96l79 96h192l-251 -293h-106z" />
    <glyph glyph-name="rcaron" unicode="&#x159;" horiz-adv-x="734" 
d="M79 0l162 1022h159l-12 -73q115 82 290 82q114 0 193 -35l-59 -151q-88 31 -158 31q-145 0 -225 -86t-112 -289l-79 -501h-159zM337 1518h187l44 -108l77 108h186l-242 -323h-112z" />
    <glyph glyph-name="Sacute" unicode="&#x15a;" horiz-adv-x="1156" 
d="M594 -25q-101 0 -187 29t-149.5 85.5t-90.5 149.5t-7 212h162q-28 -155 55 -236t243 -81q139 0 230.5 62t108.5 166q18 108 -38.5 158.5t-239.5 104.5q-108 32 -178.5 65t-120.5 80t-66.5 110.5t-2.5 149.5q26 162 176.5 269t332.5 107q110 0 191 -39.5t124.5 -106
t59 -149t2.5 -173.5h-160q13 151 -51 229.5t-193 78.5q-118 0 -208.5 -55t-106.5 -157q-9 -54 -0.5 -89t44.5 -64t87.5 -49t147.5 -49q212 -64 302 -157t64 -261q-26 -166 -179 -278t-352 -112zM700 1480l213 293h200l-242 -293h-171z" />
    <glyph glyph-name="sacute" unicode="&#x15b;" horiz-adv-x="992" 
d="M507 -14q-68 0 -126.5 14.5t-107.5 45.5t-80 78.5t-44 113.5t2 151h159q-13 -139 42.5 -192t183.5 -53q215 0 237 131q10 66 -32.5 95.5t-200.5 63.5q-66 14 -116.5 34t-96 53t-65.5 85.5t-9 120.5q20 128 136.5 211.5t270.5 83.5q97 0 167.5 -31.5t108.5 -86t52 -121.5
t4 -143h-158q-3 127 -46.5 175.5t-154.5 48.5q-90 0 -147 -34t-68 -101q-9 -59 33.5 -88t155.5 -53q184 -39 267.5 -109t62.5 -202t-142.5 -211.5t-287.5 -79.5zM554 1195l227 323h198l-254 -323h-171z" />
    <glyph glyph-name="Scircumflex" unicode="&#x15c;" horiz-adv-x="1156" 
d="M594 -25q-101 0 -187 29t-149.5 85.5t-90.5 149.5t-7 212h162q-28 -155 55 -236t243 -81q139 0 230.5 62t108.5 166q18 108 -38.5 158.5t-239.5 104.5q-108 32 -178.5 65t-120.5 80t-66.5 110.5t-2.5 149.5q26 162 176.5 269t332.5 107q110 0 191 -39.5t124.5 -106
t59 -149t2.5 -173.5h-160q13 151 -51 229.5t-193 78.5q-118 0 -208.5 -55t-106.5 -157q-9 -54 -0.5 -89t44.5 -64t87.5 -49t147.5 -49q212 -64 302 -157t64 -261q-26 -166 -179 -278t-352 -112zM573 1480l252 293h106l155 -293h-193l-48 96l-80 -96h-192z" />
    <glyph glyph-name="scircumflex" unicode="&#x15d;" horiz-adv-x="992" 
d="M507 -14q-68 0 -126.5 14.5t-107.5 45.5t-80 78.5t-44 113.5t2 151h159q-13 -139 42.5 -192t183.5 -53q215 0 237 131q10 66 -32.5 95.5t-200.5 63.5q-66 14 -116.5 34t-96 53t-65.5 85.5t-9 120.5q20 128 136.5 211.5t270.5 83.5q97 0 167.5 -31.5t108.5 -86t52 -121.5
t4 -143h-158q-3 127 -46.5 175.5t-154.5 48.5q-90 0 -147 -34t-68 -101q-9 -59 33.5 -88t155.5 -53q184 -39 267.5 -109t62.5 -202t-142.5 -211.5t-287.5 -79.5zM434 1195l241 323h112l139 -323h-186l-44 108l-78 -108h-184z" />
    <glyph glyph-name="Scedilla" unicode="&#x15e;" horiz-adv-x="1156" 
d="M449 -422q-104 0 -150 47l21 136q91 -48 163.5 -35.5t81.5 63.5v-1q4 21 -1.5 31.5t-29.5 15.5t-67.5 2t-121.5 -12l114 164q-160 34 -245.5 152.5t-53.5 309.5h162q-28 -155 55 -236t243 -81q139 0 230.5 62t108.5 166q18 108 -38.5 158.5t-239.5 104.5
q-108 32 -178.5 65t-120.5 80t-66.5 110.5t-2.5 149.5q26 162 176.5 269t332.5 107q110 0 191 -39.5t124.5 -106t59 -149t2.5 -173.5h-160q13 151 -51 229.5t-193 78.5q-118 0 -208.5 -55t-106.5 -157q-9 -54 -0.5 -89t44.5 -64t87.5 -49t147.5 -49q212 -64 302 -157
t64 -261q-25 -158 -165 -268t-327 -122l-4 -4q121 -47 100 -183q-11 -71 -59 -120.5t-105 -69.5t-116 -20z" />
    <glyph glyph-name="scedilla" unicode="&#x15f;" horiz-adv-x="992" 
d="M377 -419q-104 0 -151 47l22 136q57 -32 113 -37t91 14t40 51q3 21 -2 31t-28 15t-65 2.5t-116 -11.5l105 171q-129 30 -196 128t-39 261h159q-13 -139 42.5 -192t183.5 -53q215 0 237 131q10 66 -32.5 95.5t-200.5 63.5q-66 14 -116.5 34t-96 53t-65.5 85.5t-9 120.5
q20 128 136.5 211.5t270.5 83.5q97 0 167.5 -31.5t108.5 -86t52 -121.5t4 -143h-158q-3 127 -46.5 175.5t-154.5 48.5q-90 0 -147 -34t-68 -101q-9 -59 33.5 -88t155.5 -53q184 -39 267.5 -109t62.5 -202q-19 -121 -124.5 -198t-254.5 -90l-8 -13q128 -46 106 -184
q-9 -54 -38 -96.5t-70 -66.5t-84.5 -36t-86.5 -12z" />
    <glyph glyph-name="Scaron" unicode="&#x160;" horiz-adv-x="1156" 
d="M594 -25q-101 0 -187 29t-149.5 85.5t-90.5 149.5t-7 212h162q-28 -155 55 -236t243 -81q139 0 230.5 62t108.5 166q18 108 -38.5 158.5t-239.5 104.5q-108 32 -178.5 65t-120.5 80t-66.5 110.5t-2.5 149.5q26 162 176.5 269t332.5 107q110 0 191 -39.5t124.5 -106
t59 -149t2.5 -173.5h-160q13 151 -51 229.5t-193 78.5q-118 0 -208.5 -55t-106.5 -157q-9 -54 -0.5 -89t44.5 -64t87.5 -49t147.5 -49q212 -64 302 -157t64 -261q-26 -166 -179 -278t-352 -112zM617 1773h194l49 -96l79 96h191l-249 -293h-106z" />
    <glyph glyph-name="scaron" unicode="&#x161;" horiz-adv-x="992" 
d="M507 -14q-68 0 -126.5 14.5t-107.5 45.5t-80 78.5t-44 113.5t2 151h159q-13 -139 42.5 -192t183.5 -53q215 0 237 131q10 66 -32.5 95.5t-200.5 63.5q-66 14 -116.5 34t-96 53t-65.5 85.5t-9 120.5q20 128 136.5 211.5t270.5 83.5q97 0 167.5 -31.5t108.5 -86t52 -121.5
t4 -143h-158q-3 127 -46.5 175.5t-154.5 48.5q-90 0 -147 -34t-68 -101q-9 -59 33.5 -88t155.5 -53q184 -39 267.5 -109t62.5 -202t-142.5 -211.5t-287.5 -79.5zM485 1518h186l44 -109l78 109h184l-241 -323h-112z" />
    <glyph glyph-name="uni0162" unicode="&#x162;" horiz-adv-x="1272" 
d="M495 -420q-103 0 -150 47l21 136q58 -32 114 -37t91 14t40 51q3 21 -2 31.5t-29.5 15t-68.5 1.5t-123 -13l179 251l184 1160h-480l25 157h1120l-25 -157h-480l-189 -1190l-49 -72q123 -47 102 -184q-11 -71 -59 -121t-105 -70t-116 -20z" />
    <glyph glyph-name="uni0163" unicode="&#x163;" horiz-adv-x="748" 
d="M324 -419q-104 0 -151 47l22 136q57 -32 113 -37t91 14t40 51q3 21 -2 31t-27.5 15t-64 2.5t-115.5 -11.5l130 222q-72 76 -48 227l93 590h-223l25 154h223l58 370h159l-58 -370h228l-25 -154h-228l-93 -590q-11 -72 3.5 -101t64.5 -32.5t140 8.5l-23 -149
q-71 -16 -110 -16h-22q-4 0 -10.5 0.5t-9.5 0.5l-7 -13q127 -46 106 -184q-9 -54 -38 -96.5t-70 -66.5t-84.5 -36t-86.5 -12z" />
    <glyph glyph-name="Tcaron" unicode="&#x164;" horiz-adv-x="1189" 
d="M514 0l196 1237h-479l25 157h1119l-25 -157h-479l-196 -1237h-161zM620 1773h193l49 -96l80 96h191l-251 -293h-106z" />
    <glyph glyph-name="tcaron" unicode="&#x165;" horiz-adv-x="696" 
d="M656 4q-182 -43 -276.5 29.5t-67.5 244.5l93 590h-223l25 154h223l58 370h159l-58 -370h228l-25 -154h-228l-93 -590q-11 -72 3.5 -101t64.5 -32.5t140 8.5zM679 1117l3 20l168 325h149l-14 -83l-150 -262h-156z" />
    <glyph glyph-name="Tbar" unicode="&#x166;" horiz-adv-x="1189" 
d="M514 0l93 589h-264l26 161h264l77 487h-479l25 157h1119l-25 -157h-479l-77 -487h264l-26 -161h-264l-93 -589h-161z" />
    <glyph glyph-name="tbar" unicode="&#x167;" horiz-adv-x="700" 
d="M656 4q-182 -43 -276.5 29.5t-67.5 244.5l38 241h-116l25 154h116l30 195h-223l25 154h223l58 370h159l-58 -370h228l-25 -154h-228l-30 -195h121l-25 -154h-121l-38 -241q-11 -72 3.5 -101t64.5 -32.5t140 8.5z" />
    <glyph glyph-name="Utilde" unicode="&#x168;" horiz-adv-x="1253" 
d="M230 510l140 884h157l-138 -871q-33 -210 69 -320q78 -86 202 -78q129 8 231 112q110 112 139 295l137 862h158l-137 -864q-42 -262 -221 -415q-144 -122 -322 -132q-171 -10 -288 88q-140 116 -136 337q1 49 9 102zM644 1539q-5 76 34 129.5t110 53.5q44 0 119 -29
q24 -8 46 -14q1 5 3.5 16.5t3.5 18.5h134q8 -83 -33 -133t-108 -50q-45 0 -120 27q-32 12 -46 16q-1 -11 -7 -35h-136z" />
    <glyph glyph-name="utilde" unicode="&#x169;" horiz-adv-x="1112" 
d="M537 -10q-202 0 -284.5 110t-49.5 318l96 604h159l-94 -594q-25 -159 17 -220.5t181 -61.5q145 0 224.5 86t111.5 289l79 501h160l-162 -1022h-160l11 72q-114 -82 -289 -82zM555 1287q-5 76 34 129.5t110 53.5q44 0 119 -29q24 -8 46 -14q2 11 8 35h134q8 -83 -33 -133
t-108 -50q-46 0 -121 27q-32 12 -46 16q-1 -11 -7 -35h-136z" />
    <glyph glyph-name="Umacron" unicode="&#x16a;" horiz-adv-x="1253" 
d="M230 510l140 884h157l-138 -871q-33 -210 69 -320q78 -86 202 -78q129 8 231 112q110 112 139 295l137 862h158l-137 -864q-42 -262 -221 -415q-144 -122 -322 -132q-171 -10 -288 88q-140 116 -136 337q1 49 9 102zM680 1545l25 161h378l-25 -161h-378z" />
    <glyph glyph-name="umacron" unicode="&#x16b;" horiz-adv-x="1112" 
d="M537 -10q-202 0 -284.5 110t-49.5 318l96 604h159l-94 -594q-25 -159 17 -220.5t181 -61.5q145 0 224.5 86t111.5 289l79 501h160l-162 -1022h-160l11 72q-114 -82 -289 -82zM567 1267l25 162h377l-25 -162h-377z" />
    <glyph glyph-name="Ubreve" unicode="&#x16c;" horiz-adv-x="1253" 
d="M230 510l140 884h157l-138 -871q-33 -210 69 -320q78 -86 202 -78q129 8 231 112q110 112 139 295l137 862h158l-137 -864q-42 -262 -221 -415q-144 -122 -322 -132q-171 -10 -288 88q-140 116 -136 337q1 49 9 102zM680 1822h153q-24 -92 -11.5 -125t66.5 -33
q55 0 78.5 34t24.5 124h156q-1 -139 -84 -228.5t-201 -89.5q-120 0 -172.5 89.5t-9.5 228.5z" />
    <glyph glyph-name="ubreve" unicode="&#x16d;" horiz-adv-x="1112" 
d="M537 -10q-202 0 -284.5 110t-49.5 318l96 604h159l-94 -594q-25 -159 17 -220.5t181 -61.5q145 0 224.5 86t111.5 289l79 501h160l-162 -1022h-160l11 72q-114 -82 -289 -82zM552 1507h156q-27 -92 -14.5 -125.5t67.5 -33.5q53 0 77 34.5t27 124.5h154
q-1 -140 -83 -229.5t-201 -89.5q-120 0 -173 89.5t-10 229.5z" />
    <glyph glyph-name="Uring" unicode="&#x16e;" horiz-adv-x="1253" 
d="M230 510l140 884h157l-138 -871q-33 -210 69 -320q78 -86 202 -78q129 8 231 112q110 112 139 295l137 862h158l-137 -864q-42 -262 -221 -415q-144 -122 -322 -132q-171 -10 -288 88q-140 116 -136 337q1 49 9 102zM705 1626q12 77 71.5 124.5t131.5 47.5t116.5 -47.5
t32.5 -124.5q-12 -76 -72 -124t-132 -48t-116 48t-32 124zM839 1626q-4 -19 6 -29.5t29 -10.5q41 0 49 40q6 40 -36 40t-48 -40z" />
    <glyph glyph-name="uring" unicode="&#x16f;" horiz-adv-x="1112" 
d="M537 -10q-202 0 -284.5 110t-49.5 318l96 604h159l-94 -594q-25 -159 17 -220.5t181 -61.5q145 0 224.5 86t111.5 289l79 501h160l-162 -1022h-160l11 72q-114 -82 -289 -82zM597 1355q12 77 71.5 124.5t131.5 47.5t116.5 -47.5t32.5 -124.5q-12 -76 -72 -124t-132 -48
t-116 48t-32 124zM731 1355q-7 -40 35 -40t49 40q6 40 -36 40t-48 -40z" />
    <glyph glyph-name="Uhungarumlaut" unicode="&#x170;" horiz-adv-x="1253" 
d="M230 510l140 884h157l-138 -871q-33 -210 69 -320q78 -86 202 -78q129 8 231 112q110 112 139 295l137 862h158l-137 -864q-42 -262 -221 -415q-144 -122 -322 -132q-171 -10 -288 88q-140 116 -136 337q1 49 9 102zM608 1480l213 293h200l-241 -293h-172zM867 1480
l213 293h199l-241 -293h-171z" />
    <glyph glyph-name="uhungarumlaut" unicode="&#x171;" horiz-adv-x="1112" 
d="M537 -10q-202 0 -284.5 110t-49.5 318l96 604h159l-94 -594q-25 -159 17 -220.5t181 -61.5q145 0 224.5 86t111.5 289l79 501h160l-162 -1022h-160l11 72q-114 -82 -289 -82zM495 1196l213 294h200l-242 -294h-171zM753 1196l213 294h201l-242 -294h-172z" />
    <glyph glyph-name="Uogonek" unicode="&#x172;" horiz-adv-x="1253" 
d="M539 -407q-32 0 -60 9.5t-52 29.5t-34 58.5t-2 89.5q20 119 110 216q-70 19 -126 60.5t-95.5 106.5t-52.5 151.5t3 195.5l140 884h157l-138 -871q-33 -210 69 -320q78 -86 202 -78q129 8 231 112q110 112 139 295l137 862h158l-137 -864q-32 -201 -145 -336t-263 -186
q-203 -78 -226 -222q-4 -26 -1.5 -30t19.5 -4q35 0 70 28.5t136 138.5l-37 -236q-90 -90 -202 -90z" />
    <glyph glyph-name="uogonek" unicode="&#x173;" horiz-adv-x="1112" 
d="M691 -401q-31 0 -59 9.5t-52 29.5t-34.5 58t-2.5 90q18 115 108 214q-50 -10 -114 -10q-202 0 -284.5 110t-49.5 318l96 604h159l-94 -594q-25 -159 17 -220.5t181 -61.5q145 0 224.5 86t111.5 289l79 501h160l-162 -1022h-80q-78 -27 -127.5 -82.5t-60.5 -126.5
q-4 -25 -1.5 -29.5t19.5 -4.5q35 0 68 27t138 138l-38 -236q-90 -87 -202 -87z" />
    <glyph glyph-name="Wcircumflex" unicode="&#x174;" horiz-adv-x="1749" 
d="M413 0l-167 1394h167l126 -1071l480 1008h132l161 -1008l467 1071h166l-609 -1394h-140l-161 1013l-484 -1013h-138zM851 1480l250 293h107l156 -293h-194l-48 97l-81 -97h-190z" />
    <glyph glyph-name="wcircumflex" unicode="&#x175;" horiz-adv-x="1469" 
d="M343 0l-122 1022h168l82 -707l363 707h129l137 -705l307 705h165l-444 -1022h-136l-140 733l-376 -733h-133zM677 1195l242 323h112l139 -323h-187l-43 108l-78 -108h-185z" />
    <glyph glyph-name="Ycircumflex" unicode="&#x176;" horiz-adv-x="1170" 
d="M506 0l63 422l-333 972h180l263 -780l515 780h182l-650 -972l-62 -422h-158zM563 1480l250 293h105l156 -293h-193l-48 96l-80 -96h-190z" />
    <glyph glyph-name="ycircumflex" unicode="&#x177;" horiz-adv-x="1049" 
d="M205 -187q48 -30 60 -31q19 -2 44 37q7 12 20 34l120 211l-242 958h174l185 -753l428 753h172l-702 -1232q-72 -128 -162.5 -158.5t-183.5 41.5zM468 1195l243 323h112l139 -323h-186l-45 108l-77 -108h-186z" />
    <glyph glyph-name="Ydieresis" unicode="&#x178;" horiz-adv-x="1170" 
d="M506 0l63 422l-333 972h180l263 -780l515 780h182l-650 -972l-62 -422h-158zM631 1626q6 40 39 69t73 29t64.5 -29t18.5 -69q-7 -40 -40.5 -68.5t-73.5 -28.5t-64 28.5t-17 68.5zM861 1626q6 40 39 69t73 29q41 0 64.5 -29t17.5 -69q-7 -40 -40 -68.5t-73 -28.5t-64 28.5
t-17 68.5z" />
    <glyph glyph-name="Zacute" unicode="&#x179;" horiz-adv-x="1075" 
d="M61 0l19 123l917 1114h-740l25 157h953l-20 -122l-917 -1115h741l-25 -157h-953zM645 1480l213 293h201l-241 -293h-173z" />
    <glyph glyph-name="zacute" unicode="&#x17a;" horiz-adv-x="950" 
d="M61 0l19 123l722 743h-604l25 156h828l-21 -129l-713 -737h597l-25 -156h-828zM524 1195l228 323h197l-253 -323h-172z" />
    <glyph glyph-name="Zdotaccent" unicode="&#x17b;" horiz-adv-x="1075" 
d="M61 0l19 123l917 1114h-740l25 157h953l-20 -122l-917 -1115h741l-25 -157h-953zM699 1626q6 40 39 69t73 29q41 0 64.5 -29t17.5 -69q-7 -40 -40 -68.5t-73 -28.5t-64 28.5t-17 68.5z" />
    <glyph glyph-name="zdotaccent" unicode="&#x17c;" horiz-adv-x="950" 
d="M61 0l19 123l722 743h-604l25 156h828l-21 -129l-713 -737h597l-25 -156h-828zM577 1353q7 40 40 68.5t73 28.5t65 -28t18 -69q-6 -40 -40 -69t-74 -29t-64 29t-18 69z" />
    <glyph glyph-name="Zcaron" unicode="&#x17d;" horiz-adv-x="1075" 
d="M61 0l19 123l917 1114h-740l25 157h953l-20 -122l-917 -1115h741l-25 -157h-953zM563 1773h194l49 -96l79 96h192l-251 -293h-106z" />
    <glyph glyph-name="zcaron" unicode="&#x17e;" horiz-adv-x="950" 
d="M61 0l19 123l722 743h-604l25 156h828l-21 -129l-713 -737h597l-25 -156h-828zM454 1518h187l44 -109l79 109h184l-241 -323h-112z" />
    <glyph glyph-name="uni0218" unicode="&#x218;" horiz-adv-x="1186" 
d="M608 -25q-101 0 -186.5 29t-149 85.5t-91 149.5t-7.5 212h163q-28 -155 55 -236t243 -81q139 0 230 61.5t108 166.5q5 28 5 50.5t-5 42.5t-14.5 36t-26.5 31t-38 27.5t-52 25.5t-65.5 24.5t-80.5 25.5q-53 16 -95 31t-82 33.5t-68.5 38t-54.5 43.5t-40 50.5t-25 59
t-10 69t6 80.5q26 162 176.5 269t333.5 107q88 0 158.5 -26t114.5 -70.5t73 -104t33.5 -127.5t-4.5 -140h-159q13 151 -51 229.5t-193 78.5q-118 0 -208 -55t-106 -157q-9 -54 -0.5 -89t44.5 -64t87.5 -49t147.5 -49q104 -32 174 -66.5t120.5 -83.5t68.5 -115t4 -153
q-26 -166 -179.5 -278t-353.5 -112zM354 -418l176 345h150l-13 -82l-151 -263h-162z" />
    <glyph glyph-name="uni0219" unicode="&#x219;" horiz-adv-x="1014" 
d="M523 -14q-67 0 -125.5 14.5t-108.5 45t-81 78.5t-43.5 114t2.5 151h159q-13 -139 42 -192t184 -53q214 0 236 131q5 35 -0.5 56t-32 39.5t-71.5 32t-128 31.5q-66 14 -116.5 34t-96 53t-65.5 85.5t-9 120.5q20 128 136.5 211.5t270.5 83.5q78 0 139.5 -20.5t100 -56.5
t63.5 -85t29.5 -104.5t-1.5 -115.5h-156q-5 127 -48 175.5t-154 48.5q-90 0 -147.5 -34t-68.5 -101q-9 -59 34 -88t157 -53q90 -19 152.5 -43t108 -60.5t62.5 -88t6 -119.5q-21 -131 -143 -211t-287 -80zM271 -414l176 345h150l-13 -82l-151 -263h-162z" />
    <glyph glyph-name="uni021A" unicode="&#x21a;" horiz-adv-x="1272" 
d="M555 0l196 1237h-480l25 157h1120l-25 -157h-480l-196 -1237h-160zM382 -414l176 345h150l-13 -82l-152 -263h-161z" />
    <glyph glyph-name="uni021B" unicode="&#x21b;" horiz-adv-x="748" 
d="M656 4q-182 -43 -276.5 29.5t-67.5 244.5l93 590h-223l25 154h223l58 370h159l-58 -370h228l-25 -154h-228l-93 -590q-11 -72 3.5 -101t64.5 -32.5t140 8.5zM195 -415l176 345h150l-13 -82l-151 -263h-162z" />
    <glyph glyph-name="uni0237" unicode="&#x237;" horiz-adv-x="548" 
d="M11 -381q-131 0 -197 73l83 131q61 -38 83 -43q20 -6 53 -6h13q63 0 91 28t40 106l177 1114h159l-177 -1114q-22 -140 -105 -214.5t-207 -74.5h-13z" />
    <glyph glyph-name="circumflex" unicode="&#x2c6;" horiz-adv-x="775" 
d="M374 1469l242 323h112l139 -323h-186l-44 108l-79 -108h-184z" />
    <glyph glyph-name="caron" unicode="&#x2c7;" horiz-adv-x="775" 
d="M565 1469l-140 323h186l45 -109l78 109h184l-241 -323h-112z" />
    <glyph glyph-name="breve" unicode="&#x2d8;" horiz-adv-x="803" 
d="M632 1461q-120 0 -172.5 90t-9.5 230h155q-25 -93 -12.5 -126t65.5 -33q55 0 78.5 34t26.5 125h154q0 -140 -82.5 -230t-202.5 -90z" />
    <glyph glyph-name="dotaccent" unicode="&#x2d9;" horiz-adv-x="962" 
d="M722 1529q-40 0 -64 28.5t-17 68.5q6 40 39 69t73 29q41 0 65.5 -29t18.5 -69q-7 -40 -41 -68.5t-74 -28.5z" />
    <glyph glyph-name="ring" unicode="&#x2da;" horiz-adv-x="894" 
d="M678 1457q-72 0 -116.5 48t-32.5 124q12 77 71.5 124.5t131.5 47.5t116.5 -47.5t32.5 -124.5q-12 -76 -71.5 -124t-131.5 -48zM663 1629q-6 -40 36 -40t48 40t-36 40t-48 -40z" />
    <glyph glyph-name="ogonek" unicode="&#x2db;" horiz-adv-x="1018" 
d="M285 -407q-32 0 -60 9.5t-52.5 29.5t-34.5 58.5t-2 89.5q21 130 127 237t251 137l107 -130q-143 -17 -224.5 -81t-96.5 -157q-4 -26 -1.5 -30t19.5 -4q35 0 68.5 27t136.5 137l-38 -235q-88 -88 -200 -88z" />
    <glyph glyph-name="tilde" unicode="&#x2dc;" horiz-adv-x="716" 
d="M708 1554q-44 0 -121 27q-25 10 -45 16q-2 -11 -8 -35h-136q-5 76 34.5 129.5t109.5 53.5q45 0 120 -29q24 -8 46 -14q1 11 7 35h134q8 -83 -33 -133t-108 -50z" />
    <glyph glyph-name="hungarumlaut" unicode="&#x2dd;" horiz-adv-x="928" 
d="M446 1469l212 294h201l-240 -294h-173zM706 1469l212 294h200l-240 -294h-172z" />
    <glyph glyph-name="uni0326" unicode="&#x326;" horiz-adv-x="0" 
d="M165 -315l176 344h150l-14 -83l-151 -261h-161z" />
    <glyph glyph-name="Wgrave" unicode="&#x1e80;" horiz-adv-x="1749" 
d="M413 0l-167 1394h167l126 -1071l480 1008h132l161 -1008l467 1071h166l-609 -1394h-140l-161 1013l-484 -1013h-138zM912 1773h201l119 -293h-174z" />
    <glyph glyph-name="wgrave" unicode="&#x1e81;" horiz-adv-x="1469" 
d="M343 0l-122 1022h168l82 -707l363 707h129l137 -705l307 705h165l-444 -1022h-136l-140 733l-376 -733h-133zM728 1518h198l125 -323h-171z" />
    <glyph glyph-name="Wacute" unicode="&#x1e82;" horiz-adv-x="1749" 
d="M413 0l-167 1394h167l126 -1071l480 1008h132l161 -1008l467 1071h166l-609 -1394h-140l-161 1013l-484 -1013h-138zM966 1480l212 293h202l-241 -293h-173z" />
    <glyph glyph-name="wacute" unicode="&#x1e83;" horiz-adv-x="1469" 
d="M343 0l-122 1022h168l82 -707l363 707h129l137 -705l307 705h165l-444 -1022h-136l-140 733l-376 -733h-133zM798 1195l227 323h198l-253 -323h-172z" />
    <glyph glyph-name="Wdieresis" unicode="&#x1e84;" horiz-adv-x="1749" 
d="M413 0l-167 1394h167l126 -1071l480 1008h132l161 -1008l467 1071h166l-609 -1394h-140l-161 1013l-484 -1013h-138zM922 1626q6 40 39 69t73 29q41 0 65 -29t18 -69q-7 -40 -40.5 -68.5t-73.5 -28.5t-64 28.5t-17 68.5zM1152 1626q6 40 39 69t73 29q41 0 65.5 -29
t18.5 -69q-7 -40 -41 -68.5t-74 -28.5t-64 28.5t-17 68.5z" />
    <glyph glyph-name="wdieresis" unicode="&#x1e85;" horiz-adv-x="1469" 
d="M343 0l-122 1022h168l82 -707l363 707h129l137 -705l307 705h165l-444 -1022h-136l-140 733l-376 -733h-133zM738 1355q6 40 39.5 68.5t73.5 28.5t64 -28.5t18 -68.5q-7 -40 -40 -69t-73 -29t-64.5 29t-17.5 69zM968 1355q6 40 39.5 68.5t73.5 28.5t64 -28.5t18 -68.5
q-7 -40 -40 -69t-73 -29q-41 0 -65 29t-17 69z" />
    <glyph glyph-name="uni1E9E" unicode="&#x1e9e;" horiz-adv-x="1273" 
d="M725 -8q-138 0 -254 31l27 170q125 -39 252 -39q112 0 170 34.5t70 107.5q8 50 -12 91t-93 120q-74 81 -96 138.5t-11 132.5q12 75 52 132.5t141 138.5q98 79 131 120t41 91q11 74 -36 108.5t-159 34.5h-345l-222 -1403h-162l248 1564h509q175 0 264 -82.5t67 -226.5
q-14 -87 -75.5 -166.5t-176.5 -169.5q-63 -47 -83.5 -74t-26.5 -67t6 -67t59 -74q87 -89 123.5 -168.5t22.5 -166.5q-23 -145 -139 -227.5t-292 -82.5z" />
    <glyph glyph-name="Ygrave" unicode="&#x1ef2;" horiz-adv-x="1170" 
d="M506 0l63 422l-333 972h180l263 -780l515 780h182l-650 -972l-62 -422h-158zM618 1773h201l119 -293h-172z" />
    <glyph glyph-name="ygrave" unicode="&#x1ef3;" horiz-adv-x="1049" 
d="M205 -187q48 -30 60 -31q19 -2 44 37q7 12 20 34l120 211l-242 958h174l185 -753l428 753h172l-702 -1232q-72 -128 -162.5 -158.5t-183.5 41.5zM520 1518h197l126 -323h-171z" />
    <glyph glyph-name="endash" unicode="&#x2013;" horiz-adv-x="1069" 
d="M226 510l25 162h779l-25 -162h-779z" />
    <glyph glyph-name="emdash" unicode="&#x2014;" horiz-adv-x="1841" 
d="M156 510l25 162h1691l-25 -162h-1691z" />
    <glyph glyph-name="quoteleft" unicode="&#x2018;" horiz-adv-x="518" 
d="M257 896l-5 73l233 495h162l-252 -568h-138z" />
    <glyph glyph-name="quoteright" unicode="&#x2019;" horiz-adv-x="517" 
d="M245 896l251 568h139l3 -74l-231 -494h-162z" />
    <glyph glyph-name="quotesinglbase" unicode="&#x201a;" horiz-adv-x="489" 
d="M65 -212l184 378h138l1 -75l-161 -303h-162z" />
    <glyph glyph-name="quotedblleft" unicode="&#x201c;" horiz-adv-x="723" 
d="M463 896l-6 73l234 495h161l-251 -568h-138zM252 969l233 495h162l-252 -568h-138z" />
    <glyph glyph-name="quotedblright" unicode="&#x201d;" horiz-adv-x="726" 
d="M453 896l252 568h138l4 -73l-232 -495h-162zM245 896l251 568h139l3 -74l-231 -494h-162z" />
    <glyph glyph-name="quotedblbase" unicode="&#x201e;" horiz-adv-x="683" 
d="M258 -212l184 378h137l3 -75l-163 -303h-161zM65 -212l183 378h137l3 -75l-163 -303h-160z" />
    <glyph glyph-name="dagger" unicode="&#x2020;" horiz-adv-x="1099" 
d="M422 -292l161 1029l-342 -2l26 164l341 -1l75 483h170l-78 -483l341 1l-26 -164l-340 2l-162 -1029h-166z" />
    <glyph glyph-name="daggerdbl" unicode="&#x2021;" horiz-adv-x="1099" 
d="M422 -292l74 479l-342 -1l27 165l340 -2l62 388l-342 -2l26 164l341 -1l75 483h170l-78 -483l341 1l-26 -164l-341 2l-62 -388l343 2l-27 -165l-340 1l-75 -479h-166z" />
    <glyph glyph-name="bullet" unicode="&#x2022;" horiz-adv-x="596" 
d="M372 474q-60 0 -94.5 41.5t-24.5 101.5q10 61 57 102t107 41q62 0 97 -41t25 -102q-10 -60 -57.5 -101.5t-109.5 -41.5z" />
    <glyph glyph-name="ellipsis" unicode="&#x2026;" horiz-adv-x="842" 
d="M417 -25q-41 0 -65.5 28.5t-18.5 68.5q7 40 40.5 68.5t74.5 28.5q40 0 64.5 -28.5t17.5 -68.5q-6 -40 -39.5 -68.5t-73.5 -28.5zM126 72q7 40 40.5 68.5t73.5 28.5t64 -28.5t17 -68.5q-6 -40 -39 -68.5t-73 -28.5t-64.5 28.5t-18.5 68.5zM542 72q7 40 40 68.5t74 28.5
q40 0 64.5 -28.5t17.5 -68.5q-6 -40 -39.5 -68.5t-73.5 -28.5q-41 0 -65 28.5t-18 68.5z" />
    <glyph glyph-name="perthousand" unicode="&#x2030;" horiz-adv-x="1848" 
d="M100 0l1113 1381h194l-1114 -1381h-193zM242 1056q24 149 119.5 249.5t230.5 100.5t199 -100.5t40 -249.5q-23 -148 -119 -250t-231 -102q-134 0 -198 102t-41 250zM408 1056q-15 -98 8.5 -144.5t89.5 -46.5q67 0 105.5 47t53.5 144q16 98 -7.5 144t-91.5 46
q-66 0 -104 -46t-54 -144zM676 326q23 149 118.5 250t230.5 101q106 0 170 -65t74 -171q44 107 127 171.5t190 64.5q135 0 198.5 -101t40.5 -250q-23 -147 -119.5 -249t-230.5 -102q-106 0 -169 65.5t-73 171.5q-45 -106 -128.5 -171.5t-190.5 -65.5q-90 0 -150 49
t-81.5 128t-6.5 174zM842 326q-16 -98 7.5 -145t89.5 -47q68 0 106.5 47t54.5 145q15 99 -8.5 144.5t-91.5 45.5q-66 0 -104.5 -46.5t-53.5 -143.5zM1402 326q-16 -98 7.5 -145t90.5 -47q66 0 104.5 47t54.5 145q15 98 -8 144t-90 46t-105.5 -46.5t-53.5 -143.5z" />
    <glyph glyph-name="guilsinglleft" unicode="&#x2039;" horiz-adv-x="672" 
d="M399 150l-243 364l358 364h212l-358 -364l243 -364h-212z" />
    <glyph glyph-name="guilsinglright" unicode="&#x203a;" horiz-adv-x="672" 
d="M109 150l357 364l-242 364h211l243 -364l-358 -364h-211z" />
    <glyph glyph-name="fraction" unicode="&#x2044;" horiz-adv-x="184" 
d="M-296 -71l745 1492l176 29l-746 -1494z" />
    <glyph glyph-name="Euro" unicode="&#x20ac;" horiz-adv-x="1200" 
d="M715 -25q-226 0 -340.5 134t-104.5 401h-201l102 162h114l2 13q1 3 2 8.5t2 10t2 8.5h-146l100 160h83q80 259 245.5 396.5t373.5 137.5q128 0 209 -39t145 -131l-130 -119q-55 78 -105 103.5t-149 25.5q-137 0 -247 -88t-174 -286h707l-110 -160h-636l-3 -20l-4 -20h636
l-93 -162h-557q-4 -202 71 -289t240 -87q90 0 168 32t170 108l-32 -205q-155 -94 -340 -94z" />
    <glyph glyph-name="trademark" unicode="&#x2122;" horiz-adv-x="1052" 
d="M592 855l56 348h-122l-56 -348h-128l56 348h-157l19 122h443v-2h95l60 -269l147 269h127l-75 -468h-124l27 154l-83 -150h-103l-34 150l-24 -154h-124z" />
    <glyph glyph-name="partialdiff" unicode="&#x2202;" horiz-adv-x="1099" 
d="M520 -25q-185 0 -281 130.5t-64 333.5q37 234 190.5 375t354.5 141q137 0 230 -74q28 464 -222 464q-80 0 -138.5 -25.5t-138.5 -94.5l-82 125q97 83 190 119t199 36q465 0 329 -855q-24 -153 -69.5 -274.5t-114.5 -212.5t-166 -139.5t-217 -48.5zM341 442
q-23 -151 31.5 -229.5t172.5 -78.5q99 0 168.5 46t120.5 156t84 295q-53 165 -221 165q-144 0 -237 -94t-119 -260z" />
    <glyph glyph-name="emptyset" unicode="&#x2205;" horiz-adv-x="1723" 
d="M857 -27q-127 0 -239 42.5t-195 119.5l-177 -153l-96 113l182 157q-124 202 -84 458q33 205 159 374.5t307 264.5t376 95q259 0 434 -162l177 153l96 -113l-181 -157q123 -200 82 -455q-24 -154 -104 -291.5t-193.5 -235t-255.5 -154t-288 -56.5zM415 710
q-30 -194 52 -340l923 796q-130 119 -325 119q-155 0 -294 -73t-234.5 -205.5t-121.5 -296.5zM558 252q130 -118 324 -118q156 0 295.5 73t234.5 205t121 298q30 190 -52 338z" />
    <glyph glyph-name="product" unicode="&#x220f;" horiz-adv-x="1102" 
d="M155 -201l225 1422h-102l26 160h932l-26 -160h-101l-225 -1422h-162l225 1422h-403l-225 -1422h-164z" />
    <glyph glyph-name="summation" unicode="&#x2211;" horiz-adv-x="1096" 
d="M13 -201l19 118l622 695l-354 652l19 117h912l-26 -160h-684l331 -614l-579 -647h744l-26 -161h-978z" />
    <glyph glyph-name="minus" unicode="&#x2212;" horiz-adv-x="1035" 
d="M180 560l25 161h853l-25 -161h-853z" />
    <glyph glyph-name="radical" unicode="&#x221a;" horiz-adv-x="1123" 
d="M434 -292l-111 820h-136l25 160h256l87 -646l585 1503h167l-719 -1837h-154z" />
    <glyph glyph-name="infinity" unicode="&#x221e;" horiz-adv-x="1997" 
d="M566 -25q-215 0 -325 158.5t-70 409.5q40 252 200 411.5t375 159.5q144 0 241.5 -70.5t142.5 -207.5q85 135 207.5 206.5t266.5 71.5q215 0 324.5 -159t69.5 -412q-40 -252 -199.5 -410t-374.5 -158q-144 0 -241.5 71t-142.5 210q-86 -138 -207.5 -209.5t-266.5 -71.5z
M337 543q-32 -206 42 -307.5t212 -101.5q63 0 120 20t112.5 65t101 127.5t73.5 196.5q8 412 -277 412q-65 0 -125 -24t-112.5 -71.5t-91 -129t-55.5 -187.5zM1173 546q-12 -412 276 -412q65 0 124.5 23.5t112 71t91 128.5t55.5 186q32 207 -42 309.5t-211 102.5
q-63 0 -120 -20t-112.5 -64.5t-101 -127.5t-72.5 -197z" />
    <glyph glyph-name="integral" unicode="&#x222b;" horiz-adv-x="656" 
d="M207 -292q-57 0 -104 30.5t-65 88.5l130 120q22 -54 32 -66t34 -12q29 0 49.5 40.5t38.5 156.5q21 135 18 522q-1 248 3 359.5t19 206.5q15 93 45.5 162t69.5 107.5t80 56.5t83 18q58 0 105.5 -31t63.5 -91l-128 -115q-24 55 -33.5 65.5t-34.5 10.5q-19 0 -32.5 -13.5
t-28 -58.5t-27.5 -126q-20 -138 -17 -521q2 -238 -3 -353.5t-20 -212.5q-15 -93 -45 -162t-69 -107.5t-80 -56.5t-84 -18z" />
    <glyph glyph-name="approxequal" unicode="&#x2248;" horiz-adv-x="1190" 
d="M235 719q123 207 318 207q55 0 101 -17t115 -57q62 -34 86 -43.5t57 -9.5q56 0 84 22.5t106 120.5l103 -96q-124 -207 -319 -207q-54 0 -99 17t-116 58q-61 34 -85.5 43t-58.5 9q-55 0 -83.5 -22.5t-104.5 -119.5zM183 391q123 207 318 207q55 0 101 -17t115 -57
q62 -35 85.5 -44.5t56.5 -9.5q55 0 84 22.5t107 120.5l103 -95q-123 -208 -319 -208q-54 0 -99 17t-116 58q-61 35 -85.5 44t-58.5 9q-55 0 -83 -22t-105 -120z" />
    <glyph glyph-name="notequal" unicode="&#x2260;" horiz-adv-x="1110" 
d="M226 188l155 208h-207l25 161h301l125 167h-399l25 161h493l154 209h186l-155 -209h210l-25 -161h-304l-125 -167h402l-25 -161h-495l-155 -208h-186z" />
    <glyph glyph-name="lessequal" unicode="&#x2264;" horiz-adv-x="1035" 
d="M979 221l-794 372l18 116l912 372l-28 -176l-626 -254l546 -253zM95 25l26 162h853l-26 -162h-853z" />
    <glyph glyph-name="greaterequal" unicode="&#x2265;" horiz-adv-x="1035" 
d="M126 221l28 177l626 253l-546 254l28 176l794 -372l-18 -115zM95 25l26 162h853l-26 -162h-853z" />
    <glyph glyph-name="lozenge" unicode="&#x25ca;" horiz-adv-x="957" 
d="M420 0l-226 690l445 691h117l225 -691l-444 -690h-117zM374 690l144 -444l283 444l-143 443z" />
    <glyph glyph-name="uniF8FF" unicode="&#xf8ff;" horiz-adv-x="1592" 
d="M783 253q-151 0 -279.5 75.5t-203 204.5t-74.5 280q0 152 75 280.5t203.5 203t280.5 74.5q151 0 279.5 -75t203.5 -203.5t75 -279.5q0 -152 -74.5 -281t-203.5 -204t-282 -75zM225 29v146h59q26 0 44 -9q37 -17 37 -64q0 -23 -10 -39q-21 -34 -71 -34h-59zM260 56h22
q18 0 26 4q22 10 22 42q0 18 -5 27q-12 20 -43 20h-22v-93zM293 814q0 -205 144 -350t348 -145q203 0 347.5 144.5t144.5 347.5q0 100 -39 191.5t-104.5 157.5t-156 105t-190.5 40q-134 0 -248 -65.5t-180 -178.5t-66 -247zM377 84q0 16 8 29q16 27 52 27q26 0 42 -14
q18 -15 18 -42v-8h-85q0 -8 3 -13q7 -13 25 -13q7 0 10 1q9 3 14 12l31 -3q-2 -10 -10 -17q-14 -16 -45 -16q-17 0 -33 7q-30 14 -30 50zM412 95h52l-3 10q-6 12 -23 12q-10 0 -14 -3q-10 -6 -12 -19zM467 912q10 -2 12 -4q52 -21 98 -27q41 -3 72 2q43 11 47 12
q3 0 8.5 2.5t7.5 3.5q-5 2 -16.5 8t-17 9t-13 8.5t-13.5 12.5h19q39 0 75 19q65 40 136 61q24 8 58 11q4 0 19.5 1t23.5 0q54 -2 89 -33q10 -11 28 -33v-2l-6 2q-45 17 -83 3.5t-62 -53.5q-7 -13 -25 -55q-9 -21 -27 -63.5t-20 -48.5q-33 -64 -65 -101q-27 -33 -66 -58
q-45 -34 -116 -55h-5l24 22q12 11 25 44q41 116 45 127q24 73 57 131v3q-2 -4 -11 -13q-8 -10 -10 -12q-23 -36 -31 -57q-2 -6 -8 -6q-99 3 -177 67q-40 38 -59 55q-1 1 -5 7t-8 10zM506 61l33 2q5 -14 23 -14q20 0 20 11q0 8 -16 11l-21 4q-36 6 -36 31q0 10 6 18
q13 16 46 16q48 0 53 -32l-31 -3q-3 14 -21 14q-19 0 -19 -11q0 -8 16 -12l22 -3q36 -6 36 -30q0 -9 -7 -18q-14 -18 -48 -18q-51 0 -56 34zM630 168q0 15 19 15q18 0 18 -15t-18 -15q-19 0 -19 15zM632 29v109h34v-109h-34zM681 84q0 20 7 31q13 25 43 25q11 0 18 -3
q12 -5 18 -17h1v18h35v-110q0 -14 -9 -23q-15 -19 -52 -19q-50 0 -57 31l31 3l6 -6q4 -6 21 -6q25 0 25 21v19h-1q-2 -3 -7 -8q-11 -9 -29 -9q-13 0 -25 5q-25 13 -25 48zM716 84q0 -10 3 -16q6 -14 24 -14q25 0 25 30q0 10 -3 17q-6 15 -22 15q-7 0 -15 -4q-12 -7 -12 -28z
M823 29v109h34v-19q10 21 37 21q13 0 23 -5q20 -10 20 -36v-70h-35v64q0 22 -21 22q-7 0 -13 -3q-11 -6 -11 -19v-64h-34zM952 84q0 15 7 29q16 27 54 27q20 0 33 -7q28 -16 28 -49q0 -17 -7 -30q-16 -27 -54 -27q-15 0 -33 7q-28 16 -28 50zM987 84q0 -9 3 -18
q7 -15 23 -15q10 0 15 4q12 9 12 29q0 2 -3 17q-8 16 -24 16q-7 0 -14 -5q-12 -7 -12 -28zM1076 138h36l26 -78h1l26 78h36l-43 -109h-39zM1202 60q0 17 15 25q13 8 32 8l17 3q13 0 13 7v1q0 14 -19 14q-17 0 -22 -13l-32 3q4 10 10 17q15 15 45 15q21 0 37 -9q15 -8 15 -28
v-74h-33v16q-5 -7 -9 -9q-9 -9 -27 -9q-13 0 -21 4q-21 8 -21 29zM1235 60q0 -12 18 -12q8 0 14 3q12 5 12 18v11q-3 -2 -23 -5q-8 0 -12 -3q-9 -3 -9 -12zM1292 177q0 16 11 26.5t27 10.5t26.5 -10.5t10.5 -26.5t-10.5 -27t-26.5 -11t-27 11t-11 27zM1304 177
q0 -11 7.5 -19t18.5 -8t18.5 8t7.5 19t-7.5 18.5t-18.5 7.5t-18.5 -7.5t-7.5 -18.5zM1317 160v35h14q12 0 12 -11q0 -5 -5 -10l8 -14h-10l-6 11h-5v-11h-8zM1325 180h6q5 0 5 3t-5 3h-6v-6z" />
    <glyph glyph-name="_Designova" horiz-adv-x="1742" 
d="M869 41q-174 0 -322.5 87t-235 235.5t-86.5 323.5q1 131 52 250.5t137.5 205.5t206 137t250.5 51q175 0 323.5 -86t235.5 -234.5t87 -323.5q0 -176 -87 -324.5t-236 -235t-325 -86.5zM303 687q0 -116 45 -221.5t120.5 -181.5t181 -121t221.5 -45q154 0 285 76t207 207
t76 285q0 116 -45 221.5t-120.5 181.5t-180.5 121t-221 45t-221 -45t-181.5 -120.5t-121.5 -181t-45 -221.5zM505 800q7 0 13 -4q58 -22 115 -31q45 -5 81 3q29 4 53 14q5 0 11.5 3t8.5 4q-5 3 -22.5 11.5t-27.5 15.5t-19 17h21q39 0 86 20q85 53 158 73q37 10 66 10
q7 0 25 1.5t26 0.5q66 -4 102 -39q6 -5 33 -37v-2q-3 2 -7 2q-53 20 -95.5 4.5t-71.5 -59.5q-5 -9 -10 -20.5t-11 -25t-9 -21.5q-6 -14 -25 -59t-30 -68q-36 -74 -74 -119q-20 -27 -74 -66q-52 -38 -136 -63h-7l28 24q18 17 30 51q7 20 25 71t27 78q31 90 65 150v1
q-3 -3 -11 -13q-9 -7 -11 -16q-23 -27 -38 -65q-3 -5 -9 -5q-117 5 -204 78q-10 10 -32.5 31t-33.5 32q-12 14 -16 18z" />
    <glyph glyph-name="_Origin" horiz-adv-x="2245" 
d="M145 1055v50h1955v-50h-1955zM145 236v50h1955v-50h-1955zM223 437v177h42v-177h-42zM255 734v177h148v-32h-107v-39h97v-31h-97v-42h107v-33h-148zM293 437v177h34l89 -107v107h40v-177h-33l-88 109v-109h-42zM433 734v177h34l88 -107v107h40v-177h-33l-88 109v-109h-41
zM549 437v177h87q72 0 72 -45q0 -28 -26 -40q3 0 3 -2q28 -12 28 -42q0 -48 -71 -48h-93zM591 468h48q32 0 32 22t-32 22h-48v-44zM591 545h42q33 0 33 20q0 22 -33 22h-42v-42zM624 879v32h156v-32h-57v-145h-41v145h-58zM733 437v177h148v-33h-107v-38h96v-31h-96v-41h105
v-34h-146zM798 911h44l40 -124l42 124h38l40 -126l42 126h39l-57 -177h-45l-39 121l-41 -121h-43zM909 437v177h81q28 0 42 -6q36 -19 36 -57q0 -21 -10 -35q-15 -18 -29 -23l37 -56h-43l-35 50h-37v-50h-42zM951 520h37q38 0 38 31q0 30 -38 30h-37v-61zM1088 437v177h40
v-143h106v-34h-146zM1091 823q0 39 28 65q26 26 69 26t69 -26q28 -25 28 -65q0 -39 -28 -65q-25 -27 -68 -27q-45 0 -70 27q-28 28 -28 65zM1133 823q0 -25 15.5 -40.5t39.5 -15.5t39.5 15.5t15.5 40.5t-15.5 41.5t-39.5 16.5t-39.5 -16.5t-15.5 -41.5zM1263 437v177h41
v-177h-41zM1308 734v177h81q28 0 41 -6q36 -17 36 -57q0 -21 -10 -35q-9 -15 -29 -23l39 -56h-45l-33 50h-39v-50h-41zM1333 437v177h35l87 -107v107h42v-177h-34l-89 109v-109h-41zM1349 817h37q38 0 38 31t-38 31h-37v-62zM1486 734v177h148v-32h-107v-39h96v-31h-96v-75
h-41zM1523 461q0 24 25 24q10 0 17 -7t7 -17q0 -11 -7 -25l-14 -38h-26l12 41q-14 5 -14 22zM1650 734v177h147v-32h-106v-39h95v-31h-95v-42h106v-33h-147zM1673 437v177h80q30 0 52 -11q46 -21 46 -77q0 -28 -12 -47q-23 -42 -86 -42h-80zM1715 471h37q17 0 31 7
q26 14 26 48q0 21 -6 29q-14 26 -51 26h-37v-110zM1827 734v177h33l90 -107v107h40v-177h-34l-89 109v-109h-40zM1875 437v177h147v-33h-107v-38h97v-31h-97v-41h106v-34h-146z" />
    <glyph glyph-name="_VendorID" horiz-adv-x="1166" 
d="M98 154v1187h974v-1187h-974zM101 63q0 13 7.5 20.5t18.5 7.5q9 0 12 -3l4 -5v26h13v-72h-13v9l-4 -7q-7 -5 -15 -5q-23 0 -23 29zM115 63q0 -17 13 -17q15 0 15 17v1q0 18 -13 18q-15 0 -15 -19zM151 205h869v1084h-869v-1084zM166 63q0 13 7.5 20.5t19.5 7.5
q11 0 18.5 -7.5t7.5 -19.5q0 -2 -2 -5h-37q1 -13 13 -13q10 0 12 9h12q-5 -21 -24 -21q-27 0 -27 29zM180 67h25q-3 15 -12 15q-11 0 -13 -15zM223 52h14q3 -9 9 -9q9 0 9 7q0 3 -12 9q-18 5 -18 16q0 16 21 16t21 -16h-14q-1 7 -7 7q-7 0 -7 -6q0 -4 12 -9q17 -5 17 -15
q0 -18 -22 -18q-20 0 -23 18zM265 455q0 59 46 125l97 137h64l-84 -120q10 3 23 3q62 0 102.5 -41.5t40.5 -103.5q0 -61 -41.5 -103.5t-101.5 -42.5q-61 0 -103.5 42.5t-42.5 103.5zM265 926q0 56 46 123l97 142h64l-84 -122q7 2 23 2q63 0 103 -41t40 -104
q0 -61 -41 -102.5t-102 -41.5t-103.5 42t-42.5 102zM276 102q0 7 8 7t8 -7q0 -8 -8 -8t-8 8zM277 37v54h14v-54h-14zM301 63q0 28 26 28q9 0 12 -3l4 -5v8h14v-41q0 -8 -2 -11q0 -24 -27 -24q-26 0 -26 18v1h14v-1q0 -8 12 -8q11 0 15 13v8l-4 -7q-8 -2 -14 -2q-24 0 -24 26
zM316 64q0 -18 12 -18q15 0 15 17v1q0 18 -15 18q-12 0 -12 -18zM319 455q0 -42 25.5 -68t66.5 -26q39 0 64.5 26t25.5 68q0 40 -25.5 65t-64.5 25q-41 0 -66.5 -25t-25.5 -65zM319 926q0 -41 25.5 -67t66.5 -26q39 0 64.5 26.5t25.5 66.5t-25.5 66t-64.5 26
q-41 0 -66.5 -25t-25.5 -67zM368 37v54h14v-10l4 7q5 3 13 3q17 0 20 -15q1 -3 1 -9v-30h-15v34q0 11 -10 11q-13 0 -13 -21v-24h-14zM427 63q0 13 7.5 20.5t19.5 7.5q28 0 28 -28q0 -29 -28 -29q-12 0 -19.5 8t-7.5 21zM441 63q0 -17 13 -17q15 0 15 17q0 19 -15 19
q-13 0 -13 -19zM487 91h14l14 -45l13 45h14l-19 -54h-18zM547 52q0 16 30 16h3v7q0 7 -9 7q-11 0 -11 -9h-13q0 18 24 18q19 0 21 -15v-39h-12v6l-3 -5q-8 -4 -14 -4q-16 0 -16 18zM560 52q0 -6 8 -6q12 0 12 9v6q-20 2 -20 -9zM601 80v9h6v8q0 15 19 15h6v-11q-11 2 -11 -5
v-7h11v-9h-11v-43h-14v43h-6zM614 455q0 62 44 125l97 137h66l-86 -120q11 3 25 3q61 0 102 -41.5t41 -103.5q0 -61 -41.5 -103.5t-101.5 -42.5q-61 0 -103.5 42.5t-42.5 103.5zM614 926q0 57 44 123l97 142h66l-87 -122q8 2 26 2q61 0 102 -41.5t41 -103.5
q0 -61 -41.5 -102.5t-101.5 -41.5q-61 0 -103.5 41.5t-42.5 102.5zM636 63q0 28 28 28q27 0 27 -28q0 -29 -27 -29q-28 0 -28 29zM650 63q0 -17 14 -17q13 0 13 17q0 19 -13 19q-14 0 -14 -19zM667 455q0 -42 26 -68t67 -26q38 0 62.5 26t24.5 68q0 40 -24.5 65t-62.5 25
q-41 0 -67 -25t-26 -65zM667 926q0 -41 26 -67t67 -26q38 0 62.5 26t24.5 67q0 40 -24.5 66t-62.5 26q-41 0 -67 -25.5t-26 -66.5zM700 37v54h12v-10l6 7q4 3 13 3q16 0 19 -15v-39h-14v34q-4 11 -9 11q-15 0 -15 -21v-24h-12zM757 80v9h8v13h14v-13h10v-9h-10v-28
q2 -10 9 -6v-10h-8q-15 0 -15 10v34h-8zM793 52h15q2 -9 10 -9t8 7q0 3 -12 9q-17 5 -17 16q0 16 20 16q19 0 24 -16h-16q0 7 -9 7q-5 0 -5 -6q0 -5 11 -9q19 -6 19 -15q0 -18 -23 -18q-20 0 -25 18zM845 42q0 10 9 10t9 -10q0 -8 -9 -8t-9 8zM869 63q0 13 8 20.5t18 7.5
q25 0 25 -20h-13q-3 11 -12 11q-12 0 -12 -19q0 -17 12 -17q10 0 12 9h13q-2 -21 -25 -21q-26 0 -26 29zM925 63q0 28 29 28q26 0 26 -28q0 -29 -26 -29q-29 0 -29 29zM939 63q0 -17 15 -17q13 0 13 17q0 19 -13 19q-15 0 -15 -19zM990 37v54h14v-9l5 6q3 3 9 3q13 0 18 -10
l5 7q3 3 11 3q17 0 17 -12q1 -4 1 -12v-30h-13v27q0 2 -0.5 5t-0.5 4q0 9 -10 9q-9 0 -9 -18v-27h-13v36q-4 9 -10 9q-10 0 -10 -18v-27h-14z" />
    </font>
</defs>
</svg>
