<?xml version="1.0" standalone="no"?>
<!DOCTYPE svg PUBLIC "-//W3C//DTD SVG 1.1//EN" "http://www.w3.org/Graphics/SVG/1.1/DTD/svg11.dtd" >
<svg xmlns="http://www.w3.org/2000/svg" xmlns:xlink="http://www.w3.org/1999/xlink" version="1.1">
<metadata>
Created by FontForge 20201107 at Tue Feb 27 18:48:49 2024
 By 
Copyright (c) 2024 by Designova. All rights reserved.
</metadata>
<defs>
<font id="RovelleUno-HeavyItalic" horiz-adv-x="1073" >
  <font-face 
    font-family="Rovelle Uno Heavy Italic"
    font-weight="900"
    font-style="italic"
    font-stretch="normal"
    units-per-em="2048"
    panose-1="0 0 0 0 0 0 0 0 0 0"
    ascent="1638"
    descent="-410"
    x-height="1005"
    cap-height="1394"
    bbox="-317 -521 2216 1932"
    underline-thickness="100"
    underline-position="-255"
    unicode-range="U+0020-F8FF"
  />
<missing-glyph horiz-adv-x="1180" 
d="M119 18l213 1344h948l-213 -1344h-948zM349 387l249 310l-151 309zM392 189h457l-173 353zM559 1192l166 -340l274 340h-440zM802 697l151 -310l98 619z" />
    <glyph glyph-name=".notdef" horiz-adv-x="1180" 
d="M119 18l213 1344h948l-213 -1344h-948zM349 387l249 310l-151 309zM392 189h457l-173 353zM559 1192l166 -340l274 340h-440zM802 697l151 -310l98 619z" />
    <glyph glyph-name=".null" horiz-adv-x="0" 
 />
    <glyph glyph-name="nonmarkingreturn" horiz-adv-x="682" 
 />
    <glyph glyph-name="space" unicode=" " horiz-adv-x="355" 
 />
    <glyph glyph-name="exclam" unicode="!" horiz-adv-x="651" 
d="M247 375l135 1005h325l-184 -1005h-276zM168 155q12 80 71.5 131t138.5 51t123 -51t32 -131q-13 -79 -73 -130.5t-139 -51.5q-78 0 -122 51.5t-31 130.5z" />
    <glyph glyph-name="quotedbl" unicode="&#x22;" horiz-adv-x="832" 
d="M590 876l65 590h304l-121 -590h-248zM272 876l65 590h304l-123 -590h-246z" />
    <glyph glyph-name="numbersign" unicode="#" horiz-adv-x="1083" 
d="M118 0l149 398h-156l34 215h200l58 154h-177l35 215h222l148 398h226l-149 -398h100l149 398h225l-148 -398h158l-35 -215h-203l-57 -154h179l-34 -215h-224l-149 -398h-225l148 398h-100l-148 -398h-226zM571 613h100l57 154h-100z" />
    <glyph glyph-name="dollar" unicode="$" horiz-adv-x="1054" 
d="M430 -13q-78 17 -139 55.5t-104.5 101.5t-55 150.5t9.5 201.5h222q-26 -123 0 -190.5t103 -93.5l62 392q-298 119 -253 399q23 150 128.5 253.5t249.5 136.5l22 144h222l-22 -142q69 -15 121.5 -51t83.5 -85t49 -109.5t17 -125t-12 -131.5h-221q18 118 1 182.5t-75 89.5
l-63 -392q311 -123 266 -412q-21 -135 -126 -240.5t-264 -134.5l-23 -142h-222zM500 1003q-10 -61 5.5 -96t60.5 -61l50 317q-96 -38 -116 -160zM687 209q60 16 91 52t41 96q10 64 -8.5 102t-72.5 69z" />
    <glyph glyph-name="percent" unicode="%" horiz-adv-x="1234" 
d="M1151 1381h264l-1114 -1381h-263zM73 1039q24 154 126 260t245 106q96 0 160.5 -51t88 -133t7.5 -182q-25 -153 -127.5 -261t-245.5 -108q-96 0 -160 52t-87 135t-7 182zM297 1039q-13 -85 1 -117t64 -32q51 0 75.5 32t37.5 117t-1 116t-65 31t-75 -31t-37 -116zM739 328
q24 155 126 261t246 106q96 0 160.5 -51t88 -133.5t7.5 -182.5q-25 -153 -127 -260.5t-245 -107.5t-211.5 108t-44.5 260zM964 328q-13 -84 1 -116t65 -32q50 0 74.5 31.5t37.5 116.5q13 86 -1 117t-65 31t-75 -31t-37 -117z" />
    <glyph glyph-name="ampersand" unicode="&#x26;" horiz-adv-x="1319" 
d="M931 56q-167 -111 -377 -128q-141 -8 -242 30q-110 42 -167 133.5t-47 218.5q18 203 191 351q40 34 103 77l7 -6q-85 138 -73 279q15 175 146.5 296.5t317.5 134.5q186 14 283.5 -81t83.5 -247q-15 -142 -99 -246q-84 -102 -224 -187l135 -169q53 116 73 289h292
q-33 -286 -158 -489l-20 -31l166 -206l-243 -200zM397 332q-7 -72 30 -95.5t152 -16.5q104 7 180 48l-203 251l-23 -14q-76 -47 -104 -82t-32 -91zM622 1032q-1 -29 7 -58q12 -35 38 -77q61 38 78 47q67 44 89 72.5t26 75.5q2 19 2.5 28t-2.5 18.5t-7 12t-17.5 4.5t-28 1.5
t-42.5 -2.5q-78 -5 -107.5 -31t-35.5 -91z" />
    <glyph glyph-name="quotesingle" unicode="'" horiz-adv-x="514" 
d="M274 876l63 590h304l-121 -590h-246z" />
    <glyph glyph-name="parenleft" unicode="(" horiz-adv-x="622" 
d="M348 -152q-113 162 -152 376.5t1 475.5q41 257 149 473.5t272 378.5h221q-335 -387 -408 -852q-74 -467 138 -852h-221z" />
    <glyph glyph-name="parenright" unicode=")" horiz-adv-x="622" 
d="M5 -152q335 385 408 852q74 466 -138 852h220q113 -163 152.5 -376.5t-0.5 -475.5q-41 -256 -149 -473t-273 -379h-220z" />
    <glyph glyph-name="asterisk" unicode="*" horiz-adv-x="920" 
d="M327 124l-175 145l222 222l-249 61l113 236l229 -103l23 286h248l-68 -286l261 103l38 -236l-267 -61l154 -222l-222 -144l-115 247z" />
    <glyph glyph-name="plus" unicode="+" horiz-adv-x="985" 
d="M406 150l60 383h-329l35 220h329l61 382h221l-61 -382h329l-35 -220h-329l-60 -383h-221z" />
    <glyph glyph-name="comma" unicode="," horiz-adv-x="621" 
d="M24 -232l260 565h314l-10 -59l-283 -506h-281z" />
    <glyph glyph-name="hyphen" unicode="-" horiz-adv-x="623" 
d="M131 465l34 215h508l-34 -215h-508z" />
    <glyph glyph-name="period" unicode="." horiz-adv-x="537" 
d="M264 -27q-84 0 -129.5 55t-32.5 139q14 84 76.5 138.5t146.5 54.5q85 0 130.5 -54.5t31.5 -138.5q-13 -84 -75.5 -139t-147.5 -55z" />
    <glyph glyph-name="slash" unicode="/" horiz-adv-x="762" 
d="M-9 -57l738 1495h234l-738 -1495h-234z" />
    <glyph glyph-name="zero" unicode="0" horiz-adv-x="1222" 
d="M608 -27q-117 0 -204 34t-139 97t-80 151.5t-27.5 198t18.5 236.5q114 717 659 717q116 0 202.5 -33.5t139 -95.5t80.5 -150.5t27.5 -198.5t-19.5 -239q-26 -163 -76 -291t-128.5 -225t-193 -149t-259.5 -52zM520 690q-34 -217 -2 -310.5t139 -93.5q106 0 167.5 94
t95.5 310q34 219 2.5 312t-137.5 93q-107 0 -168.5 -93.5t-96.5 -311.5z" />
    <glyph glyph-name="one" unicode="1" horiz-adv-x="889" 
d="M489 0l161 1015l-416 -212l51 323l351 191q123 63 239 63h163l-219 -1380h-330z" />
    <glyph glyph-name="two" unicode="2" horiz-adv-x="1088" 
d="M39 -33l32 201l520 424q88 73 138.5 121.5t78.5 91t38 72t18 80.5q13 87 -17.5 122.5t-126.5 35.5q-97 0 -153.5 -47t-83.5 -155l-35 -126h-285l36 151q55 203 212.5 329.5t352.5 126.5q110 0 193.5 -35.5t130 -96.5t64.5 -139t4 -166q-23 -143 -111.5 -274t-278.5 -284
l-188 -152h521l-44 -280h-1016z" />
    <glyph glyph-name="three" unicode="3" horiz-adv-x="1146" 
d="M568 -43q-135 0 -237.5 45t-156 123.5t-64.5 185.5t36 231l295 12q-74 -172 -35 -245t206 -73q129 0 191.5 43t77.5 136t-34 136t-178 43q-56 0 -210 -31l35 223l322 326h-570l45 282h1016l-31 -194l-359 -361q137 -50 204 -163t44 -261q-32 -200 -199.5 -329
t-397.5 -129z" />
    <glyph glyph-name="four" unicode="4" horiz-adv-x="1196" 
d="M670 0l49 310h-632l29 185l772 885h331l-126 -795h161l-44 -275h-161l-49 -310h-330zM517 585h246l55 347l-33 -40z" />
    <glyph glyph-name="five" unicode="5" horiz-adv-x="1092" 
d="M524 -47q-83 0 -157 26t-135 77t-94 138t-27 198l5 78h287l-1 -54q-5 -97 32.5 -138.5t135.5 -41.5q106 0 172 50.5t84 170.5q19 118 -19 168.5t-140 50.5h-25q-94 0 -143.5 -43.5t-85.5 -153.5h-284l266 915h843l-45 -282h-590l-50 -171q68 15 129 15h32
q109 0 194.5 -39.5t135.5 -107t69.5 -158t3.5 -192.5q-24 -153 -114.5 -270t-215.5 -176.5t-263 -59.5z" />
    <glyph glyph-name="six" unicode="6" horiz-adv-x="1135" 
d="M567 -19q-141 0 -250 63q-112 65 -164 177.5t-30 253.5q23 146 124 268l507 651h354l-354 -434h1q137 0 237 -65q101 -65 146.5 -174t24.5 -244q-24 -146 -111 -258q-90 -113 -216.5 -175.5t-268.5 -62.5zM434 477q-10 -60 11 -107q43 -96 168 -96q59 0 111 26
q113 55 133 179q15 96 -34 150.5t-145 54.5q-97 0 -163 -55t-81 -152z" />
    <glyph glyph-name="seven" unicode="7" horiz-adv-x="1053" 
d="M91 0l738 1106h-654l46 288h1024l-34 -214l-782 -1180h-338z" />
    <glyph glyph-name="eight" unicode="8" horiz-adv-x="1169" 
d="M577 -29q-117 0 -208 24.5t-156.5 75t-92 135.5t-8.5 199q18 110 89 194t171 132q-133 91 -103 279q29 180 178 288.5t377 108.5q226 0 340 -108.5t85 -288.5q-30 -187 -212 -281q82 -49 123.5 -132t24.5 -192q-18 -113 -75 -199t-142 -136t-183 -74.5t-208 -24.5z
M455 410q-28 -176 167 -176q103 0 155.5 44t66.5 130q28 180 -167 180q-96 0 -152.5 -47t-69.5 -131zM605 999q-23 -150 124 -150q158 0 181 150q11 70 -21.5 107.5t-110.5 37.5q-74 0 -118 -38t-55 -107z" />
    <glyph glyph-name="nine" unicode="9" horiz-adv-x="1135" 
d="M249 0l355 434h-1q-137 0 -237 65q-102 66 -148 174.5t-25 243.5q23 147 112 258q89 112 217.5 175t267.5 63q142 0 251 -63q110 -65 162 -178t30 -253q-23 -145 -122 -268l-509 -651h-353zM501 915q-15 -94 32.5 -149.5t144.5 -55.5t163.5 54.5t82.5 152.5
q15 94 -34.5 148.5t-146.5 54.5q-59 0 -111 -26q-111 -53 -131 -179z" />
    <glyph glyph-name="colon" unicode=":" horiz-adv-x="575" 
d="M283 -27q-84 0 -129.5 55t-32.5 139q14 84 76.5 138.5t146.5 54.5q85 0 130.5 -54.5t31.5 -138.5q-13 -84 -75.5 -139t-147.5 -55zM240 913q14 85 76 139t146 54q85 0 130.5 -54t32.5 -139q-14 -83 -76.5 -137t-147.5 -54q-84 0 -129.5 54t-31.5 137z" />
    <glyph glyph-name="semicolon" unicode=";" horiz-adv-x="699" 
d="M43 -232l261 573h314l-11 -71l-281 -502h-283zM364 913q13 85 75.5 139t145.5 54q86 0 131.5 -54t32.5 -139q-14 -83 -77 -137t-148 -54q-83 0 -128.5 54t-31.5 137z" />
    <glyph glyph-name="less" unicode="&#x3c;" horiz-adv-x="986" 
d="M941 50l-812 427l23 149l948 428l-39 -248l-567 -254l486 -256z" />
    <glyph glyph-name="equal" unicode="=" horiz-adv-x="1057" 
d="M181 689l35 220h912l-35 -220h-912zM132 377l35 220h912l-35 -220h-912z" />
    <glyph glyph-name="greater" unicode="&#x3e;" horiz-adv-x="986" 
d="M61 50l39 246l567 256l-486 254l39 248l812 -428l-23 -149z" />
    <glyph glyph-name="question" unicode="?" horiz-adv-x="1087" 
d="M435 375q22 122 65.5 197.5t139.5 164.5q102 97 141.5 150.5t48.5 111.5q12 75 -16 110t-101 35q-79 0 -125.5 -52.5t-65.5 -171.5h-332q29 223 188.5 355t393.5 132q218 0 326 -106t80 -285q-18 -113 -83.5 -203.5t-190.5 -188.5q-97 -78 -129 -122.5t-48 -126.5h-292z
M368 155q12 80 71.5 131t138.5 51t123 -51t32 -131q-13 -79 -73 -130.5t-139 -51.5q-78 0 -122 51.5t-31 130.5z" />
    <glyph glyph-name="at" unicode="@" horiz-adv-x="1604" 
d="M713 -195q-102 0 -195.5 28t-173 84.5t-132.5 141.5t-74.5 199t1.5 257q24 152 93 287.5t165.5 234t212.5 170.5t238.5 108t239.5 36q146 0 263.5 -50.5t191.5 -139t104.5 -213.5t7.5 -269q-30 -186 -118 -319t-209 -196l59 -127q-205 -138 -354 -185t-320 -47zM393 521
q-37 -234 64 -351t295 -117q153 0 289 41l98 22q-55 0 -108 15.5t-86 44.5q-109 -74 -225 -74q-42 0 -82 11t-79.5 36.5t-64.5 68t-37 105t3 147.5q20 128 86 245.5t160 196t209.5 112t234.5 -6.5l-2 -12h182q-94 97 -292 97q-102 0 -205.5 -39t-194.5 -110t-157.5 -183.5
t-87.5 -248.5zM714 478q-6 -38 -8 -59t-0.5 -36.5t9.5 -21.5t19 -8.5t33 -2.5q57 0 103.5 51t102.5 199l26 69q28 73 23 96t-45 23q-91 0 -166 -84.5t-97 -225.5zM1155 383q-2 -14 1.5 -16.5t26.5 -2.5q78 0 135 75.5t82 230.5q28 176 -30 282l-176 -439q-34 -89 -39 -130z
" />
    <glyph glyph-name="A" unicode="A" horiz-adv-x="1350" 
d="M0 0l781 1394h230l339 -1394h-341l-64 306h-442l-162 -306h-341zM657 593h228l-64 308z" />
    <glyph glyph-name="B" unicode="B" horiz-adv-x="1259" 
d="M124 0l221 1394h569q211 0 318 -98t79 -271q-26 -167 -154 -267q168 -99 131 -336q-31 -197 -174 -309.5t-360 -112.5h-630zM482 293h299q94 0 139.5 32.5t57.5 107.5q11 73 -22 107.5t-117 34.5h-312zM572 861h268q134 0 153 126q10 60 -20 87t-106 27h-257z" />
    <glyph glyph-name="C" unicode="C" horiz-adv-x="1394" 
d="M702 -30q-198 0 -334 91q-138 92 -196 256t-24 379q35 218 145 381q110 165 277 256t363 91h30q200 0 336 -91q177 -117 220 -349l-311 -110q-31 129 -102 188t-193 59h-30q-110 0 -194 -50q-184 -102 -227 -375q-20 -133 8 -230q58 -194 278 -194h30q113 0 198 51
q113 66 174 200l281 -108q-24 -49 -58 -98q-111 -165 -277.5 -256t-363.5 -91h-30z" />
    <glyph glyph-name="D" unicode="D" horiz-adv-x="1259" 
d="M124 0l221 1394h371q345 0 506 -185t108 -523q-53 -330 -269.5 -508t-567.5 -178h-369zM482 293h32q144 0 250 36t167 122t86 245q25 154 -10 244q-35 86 -118 123.5t-224 37.5h-55z" />
    <glyph glyph-name="E" unicode="E" horiz-adv-x="1077" 
d="M124 0l221 1394h905l-46 -288h-593l-39 -249h551l-46 -286h-551l-44 -283h593l-46 -288h-905z" />
    <glyph glyph-name="F" unicode="F" horiz-adv-x="1077" 
d="M124 0l221 1394h905l-46 -288h-593l-39 -249h551l-46 -286h-551l-90 -571h-312z" />
    <glyph glyph-name="G" unicode="G" horiz-adv-x="1392" 
d="M702 -30q-198 0 -334 91q-138 92 -196 256t-24 379q35 218 145 381q110 165 277 256t363 91h30q200 0 336 -91q177 -117 220 -349l-311 -110q-31 129 -102 188t-193 59h-30q-110 0 -194 -50q-184 -102 -227 -375q-20 -133 8 -230q58 -194 278 -194h30q113 0 198 51
q94 54 153 159l7 34h-402l45 287h706l-128 -807h-305l8 47q-152 -73 -328 -73h-30z" />
    <glyph glyph-name="H" unicode="H" horiz-adv-x="1332" 
d="M124 0l221 1394h312l-84 -531h460l84 531h312l-221 -1394h-312l90 569h-460l-90 -569h-312z" />
    <glyph glyph-name="I" unicode="I" horiz-adv-x="560" 
d="M124 0l221 1394h312l-221 -1394h-312z" />
    <glyph glyph-name="J" unicode="J" horiz-adv-x="1192" 
d="M550 -30q-258 4 -370 141.5t-70 401.5l18 112h312l-13 -83q-16 -99 -6 -163q11 -59 50.5 -86t125.5 -30q65 2 110 18.5t74.5 52t46.5 84t29 122.5l135 854h312l-138 -871q-43 -268 -199.5 -408.5t-416.5 -144.5z" />
    <glyph glyph-name="K" unicode="K" horiz-adv-x="1356" 
d="M124 0l221 1394h312l-81 -512l567 512h424l-650 -572l416 -822h-371l-306 593l-146 -124l-74 -469h-312z" />
    <glyph glyph-name="L" unicode="L" horiz-adv-x="1116" 
d="M124 0l221 1394h312l-175 -1106h680l-46 -288h-992z" />
    <glyph glyph-name="M" unicode="M" horiz-adv-x="1689" 
d="M124 0l221 1394h417l171 -839l436 839h417l-221 -1394h-312l131 824l-379 -708h-283l-155 713l-131 -829h-312z" />
    <glyph glyph-name="N" unicode="N" horiz-adv-x="1371" 
d="M124 0l221 1394h305l376 -822l130 822h312l-221 -1394h-307l-374 823l-130 -823h-312z" />
    <glyph glyph-name="O" unicode="O" horiz-adv-x="1446" 
d="M702 -30q-198 0 -334 91q-138 92 -196 256t-24 379q35 218 145 381q110 165 277 256t363 91h30q200 0 336 -91q138 -92 195.5 -257t23.5 -380q-33 -214 -145 -379q-111 -165 -277.5 -256t-363.5 -91h-30zM462 696q-20 -133 8 -230q58 -194 278 -194h30q113 0 198 51
q184 108 226 373q21 130 -8 229q-61 196 -281 196h-30q-110 0 -194 -50q-184 -102 -227 -375z" />
    <glyph glyph-name="P" unicode="P" horiz-adv-x="1185" 
d="M124 0l221 1394h556q238 0 345 -106t75 -312q-33 -207 -176.5 -317.5t-377.5 -110.5h-246l-87 -548h-310zM566 834h221q107 0 158 30.5t63 109.5q13 76 -26.5 104t-151.5 28h-221z" />
    <glyph glyph-name="Q" unicode="Q" horiz-adv-x="1436" 
d="M1057 41q-150 -71 -325 -71h-30q-198 0 -334 91q-138 92 -196 256t-24 379q35 218 145 381q110 165 277 256t363 91h30q200 0 336 -91q138 -92 195.5 -257t23.5 -380q-33 -214 -145 -379q-28 -43 -64 -85l119 -138l-240 -206zM462 696q-20 -133 8 -230q58 -194 278 -194
h30q42 0 76 7l-201 234l233 215l230 -269q66 104 86 237q21 130 -8 229q-61 196 -281 196h-30q-110 0 -194 -50q-184 -102 -227 -375z" />
    <glyph glyph-name="R" unicode="R" horiz-adv-x="1339" 
d="M124 0l221 1394h560q171 0 268 -50q195 -99 153 -368q-45 -277 -281 -379l266 -597h-362l-231 546h-196l-86 -546h-312zM568 834h224q59 0 108 13q50 13 77 41t36 84q10 57 -11 85q-34 49 -167 49h-224z" />
    <glyph glyph-name="S" unicode="S" horiz-adv-x="1201" 
d="M627 -27q-263 0 -398 123.5t-106 358.5h333q-4 -106 49.5 -148t162.5 -42q91 0 140.5 23.5t58.5 79.5q12 74 -31.5 115.5t-175.5 73.5q-52 13 -94.5 27t-84.5 31.5t-73 38t-60 46t-45.5 54.5t-29.5 65.5t-13 78t6 91.5q20 127 106.5 224t207 145.5t255.5 48.5
q128 0 220.5 -37t143.5 -104t71.5 -151.5t11.5 -187.5h-336q8 112 -20.5 151t-125.5 39q-41 0 -70.5 -4t-55.5 -14t-41.5 -29.5t-19.5 -48.5q-11 -71 35 -109t190 -73q218 -52 310 -162t65 -282q-21 -130 -110 -227.5t-213 -146t-263 -48.5z" />
    <glyph glyph-name="T" unicode="T" horiz-adv-x="1137" 
d="M411 0l175 1106h-411l46 288h1137l-46 -288h-410l-175 -1106h-316z" />
    <glyph glyph-name="U" unicode="U" horiz-adv-x="1272" 
d="M630 -30q-258 4 -370 141.5t-70 401.5l140 881h312l-135 -852q-16 -99 -6 -163q10 -59 50 -86t126 -30q65 2 110 18.5t74.5 52t46.5 84t29 122.5l135 854h312l-138 -871q-43 -268 -199.5 -408.5t-416.5 -144.5z" />
    <glyph glyph-name="V" unicode="V" horiz-adv-x="1325" 
d="M548 0l-337 1394h343l195 -862l462 862h345l-777 -1394h-231z" />
    <glyph glyph-name="W" unicode="W" horiz-adv-x="1885" 
d="M410 0l-199 1394h329l112 -864l354 788h293l102 -788l388 864h326l-640 -1394h-288l-117 807l-370 -807h-290z" />
    <glyph glyph-name="X" unicode="X" horiz-adv-x="1368" 
d="M10 0l573 696l-352 698h375l224 -465l372 465h373l-573 -698l357 -696h-377l-229 456l-370 -456h-373z" />
    <glyph glyph-name="Y" unicode="Y" horiz-adv-x="1244" 
d="M468 0l67 421l-333 973h358l178 -640l391 640h355l-636 -973l-67 -421h-313z" />
    <glyph glyph-name="Z" unicode="Z" horiz-adv-x="1161" 
d="M25 0l39 247l811 859h-675l46 288h1112l-39 -247l-835 -859h699l-46 -288h-1112z" />
    <glyph glyph-name="bracketleft" unicode="[" horiz-adv-x="607" 
d="M100 -152l270 1704h493l-34 -215h-272l-202 -1274h272l-34 -215h-493z" />
    <glyph glyph-name="backslash" unicode="\" horiz-adv-x="762" 
d="M518 -57l-263 1495h234l264 -1495h-235z" />
    <glyph glyph-name="bracketright" unicode="]" horiz-adv-x="605" 
d="M-34 -152l34 215h271l202 1274h-271l34 215h492l-270 -1704h-492z" />
    <glyph glyph-name="asciicircum" unicode="^" horiz-adv-x="1127" 
d="M164 374l516 879h166l235 -879h-243l-132 515l-302 -515h-240z" />
    <glyph glyph-name="underscore" unicode="_" horiz-adv-x="847" 
d="M-16 -166l34 216h828l-34 -216h-828z" />
    <glyph glyph-name="grave" unicode="`" horiz-adv-x="994" 
d="M624 1398l-175 375h268l144 -375h-237z" />
    <glyph glyph-name="a" unicode="a" horiz-adv-x="1131" 
d="M455 -19q-172 0 -266 96.5t-71 245.5q14 89 61 155t118 102q86 47 254 56l281 15q2 57 -40.5 82t-143.5 25q-79 0 -162.5 -34t-149.5 -96l-127 218q124 93 244.5 135.5t255.5 42.5q236 0 345 -105.5t79 -293.5l-99 -625h-300l8 50q36 43 54 61q-64 -64 -159.5 -97
t-181.5 -33zM422 323q-7 -42 20 -63.5t88 -21.5q112 0 180 45.5t86 125.5l-246 -15q-75 -5 -95 -20q-28 -17 -33 -51z" />
    <glyph glyph-name="b" unicode="b" horiz-adv-x="1160" 
d="M116 0l221 1394h303l-64 -404q87 34 188 34h28q140 0 242 -67t147 -185q44 -115 20 -268q-19 -120 -73.5 -221.5t-133 -168t-171.5 -101t-196.5 -26.5t-200.5 60l-7 -47h-303zM490 504q-13 -105 28.5 -162.5t128.5 -57.5h22q98 0 158.5 55t78.5 165q39 246 -157 246h-28
q-192 0 -231 -246z" />
    <glyph glyph-name="c" unicode="c" horiz-adv-x="1092" 
d="M542 -19q-145 0 -249 68q-105 68 -152 187.5t-23 267.5q24 150 107 268q84 118 210.5 185t271.5 67h30q146 0 249 -67q136 -88 170 -253l-297 -119q-5 85 -45 125t-120 40h-30q-204 0 -243 -246q-19 -123 23.5 -186t140.5 -63h30q168 0 228 196l264 -117q-22 -50 -56 -98
q-85 -120 -210.5 -187.5t-268.5 -67.5h-30z" />
    <glyph glyph-name="d" unicode="d" horiz-adv-x="1160" 
d="M748 47q-113 -52 -219.5 -60t-188 26.5t-139.5 101t-80 168t-3 221.5q25 154 105 268q83 118 206 185t262 67h29q98 0 178 -34l64 404h302l-221 -1394h-302zM413 504q-18 -110 26 -165t142 -55h22q87 0 147 57.5t79 162.5q39 246 -152 246h-29q-196 0 -235 -246z" />
    <glyph glyph-name="e" unicode="e" 
d="M551 -19q-85 0 -155.5 19.5t-120.5 54.5t-87 83.5t-54.5 106t-23.5 122t7 131.5q16 99 63 192t119.5 168t177 120.5t224.5 45.5h26q151 0 248.5 -69t130.5 -183t10 -261q-11 -67 -30 -121h-677q7 -67 60.5 -102t137.5 -35h27q135 0 258 92l158 -189q-101 -72 -178 -110
q-127 -65 -294 -65h-27zM446 632h395q0 60 -40 94t-110 34h-26q-83 0 -124 -24q-66 -36 -95 -104z" />
    <glyph glyph-name="f" unicode="f" horiz-adv-x="783" 
d="M179 0l119 754h-169l40 251h171l11 66q20 131 77 206q104 136 303 136q109 0 192 -43l72 -34l-149 -244l-66 37q-38 19 -64 19q-30 0 -42.5 -16.5t-20.5 -62.5l-10 -64h200l-40 -251h-200l-119 -754h-305z" />
    <glyph glyph-name="g" unicode="g" horiz-adv-x="1201" 
d="M423 518q-19 -123 24 -186t141 -63h30q97 0 158 63t80 186q39 246 -160 246h-30q-204 0 -243 -246zM45 -7h328q14 -46 53 -68t116 -25q88 3 137.5 32t79.5 95q-90 -32 -185 -32h-30q-96 0 -178 32l-27 11q-33 16 -44 25q-104 67 -151 187t-24 268q24 150 107 268
q84 118 211 185.5t272 67.5h30q105 0 193 -37l6 40h312l-138 -871q-43 -275 -200 -417t-417 -147q-216 4 -330.5 101t-120.5 285z" />
    <glyph glyph-name="h" unicode="h" horiz-adv-x="1133" 
d="M116 0l221 1394h305l-69 -435q110 65 237 65h14q174 0 258 -100.5t56 -277.5l-102 -646h-305l89 559q17 108 -7.5 150.5t-102.5 42.5q-58 0 -98 -26q-84 -52 -115 -243l-76 -483h-305z" />
    <glyph glyph-name="i" unicode="i" horiz-adv-x="533" 
d="M109 0l159 1005h301l-159 -1005h-301zM291 1236q11 69 69.5 119.5t128.5 50.5t113 -49t32 -121q-12 -72 -70.5 -121.5t-128.5 -49.5t-112.5 50.5t-31.5 120.5z" />
    <glyph glyph-name="j" unicode="j" horiz-adv-x="539" 
d="M23 -403q-83 0 -154 31t-110 100l151 240q45 -33 93 -48t80.5 -8t36.5 34l168 1059h297l-168 -1059q-26 -164 -130 -256.5t-252 -92.5h-12zM307 1231q11 68 67 117t125 49q67 0 109 -49t31 -117q-10 -68 -67 -117t-125 -49q-69 0 -110 49t-30 117z" />
    <glyph glyph-name="k" unicode="k" horiz-adv-x="1138" 
d="M116 0l221 1394h305l-110 -695l339 306h394l-438 -387l301 -618h-361l-195 407l-102 -98l-49 -309h-305z" />
    <glyph glyph-name="l" unicode="l" horiz-adv-x="573" 
d="M369 -19q-114 0 -174 70.5t-38 208.5l180 1134h301l-173 -1088q-4 -27 1 -33t28 -6q38 0 106 24l-43 -271q-97 -39 -188 -39z" />
    <glyph glyph-name="m" unicode="m" horiz-adv-x="1662" 
d="M116 0l159 1005h305l-7 -45q111 64 237 64q83 0 149 -30q64 -28 104 -89q126 119 292 119q131 0 204 -60q70 -57 95.5 -145.5t9.5 -193.5l-99 -625h-303l90 568q10 67 1 108q-8 42 -30 59t-68 17q-74 0 -118 -57.5t-65 -187.5l-80 -507h-303l91 572q15 97 -7 138.5
t-84 41.5q-77 0 -122 -57.5t-66 -187.5l-80 -507h-305z" />
    <glyph glyph-name="n" unicode="n" horiz-adv-x="1133" 
d="M116 0l159 1005h305l-7 -46q110 65 237 65h14q174 0 258 -100.5t56 -277.5l-102 -646h-305l89 559q17 108 -7.5 150.5t-102.5 42.5q-58 0 -98 -26q-84 -52 -115 -243l-76 -483h-305z" />
    <glyph glyph-name="o" unicode="o" horiz-adv-x="1117" 
d="M542 -19q-145 0 -249 68q-105 68 -152 187.5t-23 267.5q24 150 107 268q84 118 210.5 185t271.5 67h30q146 0 249 -67q104 -69 150.5 -187t22.5 -266q-25 -152 -108 -268q-85 -120 -210.5 -187.5t-268.5 -67.5h-30zM421 504q-19 -123 23.5 -186t140.5 -63h30
q97 0 158.5 63t80.5 186q39 246 -160 246h-30q-204 0 -243 -246z" />
    <glyph glyph-name="p" unicode="p" horiz-adv-x="1160" 
d="M60 -356l220 1394h303l-7 -47q81 37 159.5 52t145 6.5t125.5 -35.5t100.5 -73t70 -107t35 -137t-5.5 -163q-20 -125 -77 -230t-137.5 -173t-175 -105t-196.5 -31.5t-194 52.5l-63 -403h-303zM492 515q-35 -218 157 -218h22q195 0 230 218q17 114 -24 176.5t-134 62.5h-22
q-91 0 -151 -62.5t-78 -176.5z" />
    <glyph glyph-name="q" unicode="q" horiz-adv-x="1160" 
d="M748 47q-89 -40 -176.5 -50t-161.5 9.5t-136 63.5t-99.5 112t-54 156t2.5 196q16 100 57 187.5t99 152t132 108.5t153.5 60.5t166 4t167.5 -55.5l7 47h302l-220 -1394h-302zM423 515q-35 -218 160 -218h22q191 0 226 218q18 114 -22.5 176.5t-131.5 62.5h-22
q-94 0 -154.5 -62.5t-77.5 -176.5z" />
    <glyph glyph-name="r" unicode="r" horiz-adv-x="842" 
d="M116 0l159 1005h305l-8 -50q105 69 229 69q95 0 167 -44l-137 -305q-77 47 -132 47q-109 0 -166 -108q-14 -40 -20 -62q-12 -44 -23 -115l-69 -437h-305z" />
    <glyph glyph-name="s" unicode="s" horiz-adv-x="1050" 
d="M533 -27q-212 0 -327.5 96t-96.5 285h328q-4 -73 29.5 -99.5t110.5 -26.5q65 0 91.5 9.5t31.5 39.5q6 40 -34.5 64t-162.5 55q-75 18 -130.5 43t-98 62.5t-59.5 91t-6 121.5q24 151 157.5 238.5t329.5 87.5q201 0 300 -102.5t80 -264.5h-326q0 65 -22.5 87.5t-89.5 22.5
q-52 0 -71.5 -10t-23.5 -39q-6 -37 31 -58t157 -50q168 -42 246 -119.5t56 -216.5q-16 -104 -90.5 -177t-179 -106.5t-230.5 -33.5z" />
    <glyph glyph-name="t" unicode="t" horiz-adv-x="743" 
d="M543 -12q-149 0 -224 92t-49 256l60 380h-207l46 289h207l62 389h298l-62 -389h218l-46 -289h-218l-60 -380q-4 -30 34 -35q65 -7 171 49q8 5 16 9l-53 -332q-79 -39 -181 -39h-12z" />
    <glyph glyph-name="u" unicode="u" horiz-adv-x="1114" 
d="M468 -19q-174 0 -258 101t-56 277l102 646h305l-88 -559q-17 -108 7 -150.5t102 -42.5q58 0 98 26q84 51 115 244l76 482h305l-159 -1005h-305l7 47q-112 -66 -237 -66h-14z" />
    <glyph glyph-name="v" unicode="v" horiz-adv-x="1078" 
d="M422 0l-253 1005h332l108 -563l290 563h328l-566 -1005h-239z" />
    <glyph glyph-name="w" unicode="w" horiz-adv-x="1501" 
d="M332 0l-150 1005h322l56 -488l221 488h253l67 -485l212 485h324l-471 -1005h-261l-74 520l-234 -520h-265z" />
    <glyph glyph-name="x" unicode="x" horiz-adv-x="1083" 
d="M1 0l423 507l-265 498h362l136 -281l224 281h361l-425 -498l265 -507h-360l-135 287l-227 -287h-359z" />
    <glyph glyph-name="y" unicode="y" horiz-adv-x="1086" 
d="M101 -361q-41 19 -72 41l182 281q50 -30 72.5 -33.5t35.5 18.5l77 137l-227 924h321l130 -526l295 526h321l-658 -1173q-86 -152 -214.5 -205t-252.5 5z" />
    <glyph glyph-name="z" unicode="z" horiz-adv-x="874" 
d="M25 0l32 203l519 540h-433l41 262h824l-34 -214l-503 -528h418l-42 -263h-822z" />
    <glyph glyph-name="braceleft" unicode="{" horiz-adv-x="550" 
d="M440 -152q-149 0 -212 58.5t-42 187.5q11 65 58 222q39 126 48 184q8 48 -19 69t-122 25l33 211q96 4 130 25t42 70q9 55 10 183q1 156 12 224q20 128 101.5 186.5t230.5 58.5h96l-34 -215h-68q-68 0 -85.5 -8.5t-22.5 -42.5q-6 -37 -7 -174q-3 -166 -11 -218
q-21 -132 -131 -191q91 -61 69 -197q-7 -48 -57 -218q-43 -137 -49 -175q-5 -33 9.5 -41.5t82.5 -8.5h68l-34 -215h-96z" />
    <glyph glyph-name="bar" unicode="|" horiz-adv-x="545" 
d="M107 -347l304 1919h221l-304 -1919h-221z" />
    <glyph glyph-name="braceright" unicode="}" horiz-adv-x="550" 
d="M-34 -152l34 215h68q68 0 85.5 8.5t22.5 41.5q6 38 7 175q1 155 11 218q21 133 131 191q-90 63 -69 197q8 56 57 218q44 140 49 174t-9.5 42.5t-82.5 8.5h-68l34 215h97q148 0 210.5 -58.5t42.5 -186.5q-10 -64 -58 -224q-39 -123 -48 -183q-8 -49 19 -70t121 -25
l-33 -211q-96 -4 -129.5 -24.5t-41.5 -69.5q-9 -56 -10 -184q-1 -157 -12 -222q-21 -129 -102 -187.5t-229 -58.5h-97z" />
    <glyph glyph-name="asciitilde" unicode="~" 
d="M152 398q4 187 85.5 286.5t209.5 99.5q62 0 113 -19t141 -74q74 -44 98.5 -55t50.5 -11q20 0 25 16t14 107q2 27 4 42h219q-7 -188 -88.5 -286.5t-210.5 -98.5q-60 0 -110 18.5t-143 74.5q-73 44 -98 55.5t-52 11.5q-14 0 -18.5 -5t-9 -31.5t-10.5 -86.5q-2 -28 -4 -44
h-216z" />
    <glyph glyph-name="uni00A0" unicode="&#xa0;" horiz-adv-x="329" 
 />
    <glyph glyph-name="exclamdown" unicode="&#xa1;" horiz-adv-x="651" 
d="M115 -305l184 1008h276l-135 -1008h-325zM289 921q13 79 73 130t138 51q79 0 123 -51t31 -130q-13 -80 -73 -131t-139 -51t-122.5 51t-30.5 131z" />
    <glyph glyph-name="cent" unicode="&#xa2;" horiz-adv-x="1068" 
d="M432 -13q-165 40 -248.5 191t-48.5 374q34 214 166.5 365t308.5 195l23 147h222l-22 -139q109 -21 183 -88.5t102 -170t4 -224.5h-219q14 112 -10.5 173.5t-94.5 85.5l-108 -683q144 51 179 242h220q-29 -181 -149 -307t-286 -161l-23 -143h-222zM361 560
q-42 -267 108 -341l104 661q-175 -82 -212 -320z" />
    <glyph glyph-name="sterling" unicode="&#xa3;" horiz-adv-x="986" 
d="M61 200q276 43 309 247q6 44 0.5 79t-25.5 85h-204l35 220h89q-15 85 -1 171q27 176 165 289.5t314 113.5q92 0 161 -28.5t108.5 -77.5t62 -115.5t20 -142.5t-16.5 -158h-221q33 170 0.5 236.5t-153.5 66.5q-89 0 -145.5 -46t-70.5 -137q-13 -78 22 -172h446l-35 -220
h-329q16 -85 4 -164q-20 -125 -104 -227h482l-35 -220h-910z" />
    <glyph glyph-name="currency" unicode="&#xa4;" horiz-adv-x="1211" 
d="M327 148l-130 158l126 110q-33 92 -17 198q18 108 80 200l-93 109l183 157l92 -109q98 48 199 48q104 0 186 -48l126 109l131 -157l-125 -110q33 -93 15 -199q-16 -105 -78 -198l90 -110l-181 -158l-91 110q-99 -48 -201 -48t-184 48zM531 614q-29 -185 143 -185t201 185
q30 185 -142 185q-173 0 -202 -185z" />
    <glyph glyph-name="yen" unicode="&#xa5;" horiz-adv-x="1215" 
d="M499 0l32 204h-319l39 245h319l13 82h-319l39 246h223l-288 604h269l240 -517l403 517h265l-478 -604h227l-39 -246h-320l-13 -82h320l-39 -245h-320l-32 -204h-222z" />
    <glyph glyph-name="brokenbar" unicode="&#xa6;" horiz-adv-x="545" 
d="M118 -278l123 774h221l-123 -774h-221zM258 608l123 773h221l-123 -773h-221z" />
    <glyph glyph-name="section" unicode="&#xa7;" horiz-adv-x="1099" 
d="M492 -302q-193 0 -290 117.5t-79 352.5h220q-1 -147 38.5 -199t149.5 -52q89 0 135.5 26t55.5 81q8 52 -4 77.5t-63 47.5t-168 48q-51 11 -99 30t-95.5 51.5t-80.5 73.5t-48.5 99t-5.5 124q31 190 203 291q-57 87 -39 202q24 151 145.5 244t283.5 93q71 0 128.5 -17.5
t96 -49t66.5 -74t40 -93t16 -106t-5 -112.5h-214q-2 141 -34 187t-131 46q-77 0 -116.5 -25.5t-49.5 -86.5q-10 -65 37.5 -97t155.5 -52q90 -16 161.5 -46t126 -75.5t78.5 -112.5t11 -149q-16 -99 -72.5 -174t-139.5 -121q62 -86 40 -219q-23 -149 -153 -239.5t-301 -90.5z
M383 580q-10 -64 40.5 -104t150.5 -62q68 -14 100 -25q196 10 217 149q11 67 -39.5 103t-195.5 66q-27 4 -81 19q-87 -11 -134 -42.5t-58 -103.5z" />
    <glyph glyph-name="dieresis" unicode="&#xa8;" horiz-adv-x="808" 
d="M485 1456q52 0 94.5 37t50.5 88q8 52 -22.5 89.5t-82.5 37.5q-51 0 -94.5 -37.5t-51.5 -89.5q-8 -51 23.5 -88t82.5 -37zM680 1581q-8 -51 23.5 -88t83.5 -37t94.5 37t50.5 88q8 52 -22.5 89.5t-82.5 37.5t-95.5 -37.5t-51.5 -89.5z" />
    <glyph glyph-name="copyright" unicode="&#xa9;" horiz-adv-x="1511" 
d="M757 6q-190 0 -333.5 93.5t-209.5 255t-35 354.5t147.5 354t290 254t362.5 93q142 0 260.5 -55t195.5 -148.5t110.5 -223.5t10.5 -274q-31 -193 -147.5 -354.5t-289.5 -255t-362 -93.5zM334 709q-25 -155 24.5 -280.5t160.5 -196.5t262 -71t284 71t222 196.5t114 280.5
q25 154 -24.5 279.5t-160.5 197t-261 71.5q-229 0 -406 -157t-215 -391zM503 709q30 188 155.5 304t281.5 116q72 0 130.5 -23t99 -66.5t56 -112t0.5 -154.5h-149q7 107 -29 155.5t-132 48.5q-102 0 -170.5 -74t-87.5 -192q-19 -123 26 -194t141 -71q95 0 148 45t83 155h154
q-38 -171 -150 -262.5t-266 -91.5q-148 0 -234 115.5t-57 301.5z" />
    <glyph glyph-name="ordfeminine" unicode="&#xaa;" horiz-adv-x="767" 
d="M369 1105q54 16 161 22l130 7q-5 33 -29.5 45t-79.5 12q-47 0 -74.5 -12.5t-62.5 -53.5l-146 119q132 151 315 151q145 0 225.5 -86t56.5 -237l-73 -458h-208l5 32q-85 -37 -171 -37q-131 0 -200 71t-50 189q20 129 127 200q10 8 74 36zM375 869q-6 -36 8 -46.5t71 -10.5
q62 0 110 31.5t67 87.5l-122 -7q-91 -3 -115 -19q-11 -7 -13.5 -12t-5.5 -24z" />
    <glyph glyph-name="guillemotleft" unicode="&#xab;" horiz-adv-x="998" 
d="M819 156l-233 350l343 349h284l-344 -349l234 -350h-284zM189 506l344 349h284l-344 -349l234 -350h-284z" />
    <glyph glyph-name="logicalnot" unicode="&#xac;" horiz-adv-x="961" 
d="M683 365l37 233h-572l34 218h793l-71 -451h-221z" />
    <glyph glyph-name="registered" unicode="&#xae;" horiz-adv-x="857" 
d="M537 688q-177 0 -270.5 112t-65.5 288t157 288t306 112t270.5 -112t65.5 -288t-157 -288t-306 -112zM305 1088q-21 -133 48.5 -217t199.5 -84t226 84t117 217t-48.5 218t-199.5 85t-226 -85t-117 -218zM422 898l63 398h141q34 0 51 -2q62 -6 91 -35t21 -76
q-11 -71 -93 -97q48 -12 44 -85q-4 -56 7 -103h-118q-1 34 0 82q0 49 -47 49h-34l-21 -131h-105zM561 1113h26q25 0 39 2q40 9 45 49q7 41 -30 48q-13 2 -36 2h-28z" />
    <glyph glyph-name="macron" unicode="&#xaf;" horiz-adv-x="707" 
d="M374 1468l34 219h425l-34 -219h-425z" />
    <glyph glyph-name="degree" unicode="&#xb0;" horiz-adv-x="689" 
d="M483 872q-115 0 -180 76.5t-46 191.5q17 113 107 189t204 76q115 0 179 -76t47 -189q-19 -115 -107.5 -191.5t-203.5 -76.5zM480 1140q-6 -35 -1 -41.5t39 -6.5q33 0 40.5 6.5t13.5 41.5q5 33 -0.5 39.5t-38.5 6.5t-40.5 -6.5t-12.5 -39.5z" />
    <glyph glyph-name="plusminus" unicode="&#xb1;" horiz-adv-x="985" 
d="M421 244l57 359h-329l34 220h329l58 364h221l-58 -364h329l-34 -220h-329l-57 -359h-221zM46 -43l35 220h879l-35 -220h-879z" />
    <glyph glyph-name="uni00B2" unicode="&#xb2;" horiz-adv-x="881" 
d="M260 847l23 147l330 265q73 59 106 92.5t43 55t16 60.5q8 48 -7.5 64t-72.5 16t-86.5 -22.5t-45.5 -79.5l-16 -99h-225l38 116q35 128 137.5 208.5t229.5 80.5q140 0 207.5 -82.5t48.5 -201.5q-14 -90 -70.5 -173t-178.5 -179l-81 -64h299l-32 -204h-663z" />
    <glyph glyph-name="uni00B3" unicode="&#xb3;" horiz-adv-x="866" 
d="M559 842q-87 0 -152 31t-97.5 84.5t-37 125t31.5 153.5h180l22 138l167 171h-319l32 206h639l-22 -143l-201 -205q76 -35 112 -105.5t23 -157.5q-21 -132 -127.5 -215t-250.5 -83zM499 1214q-38 -98 -19 -134t111 -36q75 0 107 21.5t40 74.5q7 48 -17.5 67t-100.5 19
q-39 0 -121 -12z" />
    <glyph glyph-name="acute" unicode="&#xb4;" horiz-adv-x="994" 
d="M575 1398l264 375h268l-293 -375h-239z" />
    <glyph glyph-name="paragraph" unicode="&#xb6;" 
d="M517 556q-8 0 -25 0.5t-25 1.5q-166 9 -243 128.5t-52 282.5q13 77 48 148t88 128t128 93t161 41q32 2 103 2h430l-249 -1572h-221l214 1353h-39l-214 -1353h-222z" />
    <glyph glyph-name="periodcentered" unicode="&#xb7;" horiz-adv-x="586" 
d="M358 417q-85 0 -132 56t-34 141q14 85 78.5 141t149.5 56q86 0 133.5 -56t34.5 -141q-14 -85 -79.5 -141t-150.5 -56z" />
    <glyph glyph-name="cedilla" unicode="&#xb8;" horiz-adv-x="998" 
d="M527 59q241 -29 211 -222q-19 -124 -142 -185t-310 -61q-87 0 -143 19l26 163q66 -24 148 -24q169 0 184 94q9 59 -47.5 83t-203.5 14l171 258h200z" />
    <glyph glyph-name="uni00B9" unicode="&#xb9;" horiz-adv-x="575" 
d="M357 856l96 608l-206 -117l40 250l277 152h145l-141 -893h-211z" />
    <glyph glyph-name="ordmasculine" unicode="&#xba;" horiz-adv-x="785" 
d="M485 619q-158 0 -242.5 111.5t-57.5 281.5t145.5 281t278.5 111h11q160 0 244 -111t57 -281t-146.5 -281.5t-278.5 -111.5h-11zM392 1012q-15 -98 15.5 -143t110.5 -45h11q81 0 125 45t59 143q16 97 -14.5 141.5t-110.5 44.5h-11q-80 0 -124.5 -44.5t-60.5 -141.5z" />
    <glyph glyph-name="guillemotright" unicode="&#xbb;" horiz-adv-x="963" 
d="M341 156l344 350l-234 349h284l233 -349l-343 -350h-284zM-55 156l343 350l-233 349h284l233 -349l-343 -350h-284z" />
    <glyph glyph-name="questiondown" unicode="&#xbf;" horiz-adv-x="1087" 
d="M486 -327q-218 0 -326 107t-80 286q18 112 83.5 201.5t192.5 188.5q96 76 127 121t48 129h292q-20 -121 -63.5 -197.5t-139.5 -166.5q-103 -96 -142 -149.5t-48 -111.5q-12 -75 15.5 -110.5t99.5 -35.5q79 0 126 53t67 172h330q-29 -223 -188.5 -355t-393.5 -132z
M527 924q13 80 72.5 131t138.5 51t122 -51.5t30 -130.5q-12 -78 -71 -129.5t-138 -51.5q-80 0 -123 51.5t-31 129.5z" />
    <glyph glyph-name="Agrave" unicode="&#xc0;" horiz-adv-x="1350" 
d="M0 0l781 1394h230l339 -1394h-341l-64 306h-442l-162 -306h-341zM657 593h228l-64 308zM662 1755h271l141 -346h-239z" />
    <glyph glyph-name="Aacute" unicode="&#xc1;" horiz-adv-x="1350" 
d="M0 0l781 1394h230l339 -1394h-341l-64 306h-442l-162 -306h-341zM657 593h228l-64 308zM731 1457l250 345h273l-282 -345h-241z" />
    <glyph glyph-name="Acircumflex" unicode="&#xc2;" horiz-adv-x="1350" 
d="M0 0l781 1394h230l339 -1394h-341l-64 306h-442l-162 -306h-341zM633 1516l280 374h145l126 -374h-221l-27 67l-50 -67h-253zM657 593h228l-64 308z" />
    <glyph glyph-name="Atilde" unicode="&#xc3;" horiz-adv-x="1350" 
d="M0 0l781 1394h230l339 -1394h-341l-64 306h-442l-162 -306h-341zM612 1478q30 267 213 267q71 0 147 -33q49 -21 67 -22q-2 12 7 49h197q-29 -268 -213 -268q-66 0 -147 34q-54 22 -66 23q2 -12 -8 -50h-197zM657 593h228l-64 308z" />
    <glyph glyph-name="Adieresis" unicode="&#xc4;" horiz-adv-x="1350" 
d="M0 0l781 1394h230l339 -1394h-341l-64 306h-442l-162 -306h-341zM657 593h228l-64 308zM658 1581q-7 -51 24.5 -88t82.5 -37q52 0 94.5 37t50.5 88q8 52 -22.5 89.5t-82.5 37.5q-51 0 -95 -37.5t-52 -89.5zM960 1581q-8 -51 23.5 -88t83.5 -37q51 0 94.5 37t50.5 88
q8 52 -23 89.5t-82 37.5q-52 0 -95.5 -37.5t-51.5 -89.5z" />
    <glyph glyph-name="Aring" unicode="&#xc5;" horiz-adv-x="1350" 
d="M0 0l781 1394h230l339 -1394h-341l-64 306h-442l-162 -306h-341zM657 593h228l-64 308zM711 1682q17 102 96 165.5t173 63.5q95 0 153.5 -64t41.5 -165q-16 -101 -95 -164.5t-173 -63.5t-153 63.5t-43 164.5zM881 1682q-4 -27 12 -44t41 -17t46 17t25 44t-11.5 44
t-40.5 17t-46.5 -17t-25.5 -44z" />
    <glyph glyph-name="AE" unicode="&#xc6;" horiz-adv-x="1641" 
d="M-13 0l780 1394h1048l-46 -288h-593l-39 -249h551l-46 -286h-551l-44 -283h593l-46 -288h-906l48 306h-246l-163 -306h-340zM643 593h139l59 370h-1z" />
    <glyph glyph-name="Ccedilla" unicode="&#xc7;" horiz-adv-x="1394" 
d="M744 -52q119 -14 173 -70.5t39 -151.5q-20 -124 -143.5 -185.5t-310.5 -61.5q-82 0 -143 19l26 164q68 -25 149 -25q169 0 185 95q9 59 -48.5 83t-203.5 14l101 152q-112 21 -200 80q-138 92 -196 256t-24 379q35 218 145 381q110 165 277 256t363 91h30q200 0 336 -91
q177 -117 220 -349l-311 -110q-31 129 -102 188t-193 59h-30q-110 0 -194 -50q-184 -102 -227 -375q-20 -133 8 -230q58 -194 278 -194h30q113 0 198 51q113 66 174 200l281 -108q-24 -49 -58 -98q-107 -160 -266.5 -250.5t-347.5 -96.5z" />
    <glyph glyph-name="Egrave" unicode="&#xc8;" horiz-adv-x="1077" 
d="M124 0l221 1394h905l-46 -288h-593l-39 -249h551l-46 -286h-551l-44 -283h593l-46 -288h-905zM543 1755h273l141 -346h-238z" />
    <glyph glyph-name="Eacute" unicode="&#xc9;" horiz-adv-x="1077" 
d="M124 0l221 1394h905l-46 -288h-593l-39 -249h551l-46 -286h-551l-44 -283h593l-46 -288h-905zM615 1457l250 345h271l-281 -345h-240z" />
    <glyph glyph-name="Ecircumflex" unicode="&#xca;" horiz-adv-x="1077" 
d="M124 0l221 1394h905l-46 -288h-593l-39 -249h551l-46 -286h-551l-44 -283h593l-46 -288h-905zM546 1516l279 374h145l161 -374h-256l-26 67l-50 -67h-253z" />
    <glyph glyph-name="Edieresis" unicode="&#xcb;" horiz-adv-x="1077" 
d="M124 0l221 1394h905l-46 -288h-593l-39 -249h551l-46 -286h-551l-44 -283h593l-46 -288h-905zM536 1581q-8 -51 23.5 -88t82.5 -37q52 0 94.5 37t50.5 88q8 52 -22.5 89.5t-82.5 37.5q-51 0 -94.5 -37.5t-51.5 -89.5zM837 1581q-7 -51 24.5 -88t82.5 -37q52 0 94.5 37
t50.5 88q8 52 -22.5 89.5t-82.5 37.5q-51 0 -95 -37.5t-52 -89.5z" />
    <glyph glyph-name="Igrave" unicode="&#xcc;" horiz-adv-x="446" 
d="M3 0l221 1394h312l-221 -1394h-312zM147 1755h271l141 -346h-239z" />
    <glyph glyph-name="Iacute" unicode="&#xcd;" horiz-adv-x="458" 
d="M110 0l221 1394h313l-221 -1394h-313zM353 1457l250 345h271l-283 -345h-238z" />
    <glyph glyph-name="Icircumflex" unicode="&#xce;" horiz-adv-x="313" 
d="M-7 0l221 1394h313l-221 -1394h-313zM105 1516l280 374h144l161 -374h-256l-26 67l-50 -67h-253z" />
    <glyph glyph-name="Idieresis" unicode="&#xcf;" horiz-adv-x="332" 
d="M-1 0l221 1394h312l-221 -1394h-312zM141 1581q-8 -51 23.5 -88t82.5 -37q52 0 94.5 37t50.5 88q8 52 -22.5 89.5t-82.5 37.5q-51 0 -94.5 -37.5t-51.5 -89.5zM442 1581q-8 -51 23.5 -88t83.5 -37t94.5 37t50.5 88q8 52 -22.5 89.5t-82.5 37.5t-95.5 -37.5t-51.5 -89.5z
" />
    <glyph glyph-name="Eth" unicode="&#xd0;" horiz-adv-x="1309" 
d="M173 0l85 537h-163l42 267h163l94 590h372q345 0 506 -185t108 -523q-53 -330 -270 -508t-567 -178h-370zM532 293h32q144 0 250 36q105 36 166.5 122.5t86.5 244.5q25 155 -11 244q-34 86 -117 123.5t-224 37.5h-55l-47 -297h218l-42 -267h-218z" />
    <glyph glyph-name="Ntilde" unicode="&#xd1;" horiz-adv-x="1371" 
d="M124 0l221 1394h305l376 -822l130 822h312l-221 -1394h-307l-374 823l-130 -823h-312zM633 1478q30 267 213 267q71 0 147 -33q49 -21 67 -22q-2 12 7 49h197q-29 -268 -213 -268q-66 0 -147 34q-56 22 -66 23q2 -12 -8 -50h-197z" />
    <glyph glyph-name="Ograve" unicode="&#xd2;" horiz-adv-x="1446" 
d="M702 -30q-198 0 -334 91q-138 92 -196 256t-24 379q35 218 145 381q101 151 250 240.5t326 103.5l-167 334h271l141 -346q102 -21 185 -76q138 -92 195.5 -257t23.5 -380q-33 -214 -145 -379q-111 -165 -277.5 -256t-363.5 -91h-30zM462 696q-20 -133 8 -230
q58 -194 278 -194h30q113 0 198 51q184 108 226 373q21 130 -8 229q-61 196 -281 196h-30q-110 0 -194 -50q-184 -102 -227 -375z" />
    <glyph glyph-name="Oacute" unicode="&#xd3;" horiz-adv-x="1446" 
d="M702 -30q-198 0 -334 91q-138 92 -196 256t-24 379q35 218 145 381q110 165 277 256t363 91h30q200 0 336 -91q138 -92 195.5 -257t23.5 -380q-33 -214 -145 -379q-111 -165 -277.5 -256t-363.5 -91h-30zM462 696q-20 -133 8 -230q58 -194 278 -194h30q113 0 198 51
q184 108 226 373q21 130 -8 229q-61 196 -281 196h-30q-110 0 -194 -50q-184 -102 -227 -375zM772 1457l250 345h272l-282 -345h-240z" />
    <glyph glyph-name="Ocircumflex" unicode="&#xd4;" horiz-adv-x="1446" 
d="M678 1516l280 374h144l161 -374h-256l-26 67l-50 -67h-253zM148 696q35 218 145 381q110 165 277 256t363 91h30q200 0 336 -91q138 -92 195.5 -257t23.5 -380q-33 -214 -145 -379q-111 -165 -277.5 -256t-363.5 -91h-30q-198 0 -334 91q-138 92 -196 256t-24 379z
M462 696q-20 -133 8 -230q58 -194 278 -194h30q113 0 198 51q184 108 226 373q21 130 -8 229q-61 196 -281 196h-30q-110 0 -194 -50q-184 -102 -227 -375z" />
    <glyph glyph-name="Otilde" unicode="&#xd5;" horiz-adv-x="1446" 
d="M702 -30q-198 0 -334 91q-138 92 -196 256t-24 379q35 218 145 381q110 165 277 256t363 91h30q200 0 336 -91q138 -92 195.5 -257t23.5 -380q-33 -214 -145 -379q-111 -165 -277.5 -256t-363.5 -91h-30zM462 696q-20 -133 8 -230q58 -194 278 -194h30q113 0 198 51
q184 108 226 373q21 130 -8 229q-61 196 -281 196h-30q-110 0 -194 -50q-184 -102 -227 -375zM660 1478q31 267 214 267q70 0 146 -33q49 -21 68 -22q-2 12 7 49h197q-30 -268 -214 -268q-65 0 -146 34q-56 22 -66 23q0 -16 -8 -50h-198z" />
    <glyph glyph-name="Odieresis" unicode="&#xd6;" horiz-adv-x="1446" 
d="M702 -30q-198 0 -334 91q-138 92 -196 256t-24 379q35 218 145 381q110 165 277 256t363 91h30q200 0 336 -91q138 -92 195.5 -257t23.5 -380q-33 -214 -145 -379q-111 -165 -277.5 -256t-363.5 -91h-30zM462 696q-20 -133 8 -230q58 -194 278 -194h30q113 0 198 51
q184 108 226 373q21 130 -8 229q-61 196 -281 196h-30q-110 0 -194 -50q-184 -102 -227 -375zM695 1581q-8 -51 23.5 -88t82.5 -37q52 0 94.5 37t50.5 88q8 52 -22.5 89.5t-82.5 37.5q-51 0 -94.5 -37.5t-51.5 -89.5zM996 1581q-8 -51 23.5 -88t83.5 -37t94.5 37t50.5 88
q8 52 -22.5 89.5t-82.5 37.5t-95.5 -37.5t-51.5 -89.5z" />
    <glyph glyph-name="multiply" unicode="&#xd7;" horiz-adv-x="1021" 
d="M809 218l-221 262l-303 -261l-133 153l305 263l-222 262l182 156l220 -262l307 263l126 -157l-302 -262l220 -262z" />
    <glyph glyph-name="Oslash" unicode="&#xd8;" horiz-adv-x="1497" 
d="M719 -30q-198 0 -334 91q-27 18 -37 27l-127 -111l-156 192l135 117q-72 175 -35 410q35 218 145 381q110 165 277 256t363 91h30q200 0 336 -91q27 -18 51 -39l126 108l157 -189l-143 -124q64 -168 28 -393q-33 -217 -145 -379q-111 -165 -277.5 -256t-363.5 -91h-30z
M475 523l636 549q-70 49 -181 49h-29q-111 0 -195 -50q-184 -103 -227 -375q-15 -96 -4 -173zM606 309q68 -37 160 -37h29q113 0 198 51q184 108 226 373q13 78 8 149z" />
    <glyph glyph-name="Ugrave" unicode="&#xd9;" horiz-adv-x="1272" 
d="M630 -30q-258 4 -370 141.5t-70 401.5l140 881h312l-135 -852q-16 -99 -6 -163q10 -59 50 -86t126 -30q65 2 110 18.5t74.5 52t46.5 84t29 122.5l135 854h312l-138 -871q-43 -268 -199.5 -408.5t-416.5 -144.5zM620 1755h272l141 -346h-240z" />
    <glyph glyph-name="Uacute" unicode="&#xda;" horiz-adv-x="1272" 
d="M630 -30q-258 4 -370 141.5t-70 401.5l140 881h312l-135 -852q-16 -99 -6 -163q10 -59 50 -86t126 -30q65 2 110 18.5t74.5 52t46.5 84t29 122.5l135 854h312l-138 -871q-43 -268 -199.5 -408.5t-416.5 -144.5zM691 1457l250 345h271l-283 -345h-238z" />
    <glyph glyph-name="Ucircumflex" unicode="&#xdb;" horiz-adv-x="1272" 
d="M630 -30q-258 4 -370 141.5t-70 401.5l140 881h312l-135 -852q-16 -99 -6 -163q10 -59 50 -86t126 -30q65 2 110 18.5t74.5 52t46.5 84t29 122.5l135 854h312l-138 -871q-43 -268 -199.5 -408.5t-416.5 -144.5zM583 1516l280 374h144l161 -374h-256l-26 67l-50 -67h-253z
" />
    <glyph glyph-name="Udieresis" unicode="&#xdc;" horiz-adv-x="1272" 
d="M630 -30q-258 4 -370 141.5t-70 401.5l140 881h312l-135 -852q-16 -99 -6 -163q10 -59 50 -86t126 -30q65 2 110 18.5t74.5 52t46.5 84t29 122.5l135 854h312l-138 -871q-43 -268 -199.5 -408.5t-416.5 -144.5zM616 1581q-8 -51 23.5 -88t82.5 -37q52 0 94.5 37t50.5 88
q8 52 -22.5 89.5t-82.5 37.5q-51 0 -94.5 -37.5t-51.5 -89.5zM917 1581q-8 -51 23.5 -88t83.5 -37t94.5 37t50.5 88q8 52 -22.5 89.5t-82.5 37.5t-95.5 -37.5t-51.5 -89.5z" />
    <glyph glyph-name="Yacute" unicode="&#xdd;" horiz-adv-x="1244" 
d="M468 0l67 421l-333 973h358l178 -640l391 640h355l-636 -973l-67 -421h-313zM673 1457l250 345h271l-282 -345h-239z" />
    <glyph glyph-name="Thorn" unicode="&#xde;" horiz-adv-x="1204" 
d="M124 0l221 1394h310l-31 -194h246q239 0 346 -105.5t74 -311.5q-33 -207 -176.5 -317.5t-377.5 -110.5h-246l-56 -355h-310zM536 641h221q107 0 158 30.5t63 109.5q12 76 -27 104t-151 28h-221z" />
    <glyph glyph-name="germandbls" unicode="&#xdf;" horiz-adv-x="1158" 
d="M678 -20q-108 0 -206 9l46 287q24 -1 108 -4t120 -4q76 3 96 13t26 46q5 32 -8 54t-77 88q-82 83 -107 148.5t-12 149.5q14 86 59.5 151t154.5 148q86 68 105 89t24 53q6 39 -14.5 49.5t-110.5 10.5q-150 0 -209 -38t-84 -146q-14 -62 -18 -92l-159 -1004h-298l159 1001
q3 21 11 62t9 50q47 212 214.5 332.5t422.5 121.5q193 1 297.5 -94.5t79.5 -257.5q-16 -98 -84 -183.5t-188 -175.5q-49 -35 -58 -45t-13 -32q-3 -20 3 -29.5t44 -45.5q91 -88 132 -174.5t26 -184.5q-26 -163 -161 -258t-330 -95z" />
    <glyph glyph-name="agrave" unicode="&#xe0;" horiz-adv-x="1070" 
d="M455 -19q-172 0 -266 96.5t-71 245.5q14 89 61 155t118 102q86 47 254 56l281 15q2 57 -40.5 82t-143.5 25q-79 0 -162.5 -34t-149.5 -96l-127 218q124 93 244.5 135.5t255.5 42.5q236 0 345 -105.5t79 -293.5l-99 -625h-300l8 50q36 43 54 61q-64 -64 -159.5 -97
t-181.5 -33zM422 323q-7 -42 20 -63.5t88 -21.5q112 0 180 45.5t86 125.5l-246 -15q-75 -5 -95 -20q-28 -17 -33 -51zM489 1512h270l144 -374h-237z" />
    <glyph glyph-name="aacute" unicode="&#xe1;" horiz-adv-x="1070" 
d="M455 -19q-172 0 -266 96.5t-71 245.5q14 89 61 155t118 102q86 47 254 56l281 15q2 57 -40.5 82t-143.5 25q-79 0 -162.5 -34t-149.5 -96l-127 218q124 93 244.5 135.5t255.5 42.5q236 0 345 -105.5t79 -293.5l-99 -625h-300l8 50q36 43 54 61q-64 -64 -159.5 -97
t-181.5 -33zM422 323q-7 -42 20 -63.5t88 -21.5q112 0 180 45.5t86 125.5l-246 -15q-75 -5 -95 -20q-28 -17 -33 -51zM579 1138l262 374h269l-293 -374h-238z" />
    <glyph glyph-name="acircumflex" unicode="&#xe2;" horiz-adv-x="1070" 
d="M455 -19q-172 0 -266 96.5t-71 245.5q14 89 61 155t118 102q86 47 254 56l281 15q2 57 -40.5 82t-143.5 25q-79 0 -162.5 -34t-149.5 -96l-127 218q124 93 244.5 135.5t255.5 42.5q236 0 345 -105.5t79 -293.5l-99 -625h-300l8 50q36 43 54 61q-64 -64 -159.5 -97
t-181.5 -33zM422 323q-7 -42 20 -63.5t88 -21.5q112 0 180 45.5t86 125.5l-246 -15q-75 -5 -95 -20q-28 -17 -33 -51zM463 1138l279 374h144l161 -374h-256l-26 67l-50 -67h-252z" />
    <glyph glyph-name="atilde" unicode="&#xe3;" horiz-adv-x="1070" 
d="M455 -19q-172 0 -266 96.5t-71 245.5q14 89 61 155t118 102q86 47 254 56l281 15q2 57 -40.5 82t-143.5 25q-79 0 -162.5 -34t-149.5 -96l-127 218q124 93 244.5 135.5t255.5 42.5q236 0 345 -105.5t79 -293.5l-99 -625h-300l8 50q36 43 54 61q-64 -64 -159.5 -97
t-181.5 -33zM422 323q-7 -42 20 -63.5t88 -21.5q112 0 180 45.5t86 125.5l-246 -15q-75 -5 -95 -20q-28 -17 -33 -51zM495 1223q29 267 213 267q71 0 147 -33q44 -20 66 -22q-2 12 8 49h197q-29 -268 -213 -268q-66 0 -147 34q-58 22 -66 23q2 -9 -8 -50h-197z" />
    <glyph glyph-name="adieresis" unicode="&#xe4;" horiz-adv-x="1070" 
d="M455 -19q-172 0 -266 96.5t-71 245.5q14 89 61 155t118 102q86 47 254 56l281 15q2 57 -40.5 82t-143.5 25q-79 0 -162.5 -34t-149.5 -96l-127 218q124 93 244.5 135.5t255.5 42.5q236 0 345 -105.5t79 -293.5l-99 -625h-300l8 50q36 43 54 61q-64 -64 -159.5 -97
t-181.5 -33zM422 323q-7 -42 20 -63.5t88 -21.5q112 0 180 45.5t86 125.5l-246 -15q-75 -5 -95 -20q-28 -17 -33 -51zM510 1323q-8 -51 23 -88t83 -37q51 0 94 37t51 88q8 52 -23 89.5t-82 37.5q-52 0 -95.5 -37.5t-50.5 -89.5zM812 1323q-8 -51 23 -88t82 -37q52 0 95 37
t51 88q8 52 -23 89.5t-83 37.5q-51 0 -94.5 -37.5t-50.5 -89.5z" />
    <glyph glyph-name="aring" unicode="&#xe5;" horiz-adv-x="1070" 
d="M455 -19q-172 0 -266 96.5t-71 245.5q14 89 61 155t118 102q86 47 254 56l281 15q2 57 -40.5 82t-143.5 25q-79 0 -162.5 -34t-149.5 -96l-127 218q124 93 244.5 135.5t255.5 42.5q236 0 345 -105.5t79 -293.5l-99 -625h-300l8 50q36 43 54 61q-64 -64 -159.5 -97
t-181.5 -33zM422 323q-7 -42 20 -63.5t88 -21.5q112 0 180 45.5t86 125.5l-246 -15q-75 -5 -95 -20q-28 -17 -33 -51zM563 1347q17 101 96 165t174 64t153.5 -64t41.5 -165q-16 -101 -95 -164.5t-173 -63.5q-95 0 -154 63.5t-43 164.5zM734 1347q-4 -27 11.5 -44t41.5 -17
q25 0 46 17t25 44t-11.5 44t-40.5 17q-26 0 -47 -17t-25 -44z" />
    <glyph glyph-name="ae" unicode="&#xe6;" horiz-adv-x="1767" 
d="M453 -19q-172 1 -265 97t-70 245q14 89 61 155t118 102q86 47 254 56l281 15q2 57 -40.5 82t-143.5 25q-79 0 -162.5 -34t-149.5 -96l-127 218q124 93 244.5 135.5t255.5 42.5q239 0 350 -109q148 109 336 109h26q151 0 248.5 -69t130.5 -183t10 -261q-11 -67 -30 -121
h-677q7 -67 60.5 -102t137.5 -35h27q158 0 285 116l126 -217q-97 -67 -173 -106q-127 -65 -294 -65h-27q-253 0 -370 169q-171 -168 -422 -169zM422 323q-7 -42 20 -63.5t88 -21.5q112 0 180 45.5t86 125.5l-246 -15q-75 -5 -95 -20q-28 -17 -33 -51zM1140 632h395
q0 60 -40 94t-110 34h-26q-83 0 -124 -24q-64 -34 -95 -104z" />
    <glyph glyph-name="ccedilla" unicode="&#xe7;" horiz-adv-x="1092" 
d="M118 504q24 150 107 268q84 118 210.5 185t271.5 67h30q146 0 249 -67q136 -88 170 -253l-297 -119q-5 85 -45 125t-120 40h-30q-204 0 -243 -246q-19 -123 23.5 -186t140.5 -63h30q168 0 228 196l264 -117q-22 -50 -56 -98q-68 -95 -161.5 -158t-202.5 -86
q102 -56 82 -183q-20 -125 -143 -186t-309 -61q-83 0 -144 19l26 164q68 -25 148 -25q170 0 185 94q9 59 -48 83.5t-204 13.5l70 106q-36 18 -57 32q-105 68 -152 187.5t-23 267.5z" />
    <glyph glyph-name="egrave" unicode="&#xe8;" 
d="M551 -19q-85 0 -155.5 19.5t-120.5 54.5t-87 83.5t-54.5 106t-23.5 122t7 131.5q16 99 63 192t119.5 168t177 120.5t224.5 45.5h26q151 0 248.5 -69t130.5 -183t10 -261q-11 -67 -30 -121h-677q7 -67 60.5 -102t137.5 -35h27q135 0 258 92l158 -189q-101 -72 -178 -110
q-127 -65 -294 -65h-27zM446 632h395q0 60 -40 94t-110 34h-26q-83 0 -124 -24q-66 -36 -95 -104zM488 1512h268l146 -374h-239z" />
    <glyph glyph-name="eacute" unicode="&#xe9;" 
d="M551 -19q-85 0 -155.5 19.5t-120.5 54.5t-87 83.5t-54.5 106t-23.5 122t7 131.5q16 99 63 192t119.5 168t177 120.5t224.5 45.5h26q151 0 248.5 -69t130.5 -183t10 -261q-11 -67 -30 -121h-677q7 -67 60.5 -102t137.5 -35h27q135 0 258 92l158 -189q-101 -72 -178 -110
q-127 -65 -294 -65h-27zM446 632h395q0 60 -40 94t-110 34h-26q-83 0 -124 -24q-66 -36 -95 -104zM544 1138l263 374h268l-293 -374h-238z" />
    <glyph glyph-name="ecircumflex" unicode="&#xea;" 
d="M551 -19q-85 0 -155.5 19.5t-120.5 54.5t-87 83.5t-54.5 106t-23.5 122t7 131.5q16 99 63 192t119.5 168t177 120.5t224.5 45.5h26q151 0 248.5 -69t130.5 -183t10 -261q-11 -67 -30 -121h-677q7 -67 60.5 -102t137.5 -35h27q135 0 258 92l158 -189q-101 -72 -178 -110
q-127 -65 -294 -65h-27zM427 1138l278 374h146l162 -374h-255l-28 68l-50 -68h-253zM446 632h395q0 60 -40 94t-110 34h-26q-83 0 -124 -24q-66 -36 -95 -104z" />
    <glyph glyph-name="edieresis" unicode="&#xeb;" 
d="M551 -19q-85 0 -155.5 19.5t-120.5 54.5t-87 83.5t-54.5 106t-23.5 122t7 131.5q16 99 63 192t119.5 168t177 120.5t224.5 45.5h26q151 0 248.5 -69t130.5 -183t10 -261q-11 -67 -30 -121h-677q7 -67 60.5 -102t137.5 -35h27q135 0 258 92l158 -189q-101 -72 -178 -110
q-127 -65 -294 -65h-27zM446 632h395q0 60 -40 94t-110 34h-26q-83 0 -124 -24q-66 -36 -95 -104zM478 1323q-8 -51 23 -88t82 -37q52 0 95 37t51 88q8 52 -23 89.5t-83 37.5q-51 0 -94.5 -37.5t-50.5 -89.5zM779 1323q-8 -51 23 -88t83 -37t95 37t51 88q8 52 -23 89.5
t-83 37.5t-95.5 -37.5t-50.5 -89.5z" />
    <glyph glyph-name="igrave" unicode="&#xec;" horiz-adv-x="521" 
d="M101 0l159 1005h301l-159 -1005h-301zM170 1512h270l145 -374h-236z" />
    <glyph glyph-name="iacute" unicode="&#xed;" horiz-adv-x="520" 
d="M133 0l159 1005h301l-159 -1005h-301zM296 1138l264 374h267l-293 -374h-238z" />
    <glyph glyph-name="icircumflex" unicode="&#xee;" horiz-adv-x="319" 
d="M-2 0l159 1005h301l-159 -1005h-301zM45 1138l282 374h143l164 -374h-256l-28 68l-50 -68h-255z" />
    <glyph glyph-name="idieresis" unicode="&#xef;" horiz-adv-x="336" 
d="M4 0l159 1005h301l-159 -1005h-301zM102 1323q-8 -51 23.5 -88t82.5 -37q52 0 95 37t51 88q8 52 -23 89.5t-83 37.5q-51 0 -95 -37.5t-51 -89.5zM404 1323q-8 -51 23 -88t83 -37q51 0 94.5 37t51.5 88q8 52 -23.5 89.5t-82.5 37.5q-52 0 -95.5 -37.5t-50.5 -89.5z" />
    <glyph glyph-name="eth" unicode="&#xf0;" horiz-adv-x="1147" 
d="M553 -48q-228 0 -349.5 161.5t-82.5 407.5q32 207 161 356t313 193l-18 223l87 23l-43 132h327l18 -56l158 41l26 -232l-110 -28l148 -442q16 -157 -26.5 -301.5t-127 -249t-206.5 -166.5t-259 -62h-16zM415 521q-23 -143 22.5 -210t162.5 -67h16q117 0 183 66.5
t89 210.5q22 142 -23 208.5t-162 66.5h-16q-117 0 -183.5 -66.5t-88.5 -208.5zM695 1085q12 1 38 1h6l-2 10z" />
    <glyph glyph-name="ntilde" unicode="&#xf1;" horiz-adv-x="1133" 
d="M116 0l159 1005h305l-7 -46q110 65 237 65h14q174 0 258 -100.5t56 -277.5l-102 -646h-305l89 559q17 108 -7.5 150.5t-102.5 42.5q-58 0 -98 -26q-84 -52 -115 -243l-76 -483h-305zM461 1223q29 267 213 267q71 0 146 -33q44 -20 67 -22q-2 12 8 49h197
q-30 -268 -214 -268q-65 0 -146 34q-58 22 -66 23q1 -5 -8 -50h-197z" />
    <glyph glyph-name="ograve" unicode="&#xf2;" horiz-adv-x="1117" 
d="M542 -19q-145 0 -249 68q-105 68 -152 187.5t-23 267.5q24 150 107 268q84 118 210.5 185t271.5 67h30q146 0 249 -67q104 -69 150.5 -187t22.5 -266q-25 -152 -108 -268q-85 -120 -210.5 -187.5t-268.5 -67.5h-30zM421 504q-19 -123 23.5 -186t140.5 -63h30
q97 0 158.5 63t80.5 186q39 246 -160 246h-30q-204 0 -243 -246zM506 1512h269l146 -374h-237z" />
    <glyph glyph-name="oacute" unicode="&#xf3;" horiz-adv-x="1117" 
d="M542 -19q-145 0 -249 68q-105 68 -152 187.5t-23 267.5q24 150 107 268q84 118 210.5 185t271.5 67h30q146 0 249 -67q104 -69 150.5 -187t22.5 -266q-25 -152 -108 -268q-85 -120 -210.5 -187.5t-268.5 -67.5h-30zM421 504q-19 -123 23.5 -186t140.5 -63h30
q97 0 158.5 63t80.5 186q39 246 -160 246h-30q-204 0 -243 -246zM564 1138l261 374h270l-294 -374h-237z" />
    <glyph glyph-name="ocircumflex" unicode="&#xf4;" horiz-adv-x="1117" 
d="M542 -19q-145 0 -249 68q-105 68 -152 187.5t-23 267.5q24 150 107 268q84 118 210.5 185t271.5 67h30q146 0 249 -67q104 -69 150.5 -187t22.5 -266q-25 -152 -108 -268q-85 -120 -210.5 -187.5t-268.5 -67.5h-30zM421 504q-19 -123 23.5 -186t140.5 -63h30
q97 0 158.5 63t80.5 186q39 246 -160 246h-30q-204 0 -243 -246zM445 1138l281 374h144l161 -374h-255l-26 67l-50 -67h-255z" />
    <glyph glyph-name="otilde" unicode="&#xf5;" horiz-adv-x="1117" 
d="M542 -19q-145 0 -249 68q-105 68 -152 187.5t-23 267.5q24 150 107 268q84 118 210.5 185t271.5 67h30q146 0 249 -67q104 -69 150.5 -187t22.5 -266q-25 -152 -108 -268q-85 -120 -210.5 -187.5t-268.5 -67.5h-30zM421 504q-19 -123 23.5 -186t140.5 -63h30
q97 0 158.5 63t80.5 186q39 246 -160 246h-30q-204 0 -243 -246zM461 1223q29 267 213 267q71 0 146 -33q44 -20 67 -22q-2 12 8 49h197q-30 -268 -214 -268q-65 0 -146 34q-58 22 -66 23q1 -5 -8 -50h-197z" />
    <glyph glyph-name="odieresis" unicode="&#xf6;" horiz-adv-x="1117" 
d="M542 -19q-145 0 -249 68q-105 68 -152 187.5t-23 267.5q24 150 107 268q84 118 210.5 185t271.5 67h30q146 0 249 -67q104 -69 150.5 -187t22.5 -266q-25 -152 -108 -268q-85 -120 -210.5 -187.5t-268.5 -67.5h-30zM421 504q-19 -123 23.5 -186t140.5 -63h30
q97 0 158.5 63t80.5 186q39 246 -160 246h-30q-204 0 -243 -246zM491 1323q-8 -51 23 -88t83 -37q51 0 94 37t51 88q8 52 -23 89.5t-82 37.5q-52 0 -95.5 -37.5t-50.5 -89.5zM793 1323q-8 -51 23 -88t82 -37q52 0 95 37t51 88q8 52 -23 89.5t-83 37.5q-51 0 -94.5 -37.5
t-50.5 -89.5z" />
    <glyph glyph-name="divide" unicode="&#xf7;" horiz-adv-x="985" 
d="M137 533l35 220h879l-35 -220h-879zM415 373q9 57 55.5 96.5t103.5 39.5t90.5 -39.5t24.5 -96.5q-9 -58 -55.5 -97.5t-103.5 -39.5t-90.5 40.5t-24.5 96.5zM500 911q9 58 55.5 97.5t103.5 39.5t91 -39.5t24 -97.5q-9 -58 -55.5 -97t-102.5 -39q-57 0 -91 39.5t-25 96.5z
" />
    <glyph glyph-name="oslash" unicode="&#xf8;" horiz-adv-x="1342" 
d="M211 -86l-156 191l202 164q-33 109 -12 235q24 149 106 268q85 118 211.5 185t271.5 67h30q143 0 248 -66l14 -10q0 1 -14 15l181 148l157 -189l-187 -153q46 -119 22 -265q-25 -152 -108 -268q-84 -120 -209.5 -187.5t-268.5 -67.5h-30q-146 0 -250 68q-10 5 -23 16z
M547 506l300 243q-8 1 -26 1h-30q-99 0 -161.5 -61t-82.5 -183zM644 266q31 -11 68 -11h30q96 0 158 63t81 186q2 14 4 40z" />
    <glyph glyph-name="ugrave" unicode="&#xf9;" horiz-adv-x="1114" 
d="M468 -19q-174 0 -258 101t-56 277l102 646h305l-88 -559q-17 -108 7 -150.5t102 -42.5q58 0 98 26q84 51 115 244l76 482h305l-159 -1005h-305l7 47q-112 -66 -237 -66h-14zM476 1512h270l144 -374h-236z" />
    <glyph glyph-name="uacute" unicode="&#xfa;" horiz-adv-x="1114" 
d="M468 -19q-174 0 -258 101t-56 277l102 646h305l-88 -559q-17 -108 7 -150.5t102 -42.5q58 0 98 26q84 51 115 244l76 482h305l-159 -1005h-305l7 47q-112 -66 -237 -66h-14zM601 1138l262 374h269l-293 -374h-238z" />
    <glyph glyph-name="ucircumflex" unicode="&#xfb;" horiz-adv-x="1114" 
d="M468 -19q-174 0 -258 101t-56 277l102 646h305l-88 -559q-17 -108 7 -150.5t102 -42.5q58 0 98 26q84 51 115 244l76 482h305l-159 -1005h-305l7 47q-112 -66 -237 -66h-14zM430 1138l279 374h145l162 -374h-257l-26 67l-50 -67h-253z" />
    <glyph glyph-name="udieresis" unicode="&#xfc;" horiz-adv-x="1114" 
d="M468 -19q-174 0 -258 101t-56 277l102 646h305l-88 -559q-17 -108 7 -150.5t102 -42.5q58 0 98 26q84 51 115 244l76 482h305l-159 -1005h-305l7 47q-112 -66 -237 -66h-14zM491 1323q-8 -51 23 -88t83 -37q51 0 94 37t51 88q8 52 -23 89.5t-82 37.5q-52 0 -95.5 -37.5
t-50.5 -89.5zM793 1323q-8 -51 23 -88t82 -37q52 0 95 37t51 88q8 52 -23 89.5t-83 37.5q-51 0 -94.5 -37.5t-50.5 -89.5z" />
    <glyph glyph-name="yacute" unicode="&#xfd;" horiz-adv-x="1086" 
d="M101 -361q-41 19 -72 41l182 281q50 -30 72.5 -33.5t35.5 18.5l77 137l-227 924h321l130 -526l295 526h321l-658 -1173q-86 -152 -214.5 -205t-252.5 5zM549 1138l263 374h269l-295 -374h-237z" />
    <glyph glyph-name="thorn" unicode="&#xfe;" horiz-adv-x="1160" 
d="M60 -356l277 1750h303l-64 -403q81 37 159.5 52t145 6.5t125.5 -35.5t100.5 -73t70 -107t35 -137t-5.5 -163q-20 -125 -77 -230t-137.5 -173t-175 -105t-196.5 -31.5t-194 52.5l-63 -403h-303zM492 515q-35 -218 157 -218h22q195 0 230 218q17 114 -24 176.5t-134 62.5
h-22q-91 0 -151 -62.5t-78 -176.5z" />
    <glyph glyph-name="ydieresis" unicode="&#xff;" horiz-adv-x="1086" 
d="M101 -361q-41 19 -72 41l182 281q50 -30 72.5 -33.5t35.5 18.5l77 137l-227 924h321l130 -526l295 526h321l-658 -1173q-86 -151 -214.5 -204.5t-252.5 4.5zM481 1323q-8 -51 23 -88t83 -37t95 37t51 88q8 52 -23 89.5t-83 37.5t-95.5 -37.5t-50.5 -89.5zM783 1323
q-8 -51 23 -88t83 -37q51 0 94 37t51 88q8 52 -23 89.5t-82 37.5q-52 0 -95.5 -37.5t-50.5 -89.5z" />
    <glyph glyph-name="Amacron" unicode="&#x100;" horiz-adv-x="1350" 
d="M0 0l781 1394h230l339 -1394h-341l-64 306h-442l-162 -306h-341zM657 593h228l-64 308zM699 1471l35 220h426l-35 -220h-426z" />
    <glyph glyph-name="amacron" unicode="&#x101;" horiz-adv-x="1070" 
d="M455 -19q-172 0 -266 96.5t-71 245.5q14 89 61 155t118 102q86 47 254 56l281 15q2 57 -40.5 82t-143.5 25q-79 0 -162.5 -34t-149.5 -96l-127 218q124 93 244.5 135.5t255.5 42.5q236 0 345 -105.5t79 -293.5l-99 -625h-300l8 50q36 43 54 61q-64 -64 -159.5 -97
t-181.5 -33zM422 323q-7 -42 20 -63.5t88 -21.5q112 0 180 45.5t86 125.5l-246 -15q-75 -5 -95 -20q-28 -17 -33 -51zM552 1206l35 221h425l-35 -221h-425z" />
    <glyph glyph-name="Abreve" unicode="&#x102;" horiz-adv-x="1350" 
d="M0 0l781 1394h230l339 -1394h-341l-64 306h-442l-162 -306h-341zM657 593h228l-64 308zM720 1834h215q-32 -106 -30.5 -128.5t43.5 -22.5q41 0 49 22.5t10 128.5h213q10 -158 -80.5 -264t-226.5 -106q-138 0 -194 104.5t1 265.5z" />
    <glyph glyph-name="abreve" unicode="&#x103;" horiz-adv-x="1070" 
d="M455 -19q-172 0 -266 96.5t-71 245.5q14 89 61 155t118 102q86 47 254 56l281 15q2 57 -40.5 82t-143.5 25q-79 0 -162.5 -34t-149.5 -96l-127 218q124 93 244.5 135.5t255.5 42.5q236 0 345 -105.5t79 -293.5l-99 -625h-300l8 50q36 43 54 61q-64 -64 -159.5 -97
t-181.5 -33zM422 323q-7 -42 20 -63.5t88 -21.5q112 0 180 45.5t86 125.5l-246 -15q-75 -5 -95 -20q-28 -17 -33 -51zM563 1501h213q-32 -105 -30 -128t42 -23q18 0 27 3t16.5 9.5t10.5 25.5t4 42.5t2 70.5h214q9 -158 -82.5 -264t-226.5 -106q-89 0 -147 48.5t-69.5 131
t26.5 190.5z" />
    <glyph glyph-name="Aogonek" unicode="&#x104;" horiz-adv-x="1374" 
d="M1037 -416q-111 0 -175.5 61.5t-48.5 163.5q11 71 51 123q13 17 36.5 42t24.5 26h84l-64 306h-442l-162 -306h-341l781 1394h230l335 -1380q-281 -101 -294 -184q-2 -16 2.5 -20.5t23.5 -4.5q56 0 129 87l126 -154q-134 -154 -296 -154zM657 593h228l-64 308zM892 0h33
q15 16 9 16t-42 -16z" />
    <glyph glyph-name="aogonek" unicode="&#x105;" horiz-adv-x="1182" 
d="M774 -403q-112 0 -176.5 61.5t-48.5 163.5q11 70 51 124q28 35 104 98q-117 -63 -249 -63q-172 0 -266 96.5t-71 245.5q14 89 61 155t118 102q86 47 254 56l281 15q2 57 -40.5 82t-143.5 25q-79 0 -162.5 -34t-149.5 -96l-127 218q124 93 244.5 135.5t255.5 42.5
q236 0 345 -105.5t79 -293.5l-95 -602q-57 -15 -149.5 -73.5t-100.5 -106.5q-2 -16 2.5 -20.5t23.5 -4.5q58 0 130 88l125 -154q-133 -155 -295 -155zM422 323q-7 -42 20 -63.5t88 -21.5q112 0 180 45.5t86 125.5l-246 -15q-75 -5 -95 -20q-28 -17 -33 -51z" />
    <glyph glyph-name="Cacute" unicode="&#x106;" horiz-adv-x="1394" 
d="M702 -30q-198 0 -334 91q-138 92 -196 256t-24 379q35 218 145 381q110 165 277 256t363 91h30q200 0 336 -91q177 -117 220 -349l-311 -110q-31 129 -102 188t-193 59h-30q-110 0 -194 -50q-184 -102 -227 -375q-20 -133 8 -230q58 -194 278 -194h30q113 0 198 51
q113 66 174 200l281 -108q-24 -49 -58 -98q-111 -165 -277.5 -256t-363.5 -91h-30zM748 1457l250 345h272l-282 -345h-240z" />
    <glyph glyph-name="cacute" unicode="&#x107;" horiz-adv-x="1092" 
d="M542 -19q-145 0 -249 68q-105 68 -152 187.5t-23 267.5q24 150 107 268q84 118 210.5 185t271.5 67h30q146 0 249 -67q136 -88 170 -253l-297 -119q-5 85 -45 125t-120 40h-30q-204 0 -243 -246q-19 -123 23.5 -186t140.5 -63h30q168 0 228 196l264 -117q-22 -50 -56 -98
q-85 -120 -210.5 -187.5t-268.5 -67.5h-30zM541 1138l263 374h268l-293 -374h-238z" />
    <glyph glyph-name="Ccircumflex" unicode="&#x108;" horiz-adv-x="1394" 
d="M664 1516l280 374h144l161 -374h-256l-26 67l-50 -67h-253zM148 696q35 218 145 381q110 165 277 256t363 91h30q200 0 336 -91q177 -117 220 -349l-311 -110q-31 129 -102 188t-193 59h-30q-110 0 -194 -50q-184 -102 -227 -375q-20 -133 8 -230q58 -194 278 -194h30
q113 0 198 51q113 66 174 200l281 -108q-24 -49 -58 -98q-111 -165 -277.5 -256t-363.5 -91h-30q-198 0 -334 91q-138 92 -196 256t-24 379z" />
    <glyph glyph-name="ccircumflex" unicode="&#x109;" horiz-adv-x="1092" 
d="M542 -19q-145 0 -249 68q-105 68 -152 187.5t-23 267.5q24 150 107 268q84 118 210.5 185t271.5 67h30q146 0 249 -67q136 -88 170 -253l-297 -119q-5 85 -45 125t-120 40h-30q-204 0 -243 -246q-19 -123 23.5 -186t140.5 -63h30q168 0 228 196l264 -117q-22 -50 -56 -98
q-85 -120 -210.5 -187.5t-268.5 -67.5h-30zM430 1138l282 374h144l161 -374h-255l-26 67l-50 -67h-256z" />
    <glyph glyph-name="Cdotaccent" unicode="&#x10a;" horiz-adv-x="1394" 
d="M702 -30q-198 0 -334 91q-138 92 -196 256t-24 379q35 218 145 381q110 165 277 256t363 91h30q200 0 336 -91q177 -117 220 -349l-311 -110q-31 129 -102 188t-193 59h-30q-110 0 -194 -50q-184 -102 -227 -375q-20 -133 8 -230q58 -194 278 -194h30q113 0 198 51
q113 66 174 200l281 -108q-24 -49 -58 -98q-111 -165 -277.5 -256t-363.5 -91h-30zM824 1581q8 52 51 89.5t96 37.5q51 0 82 -37.5t23 -89.5t-51 -88.5t-94 -36.5q-53 0 -84 36.5t-23 88.5z" />
    <glyph glyph-name="cdotaccent" unicode="&#x10b;" horiz-adv-x="1092" 
d="M542 -19q-145 0 -249 68q-105 68 -152 187.5t-23 267.5q24 150 107 268q84 118 210.5 185t271.5 67h30q146 0 249 -67q136 -88 170 -253l-297 -119q-5 85 -45 125t-120 40h-30q-204 0 -243 -246q-19 -123 23.5 -186t140.5 -63h30q168 0 228 196l264 -117q-22 -50 -56 -98
q-85 -120 -210.5 -187.5t-268.5 -67.5h-30zM619 1321q9 53 52 89.5t95 36.5q51 0 82.5 -37t23.5 -89q-8 -51 -51.5 -88.5t-94.5 -37.5q-53 0 -84 37.5t-23 88.5z" />
    <glyph glyph-name="Ccaron" unicode="&#x10c;" horiz-adv-x="1394" 
d="M702 -30q-198 0 -334 91q-138 92 -196 256t-24 379q35 218 145 381q110 165 277 256t363 91h30q200 0 336 -91q177 -117 220 -349l-311 -110q-31 129 -102 188t-193 59h-30q-110 0 -194 -50q-184 -102 -227 -375q-20 -133 8 -230q58 -194 278 -194h30q113 0 198 51
q113 66 174 200l281 -108q-24 -49 -58 -98q-111 -165 -277.5 -256t-363.5 -91h-30zM680 1802h266l33 -65l51 65h265l-294 -345h-135z" />
    <glyph glyph-name="ccaron" unicode="&#x10d;" horiz-adv-x="1092" 
d="M542 -19q-145 0 -249 68q-105 68 -152 187.5t-23 267.5q24 150 107 268q84 118 210.5 185t271.5 67h30q146 0 249 -67q136 -88 170 -253l-297 -119q-5 85 -45 125t-120 40h-30q-204 0 -243 -246q-19 -123 23.5 -186t140.5 -63h30q168 0 228 196l264 -117q-22 -50 -56 -98
q-85 -120 -210.5 -187.5t-268.5 -67.5h-30zM484 1512h254l29 -68l47 68h255l-280 -374h-144z" />
    <glyph glyph-name="Dcaron" unicode="&#x10e;" horiz-adv-x="1259" 
d="M124 0l221 1394h371q345 0 506 -185t108 -523q-53 -330 -269.5 -508t-567.5 -178h-369zM482 293h32q144 0 250 36t167 122t86 245q25 154 -10 244q-35 86 -118 123.5t-224 37.5h-55zM603 1802h265l33 -65l52 65h265l-294 -345h-135z" />
    <glyph glyph-name="dcaron" unicode="&#x10f;" horiz-adv-x="1305" 
d="M1222 1133l-179 -1135h-302l7 47q-113 -52 -219.5 -60t-188 26.5t-139.5 101t-80 168t-3 221.5q23 151 105 268q83 118 206 185t262 67h29q99 0 177 -34l64 404h302zM413 502q-18 -110 26 -165t142 -55h22q87 0 146.5 57.5t79.5 162.5q39 246 -153 246h-29
q-195 0 -234 -246zM1244 998l200 395l230 1l-206 -396h-224z" />
    <glyph glyph-name="Dcroat" unicode="&#x110;" horiz-adv-x="1309" 
d="M173 0l85 537h-163l42 267h163l94 590h372q345 0 506 -185t108 -523q-53 -330 -270 -508t-567 -178h-370zM532 293h32q144 0 250 36q105 36 166.5 122.5t86.5 244.5q25 155 -11 244q-34 86 -117 123.5t-224 37.5h-55l-47 -297h218l-42 -267h-218z" />
    <glyph glyph-name="dcroat" unicode="&#x111;" horiz-adv-x="1149" 
d="M748 47q-113 -52 -219.5 -60t-188 26.5t-139.5 101t-80 168t-3 221.5q25 154 105 268q83 118 206 185t262 67h29q98 0 178 -34l6 41h-132l44 277h132l14 86h302l-14 -86h123l-44 -277h-123l-163 -1031h-302zM413 504q-18 -110 26 -165t142 -55h22q87 0 147 57.5t79 162.5
q39 246 -152 246h-29q-196 0 -235 -246z" />
    <glyph glyph-name="Emacron" unicode="&#x112;" horiz-adv-x="1077" 
d="M124 0l221 1394h905l-46 -288h-593l-39 -249h551l-46 -286h-551l-44 -283h593l-46 -288h-905zM581 1471l35 220h426l-35 -220h-426z" />
    <glyph glyph-name="emacron" unicode="&#x113;" 
d="M551 -19q-85 0 -155.5 19.5t-120.5 54.5t-87 83.5t-54.5 106t-23.5 122t7 131.5q16 99 63 192t119.5 168t177 120.5t224.5 45.5h26q151 0 248.5 -69t130.5 -183t10 -261q-11 -67 -30 -121h-677q7 -67 60.5 -102t137.5 -35h27q135 0 258 92l158 -189q-101 -72 -178 -110
q-127 -65 -294 -65h-27zM446 632h395q0 60 -40 94t-110 34h-26q-83 0 -124 -24q-66 -36 -95 -104zM517 1206l35 221h426l-35 -221h-426z" />
    <glyph glyph-name="Ebreve" unicode="&#x114;" horiz-adv-x="1077" 
d="M124 0l221 1394h905l-46 -288h-593l-39 -249h551l-46 -286h-551l-44 -283h593l-46 -288h-905zM664 1841h214q-33 -106 -31 -128t44 -22q41 0 49.5 22t10.5 128h213q9 -157 -81.5 -263t-226.5 -106q-137 0 -193.5 104t1.5 265z" />
    <glyph glyph-name="ebreve" unicode="&#x115;" 
d="M551 -19q-85 0 -155.5 19.5t-120.5 54.5t-87 83.5t-54.5 106t-23.5 122t7 131.5q16 99 63 192t119.5 168t177 120.5t224.5 45.5h26q151 0 248.5 -69t130.5 -183t10 -261q-11 -67 -30 -121h-677q7 -67 60.5 -102t137.5 -35h27q135 0 258 92l158 -189q-101 -72 -178 -110
q-127 -65 -294 -65h-27zM446 632h395q0 60 -40 94t-110 34h-26q-83 0 -124 -24q-66 -36 -95 -104zM525 1501h214q-32 -106 -30 -128.5t42 -22.5q42 0 50.5 22.5t8.5 128.5h214q10 -158 -81.5 -264t-226.5 -106q-136 0 -192.5 104.5t1.5 265.5z" />
    <glyph glyph-name="Edotaccent" unicode="&#x116;" horiz-adv-x="1077" 
d="M124 0l221 1394h905l-46 -288h-593l-39 -249h551l-46 -286h-551l-44 -283h593l-46 -288h-905zM685 1581q8 52 52 89.5t96 37.5t82.5 -37.5t22.5 -89.5q-8 -51 -50.5 -88t-94.5 -37t-84 36.5t-24 88.5z" />
    <glyph glyph-name="edotaccent" unicode="&#x117;" 
d="M551 -19q-85 0 -155.5 19.5t-120.5 54.5t-87 83.5t-54.5 106t-23.5 122t7 131.5q16 99 63 192t119.5 168t177 120.5t224.5 45.5h26q151 0 248.5 -69t130.5 -183t10 -261q-11 -67 -30 -121h-677q7 -67 60.5 -102t137.5 -35h27q135 0 258 92l158 -189q-101 -72 -178 -110
q-127 -65 -294 -65h-27zM446 632h395q0 60 -40 94t-110 34h-26q-83 0 -124 -24q-66 -36 -95 -104zM622 1321q8 52 51 89t95 37t82.5 -37t22.5 -89q-8 -51 -50 -88.5t-95 -37.5t-83.5 37.5t-22.5 88.5z" />
    <glyph glyph-name="Eogonek" unicode="&#x118;" horiz-adv-x="1113" 
d="M729 -414q-112 0 -176.5 61.5t-48.5 163.5q11 72 52 123q28 35 64 66h-496l221 1394h905l-46 -288h-593l-39 -249h551l-46 -286h-551l-44 -283h593l-46 -288h-35q-239 -93 -251 -169q-2 -15 3 -19.5t24 -4.5q56 0 129 87l125 -154q-134 -154 -295 -154z" />
    <glyph glyph-name="eogonek" unicode="&#x119;" 
d="M472 -403q-112 0 -176.5 61.5t-48.5 163.5q10 67 51 124q26 32 65 65q-99 36 -161.5 112t-82 171.5t-2.5 203.5q16 99 63 192t119.5 168t177 120.5t224.5 45.5h26q151 0 248.5 -69t130.5 -183t10 -261q-11 -67 -30 -121h-677q7 -67 60.5 -102t137.5 -35h27q135 0 258 92
l158 -189q-101 -72 -178 -110q-93 -47 -196 -59q-180 -78 -190 -144q-2 -16 3 -20.5t24 -4.5q57 0 129 88l125 -154q-133 -155 -295 -155zM446 632h395q0 60 -40 94t-110 34h-26q-83 0 -124 -24q-66 -36 -95 -104z" />
    <glyph glyph-name="Ecaron" unicode="&#x11a;" horiz-adv-x="1077" 
d="M124 0l221 1394h905l-46 -288h-593l-39 -249h551l-46 -286h-551l-44 -283h593l-46 -288h-905zM540 1802h266l33 -65l51 65h265l-294 -345h-135z" />
    <glyph glyph-name="ecaron" unicode="&#x11b;" 
d="M551 -19q-85 0 -155.5 19.5t-120.5 54.5t-87 83.5t-54.5 106t-23.5 122t7 131.5q16 99 63 192t119.5 168t177 120.5t224.5 45.5h26q151 0 248.5 -69t130.5 -183t10 -261q-11 -67 -30 -121h-677q7 -67 60.5 -102t137.5 -35h27q135 0 258 92l158 -189q-101 -72 -178 -110
q-127 -65 -294 -65h-27zM446 632h395q0 60 -40 94t-110 34h-26q-83 0 -124 -24q-66 -36 -95 -104zM486 1512h256l28 -69l48 69h254l-280 -374h-146z" />
    <glyph glyph-name="Gcircumflex" unicode="&#x11c;" horiz-adv-x="1392" 
d="M686 1516l280 374h145l161 -374h-256l-26 67l-50 -67h-254zM148 696q35 218 145 381q110 165 277 256t363 91h30q200 0 336 -91q177 -117 220 -349l-311 -110q-31 129 -102 188t-193 59h-30q-110 0 -194 -50q-184 -102 -227 -375q-20 -133 8 -230q58 -194 278 -194h30
q113 0 198 51q94 54 153 159l7 34h-402l45 287h706l-128 -807h-305l8 47q-152 -73 -328 -73h-30q-198 0 -334 91q-138 92 -196 256t-24 379z" />
    <glyph glyph-name="gcircumflex" unicode="&#x11d;" horiz-adv-x="1201" 
d="M454 1138l279 374h145l161 -374h-254l-29 68l-50 -68h-252zM45 -7h328q14 -46 53 -68t116 -25q88 3 137.5 32t79.5 95q-90 -32 -185 -32h-30q-96 0 -178 32l-27 11q-33 16 -44 25q-104 67 -151 187t-24 268q24 150 107 268q84 118 211 185.5t272 67.5h30q105 0 193 -37
l6 40h312l-138 -871q-43 -275 -200 -417t-417 -147q-216 4 -330.5 101t-120.5 285zM423 518q-19 -123 24 -186t141 -63h30q97 0 158 63t80 186q39 246 -160 246h-30q-204 0 -243 -246z" />
    <glyph glyph-name="Gbreve" unicode="&#x11e;" horiz-adv-x="1392" 
d="M702 -30q-198 0 -334 91q-138 92 -196 256t-24 379q35 218 145 381q110 165 277 256t363 91h30q200 0 336 -91q177 -117 220 -349l-311 -110q-31 129 -102 188t-193 59h-30q-110 0 -194 -50q-184 -102 -227 -375q-20 -133 8 -230q58 -194 278 -194h30q113 0 198 51
q94 54 153 159l7 34h-402l45 287h706l-128 -807h-305l8 47q-152 -73 -328 -73h-30zM763 1852h213q-33 -112 -29 -132q11 -18 42 -19q41 0 50 22.5t11 128.5h212q10 -158 -81 -264t-226 -106q-137 0 -193.5 105t1.5 265z" />
    <glyph glyph-name="gbreve" unicode="&#x11f;" horiz-adv-x="1201" 
d="M754 1501q-33 -114 -29 -134q11 -16 41 -17q42 0 50.5 22.5t8.5 128.5h215q10 -158 -82 -264t-227 -106q-136 0 -192 105t3 265h212zM45 -7h328q14 -46 53 -68t116 -25q88 3 137.5 32t79.5 95q-90 -32 -185 -32h-30q-96 0 -178 32l-27 11q-33 16 -44 25q-104 67 -151 187
t-24 268q24 150 107 268q84 118 211 185.5t272 67.5h30q105 0 193 -37l6 40h312l-138 -871q-43 -275 -200 -417t-417 -147q-216 4 -330.5 101t-120.5 285zM423 518q-19 -123 24 -186t141 -63h30q97 0 158 63t80 186q39 246 -160 246h-30q-204 0 -243 -246z" />
    <glyph glyph-name="Gdotaccent" unicode="&#x120;" horiz-adv-x="1392" 
d="M702 -30q-198 0 -334 91q-138 92 -196 256t-24 379q35 218 145 381q110 165 277 256t363 91h30q200 0 336 -91q177 -117 220 -349l-311 -110q-31 129 -102 188t-193 59h-30q-110 0 -194 -50q-184 -102 -227 -375q-20 -133 8 -230q58 -194 278 -194h30q113 0 198 51
q94 54 153 159l7 34h-402l45 287h706l-128 -807h-305l8 47q-152 -73 -328 -73h-30zM844 1581q8 52 51 89.5t96 37.5q52 0 82.5 -37.5t22.5 -89.5q-8 -51 -50.5 -88t-94.5 -37t-83.5 37t-23.5 88z" />
    <glyph glyph-name="gdotaccent" unicode="&#x121;" horiz-adv-x="1201" 
d="M655 1321q8 52 51 89t95 37t84 -36.5t23 -89.5q-8 -51 -51.5 -88.5t-95.5 -37.5t-83 37.5t-23 88.5zM45 -7h328q14 -46 53 -68t116 -25q88 3 137.5 32t79.5 95q-90 -32 -185 -32h-30q-96 0 -178 32l-27 11q-33 16 -44 25q-104 67 -151 187t-24 268q24 150 107 268
q84 118 211 185.5t272 67.5h30q105 0 193 -37l6 40h312l-138 -871q-43 -275 -200 -417t-417 -147q-216 4 -330.5 101t-120.5 285zM423 518q-19 -123 24 -186t141 -63h30q97 0 158 63t80 186q39 246 -160 246h-30q-204 0 -243 -246z" />
    <glyph glyph-name="uni0122" unicode="&#x122;" horiz-adv-x="1590" 
d="M554 -513l202 395h199l-18 -118l-159 -277h-224zM230 696q35 218 145 381q110 165 277 256t363 91h30q200 0 336 -91q177 -117 220 -349l-311 -110q-32 129 -102.5 188t-192.5 59h-30q-110 0 -194 -50q-184 -102 -227 -375q-21 -136 8 -230q58 -194 278 -194h30
q113 0 198 51q94 54 153 159l7 34h-402l45 287h705l-128 -807h-304l8 47q-154 -73 -328 -73h-30q-198 0 -334 91q-138 92 -196 256t-24 379z" />
    <glyph glyph-name="uni0123" unicode="&#x123;" horiz-adv-x="1227" 
d="M791 1140l18 118l159 277h223l-200 -395h-200zM96 -7h329q13 -46 52 -68t116 -25q88 3 138 32.5t79 94.5q-90 -32 -185 -32h-29q-97 0 -179 32l-26 11q-32 15 -45 25q-104 68 -151 187.5t-24 267.5q24 150 107 268q85 118 212 185.5t272 67.5h29q105 0 193 -37l6 40h313
l-138 -871q-43 -275 -200 -417t-418 -147q-216 4 -330 101t-121 285zM474 518q-19 -123 24 -186t142 -63h29q97 0 158 63t80 186q39 246 -160 246h-29q-205 0 -244 -246z" />
    <glyph glyph-name="Hcircumflex" unicode="&#x124;" horiz-adv-x="1332" 
d="M124 0l221 1394h312l-84 -531h460l84 531h312l-221 -1394h-312l90 569h-460l-90 -569h-312zM606 1516l279 374h145l161 -374h-256l-26 67l-50 -67h-253z" />
    <glyph glyph-name="hcircumflex" unicode="&#x125;" horiz-adv-x="1008" 
d="M-9 0l221 1394h305l-69 -435q112 65 238 65h13q174 0 258 -100.5t56 -277.5l-102 -646h-305l89 559q17 108 -7.5 150.5t-102.5 42.5q-58 0 -98 -26q-84 -52 -115 -243l-76 -483h-305zM97 1516l280 374h145l161 -374h-256l-27 67l-50 -67h-253z" />
    <glyph glyph-name="Hbar" unicode="&#x126;" horiz-adv-x="1362" 
d="M140 0l145 914h-129l42 267h129l34 213h312l-34 -213h460l34 213h312l-34 -213h129l-43 -271h-129l-144 -910h-312l90 569h-460l-90 -569h-312zM589 863h460l8 51h-460z" />
    <glyph glyph-name="hbar" unicode="&#x127;" horiz-adv-x="1121" 
d="M105 0l167 1055h-122l40 253h122l14 86h304l-14 -86h121l-40 -253h-121l-15 -96q112 65 238 65h13q175 0 258.5 -100.5t55.5 -277.5l-102 -646h-304l89 559q17 108 -7.5 150.5t-102.5 42.5q-59 0 -98 -26q-85 -51 -116 -243l-76 -483h-304z" />
    <glyph glyph-name="Itilde" unicode="&#x128;" horiz-adv-x="329" 
d="M8 0l221 1394h312l-221 -1394h-312zM104 1478q30 267 213 267q71 0 146 -33q49 -21 68 -22q-2 12 7 49h197q-30 -268 -214 -268q-65 0 -146 34q-56 22 -66 23q2 -9 -8 -50h-197z" />
    <glyph glyph-name="itilde" unicode="&#x129;" horiz-adv-x="314" 
d="M-13 0l159 1005h301l-159 -1005h-301zM56 1223q29 267 213 267q71 0 147 -33q44 -20 66 -22q-2 12 8 49h197q-29 -268 -213 -268q-66 0 -147 34q-56 22 -66 23q2 -9 -8 -50h-197z" />
    <glyph glyph-name="Imacron" unicode="&#x12a;" horiz-adv-x="251" 
d="M-30 0l221 1394h312l-221 -1394h-312zM145 1471l35 220h427l-35 -220h-427z" />
    <glyph glyph-name="imacron" unicode="&#x12b;" horiz-adv-x="236" 
d="M-34 0l159 1005h301l-159 -1005h-301zM96 1206l35 221h426l-35 -221h-426z" />
    <glyph glyph-name="Ibreve" unicode="&#x12c;" horiz-adv-x="278" 
d="M-14 0l221 1394h312l-221 -1394h-312zM183 1851h214q-32 -106 -31 -128.5t42 -22.5q42 0 50.5 22.5t8.5 128.5h215q10 -158 -81.5 -264t-226.5 -106q-136 0 -192.5 104.5t1.5 265.5z" />
    <glyph glyph-name="ibreve" unicode="&#x12d;" horiz-adv-x="291" 
d="M-9 0l159 1005h301l-159 -1005h-301zM134 1501h213q-32 -105 -30 -128t43 -23q18 0 27.5 3t16.5 9t10 26t4 43t2 70h214q9 -158 -82.5 -264t-226.5 -106q-89 0 -147 48.5t-69.5 131t25.5 190.5z" />
    <glyph glyph-name="Iogonek" unicode="&#x12e;" horiz-adv-x="435" 
d="M44 49l213 1345h312l-213 -1344h4q-151 -64 -164 -147q-3 -16 2 -20.5t25 -4.5q55 0 129 88l124 -154q-131 -155 -294 -155q-112 0 -177 61.5t-49 163.5q12 71 53 124q7 10 38 43h-3z" />
    <glyph glyph-name="iogonek" unicode="&#x12f;" horiz-adv-x="537" 
d="M327 0q-150 -65 -163 -148q-3 -16 1.5 -20t24.5 -4q57 0 129 87l125 -154q-134 -154 -295 -154q-111 0 -176.5 61t-49.5 163q13 73 53 124q20 28 53 56l157 994h300zM208 1236q11 69 69.5 119.5t128.5 50.5t113 -49t32 -121q-12 -72 -70.5 -121.5t-128.5 -49.5
t-112.5 50.5t-31.5 120.5z" />
    <glyph glyph-name="Idotaccent" unicode="&#x130;" horiz-adv-x="518" 
d="M103 0l221 1394h312l-221 -1394h-312zM389 1581q8 52 51 89.5t96 37.5t82.5 -37.5t21.5 -89.5q-8 -51 -50 -88t-94 -37t-83.5 37t-23.5 88z" />
    <glyph glyph-name="dotlessi" unicode="&#x131;" horiz-adv-x="625" 
d="M162 0l159 1005h301l-159 -1005h-301z" />
    <glyph glyph-name="IJ" unicode="&#x132;" horiz-adv-x="1782" 
d="M1140 -30q-257 4 -369.5 141.5t-70.5 401.5l18 112h312l-13 -83q-15 -94 -6 -163q11 -59 50.5 -86t125.5 -30q65 2 110 18.5t74.5 52t46.5 84t29 122.5l135 854h313l-138 -871q-43 -268 -200 -408.5t-417 -144.5zM109 0l221 1394h312l-221 -1394h-312z" />
    <glyph glyph-name="ij" unicode="&#x133;" horiz-adv-x="962" 
d="M440 -403q-83 0 -154 31t-110 100l151 240q45 -33 92.5 -48t80 -8t36.5 34l168 1059h298l-168 -1059q-26 -164 -130 -256.5t-252 -92.5h-12zM109 0l159 1005h301l-159 -1005h-301zM291 1236q11 69 69.5 119.5t128.5 50.5t113 -49t32 -121q-12 -72 -70.5 -121.5
t-128.5 -49.5t-112.5 50.5t-31.5 120.5zM730 1231q11 68 67 117t125 49q67 0 108.5 -49t30.5 -117q-10 -68 -66.5 -117t-124.5 -49q-69 0 -110 48.5t-30 117.5z" />
    <glyph glyph-name="Jcircumflex" unicode="&#x134;" horiz-adv-x="1068" 
d="M550 -30q-258 4 -370 141.5t-70 401.5l18 112h312l-13 -83q-16 -99 -6 -163q11 -59 50.5 -86t125.5 -30q65 2 110 18.5t74.5 52t46.5 84t29 122.5l135 854h312l-138 -871q-43 -268 -199.5 -408.5t-416.5 -144.5zM877 1516l280 374h144l161 -374h-256l-26 67l-50 -67h-253
z" />
    <glyph glyph-name="jcircumflex" unicode="&#x135;" horiz-adv-x="433" 
d="M23 -403q-83 0 -154 31t-110 100l151 240q45 -33 93 -48t80.5 -8t36.5 34l168 1059h297l-168 -1059q-26 -164 -130 -256.5t-252 -92.5h-12zM161 1138l282 374h143l162 -374h-255l-28 68l-51 -68h-253z" />
    <glyph glyph-name="uni0136" unicode="&#x136;" horiz-adv-x="1462" 
d="M175 0l221 1394h312l-81 -512l567 512h425l-650 -572l415 -822h-371l-306 593l-146 -124l-74 -469h-312zM400 -389l203 395h200l-19 -118l-161 -277h-223z" />
    <glyph glyph-name="uni0137" unicode="&#x137;" horiz-adv-x="1235" 
d="M158 0l221 1394h305l-110 -695l339 306h394l-438 -387l301 -618h-361l-195 407l-102 -98l-49 -309h-305zM347 -498l203 395h199l-19 -118l-159 -277h-224z" />
    <glyph glyph-name="kgreenlandic" unicode="&#x138;" horiz-adv-x="1138" 
d="M116 0l159 1005h305l-48 -306l339 306h394l-438 -387l301 -618h-361l-195 407l-102 -98l-49 -309h-305z" />
    <glyph glyph-name="Lacute" unicode="&#x139;" horiz-adv-x="1123" 
d="M131 0l221 1394h313l-175 -1106h679l-46 -288h-992zM341 1457l251 345h271l-284 -345h-238z" />
    <glyph glyph-name="lacute" unicode="&#x13a;" horiz-adv-x="579" 
d="M374 -19q-115 0 -174.5 70.5t-37.5 208.5l180 1134h301l-173 -1088q-4 -27 0.5 -33t28.5 -6q38 0 106 24l-43 -271q-97 -39 -188 -39zM340 1494l262 374h269l-294 -374h-237z" />
    <glyph glyph-name="uni013B" unicode="&#x13b;" horiz-adv-x="1241" 
d="M405 -458l203 395h199l-19 -118l-159 -277h-224zM175 0l221 1394h312l-175 -1106h680l-46 -288h-992z" />
    <glyph glyph-name="uni013C" unicode="&#x13c;" horiz-adv-x="605" 
d="M16 -498l203 395h199l-19 -118l-159 -277h-224zM189 260l180 1134h300l-173 -1088q-4 -27 1 -33t29 -6q38 0 105 24l-43 -271q-95 -39 -187 -39q-115 0 -174.5 70.5t-37.5 208.5z" />
    <glyph glyph-name="Lcaron" unicode="&#x13d;" horiz-adv-x="1116" 
d="M124 0l221 1394h312l-175 -1106h680l-46 -288h-992zM733 998l200 395l230 1l-206 -396h-224z" />
    <glyph glyph-name="lcaron" unicode="&#x13e;" horiz-adv-x="573" 
d="M369 -19q-114 0 -174 70.5t-38 208.5l180 1134h301l-173 -1088q-4 -27 1 -33t28 -6q38 0 106 24l-43 -271q-97 -39 -188 -39z" />
    <glyph glyph-name="Ldot" unicode="&#x13f;" horiz-adv-x="1116" 
d="M124 0l221 1394h312l-175 -1106h680l-46 -288h-992zM687 786q9 53 52 89.5t94 36.5q52 0 83.5 -37t22.5 -89q-7 -52 -50 -88.5t-95 -36.5t-83.5 36.5t-23.5 88.5z" />
    <glyph glyph-name="ldot" unicode="&#x140;" horiz-adv-x="650" 
d="M369 -19q-114 0 -174 70.5t-38 208.5l180 1134h301l-173 -1088q-4 -27 1 -33t28 -6q38 0 106 24l-43 -271q-97 -39 -188 -39zM559 786q9 53 52 89.5t95 36.5t83.5 -37t22.5 -89q-7 -52 -50 -88.5t-95 -36.5t-84 36.5t-24 88.5z" />
    <glyph glyph-name="Lslash" unicode="&#x141;" horiz-adv-x="1105" 
d="M113 0l69 436l-147 -80l41 254l146 80l112 704h313l-82 -518l319 174l-40 -255l-319 -173l-53 -334h679l-46 -288h-992z" />
    <glyph glyph-name="lslash" unicode="&#x142;" horiz-adv-x="511" 
d="M353 -19q-115 0 -174.5 70.5t-37.5 208.5l25 158l-141 -91l50 317l141 91l105 659h301l-70 -442l130 85l-50 -319l-131 -84l-52 -328q-4 -27 1 -33t28 -6q38 0 106 24l-43 -271q-97 -39 -188 -39z" />
    <glyph glyph-name="Nacute" unicode="&#x143;" horiz-adv-x="1371" 
d="M124 0l221 1394h305l376 -822l130 822h312l-221 -1394h-307l-374 823l-130 -823h-312zM733 1457l250 345h271l-281 -345h-240z" />
    <glyph glyph-name="nacute" unicode="&#x144;" horiz-adv-x="1133" 
d="M116 0l159 1005h305l-7 -46q110 65 237 65h14q174 0 258 -100.5t56 -277.5l-102 -646h-305l89 559q17 108 -7.5 150.5t-102.5 42.5q-58 0 -98 -26q-84 -52 -115 -243l-76 -483h-305zM547 1138l262 374h270l-294 -374h-238z" />
    <glyph glyph-name="uni0145" unicode="&#x145;" horiz-adv-x="1474" 
d="M175 0l221 1394h306l375 -822l130 822h313l-221 -1394h-308l-374 823l-130 -823h-312zM490 -395l203 395h199l-19 -118l-159 -277h-224z" />
    <glyph glyph-name="uni0146" unicode="&#x146;" horiz-adv-x="1226" 
d="M158 0l159 1005h305l-7 -46q110 65 237 65h14q174 0 258 -100.5t56 -277.5l-102 -646h-305l89 559q17 108 -7.5 150.5t-102.5 42.5q-58 0 -98 -26q-44 -26 -71.5 -84t-43.5 -159l-76 -483h-305zM323 -483l200 395h200l-19 -118l-159 -277h-222z" />
    <glyph glyph-name="Ncaron" unicode="&#x147;" horiz-adv-x="1371" 
d="M124 0l221 1394h305l376 -822l130 822h312l-221 -1394h-307l-374 823l-130 -823h-312zM657 1802h267l32 -65l53 65h264l-295 -345h-135z" />
    <glyph glyph-name="ncaron" unicode="&#x148;" horiz-adv-x="1133" 
d="M116 0l159 1005h305l-7 -46q110 65 237 65h14q174 0 258 -100.5t56 -277.5l-102 -646h-305l89 559q17 108 -7.5 150.5t-102.5 42.5q-58 0 -98 -26q-84 -52 -115 -243l-76 -483h-305zM489 1512h256l28 -68l49 68h252l-279 -374h-144z" />
    <glyph glyph-name="napostrophe" unicode="&#x149;" horiz-adv-x="1361" 
d="M345 0l159 1005h304l-7 -46q112 65 238 65h13q174 0 258 -100.5t56 -277.5l-102 -646h-304l89 559q17 108 -8 150.5t-102 42.5q-59 0 -99 -26q-84 -52 -115 -243l-76 -483h-304zM217 958l235 502h223l-271 -607h-183z" />
    <glyph glyph-name="Eng" unicode="&#x14a;" horiz-adv-x="1371" 
d="M749 -165q131 -5 156 -1q35 7 48 42q7 19 16 72l9 52h-38l-374 823l-130 -823h-312l221 1394h305l376 -822l130 822h312l-221 -1394h-47l-4 -25q-8 -47 -14 -78q-39 -164 -158.5 -230t-309.5 -53z" />
    <glyph glyph-name="eng" unicode="&#x14b;" horiz-adv-x="1134" 
d="M628 -403q-85 0 -156.5 31.5t-111.5 99.5l153 239q46 -32 94.5 -47t80.5 -8t34 33l98 614q17 108 -7.5 150.5t-102.5 42.5q-58 0 -98 -26q-84 -52 -115 -243l-76 -483h-305l159 1005h305l-7 -46q110 65 237 65h14q174 0 258 -100.5t56 -277.5l-24 -146h2l-88 -554
q-26 -164 -131.5 -256.5t-256.5 -92.5h-12z" />
    <glyph glyph-name="Omacron" unicode="&#x14c;" horiz-adv-x="1446" 
d="M702 -30q-198 0 -334 91q-138 92 -196 256t-24 379q35 218 145 381q110 165 277 256t363 91h30q200 0 336 -91q138 -92 195.5 -257t23.5 -380q-33 -214 -145 -379q-111 -165 -277.5 -256t-363.5 -91h-30zM462 696q-20 -133 8 -230q58 -194 278 -194h30q113 0 198 51
q184 108 226 373q21 130 -8 229q-61 196 -281 196h-30q-110 0 -194 -50q-184 -102 -227 -375zM739 1471l35 220h426l-35 -220h-426z" />
    <glyph glyph-name="omacron" unicode="&#x14d;" horiz-adv-x="1117" 
d="M542 -19q-145 0 -249 68q-105 68 -152 187.5t-23 267.5q24 150 107 268q84 118 210.5 185t271.5 67h30q146 0 249 -67q104 -69 150.5 -187t22.5 -266q-25 -152 -108 -268q-85 -120 -210.5 -187.5t-268.5 -67.5h-30zM421 504q-19 -123 23.5 -186t140.5 -63h30
q97 0 158.5 63t80.5 186q39 246 -160 246h-30q-204 0 -243 -246zM537 1206l35 221h425l-35 -221h-425z" />
    <glyph glyph-name="Obreve" unicode="&#x14e;" horiz-adv-x="1446" 
d="M702 -30q-198 0 -334 91q-138 92 -196 256t-24 379q35 218 145 381q110 165 277 256t363 91h30q200 0 336 -91q138 -92 195.5 -257t23.5 -380q-33 -214 -145 -379q-111 -165 -277.5 -256t-363.5 -91h-30zM462 696q-20 -133 8 -230q58 -194 278 -194h30q113 0 198 51
q184 108 226 373q21 130 -8 229q-61 196 -281 196h-30q-110 0 -194 -50q-184 -102 -227 -375zM758 1872h213q-31 -106 -29.5 -128.5t43.5 -22.5q41 0 49.5 22t10.5 129h212q10 -158 -81 -264t-226 -106q-137 0 -193.5 105t1.5 265z" />
    <glyph glyph-name="obreve" unicode="&#x14f;" horiz-adv-x="1117" 
d="M542 -19q-145 0 -249 68q-105 68 -152 187.5t-23 267.5q24 150 107 268q84 118 210.5 185t271.5 67h30q146 0 249 -67q104 -69 150.5 -187t22.5 -266q-25 -152 -108 -268q-85 -120 -210.5 -187.5t-268.5 -67.5h-30zM421 504q-19 -123 23.5 -186t140.5 -63h30
q97 0 158.5 63t80.5 186q39 246 -160 246h-30q-204 0 -243 -246zM547 1501h213q-31 -105 -29 -128t42 -23q41 0 50 22.5t11 128.5h212q10 -158 -81.5 -264t-226.5 -106q-89 0 -147 48.5t-70 131t26 190.5z" />
    <glyph glyph-name="Ohungarumlaut" unicode="&#x150;" horiz-adv-x="1446" 
d="M702 -30q-198 0 -334 91q-138 92 -196 256t-24 379q35 218 145 381q87 131 212 216.5t273 115.5h-142l251 346h519l-283 -346h-8q101 -21 184 -76q138 -92 195.5 -257t23.5 -380q-33 -214 -145 -379q-111 -165 -277.5 -256t-363.5 -91h-30zM462 696q-20 -133 8 -230
q58 -194 278 -194h30q113 0 198 51q184 108 226 373q21 130 -8 229q-61 196 -281 196h-30q-110 0 -194 -50q-184 -102 -227 -375zM889 1423h5l41 57z" />
    <glyph glyph-name="ohungarumlaut" unicode="&#x151;" horiz-adv-x="1117" 
d="M542 -19q-145 0 -249 68q-105 68 -152 187.5t-23 267.5q24 150 107 268q84 118 210.5 185t271.5 67h30q146 0 249 -67q104 -69 150.5 -187t22.5 -266q-25 -152 -108 -268q-85 -120 -210.5 -187.5t-268.5 -67.5h-30zM421 504q-19 -123 23.5 -186t140.5 -63h30
q97 0 158.5 63t80.5 186q39 246 -160 246h-30q-204 0 -243 -246zM437 1139l251 346h518l-284 -346h-239l57 79l-65 -79h-238z" />
    <glyph glyph-name="OE" unicode="&#x152;" horiz-adv-x="2043" 
d="M702 -30q-198 0 -334 91q-138 92 -196 256t-24 379q35 218 145 381q110 165 277 256t363 91h30q200 0 336 -91q1 -1 2 -1l10 62h905l-46 -288h-593l-39 -249h552l-46 -286h-552l-44 -283h593l-46 -288h-905l10 63q-172 -93 -368 -93h-30zM462 696q-20 -133 8 -230
q58 -194 278 -194h30q113 0 198 51q165 98 216 321l17 105q7 100 -15 176q-61 196 -281 196h-30q-110 0 -194 -50q-184 -102 -227 -375z" />
    <glyph glyph-name="oe" unicode="&#x153;" horiz-adv-x="1811" 
d="M542 -19q-145 0 -249 68q-105 68 -152 187.5t-23 267.5q24 150 107 268q84 118 210.5 185t271.5 67h30q146 0 249 -67q50 -35 81 -72q159 139 372 139h26q151 0 248.5 -69t130.5 -183t10 -261q-11 -67 -30 -121h-677q7 -67 60.5 -102t137.5 -35h27q159 0 284 116
l126 -217q-94 -66 -172 -106q-129 -65 -294 -65h-27q-229 0 -346 137q-162 -137 -371 -137h-30zM421 504q-19 -123 23.5 -186t140.5 -63h30q97 0 158.5 63t80.5 186q39 246 -160 246h-30q-204 0 -243 -246zM1183 632h395q1 60 -38.5 94t-110.5 34h-27q-82 0 -124 -24
q-64 -35 -95 -104z" />
    <glyph glyph-name="Racute" unicode="&#x154;" horiz-adv-x="1339" 
d="M124 0l221 1394h560q171 0 268 -50q195 -99 153 -368q-45 -277 -281 -379l266 -597h-362l-231 546h-196l-86 -546h-312zM568 834h224q59 0 108 13q50 13 77 41t36 84q10 57 -11 85q-34 49 -167 49h-224zM683 1457l249 345h274l-283 -345h-240z" />
    <glyph glyph-name="racute" unicode="&#x155;" horiz-adv-x="842" 
d="M116 0l159 1005h305l-8 -50q105 69 229 69q95 0 167 -44l-137 -305q-77 47 -132 47q-109 0 -166 -108q-14 -40 -20 -62q-12 -44 -23 -115l-69 -437h-305zM412 1138l261 374h271l-296 -374h-236z" />
    <glyph glyph-name="uni0156" unicode="&#x156;" horiz-adv-x="1416" 
d="M175 0l221 1394h561q171 0 267 -50q195 -98 153 -368q-45 -277 -280 -379l265 -597h-361l-231 546h-197l-86 -546h-312zM423 -398l203 395h200l-19 -118l-161 -277h-223zM619 834h224q58 0 109 13q50 12 76.5 40.5t35.5 84.5q10 57 -11 85q-34 49 -167 49h-224z" />
    <glyph glyph-name="uni0157" unicode="&#x157;" horiz-adv-x="862" 
d="M-6 -498l203 395h199l-19 -118l-159 -277h-224zM111 0l159 1005h305l-8 -50q105 69 229 69q95 0 167 -44l-137 -305q-77 47 -131 47q-109 0 -167 -108q-7 -20 -20 -62q-12 -44 -23 -115l-69 -437h-305z" />
    <glyph glyph-name="Rcaron" unicode="&#x158;" horiz-adv-x="1339" 
d="M124 0l221 1394h560q171 0 268 -50q195 -99 153 -368q-45 -277 -281 -379l266 -597h-362l-231 546h-196l-86 -546h-312zM568 834h224q59 0 108 13q50 13 77 41t36 84q10 57 -11 85q-34 49 -167 49h-224zM608 1802h266l32 -65l53 65h265l-295 -345h-135z" />
    <glyph glyph-name="rcaron" unicode="&#x159;" horiz-adv-x="727" 
d="M44 0l159 1005h304l-8 -50q105 69 229 69q94 0 168 -44l-138 -305q-77 47 -131 47q-109 0 -166 -108q-15 -43 -21 -62q-12 -44 -23 -115l-69 -437h-304zM281 1512h255l29 -68l47 68h255l-280 -374h-144z" />
    <glyph glyph-name="Sacute" unicode="&#x15a;" horiz-adv-x="1201" 
d="M627 -27q-263 0 -398 123.5t-106 358.5h333q-4 -106 49.5 -148t162.5 -42q91 0 140.5 23.5t58.5 79.5q12 74 -31.5 115.5t-175.5 73.5q-52 13 -94.5 27t-84.5 31.5t-73 38t-60 46t-45.5 54.5t-29.5 65.5t-13 78t6 91.5q20 127 106.5 224t207 145.5t255.5 48.5
q128 0 220.5 -37t143.5 -104t71.5 -151.5t11.5 -187.5h-336q8 112 -20.5 151t-125.5 39q-41 0 -70.5 -4t-55.5 -14t-41.5 -29.5t-19.5 -48.5q-11 -71 35 -109t190 -73q218 -52 310 -162t65 -282q-21 -130 -110 -227.5t-213 -146t-263 -48.5zM674 1457l250 345h271l-283 -345
h-238z" />
    <glyph glyph-name="sacute" unicode="&#x15b;" horiz-adv-x="1046" 
d="M531 -27q-212 0 -327.5 96t-96.5 285h328q-4 -73 30 -99.5t110 -26.5q65 0 91.5 9.5t31.5 39.5q6 40 -34.5 64t-162.5 55q-75 18 -130.5 43t-98 62.5t-59.5 91t-6 121.5q24 151 157.5 238.5t329.5 87.5q201 0 300 -102.5t80 -264.5h-326q0 65 -22.5 87.5t-89.5 22.5
q-52 0 -70.5 -10t-23.5 -39q-6 -37 31 -58t156 -50q168 -42 246 -119.5t56 -216.5q-16 -104 -90.5 -177t-179 -106.5t-230.5 -33.5zM499 1138l263 374h268l-294 -374h-237z" />
    <glyph glyph-name="Scircumflex" unicode="&#x15c;" horiz-adv-x="1201" 
d="M564 1516l280 374h144l161 -374h-256l-26 67l-50 -67h-253zM123 455h333q-4 -106 49.5 -148t162.5 -42q91 0 140.5 23.5t58.5 79.5q12 74 -31.5 115.5t-175.5 73.5q-52 13 -94.5 27t-84.5 31.5t-73 38t-60 46t-45.5 54.5t-29.5 65.5t-13 78t6 91.5q20 127 106.5 224
t207 145.5t255.5 48.5q128 0 220.5 -37t143.5 -104t71.5 -151.5t11.5 -187.5h-336q8 112 -20.5 151t-125.5 39q-41 0 -70.5 -4t-55.5 -14t-41.5 -29.5t-19.5 -48.5q-11 -71 35 -109t190 -73q218 -52 310 -162t65 -282q-21 -130 -110 -227.5t-213 -146t-263 -48.5
q-263 0 -398 123.5t-106 358.5z" />
    <glyph glyph-name="scircumflex" unicode="&#x15d;" horiz-adv-x="1046" 
d="M531 -27q-212 0 -327.5 96t-96.5 285h328q-4 -73 30 -99.5t110 -26.5q65 0 91.5 9.5t31.5 39.5q6 40 -34.5 64t-162.5 55q-75 18 -130.5 43t-98 62.5t-59.5 91t-6 121.5q24 151 157.5 238.5t329.5 87.5q201 0 300 -102.5t80 -264.5h-326q0 65 -22.5 87.5t-89.5 22.5
q-52 0 -70.5 -10t-23.5 -39q-6 -37 31 -58t156 -50q168 -42 246 -119.5t56 -216.5q-16 -104 -90.5 -177t-179 -106.5t-230.5 -33.5zM394 1138l279 374h145l161 -374h-254l-28 68l-51 -68h-252z" />
    <glyph glyph-name="Scedilla" unicode="&#x15e;" horiz-adv-x="1201" 
d="M651 -52q119 -14 172.5 -70.5t38.5 -151.5q-20 -124 -143.5 -185.5t-309.5 -61.5q-83 0 -143 19l26 164q68 -25 149 -25q168 0 184 95q9 59 -48 83t-203 14l104 156q-192 33 -286 152.5t-69 317.5h333q-4 -106 49.5 -148t162.5 -42q91 0 140.5 23.5t58.5 79.5
q12 74 -31.5 115.5t-175.5 73.5q-52 13 -94.5 27t-84.5 31.5t-73 38t-60 46t-45.5 54.5t-29.5 65.5t-13 78t6 91.5q20 127 106.5 224t207 145.5t255.5 48.5q128 0 220.5 -37t143.5 -104t71.5 -151.5t11.5 -187.5h-336q8 112 -20.5 151t-125.5 39q-41 0 -70.5 -4t-55.5 -14
t-41.5 -29.5t-19.5 -48.5q-11 -71 35 -109t190 -73q218 -52 310 -162t65 -282q-15 -93 -66 -171t-125 -130t-164.5 -83t-188.5 -37z" />
    <glyph glyph-name="scedilla" unicode="&#x15f;" horiz-adv-x="1046" 
d="M435 354q-4 -73 30 -99.5t110 -26.5q65 0 91.5 9.5t31.5 39.5q6 40 -34.5 64t-162.5 55q-75 18 -130.5 43t-98 62.5t-59.5 91t-6 121.5q24 151 157.5 238.5t329.5 87.5q201 0 300 -102.5t80 -264.5h-326q0 65 -22.5 87.5t-89.5 22.5q-52 0 -70.5 -10t-23.5 -39
q-6 -37 31 -58t156 -50q168 -42 246 -119.5t56 -216.5q-19 -119 -110 -195.5t-228 -104.5q96 -60 77 -181q-20 -125 -143 -186t-309 -61q-83 0 -144 19l26 164q68 -25 148 -25q170 0 185 94q9 59 -48 83.5t-204 13.5l58 87q-124 37 -185 126.5t-47 229.5h328z" />
    <glyph glyph-name="Scaron" unicode="&#x160;" horiz-adv-x="1201" 
d="M627 -27q-263 0 -398 123.5t-106 358.5h333q-4 -106 49.5 -148t162.5 -42q91 0 140.5 23.5t58.5 79.5q12 74 -31.5 115.5t-175.5 73.5q-52 13 -94.5 27t-84.5 31.5t-73 38t-60 46t-45.5 54.5t-29.5 65.5t-13 78t6 91.5q20 127 106.5 224t207 145.5t255.5 48.5
q128 0 220.5 -37t143.5 -104t71.5 -151.5t11.5 -187.5h-336q8 112 -20.5 151t-125.5 39q-41 0 -70.5 -4t-55.5 -14t-41.5 -29.5t-19.5 -48.5q-11 -71 35 -109t190 -73q218 -52 310 -162t65 -282q-21 -130 -110 -227.5t-213 -146t-263 -48.5zM597 1802h267l33 -65l52 65h264
l-293 -345h-135z" />
    <glyph glyph-name="scaron" unicode="&#x161;" horiz-adv-x="1046" 
d="M531 -27q-212 0 -327.5 96t-96.5 285h328q-4 -73 30 -99.5t110 -26.5q65 0 91.5 9.5t31.5 39.5q6 40 -34.5 64t-162.5 55q-75 18 -130.5 43t-98 62.5t-59.5 91t-6 121.5q24 151 157.5 238.5t329.5 87.5q201 0 300 -102.5t80 -264.5h-326q0 65 -22.5 87.5t-89.5 22.5
q-52 0 -70.5 -10t-23.5 -39q-6 -37 31 -58t156 -50q168 -42 246 -119.5t56 -216.5q-16 -104 -90.5 -177t-179 -106.5t-230.5 -33.5zM453 1512h255l28 -69l48 69h254l-279 -374h-145z" />
    <glyph glyph-name="uni0162" unicode="&#x162;" horiz-adv-x="1215" 
d="M687 -52q119 -14 173 -70.5t39 -151.5q-20 -124 -143.5 -185.5t-310.5 -61.5q-82 0 -143 19l26 164q68 -25 149 -25q169 0 185 95q9 59 -48.5 83t-203.5 14l114 171h-75l175 1106h-411l46 288h1137l-46 -288h-410l-175 -1106h-42z" />
    <glyph glyph-name="uni0163" unicode="&#x163;" horiz-adv-x="854" 
d="M123 716l46 289h207l62 389h298l-62 -389h218l-46 -289h-218l-60 -380q-4 -30 34 -35q65 -7 171 49q8 5 16 9l-53 -332q-28 -14 -68 -25q122 -54 101 -193q-20 -125 -143 -186t-309 -61q-83 0 -144 19l26 164q68 -25 148 -25q170 0 185 94q9 59 -48 83.5t-204 13.5
l84 127q-60 42 -85 118t-9 180l60 380h-207z" />
    <glyph glyph-name="Tcaron" unicode="&#x164;" horiz-adv-x="1137" 
d="M411 0l175 1106h-411l46 288h1137l-46 -288h-410l-175 -1106h-316zM536 1802h266l33 -65l54 65h263l-295 -345h-135z" />
    <glyph glyph-name="tcaron" unicode="&#x165;" horiz-adv-x="803" 
d="M736 1394l-62 -389h218l-46 -289h-218l-60 -380q-4 -30 34 -35q65 -7 171 49q8 5 16 9l-53 -332q-79 -39 -181 -39h-12q-149 0 -224 92t-49 256l60 380h-207l46 289h207l62 389h298zM753 1063l10 61l172 334h198l-19 -119l-159 -276h-202z" />
    <glyph glyph-name="Tbar" unicode="&#x166;" horiz-adv-x="1137" 
d="M411 0l85 537h-229l42 267h229l48 302h-411l46 288h1137l-46 -288h-410l-48 -302h225l-42 -267h-225l-85 -537h-316z" />
    <glyph glyph-name="tbar" unicode="&#x167;" horiz-adv-x="743" 
d="M543 -12q-149 0 -224 92t-49 256l7 40h-112l45 289h112l8 51h-207l46 289h207l62 389h298l-62 -389h218l-46 -289h-218l-8 -51h110l-45 -289h-110l-7 -40q-4 -30 34 -35q65 -7 171 49q8 5 16 9l-53 -332q-79 -39 -181 -39h-12z" />
    <glyph glyph-name="Utilde" unicode="&#x168;" horiz-adv-x="1272" 
d="M630 -30q-258 4 -370 141.5t-70 401.5l140 881h312l-135 -852q-16 -99 -6 -163q10 -59 50 -86t126 -30q65 2 110 18.5t74.5 52t46.5 84t29 122.5l135 854h312l-138 -871q-43 -268 -199.5 -408.5t-416.5 -144.5zM587 1478q31 267 214 267q70 0 146 -33q49 -21 67 -22
q-1 8 7 49h197q-29 -268 -213 -268q-66 0 -146 34q-56 22 -67 23q2 -12 -8 -50h-197z" />
    <glyph glyph-name="utilde" unicode="&#x169;" horiz-adv-x="1114" 
d="M468 -19q-174 0 -258 101t-56 277l102 646h305l-88 -559q-17 -108 7 -150.5t102 -42.5q58 0 98 26q84 51 115 244l76 482h305l-159 -1005h-305l7 47q-112 -66 -237 -66h-14zM461 1223q29 267 213 267q71 0 146 -33q44 -20 67 -22q-2 12 8 49h197q-30 -268 -214 -268
q-65 0 -146 34q-58 22 -66 23q1 -5 -8 -50h-197z" />
    <glyph glyph-name="Umacron" unicode="&#x16a;" horiz-adv-x="1272" 
d="M630 -30q-258 4 -370 141.5t-70 401.5l140 881h312l-135 -852q-16 -99 -6 -163q10 -59 50 -86t126 -30q65 2 110 18.5t74.5 52t46.5 84t29 122.5l135 854h312l-138 -871q-43 -268 -199.5 -408.5t-416.5 -144.5zM657 1471l35 220h426l-35 -220h-426z" />
    <glyph glyph-name="umacron" unicode="&#x16b;" horiz-adv-x="1114" 
d="M468 -19q-174 0 -258 101t-56 277l102 646h305l-88 -559q-17 -108 7 -150.5t102 -42.5q58 0 98 26q84 51 115 244l76 482h305l-159 -1005h-305l7 47q-112 -66 -237 -66h-14zM533 1206l35 221h425l-35 -221h-425z" />
    <glyph glyph-name="Ubreve" unicode="&#x16c;" horiz-adv-x="1272" 
d="M630 -30q-258 4 -370 141.5t-70 401.5l140 881h312l-135 -852q-16 -99 -6 -163q10 -59 50 -86t126 -30q65 2 110 18.5t74.5 52t46.5 84t29 122.5l135 854h312l-138 -871q-43 -268 -199.5 -408.5t-416.5 -144.5zM680 1851h211q-30 -105 -27.5 -128t42.5 -23
q42 0 50.5 22.5t8.5 128.5h215q9 -158 -82.5 -264t-225.5 -106q-136 0 -192.5 104.5t0.5 265.5z" />
    <glyph glyph-name="ubreve" unicode="&#x16d;" horiz-adv-x="1114" 
d="M468 -19q-174 0 -258 101t-56 277l102 646h305l-88 -559q-17 -108 7 -150.5t102 -42.5q58 0 98 26q84 51 115 244l76 482h305l-159 -1005h-305l7 47q-112 -66 -237 -66h-14zM576 1501h215q-33 -105 -32 -128t43 -23q18 0 27.5 3t17 9.5t10.5 26t4 43t2 69.5h213
q9 -158 -82 -264t-227 -106q-89 0 -147 48.5t-70 131t26 190.5z" />
    <glyph glyph-name="Uring" unicode="&#x16e;" horiz-adv-x="1272" 
d="M630 -30q-258 4 -370 141.5t-70 401.5l140 881h312l-135 -852q-16 -99 -6 -163q10 -59 50 -86t126 -30q65 2 110 18.5t74.5 52t46.5 84t29 122.5l135 854h312l-138 -871q-43 -268 -199.5 -408.5t-416.5 -144.5zM674 1703q16 102 94.5 165.5t173.5 63.5q94 0 153 -63.5
t43 -165.5q-16 -101 -95 -164.5t-173 -63.5t-153 63.5t-43 164.5zM844 1703q-4 -27 11.5 -44t40.5 -17t46.5 17t25.5 44t-12 44t-41 17t-46 -17t-25 -44z" />
    <glyph glyph-name="uring" unicode="&#x16f;" horiz-adv-x="1114" 
d="M468 -19q-174 0 -258 101t-56 277l102 646h305l-88 -559q-17 -108 7 -150.5t102 -42.5q58 0 98 26q84 51 115 244l76 482h305l-159 -1005h-305l7 47q-112 -66 -237 -66h-14zM525 1347q17 101 96 165t174 64q94 0 153 -64t42 -165q-16 -101 -95 -164.5t-173 -63.5
q-95 0 -154 63.5t-43 164.5zM696 1347q-4 -27 11.5 -44t41.5 -17q25 0 45.5 17t24.5 44t-11 44t-40 17q-26 0 -47 -17t-25 -44z" />
    <glyph glyph-name="Uhungarumlaut" unicode="&#x170;" horiz-adv-x="1272" 
d="M630 -30q-258 4 -370 141.5t-70 401.5l140 881h312l-135 -852q-16 -99 -6 -163q10 -59 50 -86t126 -30q65 2 110 18.5t74.5 52t46.5 84t29 122.5l135 854h312l-138 -871q-43 -268 -199.5 -408.5t-416.5 -144.5zM565 1409l251 346h517l-284 -346h-238l59 81l-66 -81h-239z
" />
    <glyph glyph-name="uhungarumlaut" unicode="&#x171;" horiz-adv-x="1114" 
d="M468 -19q-174 0 -258 101t-56 277l102 646h305l-88 -559q-17 -108 7 -150.5t102 -42.5q58 0 98 26q84 51 115 244l76 482h305l-159 -1005h-305l7 47q-112 -66 -237 -66h-14zM441 1139l251 346h518l-285 -346h-239l58 79l-65 -79h-238z" />
    <glyph glyph-name="Uogonek" unicode="&#x172;" horiz-adv-x="1272" 
d="M575 -402q-112 0 -176.5 61.5t-48.5 163.5q11 70 52 124q16 20 43 46q-159 45 -223.5 177t-31.5 343l140 881h312l-135 -852q-16 -99 -6 -163q10 -59 50 -86t126 -30q65 2 110 18.5t74.5 52t46.5 84t29 122.5l135 854h312l-138 -871q-37 -232 -160 -370.5t-324 -172.5
q-163 -75 -173 -136q-2 -16 3 -20.5t24 -4.5q57 0 129 88l125 -155q-134 -154 -295 -154z" />
    <glyph glyph-name="uogonek" unicode="&#x173;" horiz-adv-x="1172" 
d="M740 -403q-111 0 -175.5 61.5t-48.5 163.5q11 70 51 124q27 34 55 57q-72 -22 -140 -22h-14q-174 0 -258 101t-56 277l102 646h305l-88 -559q-17 -108 7 -150.5t102 -42.5q58 0 98 26q84 51 115 244l76 482h305l-159 -1005h-41q-210 -86 -221 -157q-2 -16 2.5 -20.5
t23.5 -4.5q58 0 129 88l126 -154q-133 -155 -296 -155z" />
    <glyph glyph-name="Wcircumflex" unicode="&#x174;" horiz-adv-x="1885" 
d="M410 0l-199 1394h329l112 -864l354 788h293l102 -788l388 864h326l-640 -1394h-288l-117 807l-370 -807h-290zM892 1516l280 374h145l161 -374h-256l-27 67l-50 -67h-253z" />
    <glyph glyph-name="wcircumflex" unicode="&#x175;" horiz-adv-x="1501" 
d="M332 0l-150 1005h322l56 -488l221 488h253l67 -485l212 485h324l-471 -1005h-261l-74 520l-234 -520h-265zM638 1138l280 374h144l161 -374h-256l-26 67l-50 -67h-253z" />
    <glyph glyph-name="Ycircumflex" unicode="&#x176;" horiz-adv-x="1244" 
d="M468 0l67 421l-333 973h358l178 -640l391 640h355l-636 -973l-67 -421h-313zM604 1516l280 374h144l161 -374h-256l-26 67l-50 -67h-253z" />
    <glyph glyph-name="ycircumflex" unicode="&#x177;" horiz-adv-x="1086" 
d="M101 -361q-41 19 -72 41l182 281q50 -30 72.5 -33.5t35.5 18.5l77 137l-227 924h321l130 -526l295 526h321l-658 -1173q-86 -152 -214.5 -205t-252.5 5zM430 1138l282 374h145l161 -374h-254l-29 68l-49 -68h-256z" />
    <glyph glyph-name="Ydieresis" unicode="&#x178;" horiz-adv-x="1244" 
d="M468 0l67 421l-333 973h358l178 -640l391 640h355l-636 -973l-67 -421h-313zM596 1581q-8 -51 23.5 -88t82.5 -37q52 0 94.5 37t50.5 88q8 52 -22.5 89.5t-82.5 37.5q-51 0 -94.5 -37.5t-51.5 -89.5zM897 1581q-8 -51 23.5 -88t83.5 -37t94.5 37t50.5 88q8 52 -22.5 89.5
t-82.5 37.5t-95.5 -37.5t-51.5 -89.5z" />
    <glyph glyph-name="Zacute" unicode="&#x179;" horiz-adv-x="1161" 
d="M25 0l39 247l811 859h-675l46 288h1112l-39 -247l-835 -859h699l-46 -288h-1112zM631 1457l250 345h272l-282 -345h-240z" />
    <glyph glyph-name="zacute" unicode="&#x17a;" horiz-adv-x="874" 
d="M25 0l32 203l519 540h-433l41 262h824l-34 -214l-503 -528h418l-42 -263h-822zM430 1138l264 374h268l-294 -374h-238z" />
    <glyph glyph-name="Zdotaccent" unicode="&#x17b;" horiz-adv-x="1161" 
d="M25 0l39 247l811 859h-675l46 288h1112l-39 -247l-835 -859h699l-46 -288h-1112zM702 1581q8 52 51 89.5t96 37.5t83 -37.5t22 -89.5q-8 -51 -50.5 -88t-94.5 -37t-83.5 37t-23.5 88z" />
    <glyph glyph-name="zdotaccent" unicode="&#x17c;" horiz-adv-x="874" 
d="M25 0l32 203l519 540h-433l41 262h824l-34 -214l-503 -528h418l-42 -263h-822zM509 1321q8 52 51 89t95 37q51 0 83.5 -36.5t23.5 -89.5q-8 -51 -51.5 -88.5t-95.5 -37.5q-53 0 -83.5 37.5t-22.5 88.5z" />
    <glyph glyph-name="Zcaron" unicode="&#x17d;" horiz-adv-x="1161" 
d="M25 0l39 247l811 859h-675l46 288h1112l-39 -247l-835 -859h699l-46 -288h-1112zM555 1802h267l33 -65l53 65h264l-295 -345h-135z" />
    <glyph glyph-name="zcaron" unicode="&#x17e;" horiz-adv-x="874" 
d="M25 0l32 203l519 540h-433l41 262h824l-34 -214l-503 -528h418l-42 -263h-822zM371 1512h257l27 -70l51 70h253l-279 -374h-145z" />
    <glyph glyph-name="uni0218" unicode="&#x218;" horiz-adv-x="1228" 
d="M363 -498l203 395h199l-19 -118l-160 -277h-223zM137 455h332q-4 -106 50 -148t163 -42q90 0 140 23.5t59 79.5q12 74 -32 115.5t-176 73.5q-52 13 -94.5 27t-84.5 31.5t-73 38t-60 46t-45.5 54.5t-29.5 65.5t-13 78t6 91.5q30 190 195.5 304t373.5 114
q103 0 183.5 -24.5t133 -68t84.5 -104.5t42.5 -131.5t3.5 -151.5h-336q9 111 -20 150.5t-126 39.5q-85 0 -131.5 -20t-54.5 -76q-11 -71 34.5 -109t190.5 -73q218 -52 309.5 -162t64.5 -282q-21 -130 -109.5 -227.5t-212.5 -146t-263 -48.5q-263 0 -398.5 123.5
t-105.5 358.5z" />
    <glyph glyph-name="uni0219" unicode="&#x219;" horiz-adv-x="1067" 
d="M238 -498l203 395h199l-19 -118l-159 -277h-224zM123 354h327q-4 -73 30 -99.5t110 -26.5q65 0 91.5 9.5t31.5 39.5q6 40 -34 64t-163 55q-75 18 -130.5 43t-98 62.5t-59.5 91t-6 121.5q24 151 158 238.5t330 87.5q201 0 299.5 -102.5t79.5 -264.5h-326q1 65 -22 87.5
t-90 22.5q-52 0 -70.5 -10t-23.5 -39q-6 -37 31 -58t156 -50q169 -42 247 -119.5t56 -216.5q-16 -104 -90.5 -177t-179.5 -106.5t-231 -33.5q-139 0 -237 40.5t-148.5 127t-37.5 213.5z" />
    <glyph glyph-name="uni021A" unicode="&#x21a;" horiz-adv-x="1215" 
d="M311 -498l203 395h199l-19 -118l-159 -277h-224zM213 1106l46 288h1137l-46 -288h-410l-175 -1106h-316l175 1106h-411z" />
    <glyph glyph-name="uni021B" unicode="&#x21b;" horiz-adv-x="788" 
d="M146 -498l203 395h199l-19 -118l-160 -277h-223zM123 716l46 289h207l62 389h298l-62 -389h218l-46 -289h-218l-60 -380q-4 -30 34 -35q65 -7 171 49q8 5 16 9l-53 -332q-79 -39 -181 -39h-12q-149 0 -224 92t-49 256l60 380h-207z" />
    <glyph glyph-name="uni0237" unicode="&#x237;" horiz-adv-x="615" 
d="M57 -403q-83 0 -153.5 31t-110.5 100l152 240q44 -33 92 -48t80.5 -8t36.5 34l168 1059h298l-168 -1059q-26 -164 -130.5 -256.5t-252.5 -92.5h-12z" />
    <glyph glyph-name="circumflex" unicode="&#x2c6;" horiz-adv-x="787" 
d="M322 1398l281 375h144l160 -375h-254l-28 69l-51 -69h-252z" />
    <glyph glyph-name="caron" unicode="&#x2c7;" horiz-adv-x="787" 
d="M543 1398l-161 375h254l29 -70l49 70h253l-280 -375h-144z" />
    <glyph glyph-name="breve" unicode="&#x2d8;" horiz-adv-x="764" 
d="M601 1391q-136 0 -192 105t1 266h214q-33 -114 -29 -134q11 -16 41 -17q19 0 28 3t17 9t10.5 26t4 42.5t2.5 70.5h212q10 -158 -81.5 -264.5t-227.5 -106.5z" />
    <glyph glyph-name="dotaccent" unicode="&#x2d9;" horiz-adv-x="916" 
d="M688 1456q-52 0 -83.5 37t-23.5 88q8 52 51.5 89.5t95.5 37.5t83.5 -37.5t23.5 -89.5t-51.5 -88.5t-95.5 -36.5z" />
    <glyph glyph-name="ring" unicode="&#x2da;" horiz-adv-x="914" 
d="M687 1454q-94 0 -153 63.5t-43 164.5q17 102 96 165.5t173 63.5q95 0 153.5 -64t41.5 -165q-16 -101 -95 -164.5t-173 -63.5zM661 1682q-4 -27 12 -44t41 -17t46 17t25 44t-11.5 44t-40.5 17t-46.5 -17t-25.5 -44z" />
    <glyph glyph-name="ogonek" unicode="&#x2db;" horiz-adv-x="1518" 
d="M589 -403q-112 0 -176.5 61.5t-48.5 163.5q10 68 52 124q27 34 57 60q-49 16 -89 43q-104 68 -151.5 188t-23.5 267q24 150 107 268q85 118 211.5 185t271.5 67h29q146 0 249 -67q104 -68 150.5 -186t22.5 -267q-25 -152 -108 -268q-75 -108 -185.5 -174t-237.5 -78
q-104 -70 -116 -141q-2 -16 3 -20.5t24 -4.5q57 0 129 88l125 -154q-133 -155 -295 -155zM512 504q-19 -123 23.5 -186t141.5 -63h29q97 0 158.5 63t80.5 186q39 246 -160 246h-29q-100 0 -162.5 -61.5t-81.5 -184.5z" />
    <glyph glyph-name="tilde" unicode="&#x2dc;" horiz-adv-x="786" 
d="M750 1471q-66 0 -146 34q-56 22 -67 23q2 -12 -8 -50h-197q30 267 213 267q71 0 147 -33q49 -21 67 -22q-2 12 7 49h197q-29 -268 -213 -268z" />
    <glyph glyph-name="hungarumlaut" unicode="&#x2dd;" horiz-adv-x="936" 
d="M390 1398l252 347h244l-256 -347h-240zM685 1398l251 347h244l-255 -347h-240zM886 1745h1l6 8zM1180 1745h1l6 8z" />
    <glyph glyph-name="uni0326" unicode="&#x326;" horiz-adv-x="0" 
d="M123 -300l201 394h200l-19 -119l-160 -275h-222z" />
    <glyph glyph-name="Wgrave" unicode="&#x1e80;" horiz-adv-x="1885" 
d="M410 0l-199 1394h329l112 -864l354 788h293l102 -788l388 864h326l-640 -1394h-288l-117 807l-370 -807h-290zM925 1755h273l141 -346h-241z" />
    <glyph glyph-name="wgrave" unicode="&#x1e81;" horiz-adv-x="1501" 
d="M332 0l-150 1005h322l56 -488l221 488h253l67 -485l212 485h324l-471 -1005h-261l-74 520l-234 -520h-265zM695 1512h268l145 -374h-237z" />
    <glyph glyph-name="Wacute" unicode="&#x1e82;" horiz-adv-x="1885" 
d="M410 0l-199 1394h329l112 -864l354 788h293l102 -788l388 864h326l-640 -1394h-288l-117 807l-370 -807h-290zM979 1457l249 345h274l-283 -345h-240z" />
    <glyph glyph-name="wacute" unicode="&#x1e83;" horiz-adv-x="1501" 
d="M332 0l-150 1005h322l56 -488l221 488h253l67 -485l212 485h324l-471 -1005h-261l-74 520l-234 -520h-265zM755 1138l263 374h268l-293 -374h-238z" />
    <glyph glyph-name="Wdieresis" unicode="&#x1e84;" horiz-adv-x="1885" 
d="M410 0l-199 1394h329l112 -864l354 788h293l102 -788l388 864h326l-640 -1394h-288l-117 807l-370 -807h-290zM914 1581q-8 -51 23.5 -88t82.5 -37q52 0 94.5 37t50.5 88q8 52 -22.5 89.5t-82.5 37.5q-51 0 -94.5 -37.5t-51.5 -89.5zM1215 1581q-8 -51 23.5 -88t83.5 -37
t94.5 37t50.5 88q8 52 -22.5 89.5t-82.5 37.5t-95.5 -37.5t-51.5 -89.5z" />
    <glyph glyph-name="wdieresis" unicode="&#x1e85;" horiz-adv-x="1501" 
d="M332 0l-150 1005h322l56 -488l221 488h253l67 -485l212 485h324l-471 -1005h-261l-74 520l-234 -520h-265zM685 1323q-8 -51 23 -88t83 -37q51 0 94 37t51 88q8 52 -23 89.5t-82 37.5q-52 0 -95.5 -37.5t-50.5 -89.5zM987 1323q-8 -51 23 -88t82 -37q52 0 95 37t51 88
q8 52 -23 89.5t-83 37.5q-51 0 -94.5 -37.5t-50.5 -89.5z" />
    <glyph glyph-name="uni1E9E" unicode="&#x1e9e;" horiz-adv-x="1307" 
d="M174 -5l247 1561h566q198 0 305 -96t81 -260q-16 -99 -85.5 -186t-190.5 -175q-45 -32 -53 -40.5t-11 -26.5q-3 -19 2.5 -27t40.5 -40q190 -178 162 -360q-22 -135 -120 -226t-244 -118.5t-327 8.5l46 288q118 -7 172.5 -9t93 3t47 15t12.5 33q5 28 -7 46.5t-76 85.5
q-83 83 -109.5 149.5t-13.5 151.5q13 86 61 151.5t157 148.5q86 68 103 86t22 47q4 25 -2 34t-29.5 12.5t-85.5 3.5h-248l-200 -1260h-316z" />
    <glyph glyph-name="Ygrave" unicode="&#x1ef2;" horiz-adv-x="1244" 
d="M468 0l67 421l-333 973h358l178 -640l391 640h355l-636 -973l-67 -421h-313zM601 1755h272l141 -346h-239z" />
    <glyph glyph-name="ygrave" unicode="&#x1ef3;" horiz-adv-x="1086" 
d="M101 -361q-41 19 -72 41l182 281q50 -30 72.5 -33.5t35.5 18.5l77 137l-227 924h321l130 -526l295 526h321l-658 -1173q-86 -152 -214.5 -205t-252.5 5zM489 1512h268l146 -374h-237z" />
    <glyph glyph-name="endash" unicode="&#x2013;" horiz-adv-x="920" 
d="M181 480l34 215h710l-34 -215h-710z" />
    <glyph glyph-name="emdash" unicode="&#x2014;" horiz-adv-x="1738" 
d="M114 480l34 215h1662l-34 -215h-1662z" />
    <glyph glyph-name="quoteleft" unicode="&#x2018;" horiz-adv-x="608" 
d="M200 876l9 59l289 531h278l-263 -590h-313z" />
    <glyph glyph-name="quoteright" unicode="&#x2019;" horiz-adv-x="608" 
d="M204 876l262 590h313l-9 -59l-288 -531h-278z" />
    <glyph glyph-name="quotesinglbase" unicode="&#x201a;" horiz-adv-x="621" 
d="M24 -232l260 565h314l-10 -59l-283 -506h-281z" />
    <glyph glyph-name="quotedblleft" unicode="&#x201c;" horiz-adv-x="1006" 
d="M598 876l9 59l289 531h278l-263 -590h-313zM200 876l9 59l289 531h278l-263 -590h-313z" />
    <glyph glyph-name="quotedblright" unicode="&#x201d;" horiz-adv-x="1006" 
d="M602 876l262 590h313l-9 -59l-290 -531h-276zM204 876l262 590h313l-9 -59l-288 -531h-278z" />
    <glyph glyph-name="quotedblbase" unicode="&#x201e;" horiz-adv-x="1017" 
d="M420 -232l260 565h314l-10 -59l-281 -506h-283zM24 -232l260 565h314l-10 -59l-283 -506h-281z" />
    <glyph glyph-name="dagger" unicode="&#x2020;" horiz-adv-x="1046" 
d="M368 -278l153 980l-324 -2l35 222h324l71 459h229l-74 -459h325l-35 -222l-325 2l-154 -980h-225z" />
    <glyph glyph-name="daggerdbl" unicode="&#x2021;" horiz-adv-x="1046" 
d="M368 -278l70 456l-324 -1l36 224l323 -2l48 303l-324 -2l35 222h324l71 459h229l-74 -459h325l-35 -222l-326 2l-48 -303l327 2l-36 -224l-325 1l-71 -456h-225z" />
    <glyph glyph-name="bullet" unicode="&#x2022;" horiz-adv-x="746" 
d="M430 356q-113 0 -174.5 73t-44.5 185q18 112 103 185t198 73t174 -73t43 -185q-17 -112 -102 -185t-197 -73z" />
    <glyph glyph-name="ellipsis" unicode="&#x2026;" horiz-adv-x="1466" 
d="M1193 -27q-84 0 -129.5 55t-32.5 139q14 84 76.5 138.5t146.5 54.5q85 0 130.5 -54.5t31.5 -138.5q-13 -84 -75.5 -139t-147.5 -55zM102 167q14 84 76.5 138.5t146.5 54.5q85 0 130.5 -54.5t31.5 -138.5q-13 -84 -75.5 -139t-147.5 -55q-84 0 -129.5 55t-32.5 139z
M567 167q14 84 76 138.5t146 54.5q85 0 130.5 -54.5t31.5 -138.5q-13 -84 -75.5 -139t-147.5 -55q-84 0 -129 55t-32 139z" />
    <glyph glyph-name="perthousand" unicode="&#x2030;" horiz-adv-x="1763" 
d="M1151 1381h264l-1114 -1381h-263zM73 1039q24 154 126 260t245 106q96 0 160.5 -51t88 -133t7.5 -182q-25 -153 -127.5 -261t-245.5 -108q-96 0 -160 52t-87 135t-7 182zM297 1039q-13 -85 1 -117t64 -32q51 0 75.5 32t37.5 117t-1 116t-65 31t-75 -31t-37 -116zM739 328
q24 155 126 261t246 106q96 0 160.5 -51t88 -133.5t7.5 -182.5q-25 -153 -127 -260.5t-245 -107.5t-211.5 108t-44.5 260zM964 328q-13 -84 1 -116t65 -32q50 0 74.5 31.5t37.5 116.5q13 86 -1 117t-65 31t-75 -31t-37 -117zM1412 328q24 155 126 261t246 106
q96 0 160.5 -51t88 -133.5t7.5 -182.5q-25 -153 -127 -260.5t-245 -107.5t-211.5 108t-44.5 260zM1637 328q-13 -84 1 -116t65 -32q50 0 74.5 31.5t37.5 116.5q13 86 -1 117t-65 31t-75 -31t-37 -117z" />
    <glyph glyph-name="guilsinglleft" unicode="&#x2039;" horiz-adv-x="658" 
d="M352 156l-234 350l344 349h283l-343 -349l233 -350h-283z" />
    <glyph glyph-name="guilsinglright" unicode="&#x203a;" horiz-adv-x="658" 
d="M73 156l343 350l-233 349h283l234 -349l-344 -350h-283z" />
    <glyph glyph-name="fraction" unicode="&#x2044;" horiz-adv-x="208" 
d="M-317 -76l746 1492l244 40l-747 -1494z" />
    <glyph glyph-name="Euro" unicode="&#x20ac;" horiz-adv-x="1172" 
d="M62 398l138 219h74l9 61h-177l138 219h71q84 245 249 376.5t369 131.5q137 0 223 -45t152 -151l-176 -163q-61 91 -102 115.5t-136 24.5q-115 0 -203.5 -66t-146.5 -223h688l-159 -219h-567l-9 -61h691l-159 -219h-547q17 -110 79 -157t182 -47q95 0 172 38.5t191 143.5
l-47 -294q-163 -106 -359 -106q-201 0 -317 106.5t-133 315.5h-188z" />
    <glyph glyph-name="trademark" unicode="&#x2122;" horiz-adv-x="981" 
d="M581 902l61 386h160l28 -280l115 280h154l-61 -386h-107l47 270l-112 -263h-109l-29 261l-40 -268h-107zM201 1208l13 82h382l-13 -82h-137l-48 -306h-106l48 306h-139z" />
    <glyph glyph-name="partialdiff" unicode="&#x2202;" horiz-adv-x="1046" 
d="M495 -24q-191 0 -290 134.5t-67 340.5q38 237 195.5 381t363.5 144q102 0 181 -42q5 172 -38.5 259t-146.5 87q-77 0 -128 -25t-140 -106l-113 171q105 96 205.5 137.5t214.5 41.5q92 0 161 -31.5t110.5 -90.5t66 -135.5t30 -174.5t-1.5 -199t-25 -216q-24 -151 -70 -272
t-115.5 -212.5t-169.5 -141.5t-223 -50zM363 454q-41 -260 167 -260q86 0 142.5 37t99 132t72.5 263q-45 132 -180 132q-125 0 -201.5 -77.5t-99.5 -226.5z" />
    <glyph glyph-name="emptyset" unicode="&#x2205;" horiz-adv-x="1669" 
d="M246 -30l-131 154l177 152q-108 196 -70 433q24 153 104 290t193.5 233.5t255.5 152.5t287 56q241 0 413 -142l172 147l132 -154l-178 -152q107 -190 68 -431q-32 -205 -157.5 -374.5t-306 -265t-375.5 -95.5q-239 0 -411 143zM448 709q-23 -153 29 -271l815 702
q-108 83 -264 83q-141 0 -265 -64.5t-207.5 -182t-107.5 -267.5zM602 277q109 -83 263 -83q217 0 381 143.5t200 371.5q25 152 -30 270z" />
    <glyph glyph-name="product" unicode="&#x220f;" horiz-adv-x="1049" 
d="M115 -191l214 1353h-97l35 219h954l-35 -219h-97l-214 -1353h-221l214 1353h-317l-214 -1353h-222z" />
    <glyph glyph-name="summation" unicode="&#x2211;" horiz-adv-x="1043" 
d="M-20 -191l25 157l582 651l-331 609l25 155h935l-35 -219h-621l298 -552l-522 -581h676l-35 -220h-997z" />
    <glyph glyph-name="minus" unicode="&#x2212;" horiz-adv-x="985" 
d="M137 533l35 220h879l-35 -220h-879z" />
    <glyph glyph-name="radical" unicode="&#x221a;" horiz-adv-x="1078" 
d="M388 -278l-105 781h-138l34 219h302l69 -517l518 1332h228l-710 -1815h-198z" />
    <glyph glyph-name="infinity" unicode="&#x221e;" horiz-adv-x="1901" 
d="M539 -24q-145 0 -246.5 73t-142.5 204t-15 297q40 254 203 415.5t383 161.5q131 0 225.5 -58t145.5 -170q87 111 201 169.5t244 58.5q220 0 332 -162t72 -415t-203 -413.5t-383 -160.5q-267 0 -370 231q-85 -113 -199.5 -172t-246.5 -59zM359 550q-29 -185 32 -270.5
t183 -85.5q56 0 104.5 16.5t95 55t84.5 110t64 173.5q2 105 -14.5 177.5t-50 111t-74.5 55t-96 16.5q-122 0 -210 -86.5t-118 -272.5zM1156 554q-3 -104 13 -176.5t49.5 -111.5t75 -55.5t96.5 -16.5q121 0 209 85.5t117 270.5q30 186 -31 272.5t-182 86.5q-261 0 -347 -355z
" />
    <glyph glyph-name="integral" unicode="&#x222b;" horiz-adv-x="635" 
d="M203 -278q-68 0 -123 39.5t-71 113.5l177 164q37 -89 40.5 -93t12.5 -4q7 0 11 3t9 19t10.5 45.5t14.5 86.5q20 129 17 491q-1 237 3 344.5t18 200.5q30 185 116.5 273t186.5 88q69 0 124.5 -40t68.5 -117l-173 -156q-38 85 -43 90q-4 3 -13 3t-13.5 -7.5t-12 -40.5
t-19.5 -107q-18 -116 -16 -491q2 -227 -2.5 -338.5t-19.5 -205.5q-15 -97 -48 -169.5t-75.5 -112.5t-87.5 -59.5t-92 -19.5z" />
    <glyph glyph-name="approxequal" unicode="&#x2248;" horiz-adv-x="1146" 
d="M145 395q69 131 176 195l-127 117q64 119 154 180t195 61q58 0 106.5 -17.5t113.5 -56.5q58 -32 77.5 -39.5t44.5 -7.5q41 0 59.5 15t88.5 103q18 22 28 35l139 -131q-71 -132 -175 -194l126 -118q-131 -242 -350 -242q-56 0 -103 17.5t-116 57.5q-58 32 -76.5 39.5
t-46.5 7.5q-43 0 -62 -17t-111 -134zM359 608q67 28 135 28q57 0 104.5 -17.5t115.5 -56.5q56 -32 75.5 -40t45.5 -8q41 0 60.5 16t92.5 107q-66 -29 -138 -29q-56 0 -102.5 17.5t-116.5 58.5q-57 31 -76 38t-47 7q-40 0 -59 -15.5t-90 -105.5z" />
    <glyph glyph-name="notequal" unicode="&#x2260;" horiz-adv-x="1057" 
d="M157 179l148 198h-173l35 220h301l68 92h-355l35 220h484l146 199h254l-147 -199h175l-35 -220h-303l-69 -92h358l-35 -220h-485l-148 -198h-254z" />
    <glyph glyph-name="lessequal" unicode="&#x2264;" horiz-adv-x="985" 
d="M1012 508l-38 -242l-830 311l36 227l940 383l-38 -240l-542 -220zM51 -14l35 221h879l-35 -221h-879z" />
    <glyph glyph-name="greaterequal" unicode="&#x2265;" horiz-adv-x="985" 
d="M133 508l543 219l-473 220l38 240l818 -383l-36 -227l-928 -311zM51 -14l35 221h879l-35 -221h-879z" />
    <glyph glyph-name="lozenge" unicode="&#x25ca;" horiz-adv-x="919" 
d="M383 0l-226 690l445 691h153l225 -691l-444 -690h-153zM402 690l113 -345l219 345l-110 345z" />
    <glyph glyph-name="uniF8FF" unicode="&#xf8ff;" horiz-adv-x="1522" 
d="M748 253q-151 0 -279.5 75.5t-203 204.5t-74.5 280q0 152 75 280.5t203.5 203t280.5 74.5q151 0 279.5 -75t203.5 -203.5t75 -279.5q0 -152 -74.5 -281t-203.5 -204t-282 -75zM190 29v146h59q26 0 44 -9q37 -17 37 -64q0 -23 -10 -39q-21 -34 -71 -34h-59zM225 56h22
q18 0 26 4q22 10 22 42q0 18 -5 27q-12 20 -43 20h-22v-93zM258 814q0 -205 144 -350t348 -145q203 0 347.5 144.5t144.5 347.5q0 100 -39 191.5t-104.5 157.5t-156 105t-190.5 40q-134 0 -248 -65.5t-180 -178.5t-66 -247zM342 84q0 16 8 29q16 27 52 27q26 0 42 -14
q18 -15 18 -42v-8h-85q0 -8 3 -13q7 -13 25 -13q7 0 10 1q9 3 14 12l31 -3q-2 -10 -10 -17q-14 -16 -45 -16q-17 0 -33 7q-30 14 -30 50zM377 95h52l-3 10q-6 12 -23 12q-10 0 -14 -3q-10 -6 -12 -19zM432 912q10 -2 12 -4q52 -21 98 -27q41 -3 72 2q43 11 47 12
q3 0 8.5 2.5t7.5 3.5q-5 2 -16.5 8t-17 9t-13 8.5t-13.5 12.5h19q39 0 75 19q65 40 136 61q24 8 58 11q4 0 19.5 1t23.5 0q54 -2 89 -33q10 -11 28 -33v-2l-6 2q-45 17 -83 3.5t-62 -53.5q-7 -13 -25 -55q-9 -21 -27 -63.5t-20 -48.5q-33 -64 -65 -101q-27 -33 -66 -58
q-45 -34 -116 -55h-5l24 22q12 11 25 44q41 116 45 127q24 73 57 131v3q-2 -4 -11 -13q-8 -10 -10 -12q-23 -36 -31 -57q-2 -6 -8 -6q-99 3 -177 67q-40 38 -59 55q-1 1 -5 7t-8 10zM471 61l33 2q5 -14 23 -14q20 0 20 11q0 8 -16 11l-21 4q-36 6 -36 31q0 10 6 18
q13 16 46 16q48 0 53 -32l-31 -3q-4 14 -21 14q-19 0 -19 -11q0 -8 16 -12l22 -3q36 -6 36 -30q0 -9 -7 -18q-13 -18 -48 -18q-51 0 -56 34zM595 168q0 15 19 15q18 0 18 -15t-18 -15q-19 0 -19 15zM597 29v109h34v-109h-34zM646 84q0 20 7 31q13 25 43 25q10 0 18 -3
q12 -5 18 -17h1v18h35v-110q0 -14 -9 -23q-15 -19 -52 -19q-50 0 -57 31l31 3l6 -6q5 -6 21 -6q25 0 25 21v19h-1q-2 -3 -7 -8q-11 -9 -29 -9q-13 0 -25 5q-25 13 -25 48zM681 84q0 -10 3 -16q6 -14 24 -14q25 0 25 30q0 10 -3 17q-6 15 -22 15q-7 0 -15 -4q-12 -7 -12 -28z
M788 29v109h34v-19q10 21 37 21q13 0 23 -5q20 -10 20 -36v-70h-35v64q0 22 -21 22q-7 0 -13 -3q-11 -6 -11 -19v-64h-34zM917 84q0 15 7 29q16 27 54 27q20 0 33 -7q28 -16 28 -49q0 -17 -7 -30q-16 -27 -54 -27q-16 0 -33 7q-28 16 -28 50zM952 84q0 -9 3 -18
q7 -15 23 -15q10 0 15 4q12 9 12 29q0 2 -3 17q-8 16 -24 16q-7 0 -14 -5q-12 -7 -12 -28zM1041 138h36l26 -78h1l26 78h36l-43 -109h-39zM1167 60q0 17 15 25q13 8 32 8l17 3q13 0 13 7v1q0 14 -19 14q-17 0 -22 -13l-32 3q3 10 10 17q15 15 45 15q20 0 37 -9q15 -8 15 -28
v-74h-33v16q-5 -7 -9 -9q-9 -9 -27 -9q-13 0 -21 4q-21 8 -21 29zM1200 60q0 -12 18 -12q8 0 14 3q12 5 12 18v11q-4 -2 -23 -5q-7 0 -12 -3q-9 -3 -9 -12zM1257 177q0 16 11 26.5t27 10.5t26.5 -10.5t10.5 -26.5t-10.5 -27t-26.5 -11t-27 11t-11 27zM1269 177
q0 -11 7.5 -19t18.5 -8t18.5 8t7.5 19t-7.5 18.5t-18.5 7.5t-18.5 -7.5t-7.5 -18.5zM1282 160v35h14q12 0 12 -11q0 -5 -5 -10l8 -14h-10l-6 11h-5v-11h-8zM1290 180h6q5 0 5 3t-5 3h-6v-6z" />
    <glyph glyph-name="_Designova" horiz-adv-x="1672" 
d="M834 41q-174 0 -322.5 87t-235 235.5t-86.5 323.5q1 131 52 250.5t137.5 205.5t206 137t250.5 51q175 0 323.5 -86t235.5 -234.5t87 -323.5q0 -176 -87 -324.5t-236 -235t-325 -86.5zM268 687q0 -116 45 -221.5t120.5 -181.5t181 -121t221.5 -45q154 0 285 76t207 207
t76 285q0 116 -45 221.5t-120.5 181.5t-180.5 121t-221 45t-221 -45t-181.5 -120.5t-121.5 -181t-45 -221.5zM470 800q7 0 13 -4q58 -22 115 -31q45 -5 81 3q29 4 53 14q5 0 11.5 3t8.5 4q-5 3 -22.5 11.5t-27.5 15.5t-19 17h21q39 0 86 20q85 53 158 73q37 10 66 10
q6 0 24.5 1.5t26.5 0.5q66 -4 102 -39q6 -5 33 -37v-2q-3 2 -7 2q-53 20 -95.5 4.5t-71.5 -59.5q-5 -9 -10 -20.5t-11 -25t-9 -21.5q-6 -14 -25 -59t-30 -68q-36 -74 -74 -119q-20 -27 -74 -66q-52 -38 -136 -63h-7l28 24q18 17 30 51q7 20 25 71t27 78q31 90 65 150v1
q-3 -3 -11 -13q-9 -7 -11 -16q-23 -27 -38 -65q-3 -5 -9 -5q-117 5 -204 78q-10 10 -32.5 31t-33.5 32q-12 14 -16 18z" />
    <glyph glyph-name="_Origin" horiz-adv-x="2175" 
d="M110 1055v50h1955v-50h-1955zM110 236v50h1955v-50h-1955zM188 437v177h42v-177h-42zM220 734v177h148v-32h-107v-39h97v-31h-97v-42h107v-33h-148zM258 437v177h34l89 -107v107h40v-177h-33l-88 109v-109h-42zM398 734v177h34l88 -107v107h40v-177h-33l-88 109v-109h-41
zM514 437v177h87q72 0 72 -45q0 -28 -26 -40q3 0 3 -2q28 -12 28 -42q0 -48 -71 -48h-93zM556 468h48q32 0 32 22t-32 22h-48v-44zM556 545h42q33 0 33 20q0 22 -33 22h-42v-42zM589 879v32h156v-32h-57v-145h-41v145h-58zM698 437v177h148v-33h-107v-38h96v-31h-96v-41h105
v-34h-146zM763 911h44l40 -124l42 124h38l40 -126l42 126h39l-57 -177h-45l-39 121l-41 -121h-43zM874 437v177h81q28 0 42 -6q36 -19 36 -57q0 -21 -10 -35q-15 -18 -29 -23l37 -56h-43l-35 50h-37v-50h-42zM916 520h37q38 0 38 31q0 30 -38 30h-37v-61zM1053 437v177h40
v-143h106v-34h-146zM1056 823q0 39 28 65q26 26 69 26t69 -26q28 -25 28 -65q0 -39 -28 -65q-26 -27 -68 -27q-44 0 -70 27q-28 28 -28 65zM1098 823q0 -25 15.5 -40.5t39.5 -15.5t39.5 15.5t15.5 40.5t-15.5 41.5t-39.5 16.5t-39.5 -16.5t-15.5 -41.5zM1228 437v177h41
v-177h-41zM1273 734v177h81q28 0 41 -6q36 -17 36 -57q0 -21 -10 -35q-9 -15 -29 -23l39 -56h-45l-33 50h-39v-50h-41zM1298 437v177h35l87 -107v107h42v-177h-34l-89 109v-109h-41zM1314 817h37q38 0 38 31t-38 31h-37v-62zM1451 734v177h148v-32h-107v-39h96v-31h-96v-75
h-41zM1488 461q0 24 25 24q10 0 17 -7t7 -17q0 -11 -7 -25l-14 -38h-26l12 41q-14 5 -14 22zM1615 734v177h147v-32h-106v-39h95v-31h-95v-42h106v-33h-147zM1638 437v177h80q30 0 52 -11q46 -21 46 -77q0 -28 -12 -47q-23 -42 -86 -42h-80zM1680 471h37q17 0 31 7
q26 14 26 48q0 21 -6 29q-14 26 -51 26h-37v-110zM1792 734v177h33l90 -107v107h40v-177h-34l-89 109v-109h-40zM1840 437v177h147v-33h-107v-38h97v-31h-97v-41h106v-34h-146z" />
    <glyph glyph-name="_VendorID" horiz-adv-x="1096" 
d="M63 154v1187h974v-1187h-974zM66 63q0 13 7.5 20.5t18.5 7.5q9 0 12 -3l4 -5v26h13v-72h-13v9l-4 -7q-8 -5 -15 -5q-23 0 -23 29zM80 63q0 -17 13 -17q15 0 15 17v1q0 18 -13 18q-15 0 -15 -19zM116 205h869v1084h-869v-1084zM131 63q0 13 7.5 20.5t19.5 7.5
q11 0 18.5 -7.5t7.5 -19.5q0 -2 -2 -5h-37q1 -13 13 -13q10 0 12 9h12q-4 -21 -24 -21q-27 0 -27 29zM145 67h25q-3 15 -12 15q-12 0 -13 -15zM188 52h14q3 -9 9 -9q9 0 9 7q0 3 -12 9q-18 5 -18 16q0 16 21 16t21 -16h-14q-1 7 -7 7q-7 0 -7 -6q0 -4 12 -9q17 -5 17 -15
q0 -18 -22 -18q-20 0 -23 18zM230 455q0 59 46 125l97 137h64l-84 -120q10 3 23 3q62 0 102.5 -41.5t40.5 -103.5q0 -61 -41.5 -103.5t-101.5 -42.5q-61 0 -103.5 42.5t-42.5 103.5zM230 926q0 56 46 123l97 142h64l-84 -122q7 2 23 2q63 0 103 -41t40 -104
q0 -61 -41 -102.5t-102 -41.5t-103.5 42t-42.5 102zM241 102q0 7 8 7t8 -7q0 -8 -8 -8t-8 8zM242 37v54h14v-54h-14zM266 63q0 28 26 28q9 0 12 -3l4 -5v8h14v-41q0 -8 -2 -11q0 -24 -27 -24q-26 0 -26 18v1h14v-1q0 -8 12 -8q11 0 15 13v8l-4 -7q-8 -2 -14 -2q-24 0 -24 26
zM281 64q0 -18 12 -18q15 0 15 17v1q0 18 -15 18q-12 0 -12 -18zM284 455q0 -42 25.5 -68t66.5 -26q39 0 64.5 26t25.5 68q0 40 -25.5 65t-64.5 25q-41 0 -66.5 -25t-25.5 -65zM284 926q0 -41 25.5 -67t66.5 -26q39 0 64.5 26.5t25.5 66.5t-25.5 66t-64.5 26
q-41 0 -66.5 -25t-25.5 -67zM333 37v54h14v-10l4 7q5 3 13 3q17 0 20 -15q1 -3 1 -9v-30h-15v34q0 11 -10 11q-13 0 -13 -21v-24h-14zM392 63q0 13 7.5 20.5t19.5 7.5q28 0 28 -28q0 -29 -28 -29q-12 0 -19.5 8t-7.5 21zM406 63q0 -17 13 -17q15 0 15 17q0 19 -15 19
q-13 0 -13 -19zM452 91h14l14 -45l13 45h14l-19 -54h-18zM512 52q0 16 30 16h3v7q0 7 -9 7q-11 0 -11 -9h-13q0 18 24 18q19 0 21 -15v-39h-12v6l-3 -5q-8 -4 -14 -4q-16 0 -16 18zM525 52q0 -6 8 -6q12 0 12 9v6q-20 2 -20 -9zM566 80v9h6v8q0 15 19 15h6v-11q-11 2 -11 -5
v-7h11v-9h-11v-43h-14v43h-6zM579 455q0 62 44 125l97 137h66l-86 -120q10 3 25 3q61 0 102 -41.5t41 -103.5q0 -61 -41.5 -103.5t-101.5 -42.5q-61 0 -103.5 42.5t-42.5 103.5zM579 926q0 57 44 123l97 142h66l-87 -122q8 2 26 2q61 0 102 -41.5t41 -103.5
q0 -61 -41.5 -102.5t-101.5 -41.5q-61 0 -103.5 41.5t-42.5 102.5zM601 63q0 28 28 28q27 0 27 -28q0 -29 -27 -29q-28 0 -28 29zM615 63q0 -17 14 -17q13 0 13 17q0 19 -13 19q-14 0 -14 -19zM632 455q0 -42 26 -68t67 -26q38 0 62.5 26t24.5 68q0 40 -24.5 65t-62.5 25
q-41 0 -67 -25t-26 -65zM632 926q0 -41 26 -67t67 -26q38 0 62.5 26t24.5 67q0 40 -24.5 66t-62.5 26q-41 0 -67 -25.5t-26 -66.5zM665 37v54h12v-10l6 7q4 3 13 3q16 0 19 -15v-39h-14v34q-4 11 -9 11q-15 0 -15 -21v-24h-12zM722 80v9h8v13h14v-13h10v-9h-10v-28
q2 -10 9 -6v-10h-8q-15 0 -15 10v34h-8zM758 52h15q1 -9 10 -9q8 0 8 7q0 3 -12 9q-17 5 -17 16q0 16 20 16q19 0 24 -16h-16q0 7 -9 7q-5 0 -5 -6q0 -5 11 -9q19 -6 19 -15q0 -18 -23 -18q-21 0 -25 18zM810 42q0 10 9 10t9 -10q0 -8 -9 -8t-9 8zM834 63q0 13 8 20.5
t18 7.5q25 0 25 -20h-13q-3 11 -12 11q-12 0 -12 -19q0 -17 12 -17q10 0 12 9h13q-1 -21 -25 -21q-26 0 -26 29zM890 63q0 28 29 28q26 0 26 -28q0 -29 -26 -29q-29 0 -29 29zM904 63q0 -17 15 -17q13 0 13 17q0 19 -13 19q-15 0 -15 -19zM955 37v54h14v-9l5 6q3 3 9 3
q13 0 18 -10l5 7q3 3 11 3q17 0 17 -12q1 -4 1 -12v-30h-13v27q0 2 -0.5 5t-0.5 4q0 9 -10 9q-9 0 -9 -18v-27h-13v36q-5 9 -10 9q-10 0 -10 -18v-27h-14z" />
    </font>
</defs>
</svg>
