<?xml version="1.0" standalone="no"?>
<!DOCTYPE svg PUBLIC "-//W3C//DTD SVG 1.1//EN" "http://www.w3.org/Graphics/SVG/1.1/DTD/svg11.dtd" >
<svg xmlns="http://www.w3.org/2000/svg" xmlns:xlink="http://www.w3.org/1999/xlink" version="1.1">
<metadata>
Created by FontForge 20201107 at Tue Feb 27 18:48:25 2024
 By 
Copyright (c) 2024 by Designova. All rights reserved.
</metadata>
<defs>
<font id="RovelleUno-ExtraLightItalic" horiz-adv-x="1235" >
  <font-face 
    font-family="Rovelle Uno ExtraLight Italic"
    font-weight="200"
    font-style="italic"
    font-stretch="normal"
    units-per-em="2048"
    panose-1="0 0 0 0 0 0 0 0 0 0"
    ascent="1638"
    descent="-410"
    x-height="997"
    cap-height="1394"
    bbox="-290 -450 2348 1925"
    underline-thickness="100"
    underline-position="-255"
    unicode-range="U+0020-F8FF"
  />
<missing-glyph horiz-adv-x="1277" 
d="M162 0l219 1380h953l-219 -1380h-953zM314 240l368 457l-223 456zM343 113h626l-237 482zM536 1268l229 -469l378 469h-607zM815 697l224 -457l145 913z" />
    <glyph glyph-name=".notdef" horiz-adv-x="1277" 
d="M162 0l219 1380h953l-219 -1380h-953zM314 240l368 457l-223 456zM343 113h626l-237 482zM536 1268l229 -469l378 469h-607zM815 697l224 -457l145 913z" />
    <glyph glyph-name=".null" horiz-adv-x="0" 
 />
    <glyph glyph-name="nonmarkingreturn" horiz-adv-x="682" 
 />
    <glyph glyph-name="space" unicode=" " horiz-adv-x="592" 
 />
    <glyph glyph-name="exclam" unicode="!" horiz-adv-x="496" 
d="M243 214l177 1166h94l-193 -1166h-78zM195 31q4 24 23.5 41t43.5 17t38.5 -17t10.5 -41t-23.5 -41t-43.5 -17t-38.5 17t-10.5 41z" />
    <glyph glyph-name="quotedbl" unicode="&#x22;" horiz-adv-x="522" 
d="M447 955l76 513h82l-89 -513h-69zM307 955l76 513h82l-89 -513h-69z" />
    <glyph glyph-name="numbersign" unicode="#" horiz-adv-x="1036" 
d="M203 0l176 476h-214l13 80h232l99 268h-229l12 80h246l178 476h80l-177 -476h176l177 476h81l-177 -476h213l-12 -80h-231l-99 -268h229l-13 -80h-247l-176 -476h-81l176 476h-176l-176 -476h-80zM490 556h176l101 268h-176z" />
    <glyph glyph-name="dollar" unicode="$" horiz-adv-x="1081" 
d="M514 -26q-80 7 -146 35t-115 78t-72.5 127.5t-14.5 174.5h82q-12 -151 62.5 -237t216.5 -98l94 598q-40 13 -73 27.5t-67.5 34t-59 42t-47.5 52t-33.5 64t-16 77t4.5 91.5q24 154 140 252.5t272 113.5l23 149h82l-23 -149q86 -6 150.5 -41t100.5 -91.5t51 -125.5t10 -149
h-82q9 148 -52.5 232t-190.5 95l-96 -604q353 -113 308 -401q-22 -138 -136 -237t-290 -110l-24 -149h-82zM415 1040q-10 -64 1 -113t44 -83.5t74.5 -57.5t101.5 -44l92 584q-118 -13 -205.5 -86t-107.5 -200zM608 53q139 9 224.5 80.5t103.5 183.5q19 118 -39.5 192.5
t-196.5 122.5z" />
    <glyph glyph-name="percent" unicode="%" horiz-adv-x="1281" 
d="M145 0l1113 1380h97l-1113 -1380h-97zM251 1079q22 142 109.5 235t210.5 93t180.5 -93t35.5 -235q-23 -140 -110.5 -234.5t-209.5 -94.5t-180 94.5t-36 234.5zM336 1079q-18 -115 18 -182t125 -67t147 67t76 182q18 117 -18 183t-126 66q-89 0 -146.5 -66.5t-75.5 -182.5
zM713 301q22 142 109.5 235.5t210.5 93.5t180.5 -93.5t35.5 -235.5q-23 -140 -110 -234t-210 -94q-122 0 -180.5 94.5t-35.5 233.5zM798 301q-18 -115 18 -182t125 -67t147 67t76 182q18 117 -18 183t-126 66q-89 0 -146.5 -66.5t-75.5 -182.5z" />
    <glyph glyph-name="ampersand" unicode="&#x26;" horiz-adv-x="1248" 
d="M973 154q-181 -172 -445 -192q-132 -8 -219 27q-92 35 -137.5 107.5t-37.5 177.5q15 168 160 292q84 71 224 150q-48 74 -63 98q-77 123 -66 244q13 144 119.5 241t263.5 107q152 12 228.5 -59.5t65.5 -191.5q-11 -112 -78 -198q-61 -73 -148.5 -133t-214.5 -129l13 7
l347 -431q133 163 185 416h75q-43 -214 -136 -367q-31 -50 -78 -106l168 -209l-62 -52zM213 279q-10 -125 75 -188.5t246 -52.5q234 17 395 171l-364 451q-49 -26 -126 -75q-102 -64 -160 -136.5t-66 -169.5zM468 1064q-6 -55 13 -111q21 -71 111 -197l3 2q99 54 192 115
q92 60 142.5 125.5t58.5 149.5q9 93 -46 144t-178 42q-126 -8 -206 -83t-90 -187z" />
    <glyph glyph-name="quotesingle" unicode="'" horiz-adv-x="382" 
d="M307 955l76 513h82l-89 -513h-69z" />
    <glyph glyph-name="parenleft" unicode="(" horiz-adv-x="523" 
d="M340 -156q-82 158 -109 388.5t10 467.5q37 235 138 466.5t232 388.5h88q-141 -175 -237.5 -395.5t-134.5 -459.5q-37 -243 -11 -461.5t112 -394.5h-88z" />
    <glyph glyph-name="parenright" unicode=")" horiz-adv-x="523" 
d="M45 -156q142 176 239 396.5t135 459.5q37 243 10 461.5t-113 393.5h89q82 -157 109 -387.5t-10 -467.5q-37 -235 -138 -466.5t-232 -389.5h-89z" />
    <glyph glyph-name="asterisk" unicode="*" horiz-adv-x="889" 
d="M269 187l-63 50l260 284l-288 98l38 81l285 -108l52 368h86l-63 -368l318 108l13 -81l-318 -98l170 -284l-79 -50l-160 292z" />
    <glyph glyph-name="plus" unicode="+" horiz-adv-x="1009" 
d="M491 169l68 428h-368l12 80h368l68 427h81l-68 -427h368l-12 -80h-368l-68 -428h-81z" />
    <glyph glyph-name="comma" unicode="," horiz-adv-x="407" 
d="M68 -226l152 312h75l1 -31l-151 -281h-77z" />
    <glyph glyph-name="hyphen" unicode="-" horiz-adv-x="647" 
d="M183 527l13 80h447l-13 -80h-447z" />
    <glyph glyph-name="period" unicode="." horiz-adv-x="356" 
d="M174 -27q-24 0 -38.5 17t-10.5 41t23.5 41t43.5 17t38.5 -17t10.5 -41t-23.5 -41t-43.5 -17z" />
    <glyph glyph-name="slash" unicode="/" horiz-adv-x="693" 
d="M31 -58l738 1497h84l-738 -1497h-84z" />
    <glyph glyph-name="zero" unicode="0" horiz-adv-x="1149" 
d="M571 -27q-99 0 -171.5 35t-116.5 98t-65 153t-20 197t21 234q25 160 71.5 288t116 225.5t169 150.5t222.5 53q98 0 171 -35t116.5 -98t64 -153t19.5 -197t-21 -234q-25 -161 -71.5 -288.5t-115.5 -225t-168 -150.5t-222 -53zM304 690q-101 -638 279 -638q379 0 480 638
t-278 638t-481 -638z" />
    <glyph glyph-name="one" unicode="1" horiz-adv-x="717" 
d="M521 0l203 1279l-406 -229l15 94l423 236h66l-219 -1380h-82z" />
    <glyph glyph-name="two" unicode="2" horiz-adv-x="1046" 
d="M80 0l9 59l543 456q108 91 176 161.5t105 131.5t52 106t25 109q22 136 -45.5 220.5t-215.5 84.5q-144 0 -254 -92.5t-150 -249.5l-10 -37h-81l11 41q49 188 186.5 302.5t310.5 114.5q127 0 209.5 -53t112 -138.5t12.5 -192.5q-22 -139 -108.5 -267.5t-279.5 -289.5
l-462 -386h763l-13 -80h-896z" />
    <glyph glyph-name="three" unicode="3" horiz-adv-x="1115" 
d="M558 -10q-222 0 -330 119.5t-71 311.5l78 4q-34 -167 56 -263t279 -96q180 0 299 90t142 237q24 147 -66.5 236.5t-270.5 89.5q-54 0 -111 -9l11 66l519 538h-770l13 80h896l-9 -58l-527 -541h-10q209 0 319 -112.5t82 -289.5q-28 -178 -173.5 -290.5t-355.5 -112.5z
M552 789l16 -19l6 6l2 13h-24z" />
    <glyph glyph-name="four" unicode="4" horiz-adv-x="1178" 
d="M799 0l52 329h-719l11 66l875 999h80l-157 -990h225l-12 -75h-225l-52 -329h-78zM244 404h619l137 867z" />
    <glyph glyph-name="five" unicode="5" horiz-adv-x="1052" 
d="M505 -14q-74 0 -138.5 22.5t-116.5 68t-80 123t-22 177.5l2 41h81l-2 -37q-8 -143 68 -229t222 -86q71 0 138.5 22.5t128 66.5t103.5 118t58 168q27 172 -50 272t-229 100h-28q-115 0 -207 -59t-145 -167h-85l232 807h717l-13 -80h-646l-155 -535q132 113 310 113h35
q128 0 215 -59.5t120.5 -161t13.5 -228.5q-33 -209 -184.5 -333t-342.5 -124z" />
    <glyph glyph-name="six" unicode="6" horiz-adv-x="1081" 
d="M539 -10q-189 0 -299.5 129.5t-80.5 315.5q18 117 109 243l530 716h86l-413 -561q106 52 212 52q123 0 216.5 -59.5t137 -162.5t23.5 -226q-19 -123 -95 -225.5t-189 -162t-237 -59.5zM239 437q-25 -159 64 -265t248 -106q158 0 282.5 107t149.5 266q25 157 -65.5 264.5
t-248.5 107.5q-156 0 -280.5 -107t-149.5 -267z" />
    <glyph glyph-name="seven" unicode="7" horiz-adv-x="1111" 
d="M231 0l934 1318h-916l12 76h1001l-11 -71l-933 -1323h-87z" />
    <glyph glyph-name="eight" unicode="8" horiz-adv-x="1098" 
d="M544 -29q-201 0 -313.5 103t-83.5 286q20 126 103.5 220t213.5 139q-86 42 -123 126t-19 195q24 156 150 261.5t316 105.5q100 0 174.5 -29t115.5 -79.5t56.5 -116.5t3.5 -142q-18 -112 -85.5 -196.5t-170.5 -125.5q111 -44 157 -137t26 -221q-19 -122 -98 -212
t-188.5 -133.5t-234.5 -43.5zM233 360q-13 -79 9.5 -140t71 -97t111.5 -54t136 -18q68 0 134 18t126.5 53.5t103 97t55.5 140.5q23 146 -57 231.5t-259 85.5q-181 0 -294.5 -86.5t-136.5 -230.5zM407 1040q-22 -140 60.5 -212t217.5 -72q85 0 160.5 28t134 94.5t73.5 161.5
q21 135 -53.5 211.5t-224.5 76.5q-151 0 -249 -76.5t-119 -211.5z" />
    <glyph glyph-name="nine" unicode="9" horiz-adv-x="1081" 
d="M832 562q-106 -53 -213 -53q-186 0 -296.5 131t-81.5 316q30 189 181 318.5t340 129.5t300 -129t81 -317q-20 -119 -110 -243l-529 -715h-86zM319 955q-25 -158 65.5 -265t247.5 -107t281 107t149 266q25 160 -63.5 266t-248.5 106q-158 0 -282 -107t-149 -266z" />
    <glyph glyph-name="colon" unicode=":" horiz-adv-x="397" 
d="M352 972q-24 0 -38.5 17t-10.5 41t23.5 41.5t43.5 17.5t39 -17.5t11 -41.5t-24 -41t-44 -17zM145 31q4 24 23.5 41t43.5 17t39 -17t11 -41t-24 -41t-44 -17t-38.5 17t-10.5 41z" />
    <glyph glyph-name="semicolon" unicode=";" horiz-adv-x="470" 
d="M88 -226l152 312h75l1 -31l-151 -281h-77zM376 1030q4 24 24 41.5t43 17.5q24 0 39 -17.5t11 -41.5t-24 -41t-44 -17q-23 0 -38 17t-11 41z" />
    <glyph glyph-name="less" unicode="&#x3c;" horiz-adv-x="1011" 
d="M932 105l-756 398l10 63l882 398l-15 -92l-749 -337l642 -338z" />
    <glyph glyph-name="equal" unicode="=" horiz-adv-x="1087" 
d="M183 422l13 80h855l-13 -80h-855zM238 772l13 79h855l-13 -79h-855z" />
    <glyph glyph-name="greater" unicode="&#x3e;" horiz-adv-x="1011" 
d="M113 105l14 92l750 338l-643 337l15 92l756 -398l-10 -63z" />
    <glyph glyph-name="question" unicode="?" horiz-adv-x="1017" 
d="M472 214q16 95 31 151t48 115t83.5 111.5t137.5 126.5q97 82 147 158.5t64 165.5q21 136 -49 211t-212 75q-160 0 -264 -98t-139 -270h-81q33 197 171.5 322t325.5 125q185 0 271.5 -103.5t61.5 -261.5q-32 -201 -247 -378q-105 -87 -156.5 -150t-74.5 -125.5t-40 -174.5
h-78zM426 31q4 24 23.5 41t43.5 17t39 -17t11 -41t-24 -41t-44 -17t-38.5 17t-10.5 41z" />
    <glyph glyph-name="at" unicode="@" horiz-adv-x="1670" 
d="M737 -202q-100 0 -191.5 27.5t-169 82.5t-128.5 138t-71.5 195t1.5 253q24 152 93 287t165 234t212 171t238.5 108t239.5 36q192 0 328 -83t194.5 -231.5t28.5 -338.5q-20 -126 -67.5 -229t-110.5 -168t-136 -99.5t-147 -34.5q-73 0 -125.5 33t-60.5 108l-9 -15
q-127 -142 -274 -142q-36 0 -68 8.5t-64.5 30t-51.5 57t-28.5 89.5t3.5 128q22 141 97 263.5t187 197t232 74.5q108 0 151 -76l11 -47l35 88h88l-171 -430q-41 -107 -51 -167q-19 -120 116 -120q123 0 224 120.5t133 320.5q43 273 -91 428t-398 155q-126 0 -260 -52
t-253 -145t-207.5 -238t-115.5 -315q-24 -150 5 -270.5t99 -196t167.5 -115.5t213.5 -40q158 0 283 38t283 139l33 -70q-180 -112 -314 -149.5t-298 -37.5zM624 451q-38 -241 143 -241q92 0 179.5 84t159.5 272l30 78q43 109 14.5 181.5t-117.5 72.5q-135 0 -257 -130
t-152 -317z" />
    <glyph glyph-name="A" unicode="A" horiz-adv-x="1130" 
d="M40 0l707 1394h76l267 -1394h-86l-87 467h-556l-235 -467h-86zM398 542h506l-138 730z" />
    <glyph glyph-name="B" unicode="B" horiz-adv-x="1213" 
d="M170 0l221 1394h498q187 0 278.5 -94t65.5 -258q-16 -104 -72 -182.5t-143 -122.5q105 -34 151 -126t24 -230q-29 -187 -158 -284t-346 -97h-519zM260 76h441q187 0 288.5 75t125.5 230q23 147 -40 225t-204 78h-515zM368 760h472q126 0 210.5 74.5t104.5 203.5
q22 135 -50 207.5t-228 72.5h-420z" />
    <glyph glyph-name="C" unicode="C" horiz-adv-x="1334" 
d="M690 -12q-275 0 -413 192t-87 516q34 216 137 377.5t255 247t333 85.5h20q193 0 321 -97t173 -270l-78 -27q-39 152 -148.5 234t-280.5 82h-20q-247 0 -417.5 -169.5t-216.5 -462.5q-46 -292 70.5 -461t363.5 -169h20q171 0 307 82t223 234l68 -27q-99 -173 -258 -270
t-352 -97h-20z" />
    <glyph glyph-name="D" unicode="D" horiz-adv-x="1240" 
d="M170 0l221 1394h290q333 0 487 -186t101 -522q-53 -330 -262.5 -508t-548.5 -178h-288zM260 76h206q309 0 491 153.5t230 456.5q49 309 -85 470.5t-435 161.5h-210z" />
    <glyph glyph-name="E" unicode="E" horiz-adv-x="1139" 
d="M170 0l221 1394h879l-12 -76h-801l-92 -577h733l-12 -76h-733l-93 -589h801l-12 -76h-879z" />
    <glyph glyph-name="F" unicode="F" horiz-adv-x="1139" 
d="M170 0l221 1394h879l-12 -76h-801l-92 -577h733l-12 -76h-733l-105 -665h-78z" />
    <glyph glyph-name="G" unicode="G" horiz-adv-x="1308" 
d="M690 -12q-275 0 -413 192.5t-86 517.5q51 324 250 516t474 192q196 0 323.5 -100t162.5 -277l-75 -28q-31 153 -138.5 240t-285.5 87q-247 0 -417 -169t-216 -461q-46 -293 70 -462.5t363 -169.5q170 0 301 79.5t212 219.5l42 267h-484l12 76h560l-112 -708h-76l33 210
q-95 -107 -224 -164.5t-276 -57.5z" />
    <glyph glyph-name="H" unicode="H" horiz-adv-x="1219" 
d="M170 0l221 1394h78l-103 -649h721l103 649h80l-221 -1394h-80l106 669h-721l-106 -669h-78z" />
    <glyph glyph-name="I" unicode="I" horiz-adv-x="418" 
d="M170 0l221 1394h78l-221 -1394h-78z" />
    <glyph glyph-name="J" unicode="J" horiz-adv-x="1151" 
d="M149 498l5 33h78q-44 -240 69 -373q85 -102 227 -105q147 -5 273 96q157 126 199 353q1 9 3 19l138 873h77l-139 -875q-41 -260 -218 -410q-141 -120 -314 -128q-167 -9 -280 90q-135 118 -127 341q2 42 9 86z" />
    <glyph glyph-name="K" unicode="K" horiz-adv-x="1168" 
d="M170 0l221 1394h78l-126 -792l888 792h108l-667 -595l438 -799h-96l-405 743l-283 -251l-78 -492h-78z" />
    <glyph glyph-name="L" unicode="L" horiz-adv-x="1089" 
d="M170 0l221 1394h78l-209 -1318h801l-12 -76h-879z" />
    <glyph glyph-name="M" unicode="M" horiz-adv-x="1571" 
d="M170 0l221 1394h96l334 -1173l706 1173h95l-221 -1394h-78l197 1244l-684 -1137h-67l-324 1137l-197 -1244h-78z" />
    <glyph glyph-name="N" unicode="N" horiz-adv-x="1266" 
d="M170 0l221 1394h85l564 -1258l199 1258h78l-221 -1394h-87l-562 1254l-199 -1254h-78z" />
    <glyph glyph-name="O" unicode="O" horiz-adv-x="1406" 
d="M690 -12q-275 0 -413 192t-87 516q34 216 137 377.5t255 247t333 85.5h20q279 0 415.5 -195t85.5 -515q-50 -320 -248.5 -514t-477.5 -194h-20zM268 696q-46 -292 70.5 -461t363.5 -169h20q249 0 419.5 169.5t216.5 460.5q46 293 -71 462.5t-365 169.5h-20
q-247 0 -417.5 -169.5t-216.5 -462.5z" />
    <glyph glyph-name="P" unicode="P" horiz-adv-x="1138" 
d="M170 0l221 1394h465q217 0 315 -96t68 -283l-1 -2q-29 -187 -157.5 -283t-345.5 -96h-387l-100 -634h-78zM360 710h387q187 0 288 75t126 230q24 154 -53.5 228.5t-263.5 74.5h-387z" />
    <glyph glyph-name="Q" unicode="Q" horiz-adv-x="1394" 
d="M690 -12q-275 0 -413 192t-87 516q34 216 137 377.5t255 247t333 85.5h20q279 0 415.5 -195t85.5 -515q-48 -306 -231 -496l132 -155l-61 -53l-129 154q-187 -158 -437 -158h-20zM268 696q-46 -292 70.5 -461t363.5 -169h20q216 0 378 132l-252 297l61 56l249 -296
q157 166 200 441q46 293 -71 462.5t-365 169.5h-20q-247 0 -417.5 -169.5t-216.5 -462.5z" />
    <glyph glyph-name="R" unicode="R" horiz-adv-x="1149" 
d="M170 0l221 1394h465q217 0 315 -96t68 -283l-1 -2q-27 -169 -135 -264t-288 -111l264 -638h-90l-263 634h-378l-100 -634h-78zM360 710h387q187 0 288 75t126 230q24 154 -53.5 228.5t-263.5 74.5h-387z" />
    <glyph glyph-name="S" unicode="S" horiz-adv-x="1138" 
d="M585 -27q-96 0 -176.5 25.5t-141.5 75t-91 130.5t-20 185h81q-9 -108 37 -185.5t130 -114.5t195 -37q161 0 277.5 80.5t136.5 207.5q21 132 -49.5 198t-272.5 126q-111 33 -181 65.5t-119 77.5t-64 104t-2 141q16 101 89.5 183.5t179 127t220.5 44.5q99 0 174 -33
t118 -90t62 -129.5t13 -155.5h-81q3 155 -78.5 242t-222.5 87q-86 0 -168 -29.5t-144.5 -93t-76.5 -149.5q-4 -27 -4.5 -50.5t3 -44t10.5 -38t19.5 -33.5t27 -29t36 -26t44.5 -24t54 -22.5t62 -22t72 -22.5q106 -32 176.5 -66t119.5 -81t65 -109t3 -144
q-25 -158 -171.5 -264.5t-341.5 -106.5z" />
    <glyph glyph-name="T" unicode="T" horiz-adv-x="1182" 
d="M551 0l209 1318h-511l12 76h1102l-12 -76h-511l-209 -1318h-80z" />
    <glyph glyph-name="U" unicode="U" 
d="M233 498l142 896h77l-140 -883q-37 -233 78 -360q88 -99 231 -99q148 1 272 105q156 131 193 364l138 873h78l-139 -875q-41 -260 -218 -410q-141 -120 -314 -128q-167 -9 -280 90q-135 118 -127 341q2 42 9 86z" />
    <glyph glyph-name="V" unicode="V" horiz-adv-x="1225" 
d="M578 0l-327 1394h85l296 -1276l700 1276h84l-767 -1394h-71z" />
    <glyph glyph-name="W" unicode="W" horiz-adv-x="1750" 
d="M418 0l-167 1394h83l149 -1256l565 1188h74l191 -1188l547 1256h81l-609 -1394h-80l-188 1184l-567 -1184h-79z" />
    <glyph glyph-name="X" unicode="X" horiz-adv-x="1206" 
d="M50 0l614 708l-379 686h96l342 -622l544 622h94l-597 -686l392 -708h-96l-357 641l-558 -641h-95z" />
    <glyph glyph-name="Y" unicode="Y" horiz-adv-x="1107" 
d="M515 0l62 415l-336 979h91l298 -888l587 888h91l-654 -979l-61 -415h-78z" />
    <glyph glyph-name="Z" unicode="Z" horiz-adv-x="1057" 
d="M66 0l11 72l1027 1246h-829l12 76h925l-11 -70l-1028 -1248h830l-12 -76h-925z" />
    <glyph glyph-name="bracketleft" unicode="[" horiz-adv-x="537" 
d="M145 -156l271 1711h337l-12 -80h-255l-246 -1551h255l-13 -80h-337z" />
    <glyph glyph-name="backslash" unicode="\" horiz-adv-x="692" 
d="M559 -58l-263 1497h83l264 -1497h-84z" />
    <glyph glyph-name="bracketright" unicode="]" horiz-adv-x="536" 
d="M5 -156l13 80h255l246 1551h-255l12 80h336l-271 -1711h-336z" />
    <glyph glyph-name="asciicircum" unicode="^" horiz-adv-x="1076" 
d="M216 418l481 818h78l217 -818h-91l-184 708l-412 -708h-89z" />
    <glyph glyph-name="underscore" unicode="_" horiz-adv-x="916" 
d="M25 -156l13 80h816l-13 -80h-816z" />
    <glyph glyph-name="grave" unicode="`" horiz-adv-x="867" 
d="M623 1565l-119 253h101l98 -253h-80z" />
    <glyph glyph-name="a" unicode="a" horiz-adv-x="1072" 
d="M452 -10q-159 0 -239 79t-58 215q23 145 138 220q58 38 130 52.5t177 18.5l346 15l4 20q25 160 -51 241.5t-233 81.5q-106 0 -187 -41.5t-162 -138.5l-52 48q93 109 190.5 157.5t221.5 48.5q186 0 283 -103t67 -294l-97 -610h-77l30 192q-75 -92 -193.5 -147t-237.5 -55z
M233 284q-17 -104 44.5 -163t190.5 -59q156 0 292.5 109.5t162.5 269.5l12 77l-340 -14q-186 -7 -261 -57q-84 -55 -101 -163z" />
    <glyph glyph-name="b" unicode="b" horiz-adv-x="1185" 
d="M619 -10q-121 0 -211.5 60t-133.5 167l-34 -217h-78l221 1394h78l-97 -614q75 107 184.5 167t231.5 60h27q129 0 223.5 -65.5t135.5 -181.5t18 -260q-35 -218 -187.5 -364t-350.5 -146h-27zM317 500q-30 -191 57 -312.5t253 -121.5h28q168 0 295 122t157 312t-58.5 310.5
t-256.5 120.5h-28q-168 0 -292.5 -120.5t-154.5 -310.5z" />
    <glyph glyph-name="c" unicode="c" horiz-adv-x="1038" 
d="M537 -10q-202 0 -307.5 142.5t-70.5 367.5q36 225 185 366t354 141h19q135 0 229.5 -64t132.5 -177l-77 -31q-34 96 -109.5 147t-186.5 51h-19q-173 0 -295.5 -118.5t-154.5 -314.5q-31 -196 54 -316t258 -120h19q112 0 204.5 52t157.5 148l65 -31
q-77 -114 -191.5 -178.5t-247.5 -64.5h-19z" />
    <glyph glyph-name="d" unicode="d" horiz-adv-x="1185" 
d="M535 -10q-197 0 -304 146t-72 364q23 144 100.5 260t192.5 181.5t244 65.5h27q122 0 213 -60t133 -167l97 614h78l-221 -1394h-78l34 217q-75 -107 -185.5 -167t-231.5 -60h-27zM237 500q-30 -191 57.5 -312.5t255.5 -121.5h28q167 0 292.5 122t155.5 312t-56.5 310.5
t-254.5 120.5h-28q-168 0 -294 -120.5t-156 -310.5z" />
    <glyph glyph-name="e" unicode="e" horiz-adv-x="1056" 
d="M537 -10q-202 0 -307.5 142.5t-70.5 367.5q39 247 209 388q138 114 306 118q163 5 271 -95q133 -122 118 -348q-3 -40 -11 -83h-818q-25 -188 61 -302t254 -114h19q112 0 204.5 52t157.5 148l65 -31q-77 -114 -191.5 -178.5t-247.5 -64.5h-19zM246 550h738
q16 204 -101 310q-95 87 -235 75q-148 -12 -261 -124q-103 -103 -141 -261z" />
    <glyph glyph-name="f" unicode="f" horiz-adv-x="758" 
d="M300 0l147 925h-250l11 72h250l23 144q21 130 94 196.5t186 66.5h14q98 0 158 -46l-39 -62q-62 34 -128 34h-14q-82 0 -129.5 -45.5t-63.5 -143.5l-23 -144h253l-11 -72h-253l-147 -925h-78z" />
    <glyph glyph-name="g" unicode="g" horiz-adv-x="1184" 
d="M490 -402q-172 0 -270.5 95t-97.5 262h77q5 -135 83 -207.5t221 -72.5h29q175 0 286 114t147 337l14 89q-75 -107 -185.5 -167t-231.5 -60h-10q-130 0 -228 66t-143 183.5t-22 260.5q23 144 100.5 260t192.5 181.5t244 65.5h27q122 0 213 -60t132 -167l35 221h78
l-140 -884q-39 -247 -179 -382t-343 -135h-29zM237 498q-30 -191 57.5 -312.5t255.5 -121.5h28q156 0 276 107t162 279l15 95q13 172 -73.5 278t-242.5 106h-28q-168 0 -294 -120.5t-156 -310.5z" />
    <glyph glyph-name="h" unicode="h" horiz-adv-x="1105" 
d="M162 0l221 1394h78l-88 -552q121 165 366 165q196 0 273.5 -103t45.5 -307l-95 -597h-77l93 587q29 182 -28.5 264t-222.5 82q-168 0 -271 -108t-140 -337l-77 -488h-78z" />
    <glyph glyph-name="i" unicode="i" horiz-adv-x="397" 
d="M161 0l158 997h78l-158 -997h-78zM338 1251q4 24 23.5 41t43.5 17t39 -17t11 -41t-24 -41t-44 -17t-38.5 17t-10.5 41z" />
    <glyph glyph-name="j" unicode="j" horiz-adv-x="409" 
d="M-67 -406q-99 0 -158 45l40 63q58 -34 127 -34h14q82 0 129.5 45t63.5 143l181 1141h78l-181 -1141q-21 -130 -94 -196t-186 -66h-14zM351 1251q4 24 23.5 41t43.5 17t38.5 -17t10.5 -41t-23.5 -41t-43.5 -17t-38.5 17t-10.5 41z" />
    <glyph glyph-name="k" unicode="k" horiz-adv-x="967" 
d="M162 0l221 1394h78l-150 -948l621 551h107l-419 -370l297 -627h-93l-268 571l-262 -233l-54 -338h-78z" />
    <glyph glyph-name="l" unicode="l" horiz-adv-x="404" 
d="M343 -9q-91 -7 -129 45t-20 164l189 1194h78l-189 -1190q-12 -78 7 -108.5t71 -30.5z" />
    <glyph glyph-name="m" unicode="m" horiz-adv-x="1574" 
d="M162 0l158 997h78l-23 -145q113 155 300 155q222 0 259 -206q121 206 336 206q322 0 252 -437l-90 -570h-80l89 564q19 118 10 199q-12 86 -58.5 128t-141.5 42q-71 0 -137 -39q-152 -92 -193 -352l-86 -542h-78l93 587q29 181 -18 263.5t-174 82.5q-65 0 -138 -41
q-152 -98 -198 -389l-80 -503h-80z" />
    <glyph glyph-name="n" unicode="n" horiz-adv-x="1105" 
d="M162 0l158 997h78l-25 -155q121 165 366 165q196 0 273.5 -103t45.5 -307l-95 -597h-77l93 587q29 182 -28.5 264t-222.5 82q-168 0 -271 -108t-140 -337l-77 -488h-78z" />
    <glyph glyph-name="o" unicode="o" horiz-adv-x="1097" 
d="M537 -10q-202 0 -307.5 142.5t-70.5 367.5q36 225 185 366t354 141h19q205 0 310 -141t69 -366q-35 -225 -185.5 -367.5t-354.5 -142.5h-19zM237 500q-31 -196 54 -316t258 -120h19q173 0 296 120t154 316t-54 314.5t-258 118.5h-19q-173 0 -295.5 -118.5t-154.5 -314.5z
" />
    <glyph glyph-name="p" unicode="p" horiz-adv-x="1185" 
d="M99 -397l221 1394h78l-34 -217q76 107 185.5 167t230.5 60h27q130 0 224.5 -66.5t135 -183t17.5 -259.5q-23 -144 -100.5 -260.5t-193 -182t-244.5 -65.5h-27q-122 0 -212.5 60t-131.5 168l-98 -615h-78zM317 498q-30 -191 56 -311.5t254 -120.5h28q168 0 295 121
t157 311t-58.5 311.5t-256.5 121.5h-28q-166 0 -291.5 -121.5t-155.5 -311.5z" />
    <glyph glyph-name="q" unicode="q" horiz-adv-x="1185" 
d="M980 218q-76 -108 -186 -168t-232 -60h-27q-129 0 -223 65.5t-135 182t-18 260.5q35 218 187.5 363.5t349.5 145.5h27q121 0 212.5 -60t133.5 -167l34 217h78l-221 -1394h-78zM237 498q-30 -190 57.5 -311t255.5 -121h28q168 0 293 120.5t155 311.5q30 190 -57.5 311.5
t-253.5 121.5h-28q-168 0 -294 -121.5t-156 -311.5z" />
    <glyph glyph-name="r" unicode="r" horiz-adv-x="808" 
d="M162 0l158 997h78l-25 -155q121 165 366 165q87 0 155 -21l-28 -73q-65 20 -138 20q-168 0 -271 -108t-140 -337l-77 -488h-78z" />
    <glyph glyph-name="s" unicode="s" horiz-adv-x="966" 
d="M495 -14q-79 0 -143.5 19.5t-114 59t-73.5 105.5t-17 153h81q-3 -141 71 -201t212 -60q122 0 206.5 48.5t98.5 136.5t-43.5 132t-233.5 82q-66 14 -115.5 33t-92 49.5t-60.5 77.5t-9 108q19 116 126.5 192t254.5 76q165 0 244 -88t75 -227h-81q-10 125 -69.5 182
t-182.5 57q-107 0 -187.5 -50.5t-94.5 -139.5q-13 -83 44.5 -125.5t186.5 -69.5q184 -39 262 -103t59 -184q-18 -119 -131.5 -191t-272.5 -72z" />
    <glyph glyph-name="t" unicode="t" horiz-adv-x="658" 
d="M524 -12q-114 0 -166 66.5t-31 196.5l107 674h-237l11 72h237l62 395h78l-62 -395h243l-11 -72h-243l-107 -674q-16 -98 17 -143.5t116 -45.5h13q15 0 40.5 3.5t27.5 3.5l-12 -75q-63 -6 -70 -6h-13z" />
    <glyph glyph-name="u" unicode="u" horiz-adv-x="1085" 
d="M523 -10q-196 0 -273 103t-45 307l95 597h78l-93 -587q-29 -182 28.5 -264t221.5 -82q169 0 271.5 108t139.5 337l77 488h78l-158 -997h-78l25 155q-121 -165 -367 -165z" />
    <glyph glyph-name="v" unicode="v" horiz-adv-x="984" 
d="M459 0l-251 997h87l214 -881l494 881h89l-566 -997h-67z" />
    <glyph glyph-name="w" unicode="w" horiz-adv-x="1447" 
d="M341 0l-119 997h83l101 -860l440 860h74l167 -858l373 858h81l-433 -997h-78l-167 873l-447 -873h-75z" />
    <glyph glyph-name="x" unicode="x" horiz-adv-x="952" 
d="M40 0l465 498l-307 499h97l270 -436l405 436h98l-465 -499l309 -498h-98l-269 437l-406 -437h-99z" />
    <glyph glyph-name="y" unicode="y" horiz-adv-x="986" 
d="M156 -309q40 -24 79.5 -4t80.5 93l139 243l-247 974h87l215 -877l499 877h85l-712 -1249q-120 -212 -268 -124z" />
    <glyph glyph-name="z" unicode="z" horiz-adv-x="923" 
d="M66 0l11 69l830 854h-695l12 74h791l-12 -75l-820 -848h686l-12 -74h-791z" />
    <glyph glyph-name="braceleft" unicode="{" horiz-adv-x="570" 
d="M462 -156q-124 0 -188 55.5t-44 180.5q8 58 53 205q41 133 54 211q11 71 -19 116t-113 48l12 79q85 4 129 49t55 116q12 76 14 211q1 146 11 205q38 235 307 235h53l-12 -80h-55q-93 0 -145.5 -34t-66.5 -119q-5 -38 -8 -182q-5 -163 -17 -236q-10 -62 -43.5 -117.5
t-96.5 -85.5q53 -31 69 -88t7 -117q-12 -78 -59 -236q-45 -158 -49 -182q-14 -86 28 -120t135 -34h55l-13 -80h-53z" />
    <glyph glyph-name="bar" unicode="|" horiz-adv-x="502" 
d="M148 -389l314 1983h82l-314 -1983h-82z" />
    <glyph glyph-name="braceright" unicode="}" horiz-adv-x="570" 
d="M5 -156l13 80h55q93 0 144.5 34t65.5 120q7 45 10 182q4 159 16 236q9 60 43.5 116t97.5 86q-54 31 -70 88t-7 118q13 81 60 236q42 148 47 182q14 86 -27 119.5t-134 33.5h-55l12 80h53q124 0 188.5 -55.5t44.5 -179.5q-10 -59 -54 -205q-43 -147 -53 -211
q-24 -158 132 -165l-12 -79q-85 -3 -129 -48t-55 -116q-11 -64 -15 -211q-1 -145 -10 -205q-38 -236 -308 -236h-53z" />
    <glyph glyph-name="asciitilde" unicode="~" horiz-adv-x="1103" 
d="M196 445q17 135 77 201t152 66q57 0 103.5 -18t143.5 -76q87 -53 125.5 -69t78.5 -16q61 0 92 43.5t45 142.5h80q-36 -266 -231 -266q-57 0 -103 17.5t-142 76.5q-86 52 -125.5 68.5t-81.5 16.5q-59 0 -90 -44.5t-45 -142.5h-79z" />
    <glyph glyph-name="uni00A0" unicode="&#xa0;" horiz-adv-x="563" 
 />
    <glyph glyph-name="exclamdown" unicode="&#xa1;" horiz-adv-x="496" 
d="M152 -311l192 1166h78l-176 -1166h-94zM354 1038q4 24 24 41t44 17t38 -17t10 -41t-23.5 -41t-43.5 -17t-38.5 17t-10.5 41z" />
    <glyph glyph-name="cent" unicode="&#xa2;" horiz-adv-x="1099" 
d="M518 -26q-90 8 -162 49.5t-119 114t-64.5 172.5t2.5 225q37 232 184 384t336 174l24 151h82l-23 -148q166 -7 259.5 -112.5t84.5 -270.5h-82q2 137 -68 217t-207 88l-153 -966q126 12 223 87.5t139 204.5h82q-48 -159 -172.5 -258.5t-283.5 -111.5l-24 -149h-82zM262 544
q-17 -117 -4 -205t53 -149t95 -95t124 -42l153 961q-69 -10 -134.5 -44.5t-124.5 -91t-102 -143t-60 -191.5z" />
    <glyph glyph-name="sterling" unicode="&#xa3;" horiz-adv-x="1013" 
d="M82 73q133 33 234 120t123 225q10 65 -2 125.5t-48 140.5h-193l13 80h144q-54 138 -33 274q26 162 151.5 265.5t288.5 103.5q96 0 164 -31.5t104.5 -89.5t48.5 -132.5t2 -165.5h-82q41 340 -254 340q-123 0 -220 -79t-117 -209q-20 -127 45 -276h465l-13 -80h-416
q59 -137 38 -266q-17 -104 -80 -191t-167 -147h658l-13 -80h-853z" />
    <glyph glyph-name="currency" unicode="&#xa4;" horiz-adv-x="1181" 
d="M284 200l-49 59l130 112q-62 99 -40 234q21 137 114 234l-94 112l67 58l94 -112q112 77 238 77q128 0 215 -77l130 112l49 -58l-130 -112q61 -99 40 -234q-22 -136 -114 -234l94 -112l-67 -59l-95 112q-111 -77 -239 -77q-126 0 -214 77zM410 605q-20 -127 44 -208.5
t186 -81.5q123 0 212.5 81.5t109.5 208.5q20 126 -43.5 207.5t-186.5 81.5q-122 0 -212 -81.5t-110 -207.5z" />
    <glyph glyph-name="yen" unicode="&#xa5;" horiz-adv-x="1136" 
d="M529 0l68 430h-357l13 79h357l18 115h-357l13 80h318l-323 676h105l301 -653l509 653h101l-535 -676h321l-13 -80h-358l-18 -115h358l-13 -79h-358l-68 -430h-82z" />
    <glyph glyph-name="brokenbar" unicode="&#xa6;" horiz-adv-x="502" 
d="M318 680l111 700h82l-111 -700h-82zM161 -311l111 700h82l-111 -700h-82z" />
    <glyph glyph-name="section" unicode="&#xa7;" horiz-adv-x="1134" 
d="M503 -338q-336 0 -346 359h82q10 -145 79 -212.5t202 -67.5q121 0 208 54.5t102 148.5q12 73 -9 119.5t-93.5 85t-213.5 69.5q-51 11 -98 30t-91.5 48.5t-75 66.5t-45 88t-5.5 109q12 81 56.5 145t103.5 101.5t134 59.5q-136 86 -110 246q22 134 128 214.5t255 80.5
q165 0 242.5 -93.5t76.5 -246.5h-81q-10 136 -70 198.5t-183 62.5q-108 0 -186.5 -54.5t-94.5 -155.5q-9 -56 9 -100t59 -72t90 -46t113 -29q91 -17 161 -45t121.5 -70t73.5 -101t10 -132q-19 -122 -103.5 -200t-206.5 -109q76 -46 104.5 -111t14.5 -155q-21 -130 -137 -208
t-276 -78zM285 566q-17 -103 61.5 -172t206.5 -95q69 -13 116 -29q129 3 230 65t121 184q17 106 -61.5 170t-258.5 101q-26 4 -97 24q-56 -6 -104.5 -21t-95 -42.5t-77.5 -74.5t-41 -110z" />
    <glyph glyph-name="dieresis" unicode="&#xa8;" horiz-adv-x="710" 
d="M736 1629q-24 0 -38.5 17t-10.5 41t24 41.5t44 17.5t38.5 -17.5t10.5 -41.5t-24 -41t-44 -17zM442 1687q4 24 24 41.5t44 17.5t38.5 -17.5t10.5 -41.5t-24 -41t-44 -17t-38.5 17t-10.5 41z" />
    <glyph glyph-name="copyright" unicode="&#xa9;" horiz-adv-x="1670" 
d="M830 -31q-120 0 -225 37.5t-182.5 104.5t-131 160t-70 203.5t0.5 235.5q33 203 156 373t305.5 268.5t381.5 98.5q120 0 225 -37.5t182.5 -104.5t131 -159.5t69.5 -203t-1 -235.5q-32 -203 -155 -373.5t-305.5 -269t-381.5 -98.5zM304 710q-21 -136 9.5 -258.5t102.5 -210
t183 -138.5t244 -51t260.5 51t227 138.5t169 210t90.5 258.5q22 136 -8.5 258t-102.5 210t-183 139.5t-244 51.5t-260.5 -51.5t-227 -139.5t-169 -210t-91.5 -258zM585 710q31 192 155.5 308.5t280.5 116.5q139 0 220 -79.5t69 -227.5h-80q0 228 -222 228
q-130 0 -223.5 -100t-116.5 -244q-24 -149 38 -246t185 -97q224 0 300 226h82q-46 -150 -151 -227.5t-249 -77.5q-147 0 -232.5 115.5t-55.5 304.5z" />
    <glyph glyph-name="ordfeminine" unicode="&#xaa;" horiz-adv-x="760" 
d="M417 681q-112 0 -168.5 56t-41.5 153q16 102 98 157q41 27 90.5 36t126.5 13l231 11l2 9q17 108 -33.5 162.5t-156.5 54.5q-73 0 -128 -29t-113 -99l-43 40q66 80 135 115t159 35q131 0 199 -72.5t47 -206.5l-68 -428h-66l19 120q-54 -59 -132.5 -93t-156.5 -34zM272 890
q-11 -70 29.5 -108.5t128.5 -38.5q106 0 197.5 74t108.5 182l8 47l-228 -11q-125 -3 -177 -38q-56 -37 -67 -107z" />
    <glyph glyph-name="guillemotleft" unicode="&#xab;" horiz-adv-x="1114" 
d="M848 159l-227 343l336 342h107l-336 -342l227 -343h-107zM388 502l336 342h107l-337 -342l228 -343h-107z" />
    <glyph glyph-name="logicalnot" unicode="&#xac;" horiz-adv-x="978" 
d="M801 408l41 261h-640l12 79h722l-53 -340h-82z" />
    <glyph glyph-name="registered" unicode="&#xae;" horiz-adv-x="995" 
d="M604 669q-188 0 -289 120.5t-71 308.5q29 186 168.5 306t326.5 120t288 -120t72 -306q-30 -188 -169 -308.5t-326 -120.5zM328 1098q-25 -156 54.5 -253t233.5 -97t264.5 97t135.5 253q25 154 -55 250t-234 96t-264 -95.5t-135 -250.5zM489 875l68 429h154
q69 0 102.5 -33.5t23.5 -96.5q-16 -93 -100 -121l75 -178h-93l-71 169h-53l-26 -169h-80zM608 1124h74q41 0 56 9.5t20 40.5q5 30 -7 40.5t-53 10.5h-74z" />
    <glyph glyph-name="macron" unicode="&#xaf;" horiz-adv-x="687" 
d="M448 1643l13 79h311l-13 -79h-311z" />
    <glyph glyph-name="degree" unicode="&#xb0;" horiz-adv-x="675" 
d="M492 976q-94 0 -146 61t-37 155t86 154.5t165 60.5q95 0 147 -60.5t37 -154.5t-86 -155t-166 -61zM392 1192q-10 -64 19.5 -100t92.5 -36t105 36t52 100t-20.5 100t-93.5 36q-62 0 -103.5 -36t-51.5 -100z" />
    <glyph glyph-name="plusminus" unicode="&#xb1;" horiz-adv-x="1009" 
d="M494 189l65 408h-368l12 80h368l65 408h81l-65 -408h368l-12 -80h-368l-65 -408h-81zM96 0l13 80h817l-13 -80h-817z" />
    <glyph glyph-name="uni00B2" unicode="&#xb2;" horiz-adv-x="871" 
d="M308 949l7 45l341 272q88 70 135 123t61.5 86.5t22.5 83.5q12 79 -28.5 126t-131.5 47q-89 0 -154 -51.5t-89 -141.5l-5 -32h-70l11 35q30 113 118 182.5t199 69.5q122 0 178 -67t40 -168q-13 -83 -67.5 -159.5t-176.5 -173.5l-271 -215h467l-10 -62h-577z" />
    <glyph glyph-name="uni00B3" unicode="&#xb3;" horiz-adv-x="870" 
d="M577 941q-138 0 -204 77.5t-39 198.5h60q-23 -100 28 -157t165 -57q108 0 176.5 51t82.5 138q13 83 -40 131.5t-161 48.5q-38 0 -72 -4l9 56l298 306h-450l10 64h550l-7 -47l-303 -308h-24q127 0 195.5 -70.5t51.5 -176.5q-18 -111 -108 -181t-218 -70z" />
    <glyph glyph-name="acute" unicode="&#xb4;" horiz-adv-x="867" 
d="M660 1565l178 253h101l-198 -253h-81z" />
    <glyph glyph-name="paragraph" unicode="&#xb6;" horiz-adv-x="1102" 
d="M485 -214l133 836h-25q-77 0 -110 2q-150 9 -219 117t-45 260t127 260t256 117q34 2 111 2h398l-253 -1594h-81l240 1515h-210l-240 -1515h-82z" />
    <glyph glyph-name="periodcentered" unicode="&#xb7;" horiz-adv-x="404" 
d="M289 550q-27 0 -42 18t-10 44q5 27 25 45t47 18t42 -18t10 -45q-5 -26 -25 -44t-47 -18z" />
    <glyph glyph-name="cedilla" unicode="&#xb8;" horiz-adv-x="878" 
d="M307 -444q-78 0 -118 27l14 90q26 -21 50.5 -29t65.5 -8q133 0 149 99q9 55 -35 78.5t-154 14.5l148 224h92l-102 -152q157 -27 134 -165q-14 -88 -86 -133.5t-158 -45.5z" />
    <glyph glyph-name="uni00B9" unicode="&#xb9;" horiz-adv-x="546" 
d="M438 958l118 747l-231 -130l13 81l246 136h56l-132 -834h-70z" />
    <glyph glyph-name="ordmasculine" unicode="&#xba;" horiz-adv-x="789" 
d="M499 693q-142 0 -217 100t-50 257t130.5 256t249.5 99h12q144 0 217 -99t48 -256t-130 -257t-248 -100h-12zM298 1050q-21 -134 36 -213.5t175 -79.5h12q118 0 199.5 79.5t102.5 213.5q21 133 -36 211.5t-174 78.5h-12q-118 0 -200 -78.5t-103 -211.5z" />
    <glyph glyph-name="guillemotright" unicode="&#xbb;" horiz-adv-x="1114" 
d="M442 159l338 343l-229 342h107l228 -342l-337 -343h-107zM209 159l337 343l-228 342h107l228 -342l-337 -343h-107z" />
    <glyph glyph-name="questiondown" unicode="&#xbf;" horiz-adv-x="1017" 
d="M450 -348q-185 0 -271.5 103.5t-61.5 261.5q32 203 247 378q105 87 156.5 150.5t74.5 126t40 174.5h78q-20 -126 -45.5 -196t-82.5 -140.5t-172 -167.5q-97 -82 -147 -159t-64 -166q-22 -136 48 -210.5t213 -74.5q160 0 264 98t139 269h81q-33 -197 -171.5 -322
t-325.5 -125zM642 1028q4 24 24 41.5t44 17.5t38.5 -17.5t10.5 -41.5t-23.5 -41t-43.5 -17t-39 17t-11 41z" />
    <glyph glyph-name="Agrave" unicode="&#xc0;" horiz-adv-x="1130" 
d="M40 0l707 1394h76l267 -1394h-86l-87 467h-556l-235 -467h-86zM398 542h506l-138 730zM675 1798h102l90 -221h-81z" />
    <glyph glyph-name="Aacute" unicode="&#xc1;" horiz-adv-x="1130" 
d="M40 0l707 1394h76l267 -1394h-86l-87 467h-556l-235 -467h-86zM398 542h506l-138 730zM759 1577l160 221h102l-181 -221h-81z" />
    <glyph glyph-name="Acircumflex" unicode="&#xc2;" horiz-adv-x="1130" 
d="M40 0l707 1394h76l267 -1394h-86l-87 467h-556l-235 -467h-86zM398 542h506l-138 730zM631 1577l188 221h65l119 -221h-94l-71 139l-115 -139h-92z" />
    <glyph glyph-name="Atilde" unicode="&#xc3;" horiz-adv-x="1130" 
d="M40 0l707 1394h76l267 -1394h-86l-87 467h-556l-235 -467h-86zM398 542h506l-138 730zM635 1633q3 54 31 86.5t76 32.5q38 0 113 -27q65 -22 82 -22q9 0 10.5 3t4.5 20q2 11 3 18h76q-2 -54 -30.5 -86.5t-76.5 -32.5q-35 0 -113 26q-62 23 -81 23q-8 0 -10 -3t-5 -20
q-2 -11 -3 -18h-77z" />
    <glyph glyph-name="Adieresis" unicode="&#xc4;" horiz-adv-x="1130" 
d="M40 0l707 1394h76l267 -1394h-86l-87 467h-556l-235 -467h-86zM398 542h506l-138 730zM657 1687q4 24 24 41.5t44 17.5t38.5 -17.5t10.5 -41.5t-24 -41t-44 -17t-38.5 17t-10.5 41zM902 1687q4 24 24 41.5t44 17.5t38.5 -17.5t10.5 -41.5t-24 -41t-44 -17t-38.5 17
t-10.5 41z" />
    <glyph glyph-name="Aring" unicode="&#xc5;" horiz-adv-x="1130" 
d="M40 0l707 1394h76l267 -1394h-86l-87 467h-556l-235 -467h-86zM398 542h506l-138 730zM691 1687q10 62 57.5 100t106.5 38t94.5 -38t25.5 -100q-9 -62 -57 -100t-107 -38q-58 0 -93.5 38t-26.5 100zM777 1687q-10 -58 47 -58q55 0 65 58q10 59 -46 59t-66 -59z" />
    <glyph glyph-name="AE" unicode="&#xc6;" horiz-adv-x="1630" 
d="M26 0l707 1394h1028l-12 -76h-801l-92 -577h733l-12 -76h-733l-93 -589h801l-12 -76h-879l74 467h-387l-236 -467h-86zM385 542h362l122 770h-96z" />
    <glyph glyph-name="Ccedilla" unicode="&#xc7;" horiz-adv-x="1334" 
d="M579 -439q-77 0 -117 27l14 90q25 -22 50 -30t66 -8q133 0 149 100q9 55 -34.5 78.5t-154.5 14.5l100 156q-258 14 -384.5 204t-77.5 503q34 216 137 377.5t255 247t333 85.5h20q193 0 321 -97t173 -270l-78 -27q-39 152 -148.5 234t-280.5 82h-20q-247 0 -417.5 -169.5
t-216.5 -462.5q-46 -292 70.5 -461t363.5 -169h20q171 0 307 82t223 234l68 -27q-95 -165 -245 -261.5t-333 -104.5l-53 -84q156 -27 135 -165q-14 -89 -86 -134t-159 -45z" />
    <glyph glyph-name="Egrave" unicode="&#xc8;" horiz-adv-x="1139" 
d="M170 0l221 1394h879l-12 -76h-801l-92 -577h733l-12 -76h-733l-93 -589h801l-12 -76h-879zM684 1798h102l90 -221h-80z" />
    <glyph glyph-name="Eacute" unicode="&#xc9;" horiz-adv-x="1139" 
d="M170 0l221 1394h879l-12 -76h-801l-92 -577h733l-12 -76h-733l-93 -589h801l-12 -76h-879zM769 1577l160 221h102l-181 -221h-81z" />
    <glyph glyph-name="Ecircumflex" unicode="&#xca;" horiz-adv-x="1139" 
d="M170 0l221 1394h879l-12 -76h-801l-92 -577h733l-12 -76h-733l-93 -589h801l-12 -76h-879zM641 1577l188 221h65l118 -221h-94l-70 139l-115 -139h-92z" />
    <glyph glyph-name="Edieresis" unicode="&#xcb;" horiz-adv-x="1139" 
d="M170 0l221 1394h879l-12 -76h-801l-92 -577h733l-12 -76h-733l-93 -589h801l-12 -76h-879zM663 1687q4 24 24 41.5t44 17.5t38 -17.5t10 -41.5t-23.5 -41t-43.5 -17t-38.5 17t-10.5 41zM908 1687q4 24 24 41.5t44 17.5t38 -17.5t10 -41.5t-23.5 -41t-43.5 -17t-38.5 17
t-10.5 41z" />
    <glyph glyph-name="Igrave" unicode="&#xcc;" horiz-adv-x="285" 
d="M39 0l221 1394h78l-221 -1394h-78zM187 1798h102l90 -221h-81z" />
    <glyph glyph-name="Iacute" unicode="&#xcd;" horiz-adv-x="285" 
d="M174 0l221 1394h77l-221 -1394h-77zM406 1577l160 221h102l-182 -221h-80z" />
    <glyph glyph-name="Icircumflex" unicode="&#xce;" horiz-adv-x="166" 
d="M44 0l221 1394h78l-221 -1394h-78zM148 1577l188 221h66l118 -221h-94l-71 139l-115 -139h-92z" />
    <glyph glyph-name="Idieresis" unicode="&#xcf;" horiz-adv-x="210" 
d="M66 0l221 1394h78l-221 -1394h-78zM192 1687q4 24 24 41.5t44 17.5t38.5 -17.5t10.5 -41.5t-24 -41t-44 -17t-38.5 17t-10.5 41zM437 1687q4 24 24 41.5t44 17.5t38.5 -17.5t10.5 -41.5t-24 -41t-44 -17t-38.5 17t-10.5 41z" />
    <glyph glyph-name="Eth" unicode="&#xd0;" horiz-adv-x="1226" 
d="M157 0l99 628h-107l13 80h107l109 686h289q333 0 487 -186t101 -522q-53 -330 -262.5 -508t-548.5 -178h-287zM246 76h206q309 0 491 153.5t230 456.5q49 309 -85 470.5t-435 161.5h-210l-97 -610h372l-13 -80h-372z" />
    <glyph glyph-name="Ntilde" unicode="&#xd1;" horiz-adv-x="1266" 
d="M170 0l221 1394h85l564 -1258l199 1258h78l-221 -1394h-87l-562 1254l-199 -1254h-78zM702 1633q3 54 31 86.5t76 32.5q38 0 113 -27q65 -22 82 -22q9 0 10.5 3t4.5 20q2 11 3 18h76q-2 -54 -30.5 -86.5t-76.5 -32.5q-35 0 -113 26q-62 23 -81 23q-8 0 -10 -3t-5 -20
q-2 -11 -3 -18h-77z" />
    <glyph glyph-name="Ograve" unicode="&#xd2;" horiz-adv-x="1406" 
d="M689 -17q-275 0 -413 191.5t-87 515.5q34 216 137 377.5t255 247t333 85.5h20q279 0 415.5 -195t85.5 -515q-50 -320 -248.5 -513.5t-477.5 -193.5h-20zM267 690q-46 -292 71 -461t364 -169h20q249 0 419 169.5t216 460.5q46 293 -71 462.5t-365 169.5h-20
q-247 0 -417.5 -169.5t-216.5 -462.5zM817 1798h101l90 -221h-80z" />
    <glyph glyph-name="Oacute" unicode="&#xd3;" horiz-adv-x="1406" 
d="M689 -17q-275 0 -413 191.5t-87 515.5q34 216 137 377.5t255 247t333 85.5h20q279 0 415.5 -195t85.5 -515q-50 -320 -248.5 -513.5t-477.5 -193.5h-20zM267 690q-46 -292 71 -461t364 -169h20q249 0 419 169.5t216 460.5q46 293 -71 462.5t-365 169.5h-20
q-247 0 -417.5 -169.5t-216.5 -462.5zM901 1577l160 221h102l-181 -221h-81z" />
    <glyph glyph-name="Ocircumflex" unicode="&#xd4;" horiz-adv-x="1406" 
d="M689 -17q-275 0 -413 191.5t-87 515.5q34 216 137 377.5t255 247t333 85.5h20q279 0 415.5 -195t85.5 -515q-50 -320 -248.5 -513.5t-477.5 -193.5h-20zM267 690q-46 -292 71 -461t364 -169h20q249 0 419 169.5t216 460.5q46 293 -71 462.5t-365 169.5h-20
q-247 0 -417.5 -169.5t-216.5 -462.5zM773 1577l188 221h65l118 -221h-94l-70 139l-115 -139h-92z" />
    <glyph glyph-name="Otilde" unicode="&#xd5;" horiz-adv-x="1406" 
d="M689 -17q-275 0 -413 191.5t-87 515.5q34 216 137 377.5t255 247t333 85.5h20q279 0 415.5 -195t85.5 -515q-50 -320 -248.5 -513.5t-477.5 -193.5h-20zM267 690q-46 -292 71 -461t364 -169h20q249 0 419 169.5t216 460.5q46 293 -71 462.5t-365 169.5h-20
q-247 0 -417.5 -169.5t-216.5 -462.5zM777 1633q3 54 31 86.5t76 32.5q38 0 113 -27q65 -22 82 -22q9 0 10.5 3t4.5 20q2 11 3 18h76q-3 -54 -31.5 -86.5t-75.5 -32.5q-35 0 -113 26q-62 23 -81 23q-9 0 -11.5 -3.5t-4.5 -20.5q-1 -10 -2 -17h-77z" />
    <glyph glyph-name="Odieresis" unicode="&#xd6;" horiz-adv-x="1406" 
d="M689 -17q-275 0 -413 191.5t-87 515.5q34 216 137 377.5t255 247t333 85.5h20q279 0 415.5 -195t85.5 -515q-50 -320 -248.5 -513.5t-477.5 -193.5h-20zM267 690q-46 -292 71 -461t364 -169h20q249 0 419 169.5t216 460.5q46 293 -71 462.5t-365 169.5h-20
q-247 0 -417.5 -169.5t-216.5 -462.5zM794 1687q4 24 24 41.5t44 17.5t38.5 -17.5t10.5 -41.5t-24 -41t-44 -17t-38.5 17t-10.5 41zM1039 1687q4 24 24 41.5t44 17.5t38 -17.5t10 -41.5t-23.5 -41t-43.5 -17t-38.5 17t-10.5 41z" />
    <glyph glyph-name="multiply" unicode="&#xd7;" horiz-adv-x="974" 
d="M239 278l-48 56l340 294l-247 293l66 57l246 -293l341 293l47 -57l-340 -293l247 -294l-65 -56l-248 293z" />
    <glyph glyph-name="Oslash" unicode="&#xd8;" horiz-adv-x="1443" 
d="M703 -17q-135 0 -240.5 49t-172.5 142l-146 -126l-47 57l154 134q-90 181 -48 451q34 216 137 377.5t255 247t333 85.5h19q139 0 246 -51.5t173 -147.5l152 131l47 -57l-161 -139q87 -185 45 -446q-50 -320 -249 -513.5t-478 -193.5h-19zM280 690q-37 -235 37 -395
l986 851q-117 176 -369 176h-19q-247 0 -418 -169.5t-217 -462.5zM353 229q118 -169 363 -169h19q249 0 419.5 169.5t216.5 460.5q37 232 -32 390z" />
    <glyph glyph-name="Ugrave" unicode="&#xd9;" 
d="M233 498l142 896h77l-140 -883q-37 -233 78 -360q88 -99 231 -99q148 1 272 105q156 131 193 364l138 873h78l-139 -875q-41 -260 -218 -410q-141 -120 -314 -128q-167 -9 -280 90q-135 118 -127 341q2 42 9 86zM724 1798h102l90 -221h-81z" />
    <glyph glyph-name="Uacute" unicode="&#xda;" 
d="M233 498l142 896h77l-140 -883q-37 -233 78 -360q88 -99 231 -99q148 1 272 105q156 131 193 364l138 873h78l-139 -875q-41 -260 -218 -410q-141 -120 -314 -128q-167 -9 -280 90q-135 118 -127 341q2 42 9 86zM809 1577l160 221h102l-182 -221h-80z" />
    <glyph glyph-name="Ucircumflex" unicode="&#xdb;" 
d="M233 498l142 896h77l-140 -883q-37 -233 78 -360q88 -99 231 -99q148 1 272 105q156 131 193 364l138 873h78l-139 -875q-41 -260 -218 -410q-141 -120 -314 -128q-167 -9 -280 90q-135 118 -127 341q2 42 9 86zM681 1577l188 221h65l118 -221h-94l-71 139l-114 -139h-92
z" />
    <glyph glyph-name="Udieresis" unicode="&#xdc;" 
d="M233 498l142 896h77l-140 -883q-37 -233 78 -360q88 -99 231 -99q148 1 272 105q156 131 193 364l138 873h78l-139 -875q-41 -260 -218 -410q-141 -120 -314 -128q-167 -9 -280 90q-135 118 -127 341q2 42 9 86zM705 1687q4 24 24 41.5t44 17.5t38 -17.5t10 -41.5
t-23.5 -41t-43.5 -17t-38.5 17t-10.5 41zM949 1687q4 24 24.5 41.5t44.5 17.5t38 -17.5t10 -41.5t-23.5 -41t-43.5 -17t-39 17t-11 41z" />
    <glyph glyph-name="Yacute" unicode="&#xdd;" horiz-adv-x="1107" 
d="M515 0l62 415l-336 979h91l298 -888l587 888h91l-654 -979l-61 -415h-78zM746 1577l160 221h102l-181 -221h-81z" />
    <glyph glyph-name="Thorn" unicode="&#xde;" horiz-adv-x="1156" 
d="M170 0l219 1380h78l-36 -222h385q217 0 315 -96t68 -283v-2q-30 -187 -158 -283t-345 -96h-385l-63 -398h-78zM323 473h385q186 0 287.5 75t125.5 231q25 153 -53 228t-264 75h-385z" />
    <glyph glyph-name="germandbls" unicode="&#xdf;" horiz-adv-x="1114" 
d="M668 -8q-240 0 -322 24l13 86q37 -15 140 -22.5t181 -7.5q131 0 211.5 51t96.5 147q10 62 -14.5 116t-105.5 142q-74 79 -94.5 131.5t-9.5 123.5q12 72 48.5 124.5t136.5 131.5q109 88 150.5 142t50.5 116q16 96 -48.5 147t-195.5 51q-399 0 -474 -334q-14 -63 -22 -115
l-166 -1046h-82l165 1042q9 61 24 125q42 195 188 301t382 107q168 1 251.5 -75t61.5 -209q-12 -82 -72 -157.5t-176 -164.5q-71 -55 -100 -95t-37 -91q-8 -50 8.5 -90t70.5 -95q87 -89 122.5 -164.5t23.5 -157.5q-22 -134 -129.5 -209t-276.5 -75z" />
    <glyph glyph-name="agrave" unicode="&#xe0;" horiz-adv-x="1008" 
d="M452 -10q-159 0 -239 79t-58 215q23 145 138 220q58 38 130 52.5t177 18.5l346 15l4 20q25 160 -51 241.5t-233 81.5q-106 0 -187 -41.5t-162 -138.5l-52 48q93 109 190.5 157.5t221.5 48.5q186 0 283 -103t67 -294l-97 -610h-77l30 192q-75 -92 -193.5 -147t-237.5 -55z
M233 284q-17 -104 44.5 -163t190.5 -59q156 0 292.5 109.5t162.5 269.5l12 77l-340 -14q-186 -7 -261 -57q-84 -55 -101 -163zM572 1526h102l97 -253h-80z" />
    <glyph glyph-name="aacute" unicode="&#xe1;" horiz-adv-x="1008" 
d="M452 -10q-159 0 -239 79t-58 215q23 145 138 220q58 38 130 52.5t177 18.5l346 15l4 20q25 160 -51 241.5t-233 81.5q-106 0 -187 -41.5t-162 -138.5l-52 48q93 109 190.5 157.5t221.5 48.5q186 0 283 -103t67 -294l-97 -610h-77l30 192q-75 -92 -193.5 -147t-237.5 -55z
M233 284q-17 -104 44.5 -163t190.5 -59q156 0 292.5 109.5t162.5 269.5l12 77l-340 -14q-186 -7 -261 -57q-84 -55 -101 -163zM688 1273l178 253h101l-198 -253h-81z" />
    <glyph glyph-name="acircumflex" unicode="&#xe2;" horiz-adv-x="1008" 
d="M452 -10q-159 0 -239 79t-58 215q23 145 138 220q58 38 130 52.5t177 18.5l346 15l4 20q25 160 -51 241.5t-233 81.5q-106 0 -187 -41.5t-162 -138.5l-52 48q93 109 190.5 157.5t221.5 48.5q186 0 283 -103t67 -294l-97 -610h-77l30 192q-75 -92 -193.5 -147t-237.5 -55z
M233 284q-17 -104 44.5 -163t190.5 -59q156 0 292.5 109.5t162.5 269.5l12 77l-340 -14q-186 -7 -261 -57q-84 -55 -101 -163zM563 1273l189 253h67l109 -253h-92l-67 163l-116 -163h-90z" />
    <glyph glyph-name="atilde" unicode="&#xe3;" horiz-adv-x="1008" 
d="M452 -10q-159 0 -239 79t-58 215q23 145 138 220q58 38 130 52.5t177 18.5l346 15l4 20q25 160 -51 241.5t-233 81.5q-106 0 -187 -41.5t-162 -138.5l-52 48q93 109 190.5 157.5t221.5 48.5q186 0 283 -103t67 -294l-97 -610h-77l30 192q-75 -92 -193.5 -147t-237.5 -55z
M233 284q-17 -104 44.5 -163t190.5 -59q156 0 292.5 109.5t162.5 269.5l12 77l-340 -14q-186 -7 -261 -57q-84 -55 -101 -163zM590 1371q3 54 31.5 86t76.5 32q35 0 113 -26q59 -22 81 -22q9 0 11 3t5 19q2 11 3 18h76q-3 -54 -31 -86t-76 -32q-41 0 -113 26q-65 22 -82 22
q-9 0 -10.5 -3t-4.5 -19q-2 -11 -3 -18h-77z" />
    <glyph glyph-name="adieresis" unicode="&#xe4;" horiz-adv-x="1008" 
d="M452 -10q-159 0 -239 79t-58 215q23 145 138 220q59 38 131.5 53t176.5 18l345 15l4 20q25 160 -51 241.5t-233 81.5q-106 0 -187 -41.5t-162 -138.5l-52 48q93 109 190.5 157.5t221.5 48.5q186 0 283 -103t67 -294l-97 -610h-77l30 192q-75 -92 -193.5 -147t-237.5 -55z
M233 284q-17 -104 44.5 -163t190.5 -59q156 0 292.5 109.5t162.5 269.5l12 77l-340 -14q-188 -8 -261 -57q-84 -55 -101 -163zM585 1398q4 24 24 41t44 17t38 -17t10 -41t-23.5 -41.5t-43.5 -17.5t-38.5 17.5t-10.5 41.5zM830 1398q4 24 24 41t44 17t38 -17t10 -41
t-23.5 -41.5t-43.5 -17.5t-38.5 17.5t-10.5 41.5z" />
    <glyph glyph-name="aring" unicode="&#xe5;" horiz-adv-x="1008" 
d="M452 -10q-159 0 -239 79t-58 215q23 145 138 220q58 38 130 52.5t177 18.5l346 15l4 20q25 160 -51 241.5t-233 81.5q-106 0 -187 -41.5t-162 -138.5l-52 48q93 109 190.5 157.5t221.5 48.5q186 0 283 -103t67 -294l-97 -610h-77l30 192q-75 -92 -193.5 -147t-237.5 -55z
M233 284q-17 -104 44.5 -163t190.5 -59q156 0 292.5 109.5t162.5 269.5l12 77l-340 -14q-186 -7 -261 -57q-84 -55 -101 -163zM634 1398q10 62 57 101t106 39t93 -39t24 -101q-9 -63 -56 -101.5t-106 -38.5t-93.5 38.5t-24.5 101.5zM718 1398q-8 -61 47 -61q58 0 66 61
q10 60 -47 60q-56 0 -66 -60z" />
    <glyph glyph-name="ae" unicode="&#xe6;" horiz-adv-x="1830" 
d="M452 -10q-159 0 -239 79t-58 215q23 145 138 220q59 38 131.5 53t176.5 18l345 15l4 20q25 160 -51 241.5t-233 81.5q-106 0 -187 -41.5t-162 -138.5l-52 48q93 109 190.5 157.5t221.5 48.5q146 0 239 -64t113 -185q64 99 157.5 161t190.5 80t190 -6.5t159.5 -86.5
t96 -173t3.5 -253h-817q-25 -188 60.5 -302t253.5 -114h20q112 0 204.5 52.5t156.5 147.5l66 -31q-77 -114 -191.5 -178.5t-247.5 -64.5h-20q-145 0 -243 76.5t-130 210.5q-87 -136 -220 -211.5t-266 -75.5zM233 284q-17 -104 44.5 -163t190.5 -59q156 0 292.5 109.5
t162.5 269.5l12 77l-340 -14q-188 -8 -261 -57q-84 -55 -101 -163zM1020 550h739q16 204 -102 311q-95 86 -236 74q-147 -12 -260 -124q-103 -103 -141 -261z" />
    <glyph glyph-name="ccedilla" unicode="&#xe7;" horiz-adv-x="1038" 
d="M391 -444q-78 0 -119 27l14 90q27 -21 51 -29t66 -8q132 0 148 99q9 56 -34.5 79t-154.5 14l111 166q-173 23 -260 161.5t-54 344.5q36 225 185 366t354 141h19q135 0 229.5 -64t132.5 -177l-77 -31q-34 96 -109.5 147t-186.5 51h-19q-173 0 -295.5 -118.5t-154.5 -314.5
q-31 -196 54 -316t258 -120h19q112 0 204.5 52t157.5 148l65 -31q-77 -114 -191.5 -178.5t-247.5 -64.5h5l-61 -90q158 -27 135 -165q-14 -88 -86 -133.5t-158 -45.5z" />
    <glyph glyph-name="egrave" unicode="&#xe8;" horiz-adv-x="1056" 
d="M537 -10q-202 0 -307.5 142.5t-70.5 367.5q35 221 181.5 362t347.5 145q134 -3 227 -70.5t129 -186.5t8 -270h-818q-25 -188 61 -302t254 -114h19q112 0 204.5 52t157.5 148l65 -31q-77 -114 -191.5 -178.5t-247.5 -64.5h-19zM246 550h738q14 172 -68.5 275.5
t-238.5 107.5q-157 -4 -273.5 -108t-157.5 -275zM596 1526h101l98 -253h-81z" />
    <glyph glyph-name="eacute" unicode="&#xe9;" horiz-adv-x="1056" 
d="M537 -10q-202 0 -307.5 142.5t-70.5 367.5q35 221 181.5 362t347.5 145q134 -3 227 -70.5t129 -186.5t8 -270h-818q-25 -188 61 -302t254 -114h19q112 0 204.5 52t157.5 148l65 -31q-77 -114 -191.5 -178.5t-247.5 -64.5h-19zM246 550h738q14 172 -68.5 275.5
t-238.5 107.5q-157 -4 -273.5 -108t-157.5 -275zM675 1273l178 253h101l-199 -253h-80z" />
    <glyph glyph-name="ecircumflex" unicode="&#xea;" horiz-adv-x="1056" 
d="M537 -10q-202 0 -307.5 142.5t-70.5 367.5q35 221 181.5 362t347.5 145q134 -3 227 -70.5t129 -186.5t8 -270h-818q-25 -188 61 -302t254 -114h19q112 0 204.5 52t157.5 148l65 -31q-77 -114 -191.5 -178.5t-247.5 -64.5h-19zM246 550h738q14 172 -68.5 275.5
t-238.5 107.5q-157 -4 -273.5 -108t-157.5 -275zM549 1273l189 253h67l110 -253h-93l-66 163l-117 -163h-90z" />
    <glyph glyph-name="edieresis" unicode="&#xeb;" horiz-adv-x="1056" 
d="M537 -10q-202 0 -307.5 142.5t-70.5 367.5q35 221 181.5 362t347.5 145q134 -3 227 -70.5t129 -186.5t8 -270h-818q-25 -188 61 -302t254 -114h19q112 0 204.5 52t157.5 148l65 -31q-77 -114 -191.5 -178.5t-247.5 -64.5h-19zM246 550h738q14 172 -68.5 275.5
t-238.5 107.5q-157 -4 -273.5 -108t-157.5 -275zM571 1398q4 24 24 41t44 17t38.5 -17t10.5 -41t-24 -41.5t-44 -17.5t-38.5 17.5t-10.5 41.5zM816 1398q4 24 24 41t44 17t38.5 -17t10.5 -41t-24 -41.5t-44 -17.5t-38.5 17.5t-10.5 41.5z" />
    <glyph glyph-name="igrave" unicode="&#xec;" horiz-adv-x="381" 
d="M141 0l158 997h78l-158 -997h-78zM210 1526h101l98 -253h-80z" />
    <glyph glyph-name="iacute" unicode="&#xed;" horiz-adv-x="369" 
d="M175 0l158 997h78l-158 -997h-78zM364 1273l178 253h101l-198 -253h-81z" />
    <glyph glyph-name="icircumflex" unicode="&#xee;" horiz-adv-x="162" 
d="M100 1273l190 253h66l110 -253h-92l-67 163l-117 -163h-90zM41 0l158 997h78l-158 -997h-78z" />
    <glyph glyph-name="idieresis" unicode="&#xef;" horiz-adv-x="214" 
d="M68 0l158 997h78l-158 -997h-78zM148 1398q4 24 24 41t44 17t38.5 -17t10.5 -41t-24 -41.5t-44 -17.5t-38.5 17.5t-10.5 41.5zM393 1398q4 24 24 41t44 17t38.5 -17t10.5 -41t-24 -41.5t-44 -17.5t-38.5 17.5t-10.5 41.5z" />
    <glyph glyph-name="eth" unicode="&#xf0;" horiz-adv-x="1107" 
d="M537 -10q-202 0 -307.5 142.5t-70.5 367.5q36 225 185 366t354 141h19q119 0 210 -52l-69 196l-179 -45l-7 77l162 42l-61 174h85l54 -154l155 40l8 -78l-139 -36l144 -403h-1q41 -119 17 -268q-35 -225 -185.5 -367.5t-354.5 -142.5h-19zM237 500q-31 -196 54 -316
t258 -120h19q173 0 296 120t154 316t-54 314.5t-258 118.5h-19q-173 0 -295.5 -118.5t-154.5 -314.5z" />
    <glyph glyph-name="ntilde" unicode="&#xf1;" horiz-adv-x="1105" 
d="M162 0l158 997h78l-25 -155q121 165 366 165q196 0 273.5 -103t45.5 -307l-95 -597h-77l93 587q29 182 -28.5 264t-222.5 82q-168 0 -271 -108t-140 -337l-77 -488h-78zM577 1371q3 53 31.5 85.5t75.5 32.5q35 0 113 -26q59 -22 81 -22q9 0 11 2.5t5 20.5q2 10 3 17h77
q-4 -54 -32 -86t-76 -32q-41 0 -113 26q-65 22 -82 22q-9 0 -10.5 -3t-4.5 -19q-2 -11 -3 -18h-76z" />
    <glyph glyph-name="ograve" unicode="&#xf2;" horiz-adv-x="1097" 
d="M537 -10q-202 0 -307.5 142.5t-70.5 367.5q36 225 185 366t354 141h19q205 0 310 -141t69 -366q-35 -225 -185.5 -367.5t-354.5 -142.5h-19zM237 500q-31 -196 54 -316t258 -120h19q173 0 296 120t154 316t-54 314.5t-258 118.5h-19q-173 0 -295.5 -118.5t-154.5 -314.5z
M614 1526h101l98 -253h-80z" />
    <glyph glyph-name="oacute" unicode="&#xf3;" horiz-adv-x="1097" 
d="M537 -10q-202 0 -307.5 142.5t-70.5 367.5q36 225 185 366t354 141h19q205 0 310 -141t69 -366q-35 -225 -185.5 -367.5t-354.5 -142.5h-19zM237 500q-31 -196 54 -316t258 -120h19q173 0 296 120t154 316t-54 314.5t-258 118.5h-19q-173 0 -295.5 -118.5t-154.5 -314.5z
M693 1273l178 253h101l-198 -253h-81z" />
    <glyph glyph-name="ocircumflex" unicode="&#xf4;" horiz-adv-x="1097" 
d="M537 -10q-202 0 -307.5 142.5t-70.5 367.5q36 225 185 366t354 141h19q205 0 310 -141t69 -366q-35 -225 -185.5 -367.5t-354.5 -142.5h-19zM237 500q-31 -196 54 -316t258 -120h19q173 0 296 120t154 316t-54 314.5t-258 118.5h-19q-173 0 -295.5 -118.5t-154.5 -314.5z
M567 1273l190 253h67l109 -253h-92l-67 163l-116 -163h-91z" />
    <glyph glyph-name="otilde" unicode="&#xf5;" horiz-adv-x="1097" 
d="M537 -10q-202 0 -307.5 142.5t-70.5 367.5q36 225 185 366t354 141h19q205 0 310 -141t69 -366q-35 -225 -185.5 -367.5t-354.5 -142.5h-19zM237 500q-31 -196 54 -316t258 -120h19q173 0 296 120t154 316t-54 314.5t-258 118.5h-19q-173 0 -295.5 -118.5t-154.5 -314.5z
M575 1371q3 53 31.5 85.5t75.5 32.5q35 0 113 -26q59 -22 81 -22q9 0 11 2.5t5 20.5q2 10 3 17h77q-4 -54 -32 -86t-76 -32q-41 0 -113 26q-65 22 -82 22q-9 0 -10.5 -3t-4.5 -19q-2 -11 -3 -18h-76z" />
    <glyph glyph-name="odieresis" unicode="&#xf6;" horiz-adv-x="1097" 
d="M537 -10q-202 0 -307.5 142.5t-70.5 367.5q36 225 185 366t354 141h19q205 0 310 -141t69 -366q-35 -225 -185.5 -367.5t-354.5 -142.5h-19zM237 500q-31 -196 54 -316t258 -120h19q173 0 296 120t154 316t-54 314.5t-258 118.5h-19q-173 0 -295.5 -118.5t-154.5 -314.5z
M588 1398q4 24 24.5 41t44.5 17t38 -17t10 -41t-23.5 -41.5t-43.5 -17.5t-39 17.5t-11 41.5zM833 1398q4 24 24.5 41t44.5 17t38 -17t10 -41t-23.5 -41.5t-43.5 -17.5t-39 17.5t-11 41.5z" />
    <glyph glyph-name="divide" unicode="&#xf7;" horiz-adv-x="1009" 
d="M191 597l12 80h817l-12 -80h-817zM488 334q4 30 27.5 50t53.5 20q29 0 46 -20t13 -50q-4 -29 -28 -49.5t-53 -20.5q-30 0 -47 20.5t-12 49.5zM583 937q5 30 28 50t53 20t47 -20t12 -50q-4 -30 -28 -50t-53 -20q-30 0 -47 20t-12 50z" />
    <glyph glyph-name="oslash" unicode="&#xf8;" horiz-adv-x="1268" 
d="M132 -24l-47 57l194 167q-57 132 -31 300q36 225 185.5 366t353.5 141h20q178 0 281 -108l216 186l47 -57l-218 -188q85 -136 52 -340q-35 -225 -185.5 -367.5t-353.5 -142.5h-20q-205 0 -308 146zM326 500q-22 -139 18 -244l682 589q-85 88 -230 88h-20
q-172 0 -295 -118.5t-155 -314.5zM379 189q84 -125 259 -125h20q173 0 296 120t154 316q27 172 -39 285z" />
    <glyph glyph-name="ugrave" unicode="&#xf9;" horiz-adv-x="1085" 
d="M523 -10q-196 0 -273 103t-45 307l95 597h78l-93 -587q-29 -182 28.5 -264t221.5 -82q169 0 271.5 108t139.5 337l77 488h78l-158 -997h-78l25 155q-121 -165 -367 -165zM579 1526h101l98 -253h-80z" />
    <glyph glyph-name="uacute" unicode="&#xfa;" horiz-adv-x="1085" 
d="M523 -10q-196 0 -273 103t-45 307l95 597h78l-93 -587q-29 -182 28.5 -264t221.5 -82q169 0 271.5 108t139.5 337l77 488h78l-158 -997h-78l25 155q-121 -165 -367 -165zM687 1273l178 253h101l-198 -253h-81z" />
    <glyph glyph-name="ucircumflex" unicode="&#xfb;" horiz-adv-x="1085" 
d="M523 -10q-196 0 -273 103t-45 307l95 597h78l-93 -587q-29 -182 28.5 -264t221.5 -82q169 0 271.5 108t139.5 337l77 488h78l-158 -997h-78l25 155q-121 -165 -367 -165zM562 1273l189 253h67l109 -253h-92l-66 163l-117 -163h-90z" />
    <glyph glyph-name="udieresis" unicode="&#xfc;" horiz-adv-x="1085" 
d="M523 -10q-196 0 -273 103t-45 307l95 597h78l-93 -587q-29 -182 28.5 -264t221.5 -82q169 0 271.5 108t139.5 337l77 488h78l-158 -997h-78l25 155q-121 -165 -367 -165zM582 1398q4 24 24 41t44 17t38 -17t10 -41t-23.5 -41.5t-43.5 -17.5t-38.5 17.5t-10.5 41.5z
M827 1398q4 24 24 41t44 17t38 -17t10 -41t-23.5 -41.5t-43.5 -17.5t-38.5 17.5t-10.5 41.5z" />
    <glyph glyph-name="yacute" unicode="&#xfd;" horiz-adv-x="986" 
d="M156 -309q40 -24 79.5 -4t80.5 93l139 243l-247 974h87l215 -877l499 877h85l-712 -1249q-120 -212 -268 -124zM640 1273l178 253h101l-199 -253h-80z" />
    <glyph glyph-name="thorn" unicode="&#xfe;" horiz-adv-x="1185" 
d="M99 -397l284 1791h78l-97 -614q76 107 185.5 167t230.5 60h27q130 0 224.5 -66.5t135 -183t17.5 -259.5q-23 -144 -100.5 -260.5t-193 -182t-244.5 -65.5h-27q-122 0 -212.5 60t-131.5 168l-98 -615h-78zM317 498q-30 -191 56 -311.5t254 -120.5h28q168 0 295 121
t157 311t-58.5 311.5t-256.5 121.5h-28q-166 0 -291.5 -121.5t-155.5 -311.5z" />
    <glyph glyph-name="ydieresis" unicode="&#xff;" horiz-adv-x="986" 
d="M156 -309q40 -24 79.5 -4t80.5 93l139 243l-247 974h87l215 -877l499 877h85l-712 -1249q-121 -210 -268 -124zM536 1398q4 24 24.5 41t44.5 17t38 -17t10 -41t-23.5 -41.5t-43.5 -17.5t-39 17.5t-11 41.5zM781 1398q4 24 24 41t44 17t38.5 -17t10.5 -41t-24 -41.5
t-44 -17.5q-23 0 -38 17.5t-11 41.5z" />
    <glyph glyph-name="Amacron" unicode="&#x100;" horiz-adv-x="1130" 
d="M40 0l707 1394h76l267 -1394h-86l-87 467h-556l-235 -467h-86zM398 542h506l-138 730zM671 1647l12 79h311l-12 -79h-311z" />
    <glyph glyph-name="amacron" unicode="&#x101;" horiz-adv-x="1008" 
d="M452 -10q-159 0 -239 79t-58 215q23 145 138 220q58 38 130 52.5t177 18.5l346 15l4 20q25 160 -51 241.5t-233 81.5q-106 0 -187 -41.5t-162 -138.5l-52 48q93 109 190.5 157.5t221.5 48.5q186 0 283 -103t67 -294l-97 -610h-77l30 192q-75 -92 -193.5 -147t-237.5 -55z
M233 284q-17 -104 44.5 -163t190.5 -59q156 0 292.5 109.5t162.5 269.5l12 77l-340 -14q-186 -7 -261 -57q-84 -55 -101 -163zM601 1351l13 80h311l-13 -80h-311z" />
    <glyph glyph-name="Abreve" unicode="&#x102;" horiz-adv-x="1130" 
d="M40 0l707 1394h76l267 -1394h-86l-87 467h-556l-235 -467h-86zM398 542h506l-138 730zM643 1798h74q-17 -83 12 -126t95 -43t108.5 43t52.5 126h73q-11 -112 -80.5 -180.5t-166.5 -68.5q-98 0 -145 68t-23 181z" />
    <glyph glyph-name="abreve" unicode="&#x103;" horiz-adv-x="1008" 
d="M452 -10q-159 0 -239 79t-58 215q23 145 138 220q59 38 131.5 53t176.5 18l345 15l4 20q25 160 -51 241.5t-233 81.5q-106 0 -187 -41.5t-162 -138.5l-52 48q93 109 190.5 157.5t221.5 48.5q186 0 283 -103t67 -294l-97 -610h-77l30 192q-75 -92 -193.5 -147t-237.5 -55z
M233 284q-17 -104 44.5 -163t190.5 -59q156 0 292.5 109.5t162.5 269.5l12 77l-340 -14q-188 -8 -261 -57q-84 -55 -101 -163zM575 1514h74q-17 -83 12 -126t94 -43q66 0 108.5 43t52.5 126h74q-12 -112 -81 -180t-166 -68q-98 0 -145 68t-23 180z" />
    <glyph glyph-name="Aogonek" unicode="&#x104;" horiz-adv-x="1127" 
d="M842 -434q-60 0 -96 36t-23 118q16 100 89 186t184 136l-79 425h-556l-235 -467h-86l707 1394h76l265 -1385q-115 -44 -191.5 -117t-90.5 -166q-7 -46 7 -64t50 -18q38 0 73 20t87 71l-16 -103q-74 -66 -165 -66zM398 542h506l-138 730z" />
    <glyph glyph-name="aogonek" unicode="&#x105;" horiz-adv-x="1048" 
d="M686 -434q-60 0 -96 36t-23 118q17 107 98.5 200t196.5 134l21 138q-75 -92 -193.5 -147t-237.5 -55q-159 0 -239 79t-58 215q23 145 138 220q58 38 130 52.5t177 18.5l346 15l4 20q25 160 -51 241.5t-233 81.5q-106 0 -187 -41.5t-162 -138.5l-52 48q93 109 190.5 157.5
t221.5 48.5q186 0 283 -103t67 -294l-96 -606q-108 -22 -187 -101.5t-94 -176.5q-7 -46 7 -64t50 -18q38 0 73 20t87 71l-16 -103q-73 -66 -165 -66zM233 284q-17 -104 44.5 -163t190.5 -59q156 0 292.5 109.5t162.5 269.5l12 77l-340 -14q-186 -7 -261 -57
q-84 -55 -101 -163z" />
    <glyph glyph-name="Cacute" unicode="&#x106;" horiz-adv-x="1334" 
d="M690 -12q-275 0 -413 192t-87 516q34 216 137 377.5t255 247t333 85.5h20q193 0 321 -97t173 -270l-78 -27q-39 152 -148.5 234t-280.5 82h-20q-247 0 -417.5 -169.5t-216.5 -462.5q-46 -292 70.5 -461t363.5 -169h20q171 0 307 82t223 234l68 -27q-99 -173 -258 -270
t-352 -97h-20zM870 1577l160 221h102l-181 -221h-81z" />
    <glyph glyph-name="cacute" unicode="&#x107;" horiz-adv-x="1038" 
d="M537 -10q-202 0 -307.5 142.5t-70.5 367.5q36 225 185 366t354 141h19q135 0 229.5 -64t132.5 -177l-77 -31q-34 96 -109.5 147t-186.5 51h-19q-173 0 -295.5 -118.5t-154.5 -314.5q-31 -196 54 -316t258 -120h19q112 0 204.5 52t157.5 148l65 -31
q-77 -114 -191.5 -178.5t-247.5 -64.5h-19zM684 1273l178 253h101l-198 -253h-81z" />
    <glyph glyph-name="Ccircumflex" unicode="&#x108;" horiz-adv-x="1334" 
d="M690 -12q-275 0 -413 192t-87 516q34 216 137 377.5t255 247t333 85.5h20q193 0 321 -97t173 -270l-78 -27q-39 152 -148.5 234t-280.5 82h-20q-247 0 -417.5 -169.5t-216.5 -462.5q-46 -292 70.5 -461t363.5 -169h20q171 0 307 82t223 234l68 -27q-99 -173 -258 -270
t-352 -97h-20zM770 1577l188 221h65l119 -221h-95l-70 139l-115 -139h-92z" />
    <glyph glyph-name="ccircumflex" unicode="&#x109;" horiz-adv-x="1038" 
d="M537 -10q-202 0 -307.5 142.5t-70.5 367.5q36 225 185 366t354 141h19q135 0 229.5 -64t132.5 -177l-77 -31q-34 96 -109.5 147t-186.5 51h-19q-173 0 -295.5 -118.5t-154.5 -314.5q-31 -196 54 -316t258 -120h19q112 0 204.5 52t157.5 148l65 -31
q-77 -114 -191.5 -178.5t-247.5 -64.5h-19zM567 1273l190 253h67l109 -253h-92l-67 163l-116 -163h-91z" />
    <glyph glyph-name="Cdotaccent" unicode="&#x10a;" horiz-adv-x="1334" 
d="M690 -12q-275 0 -413 192t-87 516q34 216 137 377.5t255 247t333 85.5h20q193 0 321 -97t173 -270l-78 -27q-39 152 -148.5 234t-280.5 82h-20q-247 0 -417.5 -169.5t-216.5 -462.5q-46 -292 70.5 -461t363.5 -169h20q171 0 307 82t223 234l68 -27q-99 -173 -258 -270
t-352 -97h-20zM893 1687q4 24 24 41.5t44 17.5t38.5 -17.5t10.5 -41.5t-24 -41t-44 -17t-38.5 17t-10.5 41z" />
    <glyph glyph-name="cdotaccent" unicode="&#x10b;" horiz-adv-x="1038" 
d="M537 -10q-202 0 -307.5 142.5t-70.5 367.5q36 225 185 366t354 141h19q135 0 229.5 -64t132.5 -177l-77 -31q-34 96 -109.5 147t-186.5 51h-19q-173 0 -295.5 -118.5t-154.5 -314.5q-31 -196 54 -316t258 -120h19q112 0 204.5 52t157.5 148l65 -31
q-77 -114 -191.5 -178.5t-247.5 -64.5h-19zM701 1396q4 24 24 41t44 17t38.5 -17t10.5 -41t-23.5 -41.5t-43.5 -17.5t-39 17.5t-11 41.5z" />
    <glyph glyph-name="Ccaron" unicode="&#x10c;" horiz-adv-x="1334" 
d="M690 -12q-275 0 -413 192t-87 516q34 216 137 377.5t255 247t333 85.5h20q193 0 321 -97t173 -270l-78 -27q-39 152 -148.5 234t-280.5 82h-20q-247 0 -417.5 -169.5t-216.5 -462.5q-46 -292 70.5 -461t363.5 -169h20q171 0 307 82t223 234l68 -27q-99 -173 -258 -270
t-352 -97h-20zM785 1798h94l70 -140l115 140h92l-188 -221h-65z" />
    <glyph glyph-name="ccaron" unicode="&#x10d;" horiz-adv-x="1038" 
d="M537 -10q-202 0 -307.5 142.5t-70.5 367.5q36 225 185 366t354 141h19q135 0 229.5 -64t132.5 -177l-77 -31q-34 96 -109.5 147t-186.5 51h-19q-173 0 -295.5 -118.5t-154.5 -314.5q-31 -196 54 -316t258 -120h19q112 0 204.5 52t157.5 148l65 -31
q-77 -114 -191.5 -178.5t-247.5 -64.5h-19zM599 1526h92l65 -163l118 163h90l-189 -253h-67z" />
    <glyph glyph-name="Dcaron" unicode="&#x10e;" horiz-adv-x="1240" 
d="M170 0l221 1394h290q333 0 487 -186t101 -522q-53 -330 -262.5 -508t-548.5 -178h-288zM260 76h206q309 0 491 153.5t230 456.5q49 309 -85 470.5t-435 161.5h-210zM710 1798h94l71 -140l114 140h92l-188 -221h-65z" />
    <glyph glyph-name="dcaron" unicode="&#x10f;" horiz-adv-x="1296" 
d="M535 -10q-197 0 -304 146t-72 364q23 144 100.5 260t192.5 181.5t244 65.5h27q122 0 213 -60t133 -167l97 614h78l-221 -1394h-78l34 217q-75 -107 -185.5 -167t-231.5 -60h-27zM237 500q-30 -191 57.5 -312.5t255.5 -121.5h28q167 0 292.5 122t155.5 312t-56.5 310.5
t-254.5 120.5h-28q-168 0 -294 -120.5t-156 -310.5zM1321 1190l141 276h82l-5 -33l-141 -243h-77z" />
    <glyph glyph-name="Dcroat" unicode="&#x110;" horiz-adv-x="1226" 
d="M157 0l99 628h-107l13 80h107l109 686h289q333 0 487 -186t101 -522q-53 -330 -262.5 -508t-548.5 -178h-287zM246 76h206q309 0 491 153.5t230 456.5q49 309 -85 470.5t-435 161.5h-210l-97 -610h372l-13 -80h-372z" />
    <glyph glyph-name="dcroat" unicode="&#x111;" horiz-adv-x="1136" 
d="M535 -10q-197 0 -304 146t-72 364q23 144 100.5 260t192.5 181.5t244 65.5h27q122 0 213 -60t133 -167l58 371h-224l13 80h224l26 163h78l-26 -163h91l-13 -80h-91l-182 -1151h-78l34 217q-75 -107 -185.5 -167t-231.5 -60h-27zM237 500q-30 -191 57.5 -312.5
t255.5 -121.5h28q167 0 292.5 122t155.5 312t-56.5 310.5t-254.5 120.5h-28q-168 0 -294 -120.5t-156 -310.5z" />
    <glyph glyph-name="Emacron" unicode="&#x112;" horiz-adv-x="1139" 
d="M170 0l221 1394h879l-12 -76h-801l-92 -577h733l-12 -76h-733l-93 -589h801l-12 -76h-879zM681 1647l12 79h311l-12 -79h-311z" />
    <glyph glyph-name="emacron" unicode="&#x113;" horiz-adv-x="1056" 
d="M537 -10q-202 0 -307.5 142.5t-70.5 367.5q35 221 181.5 362t347.5 145q134 -3 227 -70.5t129 -186.5t8 -270h-818q-25 -188 61 -302t254 -114h19q112 0 204.5 52t157.5 148l65 -31q-77 -114 -191.5 -178.5t-247.5 -64.5h-19zM246 550h738q14 172 -68.5 275.5
t-238.5 107.5q-157 -4 -273.5 -108t-157.5 -275zM587 1351l13 80h311l-13 -80h-311z" />
    <glyph glyph-name="Ebreve" unicode="&#x114;" horiz-adv-x="1139" 
d="M170 0l221 1394h879l-12 -76h-801l-92 -577h733l-12 -76h-733l-93 -589h801l-12 -76h-879zM729 1851h74q-17 -83 12 -126t95 -43q65 0 108 43t52 126h74q-12 -113 -80.5 -181t-165.5 -68q-98 0 -145.5 68t-23.5 181z" />
    <glyph glyph-name="ebreve" unicode="&#x115;" horiz-adv-x="1056" 
d="M537 -10q-202 0 -307.5 142.5t-70.5 367.5q39 247 209 388q138 114 306 118q163 5 271 -95q133 -122 118 -348q-3 -40 -11 -83h-818q-25 -188 61 -302t254 -114h19q112 0 204.5 52t157.5 148l65 -31q-77 -114 -191.5 -178.5t-247.5 -64.5h-19zM246 550h738
q16 204 -101 310q-95 87 -235 75q-148 -12 -261 -124q-103 -103 -141 -261zM559 1514h74q-17 -83 12 -126t95 -43t108.5 43t52.5 126h73q-11 -112 -80 -180t-166 -68q-98 0 -145.5 68t-23.5 180z" />
    <glyph glyph-name="Edotaccent" unicode="&#x116;" horiz-adv-x="1139" 
d="M170 0l221 1394h879l-12 -76h-801l-92 -577h733l-12 -76h-733l-93 -589h801l-12 -76h-879zM784 1687q4 24 24.5 41.5t44.5 17.5t38 -17.5t10 -41.5t-23.5 -41t-43.5 -17t-39 17t-11 41z" />
    <glyph glyph-name="edotaccent" unicode="&#x117;" horiz-adv-x="1056" 
d="M537 -10q-202 0 -307.5 142.5t-70.5 367.5q35 221 181.5 362t347.5 145q134 -3 227 -70.5t129 -186.5t8 -270h-818q-25 -188 61 -302t254 -114h19q112 0 204.5 52t157.5 148l65 -31q-77 -114 -191.5 -178.5t-247.5 -64.5h-19zM246 550h738q14 172 -68.5 275.5
t-238.5 107.5q-157 -4 -273.5 -108t-157.5 -275zM692 1396q4 24 23.5 41t43.5 17t38.5 -17t10.5 -41t-23.5 -41.5t-43.5 -17.5t-38.5 17.5t-10.5 41.5z" />
    <glyph glyph-name="Eogonek" unicode="&#x118;" horiz-adv-x="1142" 
d="M812 -434q-60 0 -96 36t-23 118t64 154.5t131 125.5h-718l221 1394h879l-12 -76h-801l-92 -577h733l-12 -76h-733l-93 -589h804l-11 -69q-114 -44 -188 -116.5t-89 -164.5q-7 -46 7 -64t50 -18q38 0 73 20t86 71l-16 -103q-72 -66 -164 -66z" />
    <glyph glyph-name="eogonek" unicode="&#x119;" horiz-adv-x="1056" 
d="M458 -434q-60 0 -96 36t-23 118t62 161.5t95 108.5h41q-202 0 -307.5 142.5t-70.5 367.5q35 221 181.5 362t347.5 145q134 -3 227 -70.5t129 -186.5t8 -270h-818q-25 -188 61 -302t254 -114h19q112 0 204.5 52t157.5 148l65 -31q-62 -92 -151 -153t-193 -81
q-90 -35 -153 -111.5t-76 -161.5q-7 -46 7 -64t50 -18q38 0 73 20t86 71l-16 -103q-72 -66 -164 -66zM246 550h738q14 172 -68.5 275.5t-238.5 107.5q-157 -4 -273.5 -108t-157.5 -275zM587 1351l13 80h311l-13 -80h-311z" />
    <glyph glyph-name="Ecaron" unicode="&#x11a;" horiz-adv-x="1139" 
d="M170 0l221 1394h879l-12 -76h-801l-92 -577h733l-12 -76h-733l-93 -589h801l-12 -76h-879zM676 1798h94l71 -140l114 140h92l-188 -221h-65z" />
    <glyph glyph-name="ecaron" unicode="&#x11b;" horiz-adv-x="1056" 
d="M537 -10q-202 0 -307.5 142.5t-70.5 367.5q35 221 181.5 362t347.5 145q134 -3 227 -70.5t129 -186.5t8 -270h-818q-25 -188 61 -302t254 -114h19q112 0 204.5 52t157.5 148l65 -31q-77 -114 -191.5 -178.5t-247.5 -64.5h-19zM246 550h738q14 172 -68.5 275.5
t-238.5 107.5q-157 -4 -273.5 -108t-157.5 -275zM589 1526h92l66 -163l117 163h91l-190 -253h-67z" />
    <glyph glyph-name="Gcircumflex" unicode="&#x11c;" horiz-adv-x="1308" 
d="M690 -12q-275 0 -413 192.5t-86 517.5q51 324 250 516t474 192q196 0 323.5 -100t162.5 -277l-75 -28q-31 153 -138.5 240t-285.5 87q-247 0 -417 -169t-216 -461q-46 -293 70 -462.5t363 -169.5q170 0 301 79.5t212 219.5l42 267h-484l12 76h560l-112 -708h-76l33 210
q-95 -107 -224 -164.5t-276 -57.5zM751 1577l189 221h65l118 -221h-94l-71 139l-114 -139h-93z" />
    <glyph glyph-name="gcircumflex" unicode="&#x11d;" horiz-adv-x="1184" 
d="M490 -402q-172 0 -270.5 95t-97.5 262h77q5 -135 83 -207.5t221 -72.5h29q175 0 286 114t147 337l14 89q-75 -107 -185.5 -167t-231.5 -60h-10q-130 0 -228 66t-143 183.5t-22 260.5q23 144 100.5 260t192.5 181.5t244 65.5h27q122 0 213 -60t132 -167l35 221h78
l-140 -884q-39 -247 -179 -382t-343 -135h-29zM237 498q-30 -191 57.5 -312.5t255.5 -121.5h28q156 0 276 107t162 279l15 95q13 172 -73.5 278t-242.5 106h-28q-168 0 -294 -120.5t-156 -310.5zM592 1273l189 253h67l109 -253h-92l-66 163l-117 -163h-90z" />
    <glyph glyph-name="Gbreve" unicode="&#x11e;" horiz-adv-x="1308" 
d="M690 -12q-275 0 -413 192.5t-86 517.5q51 324 250 516t474 192q196 0 323.5 -100t162.5 -277l-75 -28q-31 153 -138.5 240t-285.5 87q-247 0 -417 -169t-216 -461q-46 -293 70 -462.5t363 -169.5q170 0 301 79.5t212 219.5l42 267h-484l12 76h560l-112 -708h-76l33 210
q-95 -107 -224 -164.5t-276 -57.5zM779 1851h73q-17 -83 12 -126t95 -43t109 43t52 126h74q-12 -112 -81 -180.5t-166 -68.5q-98 0 -145 68t-23 181z" />
    <glyph glyph-name="gbreve" unicode="&#x11f;" horiz-adv-x="1184" 
d="M490 -402q-172 0 -270.5 95t-97.5 262h77q5 -135 83 -207.5t221 -72.5h29q175 0 286 114t147 337l14 89q-75 -107 -185.5 -167t-231.5 -60h-10q-130 0 -228 66t-143 183.5t-22 260.5q23 144 100.5 260t192.5 181.5t244 65.5h27q122 0 213 -60t132 -167l35 221h78
l-140 -884q-39 -247 -179 -382t-343 -135h-29zM237 498q-30 -191 57.5 -312.5t255.5 -121.5h28q156 0 276 107t162 279l15 95q13 172 -73.5 278t-242.5 106h-28q-168 0 -294 -120.5t-156 -310.5zM590 1514h73q-17 -83 12 -126t95 -43t108.5 43t52.5 126h73
q-11 -112 -80 -180t-166 -68q-98 0 -145 68t-23 180z" />
    <glyph glyph-name="Gdotaccent" unicode="&#x120;" horiz-adv-x="1308" 
d="M690 -12q-275 0 -413 192.5t-86 517.5q51 324 250 516t474 192q196 0 323.5 -100t162.5 -277l-75 -28q-31 153 -138.5 240t-285.5 87q-247 0 -417 -169t-216 -461q-46 -293 70 -462.5t363 -169.5q170 0 301 79.5t212 219.5l42 267h-484l12 76h560l-112 -708h-76l33 210
q-95 -107 -224 -164.5t-276 -57.5zM902 1687q4 24 24 41.5t44 17.5t38 -17.5t10 -41.5t-23.5 -41t-43.5 -17t-38.5 17t-10.5 41z" />
    <glyph glyph-name="gdotaccent" unicode="&#x121;" horiz-adv-x="1184" 
d="M490 -402q-172 0 -270.5 95t-97.5 262h77q5 -135 83 -207.5t221 -72.5h29q175 0 286 114t147 337l14 89q-75 -107 -185.5 -167t-231.5 -60h-10q-130 0 -228 66t-143 183.5t-22 260.5q23 144 100.5 260t192.5 181.5t244 65.5h27q122 0 213 -60t132 -167l35 221h78
l-140 -884q-39 -247 -179 -382t-343 -135h-29zM237 498q-30 -191 57.5 -312.5t255.5 -121.5h28q156 0 276 107t162 279l15 95q13 172 -73.5 278t-242.5 106h-28q-168 0 -294 -120.5t-156 -310.5zM742 1396q4 24 23.5 41t43.5 17t39 -17t11 -41t-24 -41.5t-44 -17.5
t-38.5 17.5t-10.5 41.5z" />
    <glyph glyph-name="uni0122" unicode="&#x122;" horiz-adv-x="1517" 
d="M777 -12q-275 0 -413.5 192.5t-86.5 517.5q34 215 137 376t255 246.5t333 85.5q196 0 323.5 -100t162.5 -277l-76 -28q-30 153 -137.5 240t-285.5 87q-248 0 -418 -169t-216 -461q-46 -293 70 -462.5t364 -169.5q170 0 301 79.5t211 219.5l42 267h-484l12 76h560
l-112 -708h-76l33 210q-94 -106 -223 -164t-276 -58zM584 -385l142 276h81l-5 -33l-140 -243h-78z" />
    <glyph glyph-name="uni0123" unicode="&#x123;" horiz-adv-x="1211" 
d="M545 -402q-172 0 -271 95t-98 262h78q4 -135 82 -207.5t222 -72.5h29q174 0 285 114t147 337l14 89q-75 -107 -185.5 -167t-231.5 -60h-9q-199 0 -313.5 146.5t-80.5 363.5q23 144 100.5 260t192.5 181.5t244 65.5h27q122 0 213.5 -60t131.5 -167l35 221h78l-140 -884
q-39 -247 -179 -382t-342 -135h-29zM291 498q-30 -191 57.5 -312.5t256.5 -121.5h27q156 0 276 107t162 279l15 95q13 172 -73.5 278t-242.5 106h-27q-169 0 -295 -120.5t-156 -310.5zM791 1275l5 33l141 243h77l-141 -276h-82z" />
    <glyph glyph-name="Hcircumflex" unicode="&#x124;" horiz-adv-x="1219" 
d="M170 0l221 1394h78l-103 -649h721l103 649h80l-221 -1394h-80l106 669h-721l-106 -669h-78zM683 1577l188 221h65l118 -221h-94l-71 139l-114 -139h-92z" />
    <glyph glyph-name="hcircumflex" unicode="&#x125;" horiz-adv-x="977" 
d="M34 0l221 1394h78l-88 -552q121 165 366 165q196 0 273.5 -103t45.5 -307l-95 -597h-77l93 587q29 182 -28.5 264t-222.5 82q-168 0 -271 -108t-140 -337l-77 -488h-78zM140 1577l189 221h65l118 -221h-94l-71 139l-114 -139h-93z" />
    <glyph glyph-name="Hbar" unicode="&#x126;" horiz-adv-x="1131" 
d="M131 0l160 1011h-79l13 80h79l48 303h78l-48 -303h721l48 303h80l-48 -303h71l-13 -80h-71l-160 -1011h-80l106 669h-721l-106 -669h-78zM327 745h721l42 266h-721z" />
    <glyph glyph-name="hbar" unicode="&#x127;" horiz-adv-x="1068" 
d="M125 0l182 1151h-103l13 80h103l26 163h78l-26 -163h212l-13 -80h-212l-49 -309q121 165 366 165q196 0 273.5 -103t45.5 -307l-95 -597h-77l93 587q29 182 -28.5 264t-222.5 82q-168 0 -271 -108t-140 -337l-77 -488h-78z" />
    <glyph glyph-name="Itilde" unicode="&#x128;" horiz-adv-x="185" 
d="M55 0l221 1394h78l-221 -1394h-78zM162 1633q3 54 31 86.5t75 32.5q38 0 113 -27q65 -22 82 -22q9 0 11 2.5t4 17.5q2 12 3 21h77q-3 -54 -31.5 -86.5t-76.5 -32.5q-35 0 -113 26q-62 23 -81 23q-8 0 -10 -3t-5 -20q-2 -11 -3 -18h-76z" />
    <glyph glyph-name="itilde" unicode="&#x129;" horiz-adv-x="169" 
d="M30 0l158 997h78l-158 -997h-78zM112 1371q3 53 31.5 85.5t75.5 32.5q35 0 113 -26q61 -22 82 -22q9 0 10.5 3t4.5 19q2 11 3 18h77q-4 -54 -32 -86t-75 -32q-41 0 -113 26q-66 22 -83 22q-12 0 -15 -22q-1 -11 -2 -18h-77z" />
    <glyph glyph-name="Imacron" unicode="&#x12a;" horiz-adv-x="207" 
d="M65 0l221 1394h78l-221 -1394h-78zM209 1647l12 79h311l-12 -79h-311z" />
    <glyph glyph-name="imacron" unicode="&#x12b;" horiz-adv-x="191" 
d="M56 0l158 997h78l-158 -997h-78zM154 1351l13 80h311l-13 -80h-311z" />
    <glyph glyph-name="Ibreve" unicode="&#x12c;" horiz-adv-x="242" 
d="M84 0l221 1394h77l-221 -1394h-77zM208 1851h74q-17 -83 12 -126t94 -43q66 0 109 43t52 126h74q-12 -112 -81 -180.5t-166 -68.5q-98 0 -145 68t-23 181z" />
    <glyph glyph-name="ibreve" unicode="&#x12d;" horiz-adv-x="256" 
d="M329 1266q-98 0 -145 68t-23 180h73q-16 -83 13 -126t94 -43q66 0 108.5 43t52.5 126h74q-12 -112 -81 -180t-166 -68zM86 0l158 997h78l-158 -997h-78z" />
    <glyph glyph-name="Iogonek" unicode="&#x12e;" horiz-adv-x="415" 
d="M71 -434q-60 0 -96 36t-23 118q17 109 99.5 199t206.5 139l-16 9l210 1327h78l-220 -1386q-112 -45 -186 -118t-89 -164q-7 -46 7 -64t50 -18q38 0 73 20t87 71l-16 -103q-73 -66 -165 -66z" />
    <glyph glyph-name="iogonek" unicode="&#x12f;" horiz-adv-x="440" 
d="M64 -430q-60 0 -96.5 36t-23.5 118q17 108 105 204.5t206 137.5l148 931h78l-158 -997h-46q-98 -30 -167 -105t-83 -165q-7 -46 7 -64t50 -18q38 0 73.5 20t87.5 71l-17 -103q-73 -66 -164 -66zM425 1254q4 24 23.5 41t43.5 17t38.5 -17t10.5 -41t-24 -41t-44 -17t-38 17
t-10 41z" />
    <glyph glyph-name="Idotaccent" unicode="&#x130;" horiz-adv-x="412" 
d="M167 0l221 1394h78l-221 -1394h-78zM415 1687q4 24 24 41.5t44 17.5t38 -17.5t10 -41.5t-23.5 -41t-43.5 -17t-38.5 17t-10.5 41z" />
    <glyph glyph-name="dotlessi" unicode="&#x131;" horiz-adv-x="498" 
d="M210 0l158 997h78l-158 -997h-78z" />
    <glyph glyph-name="IJ" unicode="&#x132;" horiz-adv-x="1519" 
d="M517 498l5 33h78q-44 -240 68 -374q86 -101 228 -105q147 -3 273 98q156 126 198 353q2 9 3 18l138 873h78l-139 -875q-41 -260 -218 -410q-141 -120 -314 -128q-167 -9 -280 90q-135 118 -127 341q2 42 9 86zM154 0l221 1394h77l-221 -1394h-77z" />
    <glyph glyph-name="ij" unicode="&#x133;" horiz-adv-x="717" 
d="M240 -406q-98 0 -157 45l39 63q58 -34 128 -34h13q83 0 130 45t63 143l181 1141h78l-181 -1141q-21 -130 -93.5 -196t-186.5 -66h-14zM176 0l158 997h78l-158 -997h-78zM355 1250q4 24 23.5 41t43.5 17t38.5 -17t10.5 -41t-23.5 -41t-43.5 -17t-38.5 17t-10.5 41z
M658 1251q4 24 23.5 41t43.5 17t39 -17t11 -41t-24 -41t-44 -17t-38.5 17t-10.5 41z" />
    <glyph glyph-name="Jcircumflex" unicode="&#x134;" horiz-adv-x="1016" 
d="M149 498l5 33h78q-44 -240 69 -373q85 -102 227 -105q147 -5 273 96q157 126 199 353q1 9 3 19l138 873h77l-139 -875q-41 -260 -218 -410q-141 -120 -314 -128q-167 -9 -280 90q-135 118 -127 341q2 42 9 86zM1017 1577l188 221h65l118 -221h-94l-70 139l-115 -139h-92z
" />
    <glyph glyph-name="jcircumflex" unicode="&#x135;" horiz-adv-x="289" 
d="M-67 -406q-99 0 -158 45l40 63q58 -34 127 -34h14q82 0 129.5 45t63.5 143l181 1141h78l-181 -1141q-21 -130 -94 -196t-186 -66h-14zM227 1273l190 253h66l110 -253h-92l-67 163l-117 -163h-90z" />
    <glyph glyph-name="uni0136" unicode="&#x136;" horiz-adv-x="1279" 
d="M224 0l221 1394h77l-126 -792l888 792h108l-666 -595l437 -799h-96l-405 743l-283 -251l-78 -492h-77zM437 -385l141 276h82l-5 -33l-141 -243h-77z" />
    <glyph glyph-name="uni0137" unicode="&#x137;" horiz-adv-x="1069" 
d="M206 0l221 1394h78l-150 -948l621 551h107l-419 -370l297 -627h-93l-268 571l-262 -233l-54 -338h-78zM313 -385l141 276h82l-5 -33l-141 -243h-77z" />
    <glyph glyph-name="kgreenlandic" unicode="&#x138;" horiz-adv-x="967" 
d="M162 0l159 1001h78l-88 -555l621 551h107l-419 -370l297 -627h-93l-268 571l-262 -233l-54 -338h-78z" />
    <glyph glyph-name="Lacute" unicode="&#x139;" horiz-adv-x="1092" 
d="M174 0l221 1394h77l-209 -1318h801l-12 -76h-878zM406 1577l160 221h102l-182 -221h-80z" />
    <glyph glyph-name="lacute" unicode="&#x13a;" horiz-adv-x="431" 
d="M344 -9q-92 -7 -129.5 45t-19.5 164l189 1194h78l-189 -1190q-12 -78 7 -108.5t71 -30.5zM413 1672l177 253h102l-199 -253h-80z" />
    <glyph glyph-name="uni013B" unicode="&#x13b;" horiz-adv-x="1220" 
d="M224 0l221 1394h77l-209 -1318h801l-12 -76h-878zM423 -385l141 276h82l-5 -33l-141 -243h-77z" />
    <glyph glyph-name="uni013C" unicode="&#x13c;" horiz-adv-x="411" 
d="M350 -9q-91 -7 -129 45t-20 164l189 1194h78l-189 -1190q-12 -78 7 -108.5t71 -30.5zM79 -385l141 276h82l-5 -33l-141 -243h-77z" />
    <glyph glyph-name="Lcaron" unicode="&#x13d;" horiz-adv-x="1089" 
d="M170 0l221 1394h78l-209 -1318h801l-12 -76h-879zM656 1120l140 274h76l-147 -274h-69z" />
    <glyph glyph-name="lcaron" unicode="&#x13e;" horiz-adv-x="404" 
d="M343 -9q-91 -7 -129 45t-20 164l189 1194h78l-189 -1190q-12 -78 7 -108.5t71 -30.5zM455 1112l142 276h81l-5 -33l-140 -243h-78z" />
    <glyph glyph-name="Ldot" unicode="&#x13f;" horiz-adv-x="1089" 
d="M170 0l221 1394h78l-209 -1318h801l-12 -76h-879zM710 797q4 24 24 41t44 17t38.5 -17t10.5 -41t-23.5 -41t-43.5 -17t-39 17t-11 41z" />
    <glyph glyph-name="ldot" unicode="&#x140;" horiz-adv-x="489" 
d="M343 -9q-91 -7 -129 45t-20 164l189 1194h78l-189 -1190q-12 -78 7 -108.5t71 -30.5zM498 797q4 24 24 41t44 17t38.5 -17t10.5 -41t-23.5 -41t-43.5 -17t-39 17t-11 41z" />
    <glyph glyph-name="Lslash" unicode="&#x141;" horiz-adv-x="1160" 
d="M241 2l94 592l-244 -132l15 91l244 133l112 710h78l-105 -664l394 214l-15 -92l-394 -214l-89 -562h801l-12 -76h-879z" />
    <glyph glyph-name="lslash" unicode="&#x142;" horiz-adv-x="327" 
d="M304 -9q-91 -7 -129 45t-20 164l58 368l-124 -81l16 98l123 81l116 728h78l-107 -672l127 82l-15 -99l-127 -81l-67 -420q-12 -78 7 -108.5t71 -30.5z" />
    <glyph glyph-name="Nacute" unicode="&#x143;" horiz-adv-x="1266" 
d="M170 0l221 1394h85l564 -1258l199 1258h78l-221 -1394h-87l-562 1254l-199 -1254h-78zM826 1577l160 221h102l-181 -221h-81z" />
    <glyph glyph-name="nacute" unicode="&#x144;" horiz-adv-x="1105" 
d="M162 0l158 997h78l-25 -155q121 165 366 165q196 0 273.5 -103t45.5 -307l-95 -597h-77l93 587q29 182 -28.5 264t-222.5 82q-168 0 -271 -108t-140 -337l-77 -488h-78zM695 1273l178 253h101l-198 -253h-81z" />
    <glyph glyph-name="uni0145" unicode="&#x145;" horiz-adv-x="1373" 
d="M224 0l221 1394h85l563 -1258l199 1258h78l-221 -1394h-87l-562 1254l-199 -1254h-77zM491 -385l141 276h82l-5 -33l-141 -243h-77z" />
    <glyph glyph-name="uni0146" unicode="&#x146;" horiz-adv-x="1203" 
d="M206 0l158 997h78l-25 -155q121 165 366 165q196 0 273.5 -103t45.5 -307l-95 -597h-78l93 587q29 182 -28.5 264t-221.5 82q-168 0 -271 -108t-140 -337l-77 -488h-78zM398 -385l141 276h82l-5 -33l-141 -243h-77z" />
    <glyph glyph-name="Ncaron" unicode="&#x147;" horiz-adv-x="1266" 
d="M170 0l221 1394h85l564 -1258l199 1258h78l-221 -1394h-87l-562 1254l-199 -1254h-78zM733 1798h94l71 -140l114 140h93l-189 -221h-65z" />
    <glyph glyph-name="ncaron" unicode="&#x148;" horiz-adv-x="1105" 
d="M162 0l158 997h78l-25 -155q121 165 366 165q196 0 273.5 -103t45.5 -307l-95 -597h-77l93 587q29 182 -28.5 264t-222.5 82q-168 0 -271 -108t-140 -337l-77 -488h-78zM610 1526h92l65 -163l118 163h90l-189 -253h-67z" />
    <glyph glyph-name="napostrophe" unicode="&#x149;" horiz-adv-x="1220" 
d="M277 0l158 997h78l-25 -155q121 165 366 165q196 0 273.5 -103t45.5 -307l-95 -597h-78l93 587q29 182 -28.5 264t-221.5 82q-169 0 -271.5 -108t-139.5 -337l-77 -488h-78zM264 985l227 483h79l-229 -513h-76z" />
    <glyph glyph-name="Eng" unicode="&#x14a;" horiz-adv-x="1266" 
d="M732 -354q62 -1 103.5 7t74.5 31.5t52.5 65.5t29.5 108l22 142h-5l-562 1254l-199 -1254h-78l221 1394h85l564 -1258l199 1258h78l-239 -1505q-7 -47 -14 -81q-30 -128 -113.5 -184t-231.5 -58z" />
    <glyph glyph-name="eng" unicode="&#x14b;" horiz-adv-x="1105" 
d="M645 -406q-99 0 -158 45l39 63q59 -34 128 -34h13q82 0 129 45t65 143l118 731q29 182 -28.5 264t-222.5 82q-168 0 -271 -108t-140 -337l-77 -488h-78l158 997h78l-25 -155q121 165 366 165q196 0 273.5 -103t45.5 -307l-120 -741q-22 -130 -94.5 -196t-185.5 -66h-13z
" />
    <glyph glyph-name="Omacron" unicode="&#x14c;" horiz-adv-x="1406" 
d="M689 -17q-275 0 -413 191.5t-87 515.5q34 216 137 377.5t255 247t333 85.5h20q279 0 415.5 -195t85.5 -515q-50 -320 -248.5 -513.5t-477.5 -193.5h-20zM267 690q-46 -292 71 -461t364 -169h20q249 0 419 169.5t216 460.5q46 293 -71 462.5t-365 169.5h-20
q-247 0 -417.5 -169.5t-216.5 -462.5zM813 1647l12 79h311l-12 -79h-311z" />
    <glyph glyph-name="omacron" unicode="&#x14d;" horiz-adv-x="1097" 
d="M537 -10q-202 0 -307.5 142.5t-70.5 367.5q36 225 185 366t354 141h19q205 0 310 -141t69 -366q-35 -225 -185.5 -367.5t-354.5 -142.5h-19zM237 500q-31 -196 54 -316t258 -120h19q173 0 296 120t154 316t-54 314.5t-258 118.5h-19q-173 0 -295.5 -118.5t-154.5 -314.5z
M606 1351l13 80h311l-13 -80h-311z" />
    <glyph glyph-name="Obreve" unicode="&#x14e;" horiz-adv-x="1406" 
d="M690 -12q-275 0 -413 192t-87 516q34 216 137 377.5t255 247t333 85.5h20q279 0 415.5 -195t85.5 -515q-50 -320 -248.5 -514t-477.5 -194h-20zM268 696q-46 -292 70.5 -461t363.5 -169h20q249 0 419.5 169.5t216.5 460.5q46 293 -71 462.5t-365 169.5h-20
q-247 0 -417.5 -169.5t-216.5 -462.5zM785 1851h74q-17 -83 12 -126t95 -43t109 43t52 126h73q-11 -112 -80 -180.5t-166 -68.5q-98 0 -145.5 68t-23.5 181z" />
    <glyph glyph-name="obreve" unicode="&#x14f;" horiz-adv-x="1097" 
d="M537 -10q-202 0 -307.5 142.5t-70.5 367.5q36 225 185 366t354 141h19q205 0 310 -141t69 -366q-35 -225 -185.5 -367.5t-354.5 -142.5h-19zM237 500q-31 -196 54 -316t258 -120h19q173 0 296 120t154 316t-54 314.5t-258 118.5h-19q-173 0 -295.5 -118.5t-154.5 -314.5z
M581 1514h73q-16 -83 13 -126t94 -43q66 0 108.5 43t52.5 126h74q-12 -112 -81 -180t-166 -68q-98 0 -145 68t-23 180z" />
    <glyph glyph-name="Ohungarumlaut" unicode="&#x150;" horiz-adv-x="1406" 
d="M689 -17q-275 0 -413 191.5t-87 515.5q34 216 137 377.5t255 247t333 85.5h20q279 0 415.5 -195t85.5 -515q-50 -320 -248.5 -513.5t-477.5 -193.5h-20zM267 690q-46 -292 71 -461t364 -169h20q249 0 419 169.5t216 460.5q46 293 -71 462.5t-365 169.5h-20
q-247 0 -417.5 -169.5t-216.5 -462.5zM759 1577l160 221h102l-181 -221h-81zM1035 1577l160 221h102l-181 -221h-81z" />
    <glyph glyph-name="ohungarumlaut" unicode="&#x151;" horiz-adv-x="1097" 
d="M537 -10q-202 0 -307.5 142.5t-70.5 367.5q36 225 185 366t354 141h19q205 0 310 -141t69 -366q-35 -225 -185.5 -367.5t-354.5 -142.5h-19zM237 500q-31 -196 54 -316t258 -120h19q173 0 296 120t154 316t-54 314.5t-258 118.5h-19q-173 0 -295.5 -118.5t-154.5 -314.5z
M554 1274l160 222h102l-182 -222h-80zM830 1274l160 222h102l-182 -222h-80z" />
    <glyph glyph-name="OE" unicode="&#x152;" horiz-adv-x="2217" 
d="M689 -17q-275 0 -413 191.5t-87 515.5q34 216 137 377.5t255 247t333 85.5h20q183 0 308 -87.5t175 -246.5l52 328h879l-12 -76h-801l-92 -577h733l-12 -76h-733l-93 -589h801l-12 -76h-879l50 314q-100 -157 -253 -244t-336 -87h-20zM267 690q-46 -292 71 -461t364 -169
h20q249 0 419 169.5t216 460.5q46 293 -71 462.5t-365 169.5h-20q-247 0 -417.5 -169.5t-216.5 -462.5z" />
    <glyph glyph-name="oe" unicode="&#x153;" horiz-adv-x="1917" 
d="M537 -10q-202 0 -307.5 142.5t-70.5 367.5q36 225 185 366t354 141h19q149 0 247.5 -77t128.5 -212q71 132 191 208.5t265 80.5q134 -3 227 -70.5t129 -186.5t8 -270h-818q-25 -188 61 -302t254 -114h19q226 0 362 200l66 -31q-77 -114 -192 -178.5t-248 -64.5h-19
q-147 0 -245.5 78t-128.5 214q-73 -136 -196.5 -214t-271.5 -78h-19zM237 500q-31 -196 54 -316t258 -120h19q173 0 296 120t154 316t-54 314.5t-258 118.5h-19q-173 0 -295.5 -118.5t-154.5 -314.5zM1107 550h738q14 172 -68.5 275.5t-238.5 107.5q-157 -4 -273.5 -108
t-157.5 -275z" />
    <glyph glyph-name="Racute" unicode="&#x154;" horiz-adv-x="1149" 
d="M170 0l221 1394h465q217 0 315 -96t68 -283l-1 -2q-27 -169 -135 -264t-288 -111l264 -638h-90l-263 634h-378l-100 -634h-78zM360 710h387q187 0 288 75t126 230q24 154 -53.5 228.5t-263.5 74.5h-387zM795 1577l160 221h102l-181 -221h-81z" />
    <glyph glyph-name="racute" unicode="&#x155;" horiz-adv-x="808" 
d="M162 0l158 997h78l-25 -155q121 165 366 165q87 0 155 -21l-28 -73q-65 20 -138 20q-168 0 -271 -108t-140 -337l-77 -488h-78zM544 1273l177 253h102l-199 -253h-80z" />
    <glyph glyph-name="uni0156" unicode="&#x156;" horiz-adv-x="1228" 
d="M224 0l221 1394h464q217 0 315.5 -96t68.5 -283l-1 -2q-27 -169 -135 -264t-289 -111l264 -638h-89l-264 634h-378l-100 -634h-77zM413 710h387q187 0 288.5 75t126.5 230q24 154 -53.5 228.5t-264.5 74.5h-387zM440 -385l142 276h82l-5 -33l-141 -243h-78z" />
    <glyph glyph-name="uni0157" unicode="&#x157;" horiz-adv-x="882" 
d="M211 0l158 997h78l-25 -155q121 165 366 165q88 0 154 -21l-27 -73q-67 20 -138 20q-168 0 -271 -108t-140 -337l-77 -488h-78zM56 -385l141 276h82l-5 -33l-141 -243h-77z" />
    <glyph glyph-name="Rcaron" unicode="&#x158;" horiz-adv-x="1149" 
d="M170 0l221 1394h465q217 0 315 -96t68 -283l-1 -2q-27 -169 -135 -264t-288 -111l264 -638h-90l-263 634h-378l-100 -634h-78zM360 710h387q187 0 288 75t126 230q24 154 -53.5 228.5t-263.5 74.5h-387zM702 1798h94l71 -140l114 140h93l-189 -221h-65z" />
    <glyph glyph-name="rcaron" unicode="&#x159;" horiz-adv-x="685" 
d="M84 0l158 997h77l-25 -155q121 165 367 165q86 0 154 -21l-28 -73q-65 20 -137 20q-169 0 -272 -108t-140 -337l-77 -488h-77zM379 1526h92l66 -163l117 163h91l-190 -253h-67z" />
    <glyph glyph-name="Sacute" unicode="&#x15a;" horiz-adv-x="1138" 
d="M585 -27q-96 0 -176.5 25.5t-141.5 75t-91 130.5t-20 185h81q-9 -108 37 -185.5t130 -114.5t195 -37q161 0 277.5 80.5t136.5 207.5q21 132 -49.5 198t-272.5 126q-111 33 -181 65.5t-119 77.5t-64 104t-2 141q16 101 89.5 183.5t179 127t220.5 44.5q99 0 174 -33
t118 -90t62 -129.5t13 -155.5h-81q3 155 -78.5 242t-222.5 87q-86 0 -168 -29.5t-144.5 -93t-76.5 -149.5q-4 -27 -4.5 -50.5t3 -44t10.5 -38t19.5 -33.5t27 -29t36 -26t44.5 -24t54 -22.5t62 -22t72 -22.5q106 -32 176.5 -66t119.5 -81t65 -109t3 -144
q-25 -158 -171.5 -264.5t-341.5 -106.5zM777 1577l160 221h102l-182 -221h-80z" />
    <glyph glyph-name="sacute" unicode="&#x15b;" horiz-adv-x="962" 
d="M493 -14q-79 0 -143.5 19.5t-114 59t-73.5 105.5t-17 153h81q-3 -141 71 -201t212 -60q122 0 206.5 48.5t98.5 136.5t-43.5 132t-233.5 82q-66 14 -115.5 33t-92 49.5t-60.5 77.5t-9 108q19 116 126.5 192t254.5 76q166 0 244.5 -88t74.5 -227h-81q-10 125 -69.5 182
t-182.5 57q-107 0 -187.5 -50.5t-94.5 -139.5q-13 -83 44.5 -125.5t186.5 -69.5q184 -39 262 -103t59 -184q-18 -119 -131.5 -191t-272.5 -72zM620 1273l178 253h101l-198 -253h-81z" />
    <glyph glyph-name="Scircumflex" unicode="&#x15c;" horiz-adv-x="1138" 
d="M585 -27q-96 0 -176.5 25.5t-141.5 75t-91 130.5t-20 185h81q-9 -108 37 -185.5t130 -114.5t195 -37q161 0 277.5 80.5t136.5 207.5q21 132 -49.5 198t-272.5 126q-111 33 -181 65.5t-119 77.5t-64 104t-2 141q16 101 89.5 183.5t179 127t220.5 44.5q99 0 174 -33
t118 -90t62 -129.5t13 -155.5h-81q3 155 -78.5 242t-222.5 87q-86 0 -168 -29.5t-144.5 -93t-76.5 -149.5q-4 -27 -4.5 -50.5t3 -44t10.5 -38t19.5 -33.5t27 -29t36 -26t44.5 -24t54 -22.5t62 -22t72 -22.5q106 -32 176.5 -66t119.5 -81t65 -109t3 -144
q-25 -158 -171.5 -264.5t-341.5 -106.5zM651 1577l189 221h65l118 -221h-94l-71 139l-114 -139h-93z" />
    <glyph glyph-name="scircumflex" unicode="&#x15d;" horiz-adv-x="962" 
d="M493 -14q-79 0 -143.5 19.5t-114 59t-73.5 105.5t-17 153h81q-3 -141 71 -201t212 -60q122 0 206.5 48.5t98.5 136.5t-43.5 132t-233.5 82q-66 14 -115.5 33t-92 49.5t-60.5 77.5t-9 108q19 116 126.5 192t254.5 76q166 0 244.5 -88t74.5 -227h-81q-10 125 -69.5 182
t-182.5 57q-107 0 -187.5 -50.5t-94.5 -139.5q-13 -83 44.5 -125.5t186.5 -69.5q184 -39 262 -103t59 -184q-18 -119 -131.5 -191t-272.5 -72zM495 1273l189 253h67l109 -253h-92l-67 163l-116 -163h-90z" />
    <glyph glyph-name="Scedilla" unicode="&#x15e;" horiz-adv-x="1138" 
d="M433 -450q-78 0 -119 27l14 90q27 -21 51 -29t66 -8q132 0 148 99q9 56 -34.5 79t-155.5 14l107 155q-82 9 -149.5 39t-117 80t-73 125t-14.5 168h81q-9 -108 37 -185.5t130 -114.5t195 -37q161 0 277.5 80.5t136.5 207.5q21 132 -49.5 198t-272.5 126q-111 33 -181 65.5
t-119 77.5t-64 104t-2 141q16 101 89.5 183.5t179 127t220.5 44.5q99 0 174 -33t118 -90t62 -129.5t13 -155.5h-81q3 155 -78.5 242t-222.5 87q-86 0 -168 -29.5t-144.5 -93t-76.5 -149.5q-4 -27 -4.5 -50.5t3 -44t10.5 -38t19.5 -33.5t27 -29t36 -26t44.5 -24t54 -22.5
t62 -22t72 -22.5q106 -32 176.5 -66t119.5 -81t65 -109t3 -144q-24 -155 -166.5 -261t-332.5 -110l-56 -79q74 -13 109.5 -53.5t23.5 -111.5q-14 -88 -85.5 -133.5t-157.5 -45.5z" />
    <glyph glyph-name="scedilla" unicode="&#x15f;" horiz-adv-x="962" 
d="M354 -446q-77 0 -118 27l14 90q26 -21 51 -29t66 -8q132 0 148 99q9 55 -34.5 78.5t-153.5 14.5l101 164q-138 15 -216.5 98.5t-66.5 234.5h81q-3 -141 71 -201t212 -60q122 0 206.5 48.5t98.5 136.5t-43.5 132t-233.5 82q-66 14 -115.5 33t-92 49.5t-60.5 77.5t-9 108
q19 116 126.5 192t254.5 76q166 0 244.5 -88t74.5 -227h-81q-10 125 -69.5 182t-182.5 57q-107 0 -187.5 -50.5t-94.5 -139.5q-13 -83 44.5 -125.5t186.5 -69.5q184 -39 262 -103t59 -184q-18 -114 -124 -185t-257 -77l-53 -89q157 -25 136 -165q-14 -88 -86.5 -133.5
t-158.5 -45.5z" />
    <glyph glyph-name="Scaron" unicode="&#x160;" horiz-adv-x="1138" 
d="M585 -27q-96 0 -176.5 25.5t-141.5 75t-91 130.5t-20 185h81q-9 -108 37 -185.5t130 -114.5t195 -37q161 0 277.5 80.5t136.5 207.5q21 132 -49.5 198t-272.5 126q-111 33 -181 65.5t-119 77.5t-64 104t-2 141q16 101 89.5 183.5t179 127t220.5 44.5q99 0 174 -33
t118 -90t62 -129.5t13 -155.5h-81q3 155 -78.5 242t-222.5 87q-86 0 -168 -29.5t-144.5 -93t-76.5 -149.5q-4 -27 -4.5 -50.5t3 -44t10.5 -38t19.5 -33.5t27 -29t36 -26t44.5 -24t54 -22.5t62 -22t72 -22.5q106 -32 176.5 -66t119.5 -81t65 -109t3 -144
q-25 -158 -171.5 -264.5t-341.5 -106.5zM683 1798h95l70 -140l115 140h92l-188 -221h-65z" />
    <glyph glyph-name="scaron" unicode="&#x161;" horiz-adv-x="962" 
d="M493 -14q-79 0 -143.5 19.5t-114 59t-73.5 105.5t-17 153h81q-3 -141 71 -201t212 -60q122 0 206.5 48.5t98.5 136.5t-43.5 132t-233.5 82q-66 14 -115.5 33t-92 49.5t-60.5 77.5t-9 108q19 116 126.5 192t254.5 76q166 0 244.5 -88t74.5 -227h-81q-10 125 -69.5 182
t-182.5 57q-107 0 -187.5 -50.5t-94.5 -139.5q-13 -83 44.5 -125.5t186.5 -69.5q184 -39 262 -103t59 -184q-18 -119 -131.5 -191t-272.5 -72zM535 1526h92l65 -163l118 163h90l-189 -253h-67z" />
    <glyph glyph-name="uni0162" unicode="&#x162;" horiz-adv-x="1264" 
d="M483 -447q-78 0 -118 27l15 90q25 -21 50 -29t66 -8q132 0 148 99q9 56 -35 79t-156 14l142 199l205 1294h-511l12 76h1102l-12 -76h-511l-207 -1303l-80 -118q156 -27 135 -165q-15 -88 -87 -133.5t-158 -45.5z" />
    <glyph glyph-name="uni0163" unicode="&#x163;" horiz-adv-x="706" 
d="M300 -446q-77 0 -117 27l14 90q25 -21 50 -29t66 -8q133 0 149 99q9 55 -34.5 78.5t-153.5 14.5l117 198q-91 63 -64 227l107 674h-237l11 72h237l62 395h78l-62 -395h243l-11 -72h-243l-107 -674q-16 -98 17 -143.5t116 -45.5h13q15 0 40.5 3.5t27.5 3.5l-12 -75
q-63 -6 -70 -6h-13q-28 0 -58 5l-57 -95q157 -25 136 -165q-14 -88 -86 -133.5t-159 -45.5z" />
    <glyph glyph-name="Tcaron" unicode="&#x164;" horiz-adv-x="1182" 
d="M551 0l209 1318h-511l12 76h1102l-12 -76h-511l-209 -1318h-80zM691 1798h94l71 -140l115 140h92l-188 -221h-66z" />
    <glyph glyph-name="tcaron" unicode="&#x165;" horiz-adv-x="656" 
d="M524 -12q-114 0 -166 66.5t-31 196.5l107 674h-237l11 72h237l62 395h78l-62 -395h243l-11 -72h-243l-107 -674q-16 -98 17 -143.5t116 -45.5h13q15 0 40.5 3.5t27.5 3.5l-12 -75q-63 -6 -70 -6h-13zM656 1190l142 276h81l-5 -33l-140 -243h-78z" />
    <glyph glyph-name="Tbar" unicode="&#x166;" horiz-adv-x="1182" 
d="M551 0l99 628h-281l13 80h281l97 610h-511l12 76h1102l-12 -76h-511l-97 -610h281l-13 -80h-281l-99 -628h-80z" />
    <glyph glyph-name="tbar" unicode="&#x167;" horiz-adv-x="658" 
d="M524 -12q-114 0 -166 66.5t-31 196.5l48 302h-124l11 72h124l48 300h-237l11 72h237l62 395h78l-62 -395h243l-11 -72h-243l-48 -300h129l-11 -72h-129l-48 -302q-16 -98 17 -143.5t116 -45.5h13q15 0 40.5 3.5t27.5 3.5l-12 -75q-63 -6 -70 -6h-13z" />
    <glyph glyph-name="Utilde" unicode="&#x168;" 
d="M233 498l142 896h77l-140 -883q-37 -233 78 -360q88 -99 231 -99q148 1 272 105q156 131 193 364l138 873h78l-139 -875q-41 -260 -218 -410q-141 -120 -314 -128q-167 -9 -280 90q-135 118 -127 341q2 42 9 86zM686 1633q3 54 31 86.5t75 32.5q38 0 113 -27
q65 -22 82 -22q9 0 11.5 3.5t4.5 20.5q1 10 2 17h77q-3 -54 -31.5 -86.5t-76.5 -32.5q-35 0 -113 26q-62 23 -81 23q-8 0 -10 -2.5t-4 -20.5q-2 -11 -3 -18h-77z" />
    <glyph glyph-name="utilde" unicode="&#x169;" horiz-adv-x="1085" 
d="M523 -10q-196 0 -273 103t-45 307l95 597h78l-93 -587q-29 -182 28.5 -264t221.5 -82q169 0 271.5 108t139.5 337l77 488h78l-158 -997h-78l25 155q-121 -165 -367 -165zM564 1371q3 54 31.5 86t76.5 32q35 0 113 -26q59 -22 81 -22q9 0 11 3t5 19q2 11 3 18h76
q-4 -54 -32 -86t-75 -32q-41 0 -113 26q-65 22 -82 22q-7 0 -9 -0.5t-4 -6.5t-3 -16t-2 -17h-77z" />
    <glyph glyph-name="Umacron" unicode="&#x16a;" 
d="M233 498l142 896h77l-140 -883q-37 -233 78 -360q88 -99 231 -99q148 1 272 105q156 131 193 364l138 873h78l-139 -875q-41 -260 -218 -410q-141 -120 -314 -128q-167 -9 -280 90q-135 118 -127 341q2 42 9 86zM721 1647l12 79h311l-12 -79h-311z" />
    <glyph glyph-name="umacron" unicode="&#x16b;" horiz-adv-x="1085" 
d="M523 -10q-196 0 -273 103t-45 307l95 597h78l-93 -587q-29 -182 28.5 -264t221.5 -82q169 0 271.5 108t139.5 337l77 488h78l-158 -997h-78l25 155q-121 -165 -367 -165zM600 1351l13 80h311l-13 -80h-311z" />
    <glyph glyph-name="Ubreve" unicode="&#x16c;" 
d="M233 498l142 896h77l-140 -883q-37 -233 78 -360q88 -99 231 -99q148 1 272 105q156 131 193 364l138 873h78l-139 -875q-41 -260 -218 -410q-141 -120 -314 -128q-167 -9 -280 90q-135 118 -127 341q2 42 9 86zM701 1851h73q-16 -83 13 -126t94 -43q66 0 109 43t52 126
h74q-12 -112 -81 -180.5t-166 -68.5q-98 0 -145 68t-23 181z" />
    <glyph glyph-name="ubreve" unicode="&#x16d;" horiz-adv-x="1085" 
d="M523 -10q-196 0 -273 103t-45 307l95 597h78l-93 -587q-29 -182 28.5 -264t221.5 -82q169 0 271.5 108t139.5 337l77 488h78l-158 -997h-78l25 155q-121 -165 -367 -165zM565 1514h74q-17 -83 12 -126t95 -43q65 0 108 43t53 126h73q-11 -112 -80 -180t-166 -68
q-98 0 -145.5 68t-23.5 180z" />
    <glyph glyph-name="Uring" unicode="&#x16e;" 
d="M233 498l142 896h77l-140 -883q-37 -233 78 -360q88 -99 231 -99q148 1 272 105q156 131 193 364l138 873h78l-139 -875q-41 -260 -218 -410q-141 -120 -314 -128q-167 -9 -280 90q-135 118 -127 341q2 42 9 86zM740 1687q10 62 57.5 100t106.5 38t94.5 -38t25.5 -100
q-9 -62 -57 -100t-107 -38q-58 0 -93.5 38t-26.5 100zM826 1687q-10 -58 47 -58q56 0 66 58q10 59 -47 59q-56 0 -66 -59z" />
    <glyph glyph-name="uring" unicode="&#x16f;" horiz-adv-x="1085" 
d="M523 -10q-196 0 -273 103t-45 307l95 597h78l-93 -587q-29 -182 28.5 -264t221.5 -82q169 0 271.5 108t139.5 337l77 488h78l-158 -997h-78l25 155q-121 -165 -367 -165zM623 1398q10 62 57 101t106 39q58 0 92 -39t24 -101q-9 -63 -56 -101.5t-105 -38.5
q-59 0 -93.5 38.5t-24.5 101.5zM706 1398q-8 -61 48 -61q57 0 65 61q10 60 -46 60q-57 0 -67 -60z" />
    <glyph glyph-name="Uhungarumlaut" unicode="&#x170;" 
d="M233 498l142 896h77l-140 -883q-37 -233 78 -360q88 -99 231 -99q148 1 272 105q156 131 193 364l138 873h78l-139 -875q-41 -260 -218 -410q-141 -120 -314 -128q-167 -9 -280 90q-135 118 -127 341q2 42 9 86zM677 1577l160 221h101l-181 -221h-80zM953 1577l160 221
h101l-181 -221h-80z" />
    <glyph glyph-name="uhungarumlaut" unicode="&#x171;" horiz-adv-x="1085" 
d="M523 -10q-196 0 -273 103t-45 307l95 597h78l-93 -587q-29 -182 28.5 -264t221.5 -82q169 0 271.5 108t139.5 337l77 488h78l-158 -997h-78l25 155q-121 -165 -367 -165zM556 1274l160 222h102l-182 -222h-80zM832 1274l160 222h102l-182 -222h-80z" />
    <glyph glyph-name="Uogonek" unicode="&#x172;" 
d="M524 -434q-60 0 -96 36t-23 118q23 152 169 261q-82 6 -151.5 42t-119 98.5t-69.5 160t-1 216.5l142 896h77l-140 -883q-37 -233 78 -360q88 -99 231 -99q148 1 272 105q156 131 193 364l138 873h78l-139 -875q-31 -199 -141 -331t-258 -182q-113 -44 -187.5 -116.5
t-88.5 -163.5q-7 -45 7 -63.5t50 -18.5q38 0 73.5 20.5t86.5 71.5l-16 -103q-73 -67 -165 -67z" />
    <glyph glyph-name="uogonek" unicode="&#x173;" horiz-adv-x="1085" 
d="M687 -428q-60 0 -96 36t-23 118q17 110 102 204.5t205 134.5l15 90q-121 -165 -367 -165q-196 0 -273 103t-45 307l95 597h78l-93 -587q-29 -182 28.5 -264t221.5 -82q169 0 271.5 108t139.5 337l77 488h78l-158 -997h-48q-96 -31 -163 -105.5t-81 -162.5q-7 -46 7 -64
t50 -18q38 0 73 20t87 71l-16 -103q-74 -66 -165 -66z" />
    <glyph glyph-name="Wcircumflex" unicode="&#x174;" horiz-adv-x="1750" 
d="M418 0l-167 1394h83l149 -1256l565 1188h74l191 -1188l547 1256h81l-609 -1394h-80l-188 1184l-567 -1184h-79zM938 1577l188 221h66l118 -221h-94l-71 139l-115 -139h-92z" />
    <glyph glyph-name="wcircumflex" unicode="&#x175;" horiz-adv-x="1447" 
d="M341 0l-119 997h83l101 -860l440 860h74l167 -858l373 858h81l-433 -997h-78l-167 873l-447 -873h-75zM743 1273l189 253h67l109 -253h-92l-67 163l-116 -163h-90z" />
    <glyph glyph-name="Ycircumflex" unicode="&#x176;" horiz-adv-x="1107" 
d="M515 0l62 415l-336 979h91l298 -888l587 888h91l-654 -979l-61 -415h-78zM618 1577l188 221h65l118 -221h-94l-71 139l-114 -139h-92z" />
    <glyph glyph-name="ycircumflex" unicode="&#x177;" horiz-adv-x="986" 
d="M156 -309q40 -24 79.5 -4t80.5 93l139 243l-247 974h87l215 -877l499 877h85l-712 -1249q-120 -212 -268 -124zM514 1273l190 253h67l109 -253h-92l-67 163l-117 -163h-90z" />
    <glyph glyph-name="Ydieresis" unicode="&#x178;" horiz-adv-x="1107" 
d="M515 0l62 415l-336 979h91l298 -888l587 888h91l-654 -979l-61 -415h-78zM641 1687q4 24 24 41.5t44 17.5t38 -17.5t10 -41.5t-23.5 -41t-43.5 -17t-38.5 17t-10.5 41zM886 1687q4 24 24 41.5t44 17.5t38 -17.5t10 -41.5t-23.5 -41t-43.5 -17t-38.5 17t-10.5 41z" />
    <glyph glyph-name="Zacute" unicode="&#x179;" horiz-adv-x="1057" 
d="M66 0l11 72l1027 1246h-829l12 76h925l-11 -70l-1028 -1248h830l-12 -76h-925zM722 1577l160 221h102l-181 -221h-81z" />
    <glyph glyph-name="zacute" unicode="&#x17a;" horiz-adv-x="923" 
d="M66 0l11 69l830 854h-695l12 74h791l-12 -75l-820 -848h686l-12 -74h-791zM592 1273l178 253h101l-198 -253h-81z" />
    <glyph glyph-name="Zdotaccent" unicode="&#x17b;" horiz-adv-x="1057" 
d="M66 0l11 72l1027 1246h-829l12 76h925l-11 -70l-1028 -1248h830l-12 -76h-925zM738 1687q4 24 24 41.5t44 17.5t38 -17.5t10 -41.5t-23.5 -41t-43.5 -17t-38.5 17t-10.5 41z" />
    <glyph glyph-name="zdotaccent" unicode="&#x17c;" horiz-adv-x="923" 
d="M66 0l11 69l830 854h-695l12 74h791l-12 -75l-820 -848h686l-12 -74h-791zM609 1396q4 24 23.5 41t43.5 17t39 -17t11 -41t-24 -41.5t-44 -17.5t-38.5 17.5t-10.5 41.5z" />
    <glyph glyph-name="Zcaron" unicode="&#x17d;" horiz-adv-x="1057" 
d="M66 0l11 72l1027 1246h-829l12 76h925l-11 -70l-1028 -1248h830l-12 -76h-925zM629 1798h94l71 -140l114 140h93l-189 -221h-65z" />
    <glyph glyph-name="zcaron" unicode="&#x17e;" horiz-adv-x="923" 
d="M66 0l11 69l830 854h-695l12 74h791l-12 -75l-820 -848h686l-12 -74h-791zM506 1526h92l66 -163l118 163h90l-189 -253h-67z" />
    <glyph glyph-name="uni0218" unicode="&#x218;" horiz-adv-x="1167" 
d="M600 -27q-96 0 -176.5 25.5t-141.5 75t-91.5 130.5t-20.5 185h82q-14 -160 88.5 -248.5t273.5 -88.5q161 0 277 80t136 208q21 132 -49.5 198t-272.5 126q-111 33 -181 65.5t-119 77.5t-64 104.5t-2 140.5q16 101 89.5 183.5t179.5 127t221 44.5q98 0 173 -33t118.5 -90
t62.5 -129.5t12 -155.5h-81q3 155 -78 242t-222 87q-87 0 -168.5 -29.5t-144 -93t-76.5 -149.5q-4 -27 -4.5 -50.5t3 -44t10.5 -38t19.5 -33.5t27 -29t36 -26t44.5 -24t54 -22.5t62 -22t72 -22.5q214 -64 302 -152.5t62 -247.5q-25 -158 -171.5 -264.5t-341.5 -106.5z
M403 -385l141 276h82l-5 -33l-141 -243h-77z" />
    <glyph glyph-name="uni0219" unicode="&#x219;" horiz-adv-x="984" 
d="M508 -14q-164 0 -262.5 84t-84.5 253h81q-3 -141 70.5 -201t211.5 -60q122 0 206.5 48t98.5 137q14 88 -43.5 132t-233.5 82q-66 14 -115 33t-91.5 49.5t-60.5 77.5t-9 108q19 116 126.5 192t254.5 76q85 0 148.5 -24.5t100.5 -68.5t54 -100t15 -122h-80q-11 125 -70 182
t-182 57q-108 0 -188.5 -50.5t-94.5 -139.5q-13 -83 44.5 -125.5t187.5 -69.5q184 -39 262 -103t59 -184q-18 -119 -132 -191t-273 -72zM314 -385l141 276h82l-5 -33l-141 -243h-77z" />
    <glyph glyph-name="uni021A" unicode="&#x21a;" horiz-adv-x="1264" 
d="M591 0l209 1318h-511l12 76h1102l-12 -76h-511l-209 -1318h-80zM435 -385l141 276h82l-5 -33l-141 -243h-77z" />
    <glyph glyph-name="uni021B" unicode="&#x21b;" horiz-adv-x="706" 
d="M524 -12q-114 0 -166 66.5t-31 196.5l107 674h-237l11 72h237l62 395h78l-62 -395h243l-11 -72h-243l-107 -674q-16 -98 17 -143.5t116 -45.5h13q15 0 40.5 3.5t27.5 3.5l-12 -75q-63 -6 -70 -6h-13zM237 -385l141 276h82l-5 -33l-140 -243h-78z" />
    <glyph glyph-name="uni0237" unicode="&#x237;" horiz-adv-x="488" 
d="M-31 -406q-99 0 -158 45l40 63q58 -34 127 -34h14q82 0 129.5 45t63.5 143l181 1141h78l-181 -1141q-21 -130 -94 -196t-186 -66h-14z" />
    <glyph glyph-name="circumflex" unicode="&#x2c6;" horiz-adv-x="658" 
d="M394 1565l190 253h67l109 -253h-92l-66 163l-118 -163h-90z" />
    <glyph glyph-name="caron" unicode="&#x2c7;" horiz-adv-x="658" 
d="M544 1565l-110 253h92l66 -163l118 163h90l-189 -253h-67z" />
    <glyph glyph-name="breve" unicode="&#x2d8;" horiz-adv-x="752" 
d="M623 1557q-98 0 -145 68t-23 181h73q-16 -83 13 -126t94 -43q66 0 109 43t52 126h74q-12 -112 -81 -180.5t-166 -68.5z" />
    <glyph glyph-name="dotaccent" unicode="&#x2d9;" horiz-adv-x="893" 
d="M704 1629q-24 0 -38.5 17t-10.5 41t24 41.5t44 17.5t38.5 -17.5t10.5 -41.5t-24 -41t-44 -17z" />
    <glyph glyph-name="ring" unicode="&#x2da;" horiz-adv-x="832" 
d="M661 1549q-59 0 -93 39t-24 101q9 63 56 101.5t106 38.5t93.5 -38.5t24.5 -101.5q-10 -62 -57 -101t-106 -39zM628 1689q-10 -60 46 -60q57 0 67 60q8 61 -48 61q-57 0 -65 -61z" />
    <glyph glyph-name="ogonek" unicode="&#x2db;" horiz-adv-x="919" 
d="M251 -434q-60 0 -96 36t-23 118q18 117 111.5 215t223.5 132l47 -58q-126 -32 -205 -109.5t-94 -173.5q-7 -46 7 -64t50 -18q38 0 73 20t87 71l-16 -103q-74 -66 -165 -66z" />
    <glyph glyph-name="tilde" unicode="&#x2dc;" horiz-adv-x="665" 
d="M696 1654q-38 0 -113 27q-65 22 -82 22q-9 0 -10.5 -3t-4.5 -20q-2 -11 -3 -18h-77q3 54 31.5 86.5t75.5 32.5q39 0 113 -27q65 -22 82 -22q8 0 10 3t5 20q2 11 3 18h77q-3 -54 -31.5 -86.5t-75.5 -32.5z" />
    <glyph glyph-name="hungarumlaut" unicode="&#x2dd;" horiz-adv-x="815" 
d="M742 1565l160 222h102l-181 -222h-81zM466 1565l160 222h102l-181 -222h-81z" />
    <glyph glyph-name="uni0326" unicode="&#x326;" horiz-adv-x="0" 
d="M167 -336l140 276h82l-5 -33l-140 -243h-77z" />
    <glyph glyph-name="Wgrave" unicode="&#x1e80;" horiz-adv-x="1750" 
d="M418 0l-167 1394h83l149 -1256l565 1188h74l191 -1188l547 1256h81l-609 -1394h-80l-188 1184l-567 -1184h-79zM986 1798h102l90 -221h-81z" />
    <glyph glyph-name="wgrave" unicode="&#x1e81;" horiz-adv-x="1447" 
d="M341 0l-119 997h83l101 -860l440 860h74l167 -858l373 858h81l-433 -997h-78l-167 873l-447 -873h-75zM785 1526h102l97 -253h-80z" />
    <glyph glyph-name="Wacute" unicode="&#x1e82;" horiz-adv-x="1750" 
d="M418 0l-167 1394h83l149 -1256l565 1188h74l191 -1188l547 1256h81l-609 -1394h-80l-188 1184l-567 -1184h-79zM1052 1577l160 221h102l-181 -221h-81z" />
    <glyph glyph-name="wacute" unicode="&#x1e83;" horiz-adv-x="1447" 
d="M341 0l-119 997h83l101 -860l440 860h74l167 -858l373 858h81l-433 -997h-78l-167 873l-447 -873h-75zM868 1273l178 253h101l-198 -253h-81z" />
    <glyph glyph-name="Wdieresis" unicode="&#x1e84;" horiz-adv-x="1750" 
d="M418 0l-167 1394h83l149 -1256l565 1188h74l191 -1188l547 1256h81l-609 -1394h-80l-188 1184l-567 -1184h-79zM964 1687q4 24 24 41.5t44 17.5t38.5 -17.5t10.5 -41.5t-24 -41t-44 -17t-38.5 17t-10.5 41zM1209 1687q4 24 24 41.5t44 17.5t38.5 -17.5t10.5 -41.5
t-24 -41t-44 -17t-38.5 17t-10.5 41z" />
    <glyph glyph-name="wdieresis" unicode="&#x1e85;" horiz-adv-x="1447" 
d="M341 0l-119 997h83l101 -860l440 860h74l167 -858l373 858h81l-433 -997h-78l-167 873l-447 -873h-75zM765 1398q4 24 24 41t44 17t38 -17t10 -41t-23.5 -41.5t-43.5 -17.5t-38.5 17.5t-10.5 41.5zM1010 1398q4 24 24 41t44 17t38 -17t10 -41t-23.5 -41.5t-43.5 -17.5
t-38.5 17.5t-10.5 41.5z" />
    <glyph glyph-name="uni1E9E" unicode="&#x1e9e;" horiz-adv-x="1250" 
d="M717 -8q-123 0 -226 23l14 85q112 -28 224 -28q131 0 212 51t97 147q10 62 -14.5 116t-105.5 142q-74 80 -95 132.5t-10 122.5q12 71 49 123.5t137 132.5q109 89 150.5 142.5t50.5 115.5q16 96 -49 147t-196 51h-413l-237 -1495h-81l249 1575h497q168 0 252 -75.5
t62 -208.5q-12 -82 -72 -157.5t-176 -164.5q-72 -55 -100.5 -95t-36.5 -91t8.5 -91t70.5 -94q87 -89 122.5 -164.5t23.5 -157.5q-22 -134 -129.5 -209t-277.5 -75z" />
    <glyph glyph-name="Ygrave" unicode="&#x1ef2;" horiz-adv-x="1107" 
d="M515 0l62 415l-336 979h91l298 -888l587 888h91l-654 -979l-61 -415h-78zM661 1798h102l90 -221h-80z" />
    <glyph glyph-name="ygrave" unicode="&#x1ef3;" horiz-adv-x="986" 
d="M156 -309q40 -24 79.5 -4t80.5 93l139 243l-247 974h87l215 -877l499 877h85l-712 -1249q-120 -212 -268 -124zM557 1526h101l98 -253h-80z" />
    <glyph glyph-name="endash" unicode="&#x2013;" horiz-adv-x="1039" 
d="M236 544l13 80h739l-13 -80h-739z" />
    <glyph glyph-name="emdash" unicode="&#x2014;" horiz-adv-x="1870" 
d="M166 544l13 80h1710l-13 -80h-1710z" />
    <glyph glyph-name="quoteleft" unicode="&#x2018;" horiz-adv-x="441" 
d="M262 955l-2 30l227 483h79l-229 -513h-75z" />
    <glyph glyph-name="quoteright" unicode="&#x2019;" horiz-adv-x="440" 
d="M259 955l229 513h75l1 -30l-226 -483h-79z" />
    <glyph glyph-name="quotesinglbase" unicode="&#x201a;" horiz-adv-x="407" 
d="M68 -226l152 312h75l1 -31l-151 -281h-77z" />
    <glyph glyph-name="quotedblleft" unicode="&#x201c;" horiz-adv-x="616" 
d="M436 955l-1 30l227 483h79l-229 -513h-76zM260 985l227 483h79l-229 -513h-75z" />
    <glyph glyph-name="quotedblright" unicode="&#x201d;" horiz-adv-x="615" 
d="M434 955l229 513h75l1 -30l-226 -483h-79zM259 955l229 513h75l1 -30l-226 -483h-79z" />
    <glyph glyph-name="quotedblbase" unicode="&#x201e;" horiz-adv-x="543" 
d="M204 -226l152 312h75l1 -31l-151 -281h-77zM68 -226l152 312h75l1 -31l-151 -281h-77z" />
    <glyph glyph-name="dagger" unicode="&#x2020;" horiz-adv-x="1073" 
d="M447 -311l171 1096l-364 -2l13 84l364 -2l80 515h89l-84 -515l364 2l-13 -84l-364 2l-171 -1096h-85z" />
    <glyph glyph-name="daggerdbl" unicode="&#x2021;" horiz-adv-x="1073" 
d="M447 -311l79 511l-365 -2l14 84l363 -2l80 505l-364 -2l13 84l364 -2l80 515h89l-84 -515l364 2l-13 -84l-364 2l-80 -505l365 2l-14 -84l-363 2l-79 -511h-85z" />
    <glyph glyph-name="bullet" unicode="&#x2022;" horiz-adv-x="533" 
d="M346 505q-46 0 -71.5 30.5t-17.5 76.5t42.5 76.5t80.5 30.5t72 -30.5t18 -76.5t-43 -76.5t-81 -30.5z" />
    <glyph glyph-name="ellipsis" unicode="&#x2026;" horiz-adv-x="745" 
d="M563 -27q-24 0 -39 17t-11 41t24 41t44 17t38.5 -17t10.5 -41t-23.5 -41t-43.5 -17zM125 31q4 24 23.5 41t43.5 17t38.5 -17t10.5 -41t-23.5 -41t-43.5 -17t-38.5 17t-10.5 41zM319 31q4 24 23.5 41t43.5 17t39 -17t11 -41t-24 -41t-44 -17t-38.5 17t-10.5 41z" />
    <glyph glyph-name="perthousand" unicode="&#x2030;" horiz-adv-x="1878" 
d="M145 0l1113 1380h97l-1113 -1380h-97zM251 1079q22 142 109.5 235t210.5 93t180.5 -93t35.5 -235q-23 -140 -110.5 -234.5t-209.5 -94.5t-180 94.5t-36 234.5zM336 1079q-18 -115 18 -182t125 -67t147 67t76 182q18 117 -18 183t-126 66q-89 0 -146.5 -66.5t-75.5 -182.5
zM713 301q22 142 109.5 235.5t210.5 93.5t180.5 -93.5t35.5 -235.5q-23 -140 -110 -234t-210 -94q-122 0 -180.5 94.5t-35.5 233.5zM798 301q-18 -115 18 -182t125 -67t147 67t76 182q18 117 -18 183t-126 66q-89 0 -146.5 -66.5t-75.5 -182.5zM1310 301q22 142 109.5 235.5
t210.5 93.5t180.5 -93.5t35.5 -235.5q-23 -139 -110.5 -233.5t-209.5 -94.5t-180.5 94.5t-35.5 233.5zM1395 301q-18 -115 18 -182t125 -67t147 67t76 182q18 116 -18.5 182.5t-125.5 66.5t-146.5 -66.5t-75.5 -182.5z" />
    <glyph glyph-name="guilsinglleft" unicode="&#x2039;" horiz-adv-x="559" 
d="M387 159l-227 343l336 342h107l-336 -342l227 -343h-107z" />
    <glyph glyph-name="guilsinglright" unicode="&#x203a;" horiz-adv-x="559" 
d="M115 159l337 343l-228 342h106l229 -342l-338 -343h-106z" />
    <glyph glyph-name="fraction" unicode="&#x2044;" horiz-adv-x="103" 
d="M-290 -64l745 1492l82 13l-745 -1492z" />
    <glyph glyph-name="Euro" unicode="&#x20ac;" horiz-adv-x="1149" 
d="M695 -27q-231 0 -342.5 141.5t-90.5 429.5h-183l51 80h140q2 20 8 60q3 17 15 74h-132l51 80h99q77 278 242 423.5t377 145.5q116 0 189.5 -31t132.5 -104l-65 -60q-52 65 -112.5 90.5t-161.5 25.5q-79 0 -153 -26.5t-143.5 -82.5t-127 -153.5t-92.5 -227.5h730l-55 -80
h-695q-8 -40 -11 -66q-8 -49 -10 -68h654l-47 -80h-615q-15 -255 77 -373.5t292 -118.5q162 0 306 96l-15 -95q-144 -80 -313 -80z" />
    <glyph glyph-name="trademark" unicode="&#x2122;" horiz-adv-x="1033" 
d="M611 886l69 434h93l74 -323l176 323h89l-69 -434h-78l47 273l-147 -269h-73l-61 267l-42 -271h-78zM247 1246l12 76h408l-12 -76h-163l-57 -360h-82l57 360h-163z" />
    <glyph glyph-name="partialdiff" unicode="&#x2202;" horiz-adv-x="1076" 
d="M506 -27q-178 0 -269.5 125.5t-59.5 323.5q37 231 185 368t344 137q97 0 170 -39.5t116 -106.5q19 138 12.5 257t-33.5 206.5t-89 138t-154 50.5q-82 0 -148 -24t-140 -82l-40 61q85 67 167 95.5t178 28.5q452 0 313 -865q-24 -156 -69 -278t-112 -211.5t-161 -137
t-210 -47.5zM262 426q-27 -174 44.5 -274t211.5 -100q177 0 288 137.5t165 446.5q-32 108 -107 160t-169 52q-169 0 -286 -116t-147 -306z" />
    <glyph glyph-name="emptyset" unicode="&#x2205;" horiz-adv-x="1734" 
d="M862 -29q-138 0 -257 49.5t-204 140.5l-187 -161l-48 56l190 164q-148 208 -104 490q25 155 105 292.5t194 235t256.5 154t288.5 56.5q138 0 257.5 -50t204.5 -140l187 161l48 -56l-190 -164q71 -98 98.5 -223.5t4.5 -265.5q-24 -155 -104.5 -293t-194 -235t-256.5 -154
t-289 -57zM338 710q-38 -250 86 -431l1066 920q-156 170 -406 170q-174 0 -334.5 -85t-271.5 -237t-140 -337zM469 220q155 -169 406 -169q174 0 334.5 85t271.5 236.5t140 337.5q40 249 -86 430z" />
    <glyph glyph-name="product" unicode="&#x220f;" horiz-adv-x="1082" 
d="M165 -214l240 1515h-109l13 79h902l-13 -79h-108l-240 -1515h-82l240 1515h-521l-240 -1515h-82z" />
    <glyph glyph-name="summation" unicode="&#x2211;" horiz-adv-x="1078" 
d="M16 -214l10 65l675 754l-385 711l11 64h881l-13 -79h-772l377 -699l-659 -736h838l-13 -80h-950z" />
    <glyph glyph-name="minus" unicode="&#x2212;" horiz-adv-x="1009" 
d="M191 597l12 80h817l-12 -80h-817z" />
    <glyph glyph-name="radical" unicode="&#x221a;" horiz-adv-x="1093" 
d="M449 -311l-119 873h-133l13 80h193l109 -824l676 1737h85l-730 -1866h-94z" />
    <glyph glyph-name="infinity" unicode="&#x221e;" horiz-adv-x="2035" 
d="M557 -27q-210 0 -316 155t-67 405q40 251 195.5 407t365.5 156q165 0 266 -96t131 -283q80 183 215.5 281t301.5 98q210 0 315 -156t65 -407q-39 -250 -194 -405t-364 -155q-166 0 -267.5 96.5t-130.5 285.5q-83 -188 -216 -285t-300 -97zM260 533q-17 -125 -1 -215.5
t62.5 -149.5t109 -87.5t138.5 -28.5q72 0 141 25t136 78t122.5 150.5t87.5 228.5q3 133 -23 229.5t-74.5 150.5t-107 78.5t-129.5 24.5q-76 0 -148 -29.5t-136 -86.5t-111.5 -152t-66.5 -216zM1150 535q-3 -107 13.5 -190.5t47 -138t74.5 -89.5t92.5 -50t105.5 -15
q75 0 147.5 29t136.5 86t111 151.5t66 214.5q18 125 2 216.5t-63 151t-109.5 88t-137.5 28.5q-57 0 -112 -14.5t-112.5 -50.5t-105.5 -89.5t-89.5 -137.5t-66.5 -190z" />
    <glyph glyph-name="integral" unicode="&#x222b;" horiz-adv-x="589" 
d="M165 -311q-92 0 -132 75l63 58q28 -53 83 -53q108 0 148 256q23 143 19 563q-1 264 3 380.5t20 215.5q14 88 41 153t61.5 100t69.5 51.5t72 16.5q42 0 78 -19.5t54 -56.5l-63 -57q-28 53 -83 53q-106 0 -147 -257q-23 -147 -20 -562q2 -252 -2 -373.5t-20 -222.5
q-27 -169 -95.5 -245t-149.5 -76z" />
    <glyph glyph-name="approxequal" unicode="&#x2248;" horiz-adv-x="1149" 
d="M885 680q-50 0 -91.5 16t-117.5 59q-68 38 -99.5 49.5t-73.5 11.5q-66 0 -107.5 -26.5t-101.5 -102.5l-52 47q111 162 274 162q51 0 93.5 -16t115.5 -58q69 -39 100 -50.5t72 -11.5q66 0 107.5 26.5t103.5 103.5l51 -47q-112 -163 -274 -163zM187 384q109 162 273 162
q51 0 94 -16t116 -58q68 -38 99.5 -50t72.5 -12q66 0 107.5 26.5t103.5 103.5l50 -47q-110 -163 -274 -163q-50 0 -91.5 16t-117.5 59q-68 39 -99 50.5t-73 11.5q-66 0 -107.5 -26.5t-102.5 -103.5z" />
    <glyph glyph-name="notequal" unicode="&#x2260;" horiz-adv-x="1087" 
d="M273 200l165 222h-255l13 80h302l200 270h-460l13 79h506l165 224h92l-166 -224h258l-13 -79h-304l-200 -270h462l-13 -80h-508l-165 -222h-92z" />
    <glyph glyph-name="lessequal" unicode="&#x2264;" horiz-adv-x="1009" 
d="M939 165l-760 357l10 64l873 357l-14 -89l-741 -300l646 -300zM96 0l13 80h817l-13 -80h-817z" />
    <glyph glyph-name="greaterequal" unicode="&#x2265;" horiz-adv-x="1009" 
d="M122 165l14 89l742 300l-647 300l14 89l761 -357l-10 -64zM96 0l13 80h817l-13 -80h-817z" />
    <glyph glyph-name="lozenge" unicode="&#x25ca;" horiz-adv-x="916" 
d="M424 0l-225 690l444 690h68l224 -690l-443 -690h-68zM289 690l187 -579l369 579l-186 577z" />
    <glyph glyph-name="uniF8FF" unicode="&#xf8ff;" horiz-adv-x="1602" 
d="M788 253q-151 0 -279.5 75.5t-203 204.5t-74.5 280q0 152 75 280.5t203.5 203t280.5 74.5q151 0 279.5 -75t203.5 -203.5t75 -279.5q0 -152 -74.5 -281t-203.5 -204t-282 -75zM230 29v146h59q26 0 44 -9q37 -17 37 -64q0 -23 -10 -39q-21 -34 -71 -34h-59zM265 56h22
q18 0 26 4q22 10 22 42q0 18 -5 27q-12 20 -43 20h-22v-93zM298 814q0 -205 144 -350t348 -145q203 0 347.5 144.5t144.5 347.5q0 100 -39 191.5t-104.5 157.5t-156 105t-190.5 40q-134 0 -248 -65.5t-180 -178.5t-66 -247zM382 84q0 16 8 29q16 27 52 27q26 0 42 -14
q18 -15 18 -42v-8h-85q0 -8 3 -13q7 -13 25 -13q7 0 10 1q9 3 14 12l31 -3q-2 -10 -10 -17q-14 -16 -45 -16q-17 0 -33 7q-30 14 -30 50zM417 95h52l-3 10q-6 12 -23 12q-10 0 -14 -3q-10 -6 -12 -19zM472 912q10 -2 12 -4q52 -21 98 -27q41 -3 72 2q43 11 47 12
q3 0 8.5 2.5t7.5 3.5q-5 2 -16.5 8t-17 9t-13 8.5t-13.5 12.5h19q39 0 75 19q65 40 136 61q24 8 58 11q4 0 19.5 1t23.5 0q54 -2 89 -33q10 -11 28 -33v-2l-6 2q-45 17 -83 3.5t-62 -53.5q-7 -13 -25 -55q-9 -21 -27 -63.5t-20 -48.5q-33 -64 -65 -101q-27 -33 -66 -58
q-45 -34 -116 -55h-5l24 22q12 11 25 44q41 116 45 127q24 73 57 131v3q-2 -4 -11 -13q-8 -10 -10 -12q-23 -36 -31 -57q-2 -6 -8 -6q-99 3 -177 67q-40 38 -59 55q-1 1 -5 7t-8 10zM511 61l33 2q5 -14 23 -14q20 0 20 11q0 8 -16 11l-21 4q-36 6 -36 31q0 10 6 18
q13 16 46 16q48 0 53 -32l-31 -3q-4 14 -21 14q-19 0 -19 -11q0 -8 16 -12l22 -3q36 -6 36 -30q0 -9 -7 -18q-13 -18 -48 -18q-51 0 -56 34zM635 168q0 15 19 15q18 0 18 -15t-18 -15q-19 0 -19 15zM637 29v109h34v-109h-34zM686 84q0 20 7 31q13 25 43 25q10 0 18 -3
q12 -5 18 -17h1v18h35v-110q0 -14 -9 -23q-15 -19 -52 -19q-50 0 -57 31l31 3l2 -2q2 -3 4 -4q5 -6 21 -6q25 0 25 21v19h-1q-2 -3 -7 -8q-11 -9 -29 -9q-13 0 -25 5q-25 13 -25 48zM721 84q0 -10 3 -16q6 -14 24 -14q25 0 25 30q0 10 -3 17q-6 15 -22 15q-7 0 -15 -4
q-12 -7 -12 -28zM828 29v109h34v-19q10 21 37 21q13 0 23 -5q20 -10 20 -36v-70h-35v64q0 22 -21 22q-7 0 -13 -3q-11 -6 -11 -19v-64h-34zM957 84q0 15 7 29q16 27 54 27q20 0 33 -7q28 -16 28 -49q0 -17 -7 -30q-16 -27 -54 -27q-16 0 -33 7q-28 16 -28 50zM992 84
q0 -9 3 -18q7 -15 23 -15q10 0 15 4q12 9 12 29q0 2 -3 17q-8 16 -24 16q-7 0 -14 -5q-12 -7 -12 -28zM1081 138h36l26 -78h1l26 78h36l-43 -109h-39zM1207 60q0 17 15 25q13 8 32 8l17 3q13 0 13 7v1q0 14 -19 14q-17 0 -22 -13l-32 3q3 10 10 17q15 15 45 15q20 0 37 -9
q15 -8 15 -28v-74h-33v16q-5 -7 -9 -9q-9 -9 -27 -9q-13 0 -21 4q-21 8 -21 29zM1240 60q0 -12 18 -12q8 0 14 3q12 5 12 18v11q-4 -2 -23 -5q-7 0 -12 -3q-9 -3 -9 -12zM1297 177q0 16 11 26.5t27 10.5t26.5 -10.5t10.5 -26.5t-10.5 -27t-26.5 -11t-27 11t-11 27zM1309 177
q0 -11 7.5 -19t18.5 -8t18.5 8t7.5 19t-7.5 18.5t-18.5 7.5t-18.5 -7.5t-7.5 -18.5zM1322 160v35h14q12 0 12 -11q0 -5 -5 -10l8 -14h-10l-6 11h-5v-11h-8zM1330 180h6q5 0 5 3t-5 3h-6v-6z" />
    <glyph glyph-name="_Designova" horiz-adv-x="1752" 
d="M874 41q-174 0 -322.5 87t-235 235.5t-86.5 323.5q1 131 52 250.5t137.5 205.5t206 137t250.5 51q175 0 323.5 -86t235.5 -234.5t87 -323.5q0 -176 -87 -324.5t-236 -235t-325 -86.5zM308 687q0 -116 45 -221.5t120.5 -181.5t181 -121t221.5 -45q154 0 285 76t207 207
t76 285q0 116 -45 221.5t-120.5 181.5t-180.5 121t-221 45t-221 -45t-181.5 -120.5t-121.5 -181t-45 -221.5zM510 800q7 0 13 -4q58 -22 115 -31q45 -5 81 3q29 4 53 14q5 0 11.5 3t8.5 4q-5 3 -22.5 11.5t-27.5 15.5t-19 17h21q39 0 86 20q85 53 158 73q37 10 66 10
q6 0 24.5 1.5t26.5 0.5q67 -4 102 -39q6 -5 33 -37v-2q-3 2 -7 2q-53 20 -95.5 4.5t-71.5 -59.5q-5 -9 -10 -20.5t-11 -25t-9 -21.5q-6 -14 -25 -59t-30 -68q-36 -74 -74 -119q-20 -27 -74 -66q-52 -38 -136 -63h-7l28 24q18 17 30 51q7 20 25 71t27 78q31 90 65 150v1
q-3 -3 -11 -13q-9 -7 -11 -16q-23 -27 -38 -65q-3 -5 -9 -5q-117 5 -204 78q-10 10 -32.5 31t-33.5 32q-12 14 -16 18z" />
    <glyph glyph-name="_Origin" horiz-adv-x="2255" 
d="M150 1055v50h1955v-50h-1955zM150 236v50h1955v-50h-1955zM228 437v177h42v-177h-42zM260 734v177h148v-32h-107v-39h97v-31h-97v-42h107v-33h-148zM298 437v177h34l89 -107v107h40v-177h-33l-88 109v-109h-42zM438 734v177h34l88 -107v107h40v-177h-33l-88 109v-109h-41
zM554 437v177h87q72 0 72 -45q0 -28 -26 -40q3 0 3 -2q28 -12 28 -42q0 -48 -71 -48h-93zM596 468h48q32 0 32 22t-32 22h-48v-44zM596 545h42q33 0 33 20q0 22 -33 22h-42v-42zM629 879v32h156v-32h-57v-145h-41v145h-58zM738 437v177h148v-33h-107v-38h96v-31h-96v-41h105
v-34h-146zM803 911h44l40 -124l42 124h38l40 -126l42 126h39l-57 -177h-45l-39 121l-41 -121h-43zM914 437v177h81q28 0 42 -6q36 -19 36 -57q0 -21 -10 -35q-15 -18 -29 -23l37 -56h-43l-35 50h-37v-50h-42zM956 520h37q38 0 38 31q0 30 -38 30h-37v-61zM1093 437v177h40
v-143h106v-34h-146zM1096 823q0 39 28 65q26 26 69 26t69 -26q28 -25 28 -65q0 -39 -28 -65q-26 -27 -68 -27q-44 0 -70 27q-28 28 -28 65zM1138 823q0 -25 15.5 -40.5t39.5 -15.5t39.5 15.5t15.5 40.5t-15.5 41.5t-39.5 16.5t-39.5 -16.5t-15.5 -41.5zM1268 437v177h41
v-177h-41zM1313 734v177h81q28 0 41 -6q36 -17 36 -57q0 -21 -10 -35q-9 -15 -29 -23l39 -56h-45l-33 50h-39v-50h-41zM1338 437v177h35l87 -107v107h42v-177h-34l-89 109v-109h-41zM1354 817h37q38 0 38 31t-38 31h-37v-62zM1491 734v177h148v-32h-107v-39h96v-31h-96v-75
h-41zM1528 461q0 24 25 24q10 0 17 -7t7 -17q0 -11 -7 -25l-14 -38h-26l12 41q-14 5 -14 22zM1655 734v177h147v-32h-106v-39h95v-31h-95v-42h106v-33h-147zM1678 437v177h80q30 0 52 -11q46 -21 46 -77q0 -28 -12 -47q-23 -42 -86 -42h-80zM1720 471h37q17 0 31 7
q26 14 26 48q0 21 -6 29q-14 26 -51 26h-37v-110zM1832 734v177h33l90 -107v107h40v-177h-34l-89 109v-109h-40zM1880 437v177h147v-33h-107v-38h97v-31h-97v-41h106v-34h-146z" />
    <glyph glyph-name="_VendorID" horiz-adv-x="1176" 
d="M103 154v1187h974v-1187h-974zM106 63q0 13 7.5 20.5t18.5 7.5q9 0 12 -3l4 -5v26h13v-72h-13v9l-4 -7q-8 -5 -15 -5q-23 0 -23 29zM120 63q0 -17 13 -17q15 0 15 17v1q0 18 -13 18q-15 0 -15 -19zM156 205h869v1084h-869v-1084zM171 63q0 13 7.5 20.5t19.5 7.5
q11 0 18.5 -7.5t7.5 -19.5q0 -2 -2 -5h-37q1 -13 13 -13q10 0 12 9h12q-4 -21 -24 -21q-27 0 -27 29zM185 67h25q-3 15 -12 15q-12 0 -13 -15zM228 52h14q3 -9 9 -9q9 0 9 7q0 3 -12 9q-18 5 -18 16q0 16 21 16t21 -16h-14q-1 7 -7 7q-7 0 -7 -6q0 -4 12 -9q17 -5 17 -15
q0 -18 -22 -18q-20 0 -23 18zM270 455q0 59 46 125l97 137h64l-84 -120q11 3 23 3q62 0 102.5 -41.5t40.5 -103.5q0 -61 -41.5 -103.5t-101.5 -42.5q-61 0 -103.5 42.5t-42.5 103.5zM270 926q0 56 46 123l97 142h64l-84 -122q7 2 23 2q63 0 103 -41t40 -104
q0 -61 -41 -102.5t-102 -41.5t-103.5 42t-42.5 102zM281 102q0 7 8 7t8 -7q0 -8 -8 -8t-8 8zM282 37v54h14v-54h-14zM306 63q0 28 26 28q9 0 12 -3l4 -5v8h14v-41q0 -8 -2 -11q0 -24 -27 -24q-26 0 -26 18v1h14v-1q0 -8 12 -8q11 0 15 13v8l-4 -7q-8 -2 -14 -2q-24 0 -24 26
zM321 64q0 -18 12 -18q15 0 15 17v1q0 18 -15 18q-12 0 -12 -18zM324 455q0 -42 25.5 -68t66.5 -26q39 0 64.5 26t25.5 68q0 40 -25.5 65t-64.5 25q-41 0 -66.5 -25t-25.5 -65zM324 926q0 -41 25.5 -67t66.5 -26q39 0 64.5 26.5t25.5 66.5t-25.5 66t-64.5 26
q-41 0 -66.5 -25t-25.5 -67zM373 37v54h14v-10l4 7q5 3 13 3q17 0 20 -15q1 -3 1 -9v-30h-15v34q0 11 -10 11q-13 0 -13 -21v-24h-14zM432 63q0 13 7.5 20.5t19.5 7.5q28 0 28 -28q0 -29 -28 -29q-12 0 -19.5 8t-7.5 21zM446 63q0 -17 13 -17q15 0 15 17q0 19 -15 19
q-13 0 -13 -19zM492 91h14l14 -45l13 45h14l-19 -54h-18zM552 52q0 16 30 16h3v7q0 7 -9 7q-11 0 -11 -9h-13q0 18 24 18q19 0 21 -15v-39h-12v6l-3 -5q-8 -4 -14 -4q-16 0 -16 18zM565 52q0 -6 8 -6q12 0 12 9v6q-20 2 -20 -9zM606 80v9h6v8q0 15 19 15h6v-11q-11 2 -11 -5
v-7h11v-9h-11v-43h-14v43h-6zM619 455q0 62 44 125l97 137h66l-86 -120q11 3 25 3q61 0 102 -41.5t41 -103.5q0 -61 -41.5 -103.5t-101.5 -42.5q-61 0 -103.5 42.5t-42.5 103.5zM619 926q0 57 44 123l97 142h66l-87 -122q8 2 26 2q61 0 102 -41.5t41 -103.5
q0 -61 -41.5 -102.5t-101.5 -41.5q-61 0 -103.5 41.5t-42.5 102.5zM641 63q0 28 28 28q27 0 27 -28q0 -29 -27 -29q-28 0 -28 29zM655 63q0 -17 14 -17q13 0 13 17q0 19 -13 19q-14 0 -14 -19zM672 455q0 -42 26 -68t67 -26q38 0 62.5 26t24.5 68q0 40 -24.5 65t-62.5 25
q-41 0 -67 -25t-26 -65zM672 926q0 -41 26 -67t67 -26q38 0 62.5 26t24.5 67q0 40 -24.5 66t-62.5 26q-41 0 -67 -25.5t-26 -66.5zM705 37v54h12v-10l6 7q4 3 13 3q16 0 19 -15v-39h-14v34q-4 11 -9 11q-15 0 -15 -21v-24h-12zM762 80v9h8v13h14v-13h10v-9h-10v-28
q2 -10 9 -6v-10h-8q-15 0 -15 10v34h-8zM798 52h15q1 -9 10 -9q8 0 8 7q0 3 -12 9q-17 5 -17 16q0 16 20 16q19 0 24 -16h-16q0 7 -9 7q-5 0 -5 -6q0 -5 11 -9q19 -6 19 -15q0 -18 -23 -18q-21 0 -25 18zM850 42q0 10 9 10t9 -10q0 -8 -9 -8t-9 8zM874 63q0 13 8 20.5
t18 7.5q25 0 25 -20h-13q-3 11 -12 11q-12 0 -12 -19q0 -17 12 -17q10 0 12 9h13q-1 -21 -25 -21q-26 0 -26 29zM930 63q0 28 29 28q26 0 26 -28q0 -29 -26 -29q-29 0 -29 29zM944 63q0 -17 15 -17q13 0 13 17q0 19 -13 19q-15 0 -15 -19zM995 37v54h14v-9l5 6q3 3 9 3
q13 0 18 -10l5 7q3 3 11 3q17 0 17 -12q1 -4 1 -12v-30h-13v27q0 2 -0.5 5t-0.5 4q0 9 -10 9q-9 0 -9 -18v-27h-13v36q-5 9 -10 9q-10 0 -10 -18v-27h-14z" />
    </font>
</defs>
</svg>
