<?xml version="1.0" standalone="no"?>
<!DOCTYPE svg PUBLIC "-//W3C//DTD SVG 1.1//EN" "http://www.w3.org/Graphics/SVG/1.1/DTD/svg11.dtd" >
<svg xmlns="http://www.w3.org/2000/svg" xmlns:xlink="http://www.w3.org/1999/xlink" version="1.1">
<metadata>
Created by FontForge 20201107 at Tue Feb 27 18:48:41 2024
 By 
Copyright (c) 2024 by Designova. All rights reserved.
</metadata>
<defs>
<font id="RovelleUno-ExtraLight" horiz-adv-x="1235" >
  <font-face 
    font-family="Rovelle Uno ExtraLight"
    font-weight="200"
    font-stretch="normal"
    units-per-em="2048"
    panose-1="0 0 0 0 0 0 0 0 0 0"
    ascent="1638"
    descent="-410"
    x-height="997"
    cap-height="1394"
    bbox="-280 -450 2127 1925"
    underline-thickness="100"
    underline-position="-255"
    unicode-range="U+0020-F8FF"
  />
<missing-glyph horiz-adv-x="1277" 
d="M162 0v1380h953v-1380h-953zM276 240l296 457l-296 456v-913zM325 113h626l-313 482zM335 1268l303 -469l304 469h-607zM705 697l296 -457v913z" />
    <glyph glyph-name=".notdef" horiz-adv-x="1277" 
d="M162 0v1380h953v-1380h-953zM276 240l296 457l-296 456v-913zM325 113h626l-313 482zM335 1268l303 -469l304 469h-607zM705 697l296 -457v913z" />
    <glyph glyph-name=".null" horiz-adv-x="0" 
 />
    <glyph glyph-name="nonmarkingreturn" horiz-adv-x="682" 
 />
    <glyph glyph-name="space" unicode=" " horiz-adv-x="592" 
 />
    <glyph glyph-name="exclam" unicode="!" horiz-adv-x="496" 
d="M209 214l-8 1166h94l-8 -1166h-78zM190 31q0 24 17 41t41 17t41 -17t17 -41t-17 -41t-41 -17t-41 17t-17 41z" />
    <glyph glyph-name="quotedbl" unicode="&#x22;" horiz-adv-x="522" 
d="M296 955l-6 513h82l-7 -513h-69zM150 1468h82l-7 -513h-69z" />
    <glyph glyph-name="numbersign" unicode="#" horiz-adv-x="1036" 
d="M203 0l101 476h-214v80h232l56 268h-229v80h246l102 476h80l-101 -476h176l101 476h81l-101 -476h213v-80h-231l-56 -268h229v-80h-247l-101 -476h-81l101 476h-176l-101 -476h-80zM402 556h176l58 268h-176z" />
    <glyph glyph-name="dollar" unicode="$" horiz-adv-x="1081" 
d="M518 -26q-170 14 -285.5 119.5t-128.5 295.5h82q12 -151 100.5 -237t231.5 -98v598q-60 19 -108 40t-95.5 54.5t-79 73.5t-51.5 96.5t-20 123.5q0 154 100.5 252.5t253.5 113.5v149h82v-149q88 -6 157.5 -41t114.5 -91.5t71.5 -125.5t33.5 -149h-82q-14 148 -89.5 232
t-205.5 95v-604q371 -113 371 -401q0 -138 -98.5 -237t-272.5 -110v-149h-82v149zM250 1040q0 -64 19 -113t57.5 -83.5t83 -57.5t108.5 -44v584q-116 -13 -192 -86.5t-76 -199.5zM600 53q137 9 211.5 80.5t74.5 183.5q0 118 -70.5 192.5t-215.5 122.5v-579z" />
    <glyph glyph-name="percent" unicode="%" horiz-adv-x="1281" 
d="M145 0l894 1380h97l-894 -1380h-97zM80 1079q0 142 72.5 235t195.5 93t195.5 -93t72.5 -235q0 -140 -73 -234.5t-195 -94.5t-195 94.5t-73 234.5zM165 1079q0 -115 47 -182t136 -67t136 67t47 182q0 117 -46.5 183t-136.5 66q-89 0 -136 -66.5t-47 -182.5zM665 301
q0 142 72.5 235.5t195.5 93.5t195.5 -93.5t72.5 -235.5q0 -139 -72.5 -233.5t-195.5 -94.5q-122 0 -195 94.5t-73 233.5zM750 301q0 -115 47 -182t136 -67t136 66.5t47 182.5q0 117 -46.5 183t-136.5 66q-89 0 -136 -66.5t-47 -182.5z" />
    <glyph glyph-name="ampersand" unicode="&#x26;" horiz-adv-x="1248" 
d="M949 154q-154 -172 -415 -192q-130 -8 -223 27q-98 35 -155 107.5t-65 177.5q-12 168 113 292q71 70 201 150q-52 62 -79 98q-96 124 -105 244q-10 144 81.5 240.5t246.5 107.5q151 12 238.5 -59.5t95.5 -191.5q8 -113 -47 -198q-49 -73 -126.5 -132.5t-194.5 -129.5
l12 7l415 -431q107 162 119 416h75q-8 -213 -78 -367q-24 -53 -61 -106l201 -209l-54 -52zM169 279q9 -125 104 -188.5t255 -52.5q232 17 368 171l-436 451q-45 -27 -114 -75q-92 -64 -138 -136.5t-39 -169.5zM299 1064q4 -58 31 -111q34 -73 142 -197l3 2q90 54 174 115
q83 60 123 125.5t34 149.5q-6 93 -68.5 144t-184.5 42q-125 -8 -193.5 -83t-60.5 -187z" />
    <glyph glyph-name="quotesingle" unicode="'" horiz-adv-x="382" 
d="M156 955l-6 513h82l-7 -513h-69z" />
    <glyph glyph-name="parenleft" unicode="(" horiz-adv-x="523" 
d="M365 -156q-107 158 -171 390t-64 466t64 466t171 389h88q-114 -175 -175.5 -395.5t-61.5 -459.5t61.5 -459.5t175.5 -396.5h-88z" />
    <glyph glyph-name="parenright" unicode=")" horiz-adv-x="523" 
d="M70 -156q114 176 176 396.5t62 459.5t-62 459.5t-176 395.5h89q106 -157 170 -388.5t64 -466.5t-64 -466.5t-170 -389.5h-89z" />
    <glyph glyph-name="asterisk" unicode="*" horiz-adv-x="889" 
d="M239 187l-71 50l215 284l-303 98l25 81l302 -108l-6 368h86l-5 -368l301 108l26 -81l-303 -98l215 -284l-71 -50l-206 292z" />
    <glyph glyph-name="plus" unicode="+" horiz-adv-x="1009" 
d="M464 169v428h-368v80h368v427h81v-427h368v-80h-368v-428h-81z" />
    <glyph glyph-name="comma" unicode="," horiz-adv-x="407" 
d="M104 -226l102 312h75l6 -31l-106 -281h-77z" />
    <glyph glyph-name="hyphen" unicode="-" horiz-adv-x="647" 
d="M100 527v80h447v-80h-447z" />
    <glyph glyph-name="period" unicode="." horiz-adv-x="356" 
d="M178 -27q-24 0 -41 17t-17 41t17 41t41 17t41 -17t17 -41t-17 -41t-41 -17z" />
    <glyph glyph-name="slash" unicode="/" horiz-adv-x="693" 
d="M40 -58l501 1497h84l-501 -1497h-84z" />
    <glyph glyph-name="zero" unicode="0" horiz-adv-x="1149" 
d="M575 -27q-123 0 -214 53t-145 151t-80 225.5t-26 287.5q0 161 26 288.5t80 225t145 150.5t214 53q122 0 213 -53t145 -151t80 -225.5t26 -287.5t-26 -288t-80 -225.5t-144.5 -150.5t-213.5 -53zM195 690q0 -638 380 -638q379 0 379 638t-379 638q-380 0 -380 -638z" />
    <glyph glyph-name="one" unicode="1" horiz-adv-x="717" 
d="M521 0v1279l-369 -229v94l385 236h66v-1380h-82z" />
    <glyph glyph-name="two" unicode="2" horiz-adv-x="1046" 
d="M80 0v59l470 456q93 91 150.5 161.5t84.5 131.5t35 106t8 109q0 136 -80.5 220.5t-228.5 84.5q-144 0 -239 -92.5t-111 -249.5l-4 -37h-81l4 41q19 188 138.5 302.5t292.5 114.5q189 0 292 -109.5t103 -274.5q0 -139 -66 -267.5t-234 -289.5l-401 -386h763v-80h-896z" />
    <glyph glyph-name="three" unicode="3" horiz-adv-x="1115" 
d="M560 -10q-222 0 -349.5 119.5t-120.5 311.5l78 4q-7 -167 98 -263t294 -96q180 0 284.5 90t104.5 237t-104.5 236.5t-284.5 89.5q-54 0 -109 -9v66l434 538h-770v80h896v-58l-441 -541h-10q210 0 337.5 -112.5t127.5 -289.5q0 -178 -127.5 -290.5t-337.5 -112.5zM427 789
l19 -19l5 6v13h-24z" />
    <glyph glyph-name="four" unicode="4" horiz-adv-x="1178" 
d="M799 0v329h-719v66l717 999h80v-990h225v-75h-225v-329h-78zM180 404h619v867z" />
    <glyph glyph-name="five" unicode="5" horiz-adv-x="1052" 
d="M507 -14q-74 0 -142 22.5t-127.5 68t-99.5 123t-50 177.5l-4 41h81l4 -37q15 -143 104.5 -229t235.5 -86q70 0 134.5 22.5t117.5 66.5t84.5 118t31.5 168q0 172 -93 272t-245 100h-28q-115 0 -197.5 -59t-118.5 -167h-85l104 807h717v-80h-646l-70 -535q113 113 292 113
h35q193 0 306.5 -127t113.5 -322q0 -105 -36.5 -192.5t-99 -144.5t-145 -88.5t-174.5 -31.5z" />
    <glyph glyph-name="six" unicode="6" horiz-adv-x="1081" 
d="M541 -10q-188 0 -319.5 129t-131.5 316q0 118 71 243l416 716h86l-324 -561q98 52 204 52q187 0 317.5 -130.5t130.5 -317.5t-130.5 -317t-319.5 -130zM170 437q0 -159 106 -265t265 -106q158 0 265 107t107 266q0 157 -107.5 264.5t-264.5 107.5q-156 0 -263.5 -107
t-107.5 -267z" />
    <glyph glyph-name="seven" unicode="7" horiz-adv-x="1111" 
d="M231 0l725 1318h-916v76h1001v-71l-723 -1323h-87z" />
    <glyph glyph-name="eight" unicode="8" horiz-adv-x="1098" 
d="M549 -29q-201 0 -330 103t-129 286q0 126 68.5 220t191.5 139q-93 42 -143 126t-50 195q0 157 109 262t299 105q100 0 179 -29t128.5 -79.5t75 -116.5t25.5 -142q0 -112 -54.5 -196.5t-150.5 -125.5q118 -44 179 -137t61 -221q0 -122 -64.5 -212t-167 -133.5
t-227.5 -43.5zM176 360q0 -79 32 -140t86.5 -97t120 -54t138.5 -18q54 0 105 11t99.5 35t85 59t58.5 88t22 116q0 146 -93.5 231.5t-272.5 85.5q-182 0 -281.5 -86.5t-99.5 -230.5zM242 1040q0 -72 27 -128t73.5 -89.5t103 -50t119.5 -16.5t119 16.5t102.5 50t74 89.5
t27.5 128q0 135 -86.5 211.5t-236.5 76.5q-151 0 -237 -76.5t-86 -211.5z" />
    <glyph glyph-name="nine" unicode="9" horiz-adv-x="1081" 
d="M743 562q-98 -53 -205 -53q-186 0 -317 131t-131 316q0 189 130.5 318.5t319.5 129.5t320 -129t131 -317q0 -116 -71 -243l-416 -715h-86zM168 955q0 -157 107 -264.5t265 -107.5q157 0 264 107t107 266q0 160 -105.5 266t-265.5 106q-158 0 -265 -107t-107 -266z" />
    <glyph glyph-name="colon" unicode=":" horiz-adv-x="397" 
d="M198 972q-24 0 -41 17t-17 41t17 41.5t41 17.5t41.5 -17.5t17.5 -41.5t-17.5 -41t-41.5 -17zM140 31q0 24 17 41t41 17t41.5 -17t17.5 -41t-17.5 -41t-41.5 -17t-41 17t-17 41z" />
    <glyph glyph-name="semicolon" unicode=";" horiz-adv-x="470" 
d="M124 -226l102 312h75l6 -31l-106 -281h-77zM213 1030q0 24 17.5 41.5t40.5 17.5q24 0 41.5 -17.5t17.5 -41.5t-17.5 -41t-41.5 -17q-23 0 -40.5 17t-17.5 41z" />
    <glyph glyph-name="less" unicode="&#x3c;" horiz-adv-x="1011" 
d="M915 105l-819 398v63l819 398v-92l-696 -337l696 -338v-92z" />
    <glyph glyph-name="equal" unicode="=" horiz-adv-x="1087" 
d="M116 422v80h855v-80h-855zM116 772v79h855v-79h-855z" />
    <glyph glyph-name="greater" unicode="&#x3e;" horiz-adv-x="1011" 
d="M96 105v92l696 338l-696 337v92l819 -398v-63z" />
    <glyph glyph-name="question" unicode="?" horiz-adv-x="1017" 
d="M438 214q0 95 6.5 151t30.5 115t65.5 111.5t117.5 126.5q84 82 122 158.5t38 165.5q0 136 -82 211t-224 75q-160 0 -248.5 -98t-96.5 -270h-81q2 197 120.5 322t305.5 125q185 0 288 -103.5t103 -261.5q0 -201 -187 -378q-131 -125 -166 -207t-34 -243h-78zM421 31
q0 24 17 41t41 17t41.5 -17t17.5 -41t-17.5 -41t-41.5 -17t-41 17t-17 41z" />
    <glyph glyph-name="at" unicode="@" horiz-adv-x="1670" 
d="M769 -202q-100 0 -196 26.5t-182 83.5t-150.5 137.5t-102.5 196t-38 252.5q0 152 47.5 287t128 234t185 171t221 108t233.5 36q192 0 341.5 -83t231.5 -231.5t82 -338.5q0 -126 -31.5 -229t-84 -168t-120 -99.5t-141.5 -34.5q-46 0 -85.5 12t-74.5 45t-48 84l-7 -15
q-105 -142 -252 -142q-46 0 -88 15t-82 48t-64 97.5t-24 152.5q0 141 55.5 263.5t155.5 197t220 74.5q108 0 163 -76l19 -47l21 88h88l-103 -430q-25 -112 -25 -167q0 -120 135 -120q123 0 205 120.5t82 320.5q0 273 -158.5 428t-422.5 155q-100 0 -201.5 -32t-194 -96.5
t-164 -153t-114.5 -210t-43 -258.5q0 -150 48 -270.5t129.5 -196t185.5 -115.5t220 -40q158 0 277 38t261 139l44 -70q-163 -112 -290.5 -149.5t-291.5 -37.5zM553 451q0 -241 181 -241q92 0 166 84t116 272l18 78q25 110 -15 182t-128 72q-135 0 -236.5 -130t-101.5 -317z
" />
    <glyph glyph-name="A" unicode="A" horiz-adv-x="1130" 
d="M40 0l486 1394h76l488 -1394h-86l-161 467h-556l-161 -467h-86zM312 542h506l-253 730z" />
    <glyph glyph-name="B" unicode="B" horiz-adv-x="1213" 
d="M170 0v1394h498q187 0 293.5 -94t106.5 -258q0 -104 -43.5 -182.5t-123.5 -122.5q110 -34 171 -126t61 -230q0 -188 -113.5 -284.5t-330.5 -96.5h-519zM248 76h441q187 0 276.5 74.5t89.5 230.5q0 147 -75.5 225t-216.5 78h-515v-608zM248 760h472q126 0 198.5 74.5
t72.5 203.5q0 135 -83.5 207.5t-239.5 72.5h-420v-558z" />
    <glyph glyph-name="C" unicode="C" horiz-adv-x="1334" 
d="M692 -12q-275 0 -443.5 192t-168.5 516q0 326 168.5 518t443.5 192h20q193 0 336.5 -97t215.5 -270l-73 -27q-63 152 -185.5 234t-293.5 82h-20q-247 0 -390.5 -169.5t-143.5 -462.5q0 -292 143.5 -461t390.5 -169h20q171 0 293.5 82t185.5 234l73 -27
q-72 -173 -215.5 -270t-336.5 -97h-20z" />
    <glyph glyph-name="D" unicode="D" horiz-adv-x="1240" 
d="M170 0v1394h290q333 0 516.5 -186t183.5 -522q0 -330 -181.5 -508t-520.5 -178h-288zM248 76h206q309 0 466.5 153.5t157.5 456.5q0 309 -159.5 470.5t-460.5 161.5h-210v-1242z" />
    <glyph glyph-name="E" unicode="E" horiz-adv-x="1139" 
d="M170 0v1394h879v-76h-801v-577h733v-76h-733v-589h801v-76h-879z" />
    <glyph glyph-name="F" unicode="F" horiz-adv-x="1139" 
d="M170 0v1394h879v-76h-801v-577h733v-76h-733v-665h-78z" />
    <glyph glyph-name="G" unicode="G" horiz-adv-x="1308" 
d="M692 -12q-275 0 -443.5 192t-168.5 518q0 324 168.5 516t443.5 192q197 0 340 -100t206 -277l-71 -28q-55 153 -176 240t-299 87q-247 0 -390.5 -169t-143.5 -461q0 -293 143.5 -462.5t390.5 -169.5q170 0 288.5 79.5t176.5 219.5v267h-484v76h560v-708h-76v210
q-79 -107 -198.5 -164.5t-266.5 -57.5z" />
    <glyph glyph-name="H" unicode="H" horiz-adv-x="1219" 
d="M170 0v1394h78v-649h721v649h80v-1394h-80v669h-721v-669h-78z" />
    <glyph glyph-name="I" unicode="I" horiz-adv-x="418" 
d="M170 0v1394h78v-1394h-78z" />
    <glyph glyph-name="J" unicode="J" horiz-adv-x="1151" 
d="M70 498v33h78q-3 -131 37.5 -234t108.5 -156t151 -78.5t166.5 -1t152.5 76.5t112.5 153t43.5 230v873h77v-875q0 -260 -153 -410q-120 -117 -288 -128t-298 89q-155 117 -183 339q-5 43 -5 89z" />
    <glyph glyph-name="K" unicode="K" horiz-adv-x="1168" 
d="M170 0v1394h78v-792l762 792h108l-573 -595l565 -799h-96l-523 743l-243 -251v-492h-78z" />
    <glyph glyph-name="L" unicode="L" horiz-adv-x="1089" 
d="M170 0v1394h78v-1318h801v-76h-879z" />
    <glyph glyph-name="M" unicode="M" horiz-adv-x="1571" 
d="M170 0v1394h96l520 -1173l520 1173h95v-1394h-78v1244l-504 -1137h-67l-504 1137v-1244h-78z" />
    <glyph glyph-name="N" unicode="N" horiz-adv-x="1266" 
d="M170 0v1394h85l763 -1258v1258h78v-1394h-87l-761 1254v-1254h-78z" />
    <glyph glyph-name="O" unicode="O" horiz-adv-x="1406" 
d="M692 -12q-275 0 -443.5 192t-168.5 516q0 326 168.5 518t443.5 192h20q279 0 446.5 -195t167.5 -515t-167.5 -514t-446.5 -194h-20zM158 696q0 -292 143.5 -461t390.5 -169h20q249 0 392.5 169t143.5 461q0 293 -144 462.5t-392 169.5h-20q-247 0 -390.5 -169.5
t-143.5 -462.5z" />
    <glyph glyph-name="P" unicode="P" horiz-adv-x="1138" 
d="M170 0v1394h465q217 0 330 -96t113 -283v-2q0 -187 -113 -283t-330 -96h-387v-634h-78zM248 710h387q187 0 276 75t89 230q0 154 -89.5 228.5t-275.5 74.5h-387v-608z" />
    <glyph glyph-name="Q" unicode="Q" horiz-adv-x="1394" 
d="M692 -12q-275 0 -443.5 192t-168.5 516q0 326 168.5 518t443.5 192h20q279 0 446.5 -195t167.5 -515q0 -306 -153 -496l157 -155l-53 -53l-153 154q-163 -158 -412 -158h-20zM158 696q0 -292 143.5 -461t390.5 -169h20q216 0 357 132l-299 297l52 56l296 -296
q130 165 130 441q0 293 -144 462.5t-392 169.5h-20q-247 0 -390.5 -169.5t-143.5 -462.5z" />
    <glyph glyph-name="R" unicode="R" horiz-adv-x="1149" 
d="M170 0v1394h465q217 0 330 -96t113 -283v-2q0 -169 -93 -264t-271 -111l365 -638h-90l-363 634h-378v-634h-78zM248 710h387q187 0 276 75t89 230q0 154 -89.5 228.5t-275.5 74.5h-387v-608z" />
    <glyph glyph-name="S" unicode="S" horiz-adv-x="1138" 
d="M589 -27q-96 0 -180.5 25.5t-153 75t-111.5 130.5t-50 185h81q8 -108 66.5 -185.5t148.5 -114.5t201 -37q161 0 264.5 80.5t103.5 207.5q0 132 -81 198t-292 126q-116 33 -191.5 65.5t-131.5 77.5t-80.5 104t-24.5 141q0 101 60.5 183.5t159 127t213.5 44.5q99 0 179 -33
t132.5 -90t83 -129.5t37.5 -155.5h-81q-22 155 -117 242t-236 87q-86 0 -163 -29.5t-130 -93t-53 -149.5q0 -54 14 -94.5t39.5 -71t74 -56t103.5 -45.5t142 -45q225 -64 326.5 -152.5t101.5 -247.5q0 -158 -130 -264.5t-325 -106.5z" />
    <glyph glyph-name="T" unicode="T" horiz-adv-x="1182" 
d="M551 0v1318h-511v76h1102v-76h-511v-1318h-80z" />
    <glyph glyph-name="U" unicode="U" 
d="M154 498v896h77v-883q0 -127 42.5 -226.5t110.5 -150t150.5 -73.5t165 2t150.5 77.5t110.5 153t42.5 227.5v873h78v-875q0 -260 -153 -410q-120 -117 -288 -128t-298 89q-155 117 -183 339q-5 43 -5 89z" />
    <glyph glyph-name="V" unicode="V" horiz-adv-x="1225" 
d="M578 0l-548 1394h85l498 -1276l498 1276h84l-546 -1394h-71z" />
    <glyph glyph-name="W" unicode="W" horiz-adv-x="1750" 
d="M418 0l-388 1394h83l348 -1256l377 1188h74l379 -1188l348 1256h81l-388 -1394h-80l-376 1184l-379 -1184h-79z" />
    <glyph glyph-name="X" unicode="X" horiz-adv-x="1206" 
d="M50 0l502 708l-488 686h96l441 -622l445 622h94l-488 -686l504 -708h-96l-459 641l-456 -641h-95z" />
    <glyph glyph-name="Y" unicode="Y" horiz-adv-x="1107" 
d="M515 0l-4 415l-491 979h91l439 -888l446 888h91l-499 -979l5 -415h-78z" />
    <glyph glyph-name="Z" unicode="Z" horiz-adv-x="1057" 
d="M66 0v72l829 1246h-829v76h925v-70l-830 -1248h830v-76h-925z" />
    <glyph glyph-name="bracketleft" unicode="[" horiz-adv-x="537" 
d="M170 -156v1711h337v-80h-255v-1551h255v-80h-337z" />
    <glyph glyph-name="backslash" unicode="\" horiz-adv-x="692" 
d="M568 -58l-500 1497h83l501 -1497h-84z" />
    <glyph glyph-name="bracketright" unicode="]" horiz-adv-x="536" 
d="M30 -156v80h255v1551h-255v80h336v-1711h-336z" />
    <glyph glyph-name="asciicircum" unicode="^" horiz-adv-x="1076" 
d="M150 418l351 818h78l347 -818h-91l-296 708l-300 -708h-89z" />
    <glyph glyph-name="underscore" unicode="_" horiz-adv-x="916" 
d="M50 -156v80h816v-80h-816z" />
    <glyph glyph-name="grave" unicode="`" horiz-adv-x="867" 
d="M375 1565l-159 253h101l138 -253h-80z" />
    <glyph glyph-name="a" unicode="a" horiz-adv-x="1072" 
d="M454 -10q-159 0 -251.5 79t-92.5 215q0 146 103 220q52 38 122 52.5t174 18.5l344 15v20q0 160 -89 241.5t-246 81.5q-106 0 -180.5 -41.5t-139.5 -138.5l-60 48q75 109 165.5 157.5t214.5 48.5q186 0 299 -103t113 -294v-610h-77v192q-61 -93 -170.5 -147.5
t-228.5 -54.5zM188 284q0 -104 70.5 -163t199.5 -59q101 0 191.5 48.5t147 136.5t56.5 194v77l-338 -14q-92 -3 -152 -15.5t-100 -41.5q-75 -55 -75 -163z" />
    <glyph glyph-name="b" unicode="b" horiz-adv-x="1185" 
d="M621 -10q-121 0 -221.5 60t-159.5 167v-217h-78v1394h78v-614q59 107 159 167t222 60h27q197 0 327 -144t130 -363q0 -143 -58.5 -260t-163.5 -183.5t-235 -66.5h-27zM238 500q0 -191 106.5 -312.5t272.5 -121.5h28q168 0 275.5 122t107.5 312t-107.5 310.5t-275.5 120.5
h-28q-168 0 -273.5 -120.5t-105.5 -310.5z" />
    <glyph glyph-name="c" unicode="c" horiz-adv-x="1038" 
d="M539 -10q-203 0 -331 142.5t-128 367.5t127 366t332 141h19q135 0 239.5 -64t160.5 -177l-72 -31q-49 96 -133 147t-195 51h-19q-173 0 -277 -118.5t-104 -314.5t104 -316t277 -120h19q112 0 196 52t134 148l70 -31q-59 -114 -163 -178.5t-237 -64.5h-19z" />
    <glyph glyph-name="d" unicode="d" horiz-adv-x="1185" 
d="M537 -10q-197 0 -327 146t-130 364q0 219 130 363t327 144h27q122 0 222 -60t159 -167v614h78v-1394h-78v217q-59 -107 -159.5 -167t-221.5 -60h-27zM158 500q0 -191 107 -312.5t275 -121.5h28q166 0 272.5 121.5t106.5 312.5q0 190 -105.5 310.5t-273.5 120.5h-28
q-168 0 -275 -120.5t-107 -310.5z" />
    <glyph glyph-name="e" unicode="e" horiz-adv-x="1056" 
d="M539 -10q-203 0 -331 142.5t-128 367.5q0 247 148 388q118 112 282 118q165 6 291 -95q152 -122 172 -348q4 -40 3 -83h-818q5 -188 109 -302t272 -114h19q112 0 196 52t134 148l70 -31q-59 -114 -163 -178.5t-237 -64.5h-19zM159 550h738q-10 124 -66 214t-134.5 130.5
t-168.5 40.5t-168.5 -41t-134.5 -131t-66 -213z" />
    <glyph glyph-name="f" unicode="f" horiz-adv-x="758" 
d="M300 0v925h-250v72h250v144q0 130 63 196.5t176 66.5h14q97 0 165 -46l-29 -62q-68 34 -134 34h-14q-82 0 -122.5 -45.5t-40.5 -143.5v-144h253v-72h-253v-925h-78z" />
    <glyph glyph-name="g" unicode="g" horiz-adv-x="1184" 
d="M554 -402q-172 0 -286 95t-139 262h77q26 -135 115.5 -207.5t232.5 -72.5h29q175 0 268.5 114t93.5 337v89q-59 -107 -159.5 -167t-221.5 -60h-10q-130 0 -238.5 66t-172 183.5t-63.5 260.5q0 219 130 363t327 144h27q122 0 222 -60t159 -167v221h78v-884
q0 -247 -118.5 -382t-321.5 -135h-29zM158 498q0 -191 107 -312.5t275 -121.5h28q156 0 259.5 107t117.5 279v95q-14 172 -117.5 278t-259.5 106h-28q-168 0 -275 -120.5t-107 -310.5z" />
    <glyph glyph-name="h" unicode="h" horiz-adv-x="1105" 
d="M162 0v1394h78v-552q94 165 340 165q196 0 289.5 -103t93.5 -307v-597h-77v587q0 182 -70.5 264t-235.5 82q-168 0 -254 -108t-86 -337v-488h-78z" />
    <glyph glyph-name="i" unicode="i" horiz-adv-x="397" 
d="M161 0v997h78v-997h-78zM140 1251q0 24 17 41t41 17t41.5 -17t17.5 -41t-17.5 -41t-41.5 -17t-41 17t-17 41z" />
    <glyph glyph-name="j" unicode="j" horiz-adv-x="409" 
d="M-3 -406q-99 0 -165 45l30 63q64 -34 133 -34h14q82 0 122.5 45t40.5 143v1141h78v-1141q0 -130 -63 -196t-176 -66h-14zM153 1251q0 24 17 41t41 17t41 -17t17 -41t-17 -41t-41 -17t-41 17t-17 41z" />
    <glyph glyph-name="k" unicode="k" horiz-adv-x="967" 
d="M162 0v1394h78v-948l534 551h107l-360 -370l396 -627h-93l-358 571l-226 -233v-338h-78z" />
    <glyph glyph-name="l" unicode="l" horiz-adv-x="404" 
d="M344 -9q-90 -7 -136 45t-46 164v1194h78v-1190q0 -78 24 -108.5t76 -30.5z" />
    <glyph glyph-name="m" unicode="m" horiz-adv-x="1574" 
d="M162 0v997h78v-145q44 77 115.5 116t160.5 39q222 0 291 -206q89 206 304 206q321 0 321 -437v-570h-80v564q0 115 -22 199q-25 86 -78 128t-149 42q-70 0 -131 -39q-137 -92 -137 -352v-542h-78v587q0 181 -60 263.5t-187 82.5q-66 0 -131 -41q-137 -99 -137 -389v-503
h-80z" />
    <glyph glyph-name="n" unicode="n" horiz-adv-x="1105" 
d="M162 0v997h78v-155q94 165 340 165q196 0 289.5 -103t93.5 -307v-597h-77v587q0 182 -70.5 264t-235.5 82q-168 0 -254 -108t-86 -337v-488h-78z" />
    <glyph glyph-name="o" unicode="o" horiz-adv-x="1097" 
d="M539 -10q-203 0 -331 142.5t-128 367.5t127 366t332 141h19q205 0 332 -141t127 -366t-127.5 -367.5t-331.5 -142.5h-19zM158 500q0 -196 104 -316t277 -120h19q173 0 277 119.5t104 316.5q0 196 -104.5 314.5t-276.5 118.5h-19q-173 0 -277 -118.5t-104 -314.5z" />
    <glyph glyph-name="p" unicode="p" horiz-adv-x="1185" 
d="M162 -397v1394h78v-217q59 107 159.5 167t221.5 60h27q198 0 327.5 -145.5t129.5 -363.5q0 -219 -130 -363.5t-327 -144.5h-27q-122 0 -222 60t-159 168v-615h-78zM238 498q0 -191 105.5 -311.5t273.5 -120.5h28q168 0 275.5 121t107.5 311t-107.5 311.5t-275.5 121.5
h-28q-166 0 -272.5 -121.5t-106.5 -311.5z" />
    <glyph glyph-name="q" unicode="q" horiz-adv-x="1185" 
d="M945 218q-59 -108 -159 -168t-222 -60h-27q-197 0 -327 144.5t-130 363.5q0 218 130 363.5t327 145.5h27q121 0 221.5 -60t159.5 -167v217h78v-1394h-78v615zM158 498q0 -190 107 -311t275 -121h28q168 0 273.5 120.5t105.5 311.5q0 190 -106.5 311.5t-272.5 121.5h-28
q-168 0 -275 -121.5t-107 -311.5z" />
    <glyph glyph-name="r" unicode="r" horiz-adv-x="808" 
d="M162 0v997h78v-155q94 165 340 165q87 0 158 -21l-17 -73q-68 20 -141 20q-168 0 -254 -108t-86 -337v-488h-78z" />
    <glyph glyph-name="s" unicode="s" horiz-adv-x="966" 
d="M497 -14q-79 0 -147 19.5t-123 59t-89.5 105.5t-41.5 153h81q19 -141 102.5 -201t221.5 -60q122 0 199 48.5t77 136.5t-64.5 132t-246.5 82q-68 14 -120.5 33t-100 49.5t-73 77.5t-25.5 108q0 116 95.5 192t242.5 76q166 0 258.5 -88t110.5 -227h-81q-29 125 -98 182
t-192 57q-107 0 -179.5 -50.5t-72.5 -139.5q0 -83 64.5 -125.5t197.5 -69.5q190 -39 278.5 -103t88.5 -184q0 -119 -102 -191t-261 -72z" />
    <glyph glyph-name="t" unicode="t" horiz-adv-x="658" 
d="M526 -12q-114 0 -176.5 66.5t-62.5 196.5v674h-237v72h237v395h78v-395h243v-72h-243v-674q0 -98 40 -143.5t123 -45.5h13q15 0 39.5 3.5t27.5 3.5v-75q-63 -6 -69 -6h-13z" />
    <glyph glyph-name="u" unicode="u" horiz-adv-x="1085" 
d="M525 -10q-196 0 -289.5 103t-93.5 307v597h78v-587q0 -182 70 -264t235 -82q169 0 254.5 108t85.5 337v488h78v-997h-78v155q-94 -165 -340 -165z" />
    <glyph glyph-name="v" unicode="v" horiz-adv-x="984" 
d="M459 0l-409 997h87l354 -881l354 881h89l-408 -997h-67z" />
    <glyph glyph-name="w" unicode="w" horiz-adv-x="1447" 
d="M341 0l-277 997h83l237 -860l304 860h74l303 -858l237 858h81l-275 -997h-78l-305 873l-309 -873h-75z" />
    <glyph glyph-name="x" unicode="x" horiz-adv-x="952" 
d="M40 0l386 498l-386 499h97l339 -436l336 436h98l-386 -499l388 -498h-98l-338 437l-337 -437h-99z" />
    <glyph glyph-name="y" unicode="y" horiz-adv-x="986" 
d="M205 -309q44 -24 80.5 -4t65.5 93l100 243l-401 974h87l354 -877l360 877h85l-514 -1249q-87 -211 -248 -124z" />
    <glyph glyph-name="z" unicode="z" horiz-adv-x="923" 
d="M66 0v69l695 854h-695v74h791v-75l-686 -848h686v-74h-791z" />
    <glyph glyph-name="braceleft" unicode="{" horiz-adv-x="570" 
d="M487 -156q-270 0 -270 236q0 58 21 205q20 140 20 211t-37 116t-121 48v79q158 7 158 165q0 71 -20 211q-21 147 -21 205q0 124 73 179.5t197 55.5h53v-80h-55q-93 0 -140 -34t-47 -119q0 -32 20 -182q21 -159 21 -236q0 -61 -25 -117t-83 -86q58 -31 83 -88t25 -117
q0 -77 -21 -236q-20 -150 -20 -182q0 -86 47 -120t140 -34h55v-80h-53z" />
    <glyph glyph-name="bar" unicode="|" horiz-adv-x="502" 
d="M210 -389v1983h82v-1983h-82z" />
    <glyph glyph-name="braceright" unicode="}" horiz-adv-x="570" 
d="M30 -156v80h55q93 0 139.5 34t46.5 120q0 39 -19 182q-22 158 -22 236q0 61 25.5 117t83.5 85q-59 31 -84 88.5t-25 117.5q0 78 22 236q19 142 19 182q0 86 -46.5 119.5t-139.5 33.5h-55v80h53q124 0 197 -55.5t73 -179.5q0 -60 -22 -205q-19 -142 -19 -211
q0 -158 158 -165v-79q-84 -3 -121 -48t-37 -116q0 -69 19 -211q22 -145 22 -205q0 -124 -73 -180t-197 -56h-53z" />
    <glyph glyph-name="asciitilde" unicode="~" horiz-adv-x="1103" 
d="M126 445q-4 135 45 201t141 66q57 0 106.5 -18t155.5 -76q95 -53 136.5 -69t81.5 -16q61 0 85 43.5t22 142.5h80q7 -266 -189 -266q-57 0 -105.5 17.5t-154.5 76.5q-93 52 -135.5 68.5t-84.5 16.5q-59 0 -83 -44.5t-22 -142.5h-79z" />
    <glyph glyph-name="uni00A0" unicode="&#xa0;" horiz-adv-x="563" 
 />
    <glyph glyph-name="exclamdown" unicode="&#xa1;" horiz-adv-x="496" 
d="M201 -311l8 1166h78l8 -1166h-94zM190 1038q0 24 17 41t41 17t41 -17t17 -41t-17 -41t-41 -17t-41 17t-17 41z" />
    <glyph glyph-name="cent" unicode="&#xa2;" horiz-adv-x="1099" 
d="M522 -26q-188 16 -310 167t-122 394q0 232 123 384t309 174v151h82v-148q168 -7 278 -112.5t127 -270.5h-82q-20 137 -102 217t-221 88v-966q123 12 209 87.5t107 204.5h82q-24 -159 -132.5 -258.5t-265.5 -111.5v-149h-82v149zM176 544q0 -113 28 -204.5t77 -150.5
t110 -93.5t131 -42.5v961q-67 -10 -127 -44.5t-110 -91t-79.5 -143t-29.5 -191.5z" />
    <glyph glyph-name="sterling" unicode="&#xa3;" horiz-adv-x="1013" 
d="M70 73q60 15 111.5 43t96 69t70 101t25.5 132q0 65 -22 125.5t-70 140.5h-193v80h144q-76 138 -76 274q0 162 109 265.5t272 103.5q96 0 169.5 -31.5t118.5 -89.5t69.5 -132.5t28.5 -165.5h-82q-14 340 -308 340q-123 0 -207.5 -79t-84.5 -209q0 -126 89 -276h465v-80
h-416q80 -137 80 -266q0 -215 -194 -338h658v-80h-853v73z" />
    <glyph glyph-name="currency" unicode="&#xa4;" horiz-adv-x="1181" 
d="M252 200l-58 59l112 112q-77 97 -77 234t77 234l-112 112l58 58l112 -112q99 77 226 77q128 0 227 -77l112 112l58 -58l-112 -112q77 -99 77 -234t-77 -234l112 -112l-58 -59l-112 112q-99 -77 -227 -77q-127 0 -226 77zM314 605q0 -127 77 -208.5t199 -81.5
q123 0 199.5 81.5t76.5 208.5q0 126 -76.5 207.5t-199.5 81.5q-122 0 -199 -81.5t-77 -207.5z" />
    <glyph glyph-name="yen" unicode="&#xa5;" horiz-adv-x="1136" 
d="M529 0v430h-357v79h357v115h-357v80h318l-430 676h105l405 -653l405 653h101l-428 -676h321v-80h-358v-115h358v-79h-358v-430h-82z" />
    <glyph glyph-name="brokenbar" unicode="&#xa6;" horiz-adv-x="502" 
d="M210 680v700h82v-700h-82zM210 -311v700h82v-700h-82z" />
    <glyph glyph-name="section" unicode="&#xa7;" horiz-adv-x="1134" 
d="M557 -338q-337 0 -403 359h82q33 -145 112.5 -212.5t212.5 -67.5q121 0 199.5 54.5t78.5 148.5q0 73 -28 119.5t-107 85t-225 69.5q-53 11 -102.5 30t-99 48.5t-86 66.5t-59 88t-22.5 109q0 120 67.5 196.5t178.5 109.5q-149 86 -149 246q0 134 93.5 214.5t242.5 80.5
q165 0 257.5 -93.5t115.5 -246.5h-81q-32 136 -101.5 198.5t-192.5 62.5q-108 0 -178 -54.5t-70 -155.5q0 -193 310 -247q195 -36 308 -121t113 -227q0 -122 -72 -200t-189 -109q161 -88 161 -266q0 -130 -103.5 -208t-263.5 -78zM195 566q0 -103 89.5 -172t221.5 -95
q70 -13 120 -29q60 1 114 16t99.5 43.5t72 77.5t26.5 112q0 106 -89 170t-274 101q-24 4 -101 24q-55 -6 -101.5 -20.5t-88 -42.5t-65.5 -75t-24 -110z" />
    <glyph glyph-name="dieresis" unicode="&#xa8;" horiz-adv-x="710" 
d="M478 1629q-24 0 -41 17t-17 41t17 41.5t41 17.5t41.5 -17.5t17.5 -41.5t-17.5 -41t-41.5 -17zM175 1687q0 24 17 41.5t41 17.5t41.5 -17.5t17.5 -41.5t-17.5 -41t-41.5 -17t-41 17t-17 41z" />
    <glyph glyph-name="copyright" unicode="&#xa9;" horiz-adv-x="1670" 
d="M835 -31q-149 0 -283.5 58t-231 157t-153.5 236.5t-57 289.5q0 203 96 373t263 268.5t366 98.5t366 -98.5t263 -268.5t96 -373q0 -152 -57 -289.5t-153.5 -236.5t-231 -157t-283.5 -58zM192 710q0 -136 50 -258.5t135.5 -210t205 -138.5t252.5 -51t252.5 51t205 138.5
t135.5 210t50 258.5t-50 258t-135.5 210t-205 139.5t-252.5 51.5t-252.5 -51.5t-205 -139.5t-135.5 -210t-50 -258zM473 710q0 192 106 308.5t262 116.5q139 0 232.5 -79.5t105.5 -227.5h-80q-37 228 -258 228q-130 0 -208 -100t-78 -244q0 -149 77.5 -246t200.5 -97
q223 0 264 226h82q-23 -150 -115.5 -227.5t-236.5 -77.5q-147 0 -250.5 115.5t-103.5 304.5z" />
    <glyph glyph-name="ordfeminine" unicode="&#xaa;" horiz-adv-x="760" 
d="M309 681q-112 0 -177.5 56t-65.5 153q0 103 73 157q37 27 85 36t124 13l230 11v9q0 108 -59 162.5t-165 54.5q-73 0 -123.5 -29t-97.5 -99l-49 40q53 80 116.5 115t153.5 35q131 0 210.5 -72.5t79.5 -206.5v-428h-66v120q-45 -59 -118 -93t-151 -34zM131 890
q0 -70 46.5 -108.5t134.5 -38.5q106 0 186 74t80 182v47l-226 -11q-124 -3 -171 -38q-50 -36 -50 -107z" />
    <glyph glyph-name="guillemotleft" unicode="&#xab;" horiz-adv-x="1114" 
d="M823 159l-282 343l282 342h107l-282 -342l282 -343h-107zM308 502l282 342h107l-283 -342l283 -343h-107z" />
    <glyph glyph-name="logicalnot" unicode="&#xac;" horiz-adv-x="978" 
d="M736 408v261h-640v79h722v-340h-82z" />
    <glyph glyph-name="registered" unicode="&#xae;" horiz-adv-x="995" 
d="M498 669q-188 0 -308 120.5t-120 308.5q0 186 120.5 306t307.5 120t307 -120t120 -306q0 -188 -120 -308.5t-307 -120.5zM154 1098q0 -156 95 -253t249 -97t249 97t95 253q0 155 -95 250.5t-249 95.5t-249 -95.5t-95 -250.5zM350 875v429h154q69 0 108 -33.5t39 -96.5
q0 -93 -81 -121l103 -178h-93l-97 169h-53v-169h-80zM430 1124h74q41 0 54.5 9.5t13.5 40.5q0 30 -13.5 40.5t-54.5 10.5h-74v-101z" />
    <glyph glyph-name="macron" unicode="&#xaf;" horiz-adv-x="687" 
d="M188 1643v79h311v-79h-311z" />
    <glyph glyph-name="degree" unicode="&#xb0;" horiz-adv-x="675" 
d="M337 976q-94 0 -155.5 61t-61.5 155t61.5 154.5t155.5 60.5q95 0 156.5 -60.5t61.5 -154.5t-61.5 -155t-156.5 -61zM203 1192q0 -64 35.5 -100t98.5 -36t99 36t36 100t-36 100t-99 36q-62 0 -98 -36t-36 -100z" />
    <glyph glyph-name="plusminus" unicode="&#xb1;" horiz-adv-x="1009" 
d="M464 189v408h-368v80h368v408h81v-408h368v-80h-368v-408h-81zM96 0v80h817v-80h-817z" />
    <glyph glyph-name="uni00B2" unicode="&#xb2;" horiz-adv-x="871" 
d="M158 949v45l297 272q111 102 142 160.5t31 132.5q0 79 -48 126t-139 47q-89 0 -146 -51.5t-67 -141.5v-32h-70l6 35q12 113 89 182.5t188 69.5q122 0 188.5 -67t66.5 -168q0 -83 -42 -159.5t-149 -173.5l-237 -215h467v-62h-577z" />
    <glyph glyph-name="uni00B3" unicode="&#xb3;" horiz-adv-x="870" 
d="M428 941q-138 0 -216.5 77.5t-70.5 198.5h60q-7 -100 53 -157t174 -57q108 0 168.5 51t60.5 138q0 83 -60.5 131.5t-168.5 48.5q-38 0 -72 -4v56l250 306h-450v64h550v-47l-254 -308h-24q127 0 206.5 -70.5t79.5 -176.5q0 -111 -79 -181t-207 -70z" />
    <glyph glyph-name="acute" unicode="&#xb4;" horiz-adv-x="867" 
d="M412 1565l138 253h101l-158 -253h-81z" />
    <glyph glyph-name="paragraph" unicode="&#xb6;" horiz-adv-x="1102" 
d="M519 -214v836h-25q-77 0 -110 2q-151 9 -237.5 117t-86.5 260t86.5 260t237.5 117q33 2 110 2h398v-1594h-81v1515h-210v-1515h-82z" />
    <glyph glyph-name="periodcentered" unicode="&#xb7;" horiz-adv-x="404" 
d="M202 550q-27 0 -44.5 18t-17.5 44q0 27 17.5 45t44.5 18t44.5 -18t17.5 -45q0 -26 -17.5 -44t-44.5 -18z" />
    <glyph glyph-name="cedilla" unicode="&#xb8;" horiz-adv-x="878" 
d="M377 -444q-78 0 -122 27v90q29 -21 55 -29t67 -8q133 0 133 99q0 55 -47.5 78.5t-156.5 14.5l113 224h92l-78 -152q160 -27 160 -165q0 -88 -65 -133.5t-151 -45.5z" />
    <glyph glyph-name="uni00B9" unicode="&#xb9;" horiz-adv-x="546" 
d="M286 958v747l-210 -130v81l224 136h56v-834h-70z" />
    <glyph glyph-name="ordmasculine" unicode="&#xba;" horiz-adv-x="789" 
d="M389 693q-142 0 -232.5 100t-90.5 257t89.5 256t233.5 99h12q144 0 233 -99t89 -256t-89.5 -257t-232.5 -100h-12zM132 1050q0 -134 69.5 -213.5t187.5 -79.5h12q118 0 187 79.5t69 213.5q0 133 -69.5 211.5t-186.5 78.5h-12q-118 0 -187.5 -78.5t-69.5 -211.5z" />
    <glyph glyph-name="guillemotright" unicode="&#xbb;" horiz-adv-x="1114" 
d="M417 159l283 343l-283 342h107l282 -342l-282 -343h-107zM184 159l282 343l-282 342h107l282 -342l-282 -343h-107z" />
    <glyph glyph-name="questiondown" unicode="&#xbf;" horiz-adv-x="1017" 
d="M505 -348q-185 0 -288 103.5t-103 261.5q0 203 187 378q131 126 166 208t34 243h78q0 -95 -6.5 -151t-30.5 -115.5t-65.5 -111.5t-117.5 -126q-84 -82 -122 -159t-38 -166q0 -136 81.5 -210.5t224.5 -74.5q160 0 248.5 98t96.5 269h81q-2 -197 -120.5 -322t-305.5 -125z
M479 1028q0 24 17.5 41.5t41.5 17.5t41 -17.5t17 -41.5t-17 -41t-41 -17t-41.5 17t-17.5 41z" />
    <glyph glyph-name="Agrave" unicode="&#xc0;" horiz-adv-x="1130" 
d="M40 0l486 1394h76l488 -1394h-86l-161 467h-556l-161 -467h-86zM312 542h506l-253 730zM390 1798h102l125 -221h-81z" />
    <glyph glyph-name="Aacute" unicode="&#xc1;" horiz-adv-x="1130" 
d="M40 0l486 1394h76l488 -1394h-86l-161 467h-556l-161 -467h-86zM312 542h506l-253 730zM509 1577l125 221h102l-146 -221h-81z" />
    <glyph glyph-name="Acircumflex" unicode="&#xc2;" horiz-adv-x="1130" 
d="M40 0l486 1394h76l488 -1394h-86l-161 467h-556l-161 -467h-86zM312 542h506l-253 730zM381 1577l153 221h65l154 -221h-94l-93 139l-93 -139h-92z" />
    <glyph glyph-name="Atilde" unicode="&#xc3;" horiz-adv-x="1130" 
d="M40 0l486 1394h76l488 -1394h-86l-161 467h-556l-161 -467h-86zM312 542h506l-253 730zM376 1633q-5 54 18 86.5t71 32.5q37 0 117 -27q67 -22 85 -22q9 0 10.5 3t1.5 20v18h76q6 -54 -17 -86.5t-71 -32.5q-36 0 -117 26q-66 23 -85 23q-9 0 -10.5 -3.5t-1.5 -19.5v-18
h-77z" />
    <glyph glyph-name="Adieresis" unicode="&#xc4;" horiz-adv-x="1130" 
d="M40 0l486 1394h76l488 -1394h-86l-161 467h-556l-161 -467h-86zM312 542h506l-253 730zM390 1687q0 24 17 41.5t41 17.5t41.5 -17.5t17.5 -41.5t-17.5 -41t-41.5 -17t-41 17t-17 41zM635 1687q0 24 17 41.5t41 17.5t41.5 -17.5t17.5 -41.5t-17.5 -41t-41.5 -17t-41 17
t-17 41z" />
    <glyph glyph-name="Aring" unicode="&#xc5;" horiz-adv-x="1130" 
d="M40 0l486 1394h76l488 -1394h-86l-161 467h-556l-161 -467h-86zM312 542h506l-253 730zM424 1687q0 62 41.5 100t100.5 38t100.5 -38t41.5 -100t-41.5 -100t-100.5 -38t-100.5 38t-41.5 100zM510 1687q0 -58 56 -58t56 58q0 59 -56 59t-56 -59z" />
    <glyph glyph-name="AE" unicode="&#xc6;" horiz-adv-x="1630" 
d="M26 0l486 1394h1028v-76h-801v-577h733v-76h-733v-589h801v-76h-879v467h-387l-162 -467h-86zM299 542h362v770h-96z" />
    <glyph glyph-name="Ccedilla" unicode="&#xc7;" horiz-adv-x="1334" 
d="M649 -439q-78 0 -122 27v90q28 -22 54.5 -30t67.5 -8q133 0 133 100q0 55 -47 78.5t-157 14.5l76 156q-260 14 -417 204t-157 503q0 326 168.5 518t443.5 192h20q193 0 336.5 -97t215.5 -270l-73 -27q-63 152 -185.5 234t-293.5 82h-20q-247 0 -390.5 -169.5
t-143.5 -462.5q0 -292 143.5 -461t390.5 -169h20q171 0 293.5 82t185.5 234l73 -27q-69 -165 -203.5 -261.5t-316.5 -104.5l-40 -84q161 -27 161 -165q0 -61 -33.5 -103t-80.5 -59t-102 -17z" />
    <glyph glyph-name="Egrave" unicode="&#xc8;" horiz-adv-x="1139" 
d="M170 0v1394h879v-76h-801v-577h733v-76h-733v-589h801v-76h-879zM399 1798h102l125 -221h-80z" />
    <glyph glyph-name="Eacute" unicode="&#xc9;" horiz-adv-x="1139" 
d="M170 0v1394h879v-76h-801v-577h733v-76h-733v-589h801v-76h-879zM519 1577l125 221h102l-146 -221h-81z" />
    <glyph glyph-name="Ecircumflex" unicode="&#xca;" horiz-adv-x="1139" 
d="M170 0v1394h879v-76h-801v-577h733v-76h-733v-589h801v-76h-879zM391 1577l153 221h65l153 -221h-94l-92 139l-93 -139h-92z" />
    <glyph glyph-name="Edieresis" unicode="&#xcb;" horiz-adv-x="1139" 
d="M170 0v1394h879v-76h-801v-577h733v-76h-733v-589h801v-76h-879zM396 1687q0 24 17 41.5t41 17.5t41 -17.5t17 -41.5t-17 -41t-41 -17t-41 17t-17 41zM641 1687q0 24 17 41.5t41 17.5t41 -17.5t17 -41.5t-17 -41t-41 -17t-41 17t-17 41z" />
    <glyph glyph-name="Igrave" unicode="&#xcc;" horiz-adv-x="285" 
d="M39 0v1394h78v-1394h-78zM-98 1798h102l125 -221h-81z" />
    <glyph glyph-name="Iacute" unicode="&#xcd;" horiz-adv-x="285" 
d="M174 0v1394h77v-1394h-77zM156 1577l125 221h102l-147 -221h-80z" />
    <glyph glyph-name="Icircumflex" unicode="&#xce;" horiz-adv-x="166" 
d="M44 0v1394h78v-1394h-78zM-102 1577l153 221h66l153 -221h-94l-93 139l-93 -139h-92z" />
    <glyph glyph-name="Idieresis" unicode="&#xcf;" horiz-adv-x="210" 
d="M66 0v1394h78v-1394h-78zM-75 1687q0 24 17 41.5t41 17.5t41.5 -17.5t17.5 -41.5t-17.5 -41t-41.5 -17t-41 17t-17 41zM170 1687q0 24 17 41.5t41 17.5t41.5 -17.5t17.5 -41.5t-17.5 -41t-41.5 -17t-41 17t-17 41z" />
    <glyph glyph-name="Eth" unicode="&#xd0;" horiz-adv-x="1226" 
d="M157 0v628h-107v80h107v686h289q333 0 516.5 -186t183.5 -522q0 -330 -181.5 -508t-520.5 -178h-287zM234 76h206q309 0 466.5 153.5t157.5 456.5q0 309 -159.5 470.5t-460.5 161.5h-210v-610h372v-80h-372v-552z" />
    <glyph glyph-name="Ntilde" unicode="&#xd1;" horiz-adv-x="1266" 
d="M170 0v1394h85l763 -1258v1258h78v-1394h-87l-761 1254v-1254h-78zM443 1633q-5 54 18 86.5t71 32.5q38 0 117 -27q67 -22 85 -22q9 0 10.5 3t1.5 20v18h76q6 -54 -17 -86.5t-71 -32.5q-36 0 -117 26q-66 23 -85 23q-9 0 -10.5 -3.5t-1.5 -19.5v-18h-77z" />
    <glyph glyph-name="Ograve" unicode="&#xd2;" horiz-adv-x="1406" 
d="M692 -17q-275 0 -443.5 191.5t-168.5 515.5q0 326 168.5 518t443.5 192h20q279 0 446.5 -195t167.5 -515t-167.5 -513.5t-446.5 -193.5h-20zM158 690q0 -292 143.5 -461t390.5 -169h20q249 0 392.5 169.5t143.5 460.5q0 293 -144 462.5t-392 169.5h-20
q-247 0 -390.5 -169.5t-143.5 -462.5zM532 1798h101l125 -221h-80z" />
    <glyph glyph-name="Oacute" unicode="&#xd3;" horiz-adv-x="1406" 
d="M692 -17q-275 0 -443.5 191.5t-168.5 515.5q0 326 168.5 518t443.5 192h20q279 0 446.5 -195t167.5 -515t-167.5 -513.5t-446.5 -193.5h-20zM158 690q0 -292 143.5 -461t390.5 -169h20q249 0 392.5 169.5t143.5 460.5q0 293 -144 462.5t-392 169.5h-20
q-247 0 -390.5 -169.5t-143.5 -462.5zM651 1577l125 221h102l-146 -221h-81z" />
    <glyph glyph-name="Ocircumflex" unicode="&#xd4;" horiz-adv-x="1406" 
d="M692 -17q-275 0 -443.5 191.5t-168.5 515.5q0 326 168.5 518t443.5 192h20q279 0 446.5 -195t167.5 -515t-167.5 -513.5t-446.5 -193.5h-20zM158 690q0 -292 143.5 -461t390.5 -169h20q249 0 392.5 169.5t143.5 460.5q0 293 -144 462.5t-392 169.5h-20
q-247 0 -390.5 -169.5t-143.5 -462.5zM523 1577l153 221h65l153 -221h-94l-92 139l-93 -139h-92z" />
    <glyph glyph-name="Otilde" unicode="&#xd5;" horiz-adv-x="1406" 
d="M692 -17q-275 0 -443.5 191.5t-168.5 515.5q0 326 168.5 518t443.5 192h20q279 0 446.5 -195t167.5 -515t-167.5 -513.5t-446.5 -193.5h-20zM158 690q0 -292 143.5 -461t390.5 -169h20q249 0 392.5 169.5t143.5 460.5q0 293 -144 462.5t-392 169.5h-20
q-247 0 -390.5 -169.5t-143.5 -462.5zM518 1633q-5 54 18 86.5t71 32.5q37 0 117 -27q67 -22 85 -22q9 0 10.5 3t1.5 20v18h76q5 -54 -18 -86.5t-70 -32.5q-36 0 -117 26q-66 23 -85 23q-9 0 -10.5 -3t-1.5 -21v-17h-77z" />
    <glyph glyph-name="Odieresis" unicode="&#xd6;" horiz-adv-x="1406" 
d="M692 -17q-275 0 -443.5 191.5t-168.5 515.5q0 326 168.5 518t443.5 192h20q279 0 446.5 -195t167.5 -515t-167.5 -513.5t-446.5 -193.5h-20zM158 690q0 -292 143.5 -461t390.5 -169h20q249 0 392.5 169.5t143.5 460.5q0 293 -144 462.5t-392 169.5h-20
q-247 0 -390.5 -169.5t-143.5 -462.5zM527 1687q0 24 17 41.5t41 17.5t41.5 -17.5t17.5 -41.5t-17.5 -41t-41.5 -17t-41 17t-17 41zM772 1687q0 24 17 41.5t41 17.5t41 -17.5t17 -41.5t-17 -41t-41 -17t-41 17t-17 41z" />
    <glyph glyph-name="multiply" unicode="&#xd7;" horiz-adv-x="974" 
d="M195 278l-57 56l294 294l-294 293l57 57l293 -293l294 293l56 -57l-293 -293l293 -294l-56 -56l-294 293z" />
    <glyph glyph-name="Oslash" unicode="&#xd8;" horiz-adv-x="1443" 
d="M706 -17q-275 0 -444 191l-126 -126l-56 57l133 134q-119 183 -119 451q0 326 168.5 518t443.5 192h19q139 0 254.5 -51.5t196.5 -147.5l131 131l56 -57l-139 -139q116 -183 116 -446q0 -320 -168 -513.5t-447 -193.5h-19zM171 690q0 -234 99 -395l851 851
q-145 176 -396 176h-19q-247 0 -391 -169.5t-144 -462.5zM317 229q144 -169 389 -169h19q249 0 393 169.5t144 460.5q0 231 -94 390z" />
    <glyph glyph-name="Ugrave" unicode="&#xd9;" 
d="M154 498v896h77v-883q0 -127 42.5 -226.5t110.5 -150t150.5 -73.5t165 2t150.5 77.5t110.5 153t42.5 227.5v873h78v-875q0 -260 -153 -410q-120 -117 -288 -128t-298 89q-155 117 -183 339q-5 43 -5 89zM439 1798h102l125 -221h-81z" />
    <glyph glyph-name="Uacute" unicode="&#xda;" 
d="M154 498v896h77v-883q0 -127 42.5 -226.5t110.5 -150t150.5 -73.5t165 2t150.5 77.5t110.5 153t42.5 227.5v873h78v-875q0 -260 -153 -410q-120 -117 -288 -128t-298 89q-155 117 -183 339q-5 43 -5 89zM559 1577l125 221h102l-147 -221h-80z" />
    <glyph glyph-name="Ucircumflex" unicode="&#xdb;" 
d="M154 498v896h77v-883q0 -127 42.5 -226.5t110.5 -150t150.5 -73.5t165 2t150.5 77.5t110.5 153t42.5 227.5v873h78v-875q0 -260 -153 -410q-120 -117 -288 -128t-298 89q-155 117 -183 339q-5 43 -5 89zM431 1577l153 221h65l153 -221h-94l-93 139l-92 -139h-92z" />
    <glyph glyph-name="Udieresis" unicode="&#xdc;" 
d="M154 498v896h77v-883q0 -127 42.5 -226.5t110.5 -150t150.5 -73.5t165 2t150.5 77.5t110.5 153t42.5 227.5v873h78v-875q0 -260 -153 -410q-120 -117 -288 -128t-298 89q-155 117 -183 339q-5 43 -5 89zM438 1687q0 24 17 41.5t41 17.5t41 -17.5t17 -41.5t-17 -41
t-41 -17t-41 17t-17 41zM682 1687q0 24 17.5 41.5t41.5 17.5t41 -17.5t17 -41.5t-17 -41t-41 -17t-41.5 17t-17.5 41z" />
    <glyph glyph-name="Yacute" unicode="&#xdd;" horiz-adv-x="1107" 
d="M515 0l-4 415l-491 979h91l439 -888l446 888h91l-499 -979l5 -415h-78zM496 1577l125 221h102l-146 -221h-81z" />
    <glyph glyph-name="Thorn" unicode="&#xde;" horiz-adv-x="1156" 
d="M170 0v1380h78v-222h385q217 0 330 -96t113 -283v-2q0 -187 -113 -283t-330 -96h-385v-398h-78zM248 473h385q186 0 275.5 75t89.5 231q0 154 -89.5 228.5t-275.5 74.5h-385v-609z" />
    <glyph glyph-name="germandbls" unicode="&#xdf;" horiz-adv-x="1114" 
d="M669 -8q-240 0 -326 24v86q39 -15 143.5 -22.5t182.5 -7.5q131 0 203.5 51t72.5 147q0 62 -33 116t-128 142q-87 79 -115.5 131.5t-28.5 123.5t28.5 123.5t115.5 132.5q95 88 128 142t33 116q0 96 -72.5 147t-203.5 51q-204 0 -307 -84t-114 -250q-4 -54 -4 -115v-1046
h-82v1042q0 55 4 125q11 195 140.5 301t365.5 107q167 1 262.5 -75t95.5 -209q0 -82 -47.5 -157.5t-149.5 -164.5q-63 -55 -85.5 -95t-22.5 -91q0 -50 22.5 -90t85.5 -95q102 -89 149.5 -164.5t47.5 -157.5q0 -134 -96 -209t-265 -75z" />
    <glyph glyph-name="agrave" unicode="&#xe0;" horiz-adv-x="1008" 
d="M454 -10q-159 0 -251.5 79t-92.5 215q0 146 103 220q52 38 122 52.5t174 18.5l344 15v20q0 160 -89 241.5t-246 81.5q-106 0 -180.5 -41.5t-139.5 -138.5l-60 48q75 109 165.5 157.5t214.5 48.5q186 0 299 -103t113 -294v-610h-77v192q-61 -93 -170.5 -147.5
t-228.5 -54.5zM188 284q0 -104 70.5 -163t199.5 -59q101 0 191.5 48.5t147 136.5t56.5 194v77l-338 -14q-92 -3 -152 -15.5t-100 -41.5q-75 -55 -75 -163zM330 1526h102l137 -253h-80z" />
    <glyph glyph-name="aacute" unicode="&#xe1;" horiz-adv-x="1008" 
d="M454 -10q-159 0 -251.5 79t-92.5 215q0 146 103 220q52 38 122 52.5t174 18.5l344 15v20q0 160 -89 241.5t-246 81.5q-106 0 -180.5 -41.5t-139.5 -138.5l-60 48q75 109 165.5 157.5t214.5 48.5q186 0 299 -103t113 -294v-610h-77v192q-61 -93 -170.5 -147.5
t-228.5 -54.5zM188 284q0 -104 70.5 -163t199.5 -59q101 0 191.5 48.5t147 136.5t56.5 194v77l-338 -14q-92 -3 -152 -15.5t-100 -41.5q-75 -55 -75 -163zM486 1273l138 253h101l-158 -253h-81z" />
    <glyph glyph-name="acircumflex" unicode="&#xe2;" horiz-adv-x="1008" 
d="M454 -10q-159 0 -251.5 79t-92.5 215q0 146 103 220q52 38 122 52.5t174 18.5l344 15v20q0 160 -89 241.5t-246 81.5q-106 0 -180.5 -41.5t-139.5 -138.5l-60 48q75 109 165.5 157.5t214.5 48.5q186 0 299 -103t113 -294v-610h-77v192q-61 -93 -170.5 -147.5
t-228.5 -54.5zM188 284q0 -104 70.5 -163t199.5 -59q101 0 191.5 48.5t147 136.5t56.5 194v77l-338 -14q-92 -3 -152 -15.5t-100 -41.5q-75 -55 -75 -163zM361 1273l149 253h67l149 -253h-92l-92 163l-91 -163h-90z" />
    <glyph glyph-name="atilde" unicode="&#xe3;" horiz-adv-x="1008" 
d="M454 -10q-159 0 -251.5 79t-92.5 215q0 146 103 220q52 38 122 52.5t174 18.5l344 15v20q0 160 -89 241.5t-246 81.5q-106 0 -180.5 -41.5t-139.5 -138.5l-60 48q75 109 165.5 157.5t214.5 48.5q186 0 299 -103t113 -294v-610h-77v192q-61 -93 -170.5 -147.5
t-228.5 -54.5zM188 284q0 -104 70.5 -163t199.5 -59q101 0 191.5 48.5t147 136.5t56.5 194v77l-338 -14q-92 -3 -152 -15.5t-100 -41.5q-75 -55 -75 -163zM373 1371q-5 54 18 86t71 32q36 0 117 -26q63 -22 85 -22q9 0 10.5 3t1.5 19v18h76q6 -54 -17 -86t-71 -32
q-40 0 -117 26q-67 22 -85 22q-9 0 -10.5 -3t-1.5 -19v-18h-77z" />
    <glyph glyph-name="adieresis" unicode="&#xe4;" horiz-adv-x="1008" 
d="M454 -10q-159 0 -251.5 79t-92.5 215q0 146 103 220q53 38 123.5 53t173.5 18l343 15v20q0 160 -89 241.5t-246 81.5q-106 0 -180.5 -41.5t-139.5 -138.5l-60 48q75 109 165.5 157.5t214.5 48.5q186 0 299 -103t113 -294v-610h-77v192q-61 -93 -170.5 -147.5
t-228.5 -54.5zM188 284q0 -104 70.5 -163t199.5 -59q101 0 191.5 48.5t147 136.5t56.5 194v77l-338 -14q-94 -4 -153 -16t-99 -41q-75 -55 -75 -163zM364 1398q0 24 17 41t41 17t41 -17t17 -41t-17 -41.5t-41 -17.5t-41 17.5t-17 41.5zM609 1398q0 24 17 41t41 17t41 -17
t17 -41t-17 -41.5t-41 -17.5t-41 17.5t-17 41.5z" />
    <glyph glyph-name="aring" unicode="&#xe5;" horiz-adv-x="1008" 
d="M454 -10q-159 0 -251.5 79t-92.5 215q0 146 103 220q52 38 122 52.5t174 18.5l344 15v20q0 160 -89 241.5t-246 81.5q-106 0 -180.5 -41.5t-139.5 -138.5l-60 48q75 109 165.5 157.5t214.5 48.5q186 0 299 -103t113 -294v-610h-77v192q-61 -93 -170.5 -147.5
t-228.5 -54.5zM188 284q0 -104 70.5 -163t199.5 -59q101 0 191.5 48.5t147 136.5t56.5 194v77l-338 -14q-92 -3 -152 -15.5t-100 -41.5q-75 -55 -75 -163zM413 1398q0 62 40.5 101t99.5 39t99.5 -39t40.5 -101q0 -63 -40.5 -101.5t-99.5 -38.5t-99.5 38.5t-40.5 101.5z
M497 1398q0 -61 56 -61q57 0 57 61q0 60 -57 60q-56 0 -56 -60z" />
    <glyph glyph-name="ae" unicode="&#xe6;" horiz-adv-x="1830" 
d="M454 -10q-159 0 -251.5 79t-92.5 215q0 146 103 220q53 38 123.5 53t173.5 18l343 15v20q0 160 -89 241.5t-246 81.5q-106 0 -180.5 -41.5t-139.5 -138.5l-60 48q75 109 165.5 157.5t214.5 48.5q146 0 249 -64t142 -185q48 99 132 161t177.5 80t190.5 -6.5t173.5 -86.5
t124 -173t43.5 -253h-817q5 -188 108.5 -302t271.5 -114h20q112 0 196 52.5t133 147.5l71 -31q-59 -114 -163 -178.5t-237 -64.5h-20q-145 0 -255.5 76.5t-163.5 210.5q-65 -137 -186 -212t-254 -75zM188 284q0 -104 70.5 -163t199.5 -59q101 0 191.5 48.5t147 136.5
t56.5 194v77l-338 -14q-94 -4 -153 -16t-99 -41q-75 -55 -75 -163zM933 550h739q-7 94 -41.5 169t-85.5 121.5t-114 71.5t-128.5 25t-128.5 -25.5t-114 -72t-85.5 -121.5t-41.5 -168z" />
    <glyph glyph-name="ccedilla" unicode="&#xe7;" horiz-adv-x="1038" 
d="M461 -444q-78 0 -123 27v90q30 -21 55.5 -29t67.5 -8q132 0 132 99q0 56 -47 79t-157 14l85 166q-177 23 -285.5 161.5t-108.5 344.5q0 225 127 366t332 141h19q135 0 239.5 -64t160.5 -177l-72 -31q-49 96 -133 147t-195 51h-19q-173 0 -277 -118.5t-104 -314.5
t104 -316t277 -120h19q112 0 196 52t134 148l70 -31q-59 -114 -163 -178.5t-237 -64.5h5l-47 -90q161 -27 161 -165q0 -88 -65 -133.5t-151 -45.5z" />
    <glyph glyph-name="egrave" unicode="&#xe8;" horiz-adv-x="1056" 
d="M539 -10q-203 0 -331 142.5t-128 367.5q0 146 56 260.5t158.5 179t234.5 67.5q204 -5 328.5 -151.5t118.5 -375.5h-818q5 -188 109 -302t272 -114h19q112 0 196 52t134 148l70 -31q-59 -114 -163 -178.5t-237 -64.5h-19zM159 550h738q-14 171 -113 275t-255 108
q-157 -4 -256.5 -108t-113.5 -275zM354 1526h101l138 -253h-81z" />
    <glyph glyph-name="eacute" unicode="&#xe9;" horiz-adv-x="1056" 
d="M539 -10q-203 0 -331 142.5t-128 367.5q0 146 56 260.5t158.5 179t234.5 67.5q204 -5 328.5 -151.5t118.5 -375.5h-818q5 -188 109 -302t272 -114h19q112 0 196 52t134 148l70 -31q-59 -114 -163 -178.5t-237 -64.5h-19zM159 550h738q-14 171 -113 275t-255 108
q-157 -4 -256.5 -108t-113.5 -275zM473 1273l138 253h101l-159 -253h-80z" />
    <glyph glyph-name="ecircumflex" unicode="&#xea;" horiz-adv-x="1056" 
d="M539 -10q-203 0 -331 142.5t-128 367.5q0 146 56 260.5t158.5 179t234.5 67.5q204 -5 328.5 -151.5t118.5 -375.5h-818q5 -188 109 -302t272 -114h19q112 0 196 52t134 148l70 -31q-59 -114 -163 -178.5t-237 -64.5h-19zM159 550h738q-14 171 -113 275t-255 108
q-157 -4 -256.5 -108t-113.5 -275zM347 1273l149 253h67l150 -253h-93l-91 163l-92 -163h-90z" />
    <glyph glyph-name="edieresis" unicode="&#xeb;" horiz-adv-x="1056" 
d="M539 -10q-203 0 -331 142.5t-128 367.5q0 146 56 260.5t158.5 179t234.5 67.5q204 -5 328.5 -151.5t118.5 -375.5h-818q5 -188 109 -302t272 -114h19q112 0 196 52t134 148l70 -31q-59 -114 -163 -178.5t-237 -64.5h-19zM159 550h738q-14 171 -113 275t-255 108
q-157 -4 -256.5 -108t-113.5 -275zM350 1398q0 24 17 41t41 17t41.5 -17t17.5 -41t-17.5 -41.5t-41.5 -17.5t-41 17.5t-17 41.5zM595 1398q0 24 17 41t41 17t41.5 -17t17.5 -41t-17.5 -41.5t-41.5 -17.5t-41 17.5t-17 41.5z" />
    <glyph glyph-name="igrave" unicode="&#xec;" horiz-adv-x="381" 
d="M141 0v997h78v-997h-78zM-32 1526h101l138 -253h-80z" />
    <glyph glyph-name="iacute" unicode="&#xed;" horiz-adv-x="369" 
d="M175 0v997h78v-997h-78zM162 1273l138 253h101l-158 -253h-81z" />
    <glyph glyph-name="icircumflex" unicode="&#xee;" horiz-adv-x="162" 
d="M-102 1273l150 253h66l150 -253h-92l-92 163l-92 -163h-90zM41 0v997h78v-997h-78z" />
    <glyph glyph-name="idieresis" unicode="&#xef;" horiz-adv-x="214" 
d="M68 0v997h78v-997h-78zM-73 1398q0 24 17 41t41 17t41.5 -17t17.5 -41t-17.5 -41.5t-41.5 -17.5t-41 17.5t-17 41.5zM172 1398q0 24 17 41t41 17t41.5 -17t17.5 -41t-17.5 -41.5t-41.5 -17.5t-41 17.5t-17 41.5z" />
    <glyph glyph-name="eth" unicode="&#xf0;" horiz-adv-x="1107" 
d="M539 -10q-203 0 -331 142.5t-128 367.5t127 366t332 141h19q119 0 218 -52l-100 196l-172 -45l-19 77l155 42l-89 174h85l79 -154l148 40l21 -78l-133 -36l207 -403h-1q60 -120 60 -268q0 -225 -127.5 -367.5t-331.5 -142.5h-19zM158 500q0 -196 104 -316t277 -120h19
q173 0 277 119.5t104 316.5q0 196 -104.5 314.5t-276.5 118.5h-19q-173 0 -277 -118.5t-104 -314.5z" />
    <glyph glyph-name="ntilde" unicode="&#xf1;" horiz-adv-x="1105" 
d="M162 0v997h78v-155q94 165 340 165q196 0 289.5 -103t93.5 -307v-597h-77v587q0 182 -70.5 264t-235.5 82q-168 0 -254 -108t-86 -337v-488h-78zM360 1371q-5 54 18 86t70 32q36 0 117 -26q63 -22 85 -22q9 0 10.5 2.5t1.5 20.5v17h77q5 -54 -18 -86t-71 -32
q-40 0 -117 26q-67 22 -85 22q-9 0 -10.5 -3t-1.5 -19v-18h-76z" />
    <glyph glyph-name="ograve" unicode="&#xf2;" horiz-adv-x="1097" 
d="M539 -10q-203 0 -331 142.5t-128 367.5t127 366t332 141h19q205 0 332 -141t127 -366t-127.5 -367.5t-331.5 -142.5h-19zM158 500q0 -196 104 -316t277 -120h19q173 0 277 119.5t104 316.5q0 196 -104.5 314.5t-276.5 118.5h-19q-173 0 -277 -118.5t-104 -314.5z
M372 1526h101l138 -253h-80z" />
    <glyph glyph-name="oacute" unicode="&#xf3;" horiz-adv-x="1097" 
d="M539 -10q-203 0 -331 142.5t-128 367.5t127 366t332 141h19q205 0 332 -141t127 -366t-127.5 -367.5t-331.5 -142.5h-19zM158 500q0 -196 104 -316t277 -120h19q173 0 277 119.5t104 316.5q0 196 -104.5 314.5t-276.5 118.5h-19q-173 0 -277 -118.5t-104 -314.5z
M491 1273l138 253h101l-158 -253h-81z" />
    <glyph glyph-name="ocircumflex" unicode="&#xf4;" horiz-adv-x="1097" 
d="M539 -10q-203 0 -331 142.5t-128 367.5t127 366t332 141h19q205 0 332 -141t127 -366t-127.5 -367.5t-331.5 -142.5h-19zM158 500q0 -196 104 -316t277 -120h19q173 0 277 119.5t104 316.5q0 196 -104.5 314.5t-276.5 118.5h-19q-173 0 -277 -118.5t-104 -314.5z
M365 1273l150 253h67l149 -253h-92l-92 163l-91 -163h-91z" />
    <glyph glyph-name="otilde" unicode="&#xf5;" horiz-adv-x="1097" 
d="M539 -10q-203 0 -331 142.5t-128 367.5t127 366t332 141h19q205 0 332 -141t127 -366t-127.5 -367.5t-331.5 -142.5h-19zM158 500q0 -196 104 -316t277 -120h19q173 0 277 119.5t104 316.5q0 196 -104.5 314.5t-276.5 118.5h-19q-173 0 -277 -118.5t-104 -314.5z
M358 1371q-5 54 18 86t70 32q36 0 117 -26q63 -22 85 -22q9 0 10.5 2.5t1.5 20.5v17h77q5 -54 -18 -86t-71 -32q-40 0 -117 26q-67 22 -85 22q-9 0 -10.5 -3t-1.5 -19v-18h-76z" />
    <glyph glyph-name="odieresis" unicode="&#xf6;" horiz-adv-x="1097" 
d="M539 -10q-203 0 -331 142.5t-128 367.5t127 366t332 141h19q205 0 332 -141t127 -366t-127.5 -367.5t-331.5 -142.5h-19zM158 500q0 -196 104 -316t277 -120h19q173 0 277 119.5t104 316.5q0 196 -104.5 314.5t-276.5 118.5h-19q-173 0 -277 -118.5t-104 -314.5z
M367 1398q0 24 17.5 41t41.5 17t41 -17t17 -41t-17 -41.5t-41 -17.5t-41.5 17.5t-17.5 41.5zM612 1398q0 24 17.5 41t41.5 17t41 -17t17 -41t-17 -41.5t-41 -17.5t-41.5 17.5t-17.5 41.5z" />
    <glyph glyph-name="divide" unicode="&#xf7;" horiz-adv-x="1009" 
d="M96 597v80h817v-80h-817zM435 334q0 30 20 50t50 20q29 0 49.5 -20t20.5 -50q0 -29 -20.5 -49.5t-49.5 -20.5q-30 0 -50 20.5t-20 49.5zM435 937q0 30 20 50t50 20q29 0 49.5 -20t20.5 -50t-20.5 -50t-49.5 -20q-30 0 -50 20t-20 50z" />
    <glyph glyph-name="oslash" unicode="&#xf8;" horiz-adv-x="1268" 
d="M136 -24l-56 57l167 167q-78 132 -78 300q0 225 127.5 366t331.5 141h20q177 0 298 -108l186 186l56 -57l-188 -188q106 -134 106 -340q0 -225 -127.5 -367.5t-330.5 -142.5h-20q-205 0 -332 146zM247 500q0 -138 56 -244l589 589q-99 88 -244 88h-20
q-172 0 -276.5 -118.5t-104.5 -314.5zM349 189q105 -125 279 -125h20q173 0 277 119.5t104 316.5q0 170 -84 285z" />
    <glyph glyph-name="ugrave" unicode="&#xf9;" horiz-adv-x="1085" 
d="M525 -10q-196 0 -289.5 103t-93.5 307v597h78v-587q0 -182 70 -264t235 -82q169 0 254.5 108t85.5 337v488h78v-997h-78v155q-94 -165 -340 -165zM337 1526h101l138 -253h-80z" />
    <glyph glyph-name="uacute" unicode="&#xfa;" horiz-adv-x="1085" 
d="M525 -10q-196 0 -289.5 103t-93.5 307v597h78v-587q0 -182 70 -264t235 -82q169 0 254.5 108t85.5 337v488h78v-997h-78v155q-94 -165 -340 -165zM485 1273l138 253h101l-158 -253h-81z" />
    <glyph glyph-name="ucircumflex" unicode="&#xfb;" horiz-adv-x="1085" 
d="M525 -10q-196 0 -289.5 103t-93.5 307v597h78v-587q0 -182 70 -264t235 -82q169 0 254.5 108t85.5 337v488h78v-997h-78v155q-94 -165 -340 -165zM360 1273l149 253h67l149 -253h-92l-91 163l-92 -163h-90z" />
    <glyph glyph-name="udieresis" unicode="&#xfc;" horiz-adv-x="1085" 
d="M525 -10q-196 0 -289.5 103t-93.5 307v597h78v-587q0 -182 70 -264t235 -82q169 0 254.5 108t85.5 337v488h78v-997h-78v155q-94 -165 -340 -165zM361 1398q0 24 17 41t41 17t41 -17t17 -41t-17 -41.5t-41 -17.5t-41 17.5t-17 41.5zM606 1398q0 24 17 41t41 17t41 -17
t17 -41t-17 -41.5t-41 -17.5t-41 17.5t-17 41.5z" />
    <glyph glyph-name="yacute" unicode="&#xfd;" horiz-adv-x="986" 
d="M205 -309q44 -24 80.5 -4t65.5 93l100 243l-401 974h87l354 -877l360 877h85l-514 -1249q-87 -211 -248 -124zM438 1273l138 253h101l-159 -253h-80z" />
    <glyph glyph-name="thorn" unicode="&#xfe;" horiz-adv-x="1185" 
d="M162 -397v1791h78v-614q59 107 159.5 167t221.5 60h27q198 0 327.5 -145.5t129.5 -363.5q0 -219 -130 -363.5t-327 -144.5h-27q-122 0 -222 60t-159 168v-615h-78zM238 498q0 -191 105.5 -311.5t273.5 -120.5h28q168 0 275.5 121t107.5 311t-107.5 311.5t-275.5 121.5
h-28q-166 0 -272.5 -121.5t-106.5 -311.5z" />
    <glyph glyph-name="ydieresis" unicode="&#xff;" horiz-adv-x="986" 
d="M205 -309q44 -24 80 -4t66 93l100 243l-401 974h87l354 -877l360 877h85l-514 -1249q-88 -210 -248 -124zM315 1398q0 24 17.5 41t41.5 17t41 -17t17 -41t-17 -41.5t-41 -17.5t-41.5 17.5t-17.5 41.5zM560 1398q0 24 17.5 41t40.5 17q24 0 41.5 -17t17.5 -41t-17.5 -41.5
t-41.5 -17.5q-23 0 -40.5 17.5t-17.5 41.5z" />
    <glyph glyph-name="Amacron" unicode="&#x100;" horiz-adv-x="1130" 
d="M40 0l486 1394h76l488 -1394h-86l-161 467h-556l-161 -467h-86zM312 542h506l-253 730zM410 1647v79h311v-79h-311z" />
    <glyph glyph-name="amacron" unicode="&#x101;" horiz-adv-x="1008" 
d="M454 -10q-159 0 -251.5 79t-92.5 215q0 146 103 220q52 38 122 52.5t174 18.5l344 15v20q0 160 -89 241.5t-246 81.5q-106 0 -180.5 -41.5t-139.5 -138.5l-60 48q75 109 165.5 157.5t214.5 48.5q186 0 299 -103t113 -294v-610h-77v192q-61 -93 -170.5 -147.5
t-228.5 -54.5zM188 284q0 -104 70.5 -163t199.5 -59q101 0 191.5 48.5t147 136.5t56.5 194v77l-338 -14q-92 -3 -152 -15.5t-100 -41.5q-75 -55 -75 -163zM387 1351v80h311v-80h-311z" />
    <glyph glyph-name="Abreve" unicode="&#x102;" horiz-adv-x="1130" 
d="M40 0l486 1394h76l488 -1394h-86l-161 467h-556l-161 -467h-86zM312 542h506l-253 730zM358 1798h74q-4 -83 32 -126t102 -43t102 43t32 126h73q7 -112 -51.5 -180.5t-155.5 -68.5q-98 0 -156 68t-52 181z" />
    <glyph glyph-name="abreve" unicode="&#x103;" horiz-adv-x="1008" 
d="M454 -10q-159 0 -251.5 79t-92.5 215q0 146 103 220q53 38 123.5 53t173.5 18l343 15v20q0 160 -89 241.5t-246 81.5q-106 0 -180.5 -41.5t-139.5 -138.5l-60 48q75 109 165.5 157.5t214.5 48.5q186 0 299 -103t113 -294v-610h-77v192q-61 -93 -170.5 -147.5
t-228.5 -54.5zM188 284q0 -104 70.5 -163t199.5 -59q101 0 191.5 48.5t147 136.5t56.5 194v77l-338 -14q-94 -4 -153 -16t-99 -41q-75 -55 -75 -163zM335 1514h74q-4 -83 32 -126t101 -43q66 0 102 43t32 126h74q6 -112 -52.5 -180t-155.5 -68q-98 0 -155.5 68t-51.5 180z
" />
    <glyph glyph-name="Aogonek" unicode="&#x104;" horiz-adv-x="1127" 
d="M911 -434q-60 0 -102 36t-42 118q0 100 60 186t162 136l-146 425h-556l-161 -467h-86l486 1394h76l485 -1385q-109 -44 -173.5 -117t-64.5 -166q0 -46 17 -64t53 -18q38 0 70.5 20t75.5 71v-103q-63 -66 -154 -66zM312 542h506l-253 730z" />
    <glyph glyph-name="aogonek" unicode="&#x105;" horiz-adv-x="1048" 
d="M755 -434q-60 0 -102 36t-42 118q0 107 66.5 200t175.5 134v138q-61 -93 -170.5 -147.5t-228.5 -54.5q-159 0 -251.5 79t-92.5 215q0 146 103 220q52 38 122 52.5t174 18.5l344 15v20q0 160 -89 241.5t-246 81.5q-106 0 -180.5 -41.5t-139.5 -138.5l-60 48
q75 109 165.5 157.5t214.5 48.5q186 0 299 -103t113 -294v-606q-104 -22 -170.5 -101.5t-66.5 -176.5q0 -46 17 -64t53 -18q38 0 70.5 20t75.5 71v-103q-63 -66 -154 -66zM188 284q0 -104 70.5 -163t199.5 -59q101 0 191.5 48.5t147 136.5t56.5 194v77l-338 -14
q-92 -3 -152 -15.5t-100 -41.5q-75 -55 -75 -163z" />
    <glyph glyph-name="Cacute" unicode="&#x106;" horiz-adv-x="1334" 
d="M692 -12q-275 0 -443.5 192t-168.5 516q0 326 168.5 518t443.5 192h20q193 0 336.5 -97t215.5 -270l-73 -27q-63 152 -185.5 234t-293.5 82h-20q-247 0 -390.5 -169.5t-143.5 -462.5q0 -292 143.5 -461t390.5 -169h20q171 0 293.5 82t185.5 234l73 -27
q-72 -173 -215.5 -270t-336.5 -97h-20zM620 1577l125 221h102l-146 -221h-81z" />
    <glyph glyph-name="cacute" unicode="&#x107;" horiz-adv-x="1038" 
d="M539 -10q-203 0 -331 142.5t-128 367.5t127 366t332 141h19q135 0 239.5 -64t160.5 -177l-72 -31q-49 96 -133 147t-195 51h-19q-173 0 -277 -118.5t-104 -314.5t104 -316t277 -120h19q112 0 196 52t134 148l70 -31q-59 -114 -163 -178.5t-237 -64.5h-19zM482 1273
l138 253h101l-158 -253h-81z" />
    <glyph glyph-name="Ccircumflex" unicode="&#x108;" horiz-adv-x="1334" 
d="M692 -12q-275 0 -443.5 192t-168.5 516q0 326 168.5 518t443.5 192h20q193 0 336.5 -97t215.5 -270l-73 -27q-63 152 -185.5 234t-293.5 82h-20q-247 0 -390.5 -169.5t-143.5 -462.5q0 -292 143.5 -461t390.5 -169h20q171 0 293.5 82t185.5 234l73 -27
q-72 -173 -215.5 -270t-336.5 -97h-20zM520 1577l153 221h65l154 -221h-95l-92 139l-93 -139h-92z" />
    <glyph glyph-name="ccircumflex" unicode="&#x109;" horiz-adv-x="1038" 
d="M539 -10q-203 0 -331 142.5t-128 367.5t127 366t332 141h19q135 0 239.5 -64t160.5 -177l-72 -31q-49 96 -133 147t-195 51h-19q-173 0 -277 -118.5t-104 -314.5t104 -316t277 -120h19q112 0 196 52t134 148l70 -31q-59 -114 -163 -178.5t-237 -64.5h-19zM365 1273
l150 253h67l149 -253h-92l-92 163l-91 -163h-91z" />
    <glyph glyph-name="Cdotaccent" unicode="&#x10a;" horiz-adv-x="1334" 
d="M692 -12q-275 0 -443.5 192t-168.5 516q0 326 168.5 518t443.5 192h20q193 0 336.5 -97t215.5 -270l-73 -27q-63 152 -185.5 234t-293.5 82h-20q-247 0 -390.5 -169.5t-143.5 -462.5q0 -292 143.5 -461t390.5 -169h20q171 0 293.5 82t185.5 234l73 -27
q-72 -173 -215.5 -270t-336.5 -97h-20zM626 1687q0 24 17 41.5t41 17.5t41.5 -17.5t17.5 -41.5t-17.5 -41t-41.5 -17t-41 17t-17 41z" />
    <glyph glyph-name="cdotaccent" unicode="&#x10b;" horiz-adv-x="1038" 
d="M539 -10q-203 0 -331 142.5t-128 367.5t127 366t332 141h19q135 0 239.5 -64t160.5 -177l-72 -31q-49 96 -133 147t-195 51h-19q-173 0 -277 -118.5t-104 -314.5t104 -316t277 -120h19q112 0 196 52t134 148l70 -31q-59 -114 -163 -178.5t-237 -64.5h-19zM480 1396
q0 24 17.5 41t41.5 17t41 -17t17 -41t-17 -41.5t-41 -17.5t-41.5 17.5t-17.5 41.5z" />
    <glyph glyph-name="Ccaron" unicode="&#x10c;" horiz-adv-x="1334" 
d="M692 -12q-275 0 -443.5 192t-168.5 516q0 326 168.5 518t443.5 192h20q193 0 336.5 -97t215.5 -270l-73 -27q-63 152 -185.5 234t-293.5 82h-20q-247 0 -390.5 -169.5t-143.5 -462.5q0 -292 143.5 -461t390.5 -169h20q171 0 293.5 82t185.5 234l73 -27
q-72 -173 -215.5 -270t-336.5 -97h-20zM500 1798h94l92 -140l93 140h92l-153 -221h-65z" />
    <glyph glyph-name="ccaron" unicode="&#x10d;" horiz-adv-x="1038" 
d="M539 -10q-203 0 -331 142.5t-128 367.5t127 366t332 141h19q135 0 239.5 -64t160.5 -177l-72 -31q-49 96 -133 147t-195 51h-19q-173 0 -277 -118.5t-104 -314.5t104 -316t277 -120h19q112 0 196 52t134 148l70 -31q-59 -114 -163 -178.5t-237 -64.5h-19zM357 1526h92
l91 -163l92 163h90l-149 -253h-67z" />
    <glyph glyph-name="Dcaron" unicode="&#x10e;" horiz-adv-x="1240" 
d="M170 0v1394h290q333 0 516.5 -186t183.5 -522q0 -330 -181.5 -508t-520.5 -178h-288zM248 76h206q309 0 466.5 153.5t157.5 456.5q0 309 -159.5 470.5t-460.5 161.5h-210v-1242zM425 1798h94l93 -140l92 140h92l-153 -221h-65z" />
    <glyph glyph-name="dcaron" unicode="&#x10f;" horiz-adv-x="1296" 
d="M537 -10q-197 0 -327 146t-130 364q0 219 130 363t327 144h27q122 0 222 -60t159 -167v614h78v-1394h-78v217q-59 -107 -159.5 -167t-221.5 -60h-27zM158 500q0 -191 107 -312.5t275 -121.5h28q166 0 272.5 121.5t106.5 312.5q0 190 -105.5 310.5t-273.5 120.5h-28
q-168 0 -275 -120.5t-107 -310.5zM1133 1190l97 276h82v-33l-102 -243h-77z" />
    <glyph glyph-name="Dcroat" unicode="&#x110;" horiz-adv-x="1226" 
d="M157 0v628h-107v80h107v686h289q333 0 516.5 -186t183.5 -522q0 -330 -181.5 -508t-520.5 -178h-287zM234 76h206q309 0 466.5 153.5t157.5 456.5q0 309 -159.5 470.5t-460.5 161.5h-210v-610h372v-80h-372v-552z" />
    <glyph glyph-name="dcroat" unicode="&#x111;" horiz-adv-x="1136" 
d="M537 -10q-197 0 -327 146t-130 364q0 219 130 363t327 144h27q122 0 222 -60t159 -167v371h-224v80h224v163h78v-163h91v-80h-91v-1151h-78v217q-59 -107 -159.5 -167t-221.5 -60h-27zM158 500q0 -191 107 -312.5t275 -121.5h28q166 0 272.5 121.5t106.5 312.5
q0 190 -105.5 310.5t-273.5 120.5h-28q-168 0 -275 -120.5t-107 -310.5z" />
    <glyph glyph-name="Emacron" unicode="&#x112;" horiz-adv-x="1139" 
d="M170 0v1394h879v-76h-801v-577h733v-76h-733v-589h801v-76h-879zM420 1647v79h311v-79h-311z" />
    <glyph glyph-name="emacron" unicode="&#x113;" horiz-adv-x="1056" 
d="M539 -10q-203 0 -331 142.5t-128 367.5q0 146 56 260.5t158.5 179t234.5 67.5q204 -5 328.5 -151.5t118.5 -375.5h-818q5 -188 109 -302t272 -114h19q112 0 196 52t134 148l70 -31q-59 -114 -163 -178.5t-237 -64.5h-19zM159 550h738q-14 171 -113 275t-255 108
q-157 -4 -256.5 -108t-113.5 -275zM373 1351v80h311v-80h-311z" />
    <glyph glyph-name="Ebreve" unicode="&#x114;" horiz-adv-x="1139" 
d="M170 0v1394h879v-76h-801v-577h733v-76h-733v-589h801v-76h-879zM436 1851h74q-4 -83 32 -126t102 -43q65 0 101 43t32 126h74q6 -113 -52 -181t-155 -68q-98 0 -156 68t-52 181z" />
    <glyph glyph-name="ebreve" unicode="&#x115;" horiz-adv-x="1056" 
d="M539 -10q-203 0 -331 142.5t-128 367.5q0 247 148 388q118 112 282 118q165 6 291 -95q152 -122 172 -348q4 -40 3 -83h-818q5 -188 109 -302t272 -114h19q112 0 196 52t134 148l70 -31q-59 -114 -163 -178.5t-237 -64.5h-19zM159 550h738q-10 124 -66 214t-134.5 130.5
t-168.5 40.5t-168.5 -41t-134.5 -131t-66 -213zM319 1514h74q-4 -83 32 -126t102 -43t102 43t32 126h73q7 -112 -51.5 -180t-155.5 -68q-98 0 -156 68t-52 180z" />
    <glyph glyph-name="Edotaccent" unicode="&#x116;" horiz-adv-x="1139" 
d="M170 0v1394h879v-76h-801v-577h733v-76h-733v-589h801v-76h-879zM517 1687q0 24 17.5 41.5t41.5 17.5t41 -17.5t17 -41.5t-17 -41t-41 -17t-41.5 17t-17.5 41z" />
    <glyph glyph-name="edotaccent" unicode="&#x117;" horiz-adv-x="1056" 
d="M539 -10q-203 0 -331 142.5t-128 367.5q0 146 56 260.5t158.5 179t234.5 67.5q204 -5 328.5 -151.5t118.5 -375.5h-818q5 -188 109 -302t272 -114h19q112 0 196 52t134 148l70 -31q-59 -114 -163 -178.5t-237 -64.5h-19zM159 550h738q-14 171 -113 275t-255 108
q-157 -4 -256.5 -108t-113.5 -275zM471 1396q0 24 17 41t41 17t41 -17t17 -41t-17 -41.5t-41 -17.5t-41 17.5t-17 41.5z" />
    <glyph glyph-name="Eogonek" unicode="&#x118;" horiz-adv-x="1142" 
d="M881 -434q-60 0 -102 36t-42 118t40 154.5t111 125.5h-718v1394h879v-76h-801v-577h733v-76h-733v-589h804v-69q-107 -44 -170 -116.5t-63 -164.5q0 -46 17 -64t53 -18q38 0 70 20t75 71v-103q-62 -66 -153 -66z" />
    <glyph glyph-name="eogonek" unicode="&#x119;" horiz-adv-x="1056" 
d="M527 -434q-60 0 -102 36t-42 118t36.5 161.5t78.5 108.5h41q-203 0 -331 142.5t-128 367.5q0 146 56 260.5t158.5 179t234.5 67.5q204 -5 328.5 -151.5t118.5 -375.5h-818q5 -188 109 -302t272 -114h19q112 0 196 52t134 148l70 -31q-48 -92 -127 -153t-180 -81
q-84 -35 -135 -111.5t-51 -161.5q0 -46 17 -64t53 -18q38 0 70 20t75 71v-103q-62 -66 -153 -66zM159 550h738q-14 171 -113 275t-255 108q-157 -4 -256.5 -108t-113.5 -275zM373 1351v80h311v-80h-311z" />
    <glyph glyph-name="Ecaron" unicode="&#x11a;" horiz-adv-x="1139" 
d="M170 0v1394h879v-76h-801v-577h733v-76h-733v-589h801v-76h-879zM391 1798h94l93 -140l92 140h92l-153 -221h-65z" />
    <glyph glyph-name="ecaron" unicode="&#x11b;" horiz-adv-x="1056" 
d="M539 -10q-203 0 -331 142.5t-128 367.5q0 146 56 260.5t158.5 179t234.5 67.5q204 -5 328.5 -151.5t118.5 -375.5h-818q5 -188 109 -302t272 -114h19q112 0 196 52t134 148l70 -31q-59 -114 -163 -178.5t-237 -64.5h-19zM159 550h738q-14 171 -113 275t-255 108
q-157 -4 -256.5 -108t-113.5 -275zM347 1526h92l92 -163l91 163h91l-150 -253h-67z" />
    <glyph glyph-name="Gcircumflex" unicode="&#x11c;" horiz-adv-x="1308" 
d="M692 -12q-275 0 -443.5 192t-168.5 518q0 324 168.5 516t443.5 192q197 0 340 -100t206 -277l-71 -28q-55 153 -176 240t-299 87q-247 0 -390.5 -169t-143.5 -461q0 -293 143.5 -462.5t390.5 -169.5q170 0 288.5 79.5t176.5 219.5v267h-484v76h560v-708h-76v210
q-79 -107 -198.5 -164.5t-266.5 -57.5zM501 1577l154 221h65l153 -221h-94l-93 139l-92 -139h-93z" />
    <glyph glyph-name="gcircumflex" unicode="&#x11d;" horiz-adv-x="1184" 
d="M554 -402q-172 0 -286 95t-139 262h77q26 -135 115.5 -207.5t232.5 -72.5h29q175 0 268.5 114t93.5 337v89q-59 -107 -159.5 -167t-221.5 -60h-10q-130 0 -238.5 66t-172 183.5t-63.5 260.5q0 219 130 363t327 144h27q122 0 222 -60t159 -167v221h78v-884
q0 -247 -118.5 -382t-321.5 -135h-29zM158 498q0 -191 107 -312.5t275 -121.5h28q156 0 259.5 107t117.5 279v95q-14 172 -117.5 278t-259.5 106h-28q-168 0 -275 -120.5t-107 -310.5zM390 1273l149 253h67l149 -253h-92l-91 163l-92 -163h-90z" />
    <glyph glyph-name="Gbreve" unicode="&#x11e;" horiz-adv-x="1308" 
d="M692 -12q-275 0 -443.5 192t-168.5 518q0 324 168.5 516t443.5 192q197 0 340 -100t206 -277l-71 -28q-55 153 -176 240t-299 87q-247 0 -390.5 -169t-143.5 -461q0 -293 143.5 -462.5t390.5 -169.5q170 0 288.5 79.5t176.5 219.5v267h-484v76h560v-708h-76v210
q-79 -107 -198.5 -164.5t-266.5 -57.5zM486 1851h73q-4 -83 32 -126t102 -43t102 43t32 126h74q6 -112 -52.5 -180.5t-155.5 -68.5q-98 0 -155.5 68t-51.5 181z" />
    <glyph glyph-name="gbreve" unicode="&#x11f;" horiz-adv-x="1184" 
d="M554 -402q-172 0 -286 95t-139 262h77q26 -135 115.5 -207.5t232.5 -72.5h29q175 0 268.5 114t93.5 337v89q-59 -107 -159.5 -167t-221.5 -60h-10q-130 0 -238.5 66t-172 183.5t-63.5 260.5q0 219 130 363t327 144h27q122 0 222 -60t159 -167v221h78v-884
q0 -247 -118.5 -382t-321.5 -135h-29zM158 498q0 -191 107 -312.5t275 -121.5h28q156 0 259.5 107t117.5 279v95q-14 172 -117.5 278t-259.5 106h-28q-168 0 -275 -120.5t-107 -310.5zM350 1514h73q-4 -83 32 -126t102 -43t102 43t32 126h73q7 -112 -51.5 -180t-155.5 -68
q-98 0 -156 68t-51 180z" />
    <glyph glyph-name="Gdotaccent" unicode="&#x120;" horiz-adv-x="1308" 
d="M692 -12q-275 0 -443.5 192t-168.5 518q0 324 168.5 516t443.5 192q197 0 340 -100t206 -277l-71 -28q-55 153 -176 240t-299 87q-247 0 -390.5 -169t-143.5 -461q0 -293 143.5 -462.5t390.5 -169.5q170 0 288.5 79.5t176.5 219.5v267h-484v76h560v-708h-76v210
q-79 -107 -198.5 -164.5t-266.5 -57.5zM635 1687q0 24 17 41.5t41 17.5t41 -17.5t17 -41.5t-17 -41t-41 -17t-41 17t-17 41z" />
    <glyph glyph-name="gdotaccent" unicode="&#x121;" horiz-adv-x="1184" 
d="M554 -402q-172 0 -286 95t-139 262h77q26 -135 115.5 -207.5t232.5 -72.5h29q175 0 268.5 114t93.5 337v89q-59 -107 -159.5 -167t-221.5 -60h-10q-130 0 -238.5 66t-172 183.5t-63.5 260.5q0 219 130 363t327 144h27q122 0 222 -60t159 -167v221h78v-884
q0 -247 -118.5 -382t-321.5 -135h-29zM158 498q0 -191 107 -312.5t275 -121.5h28q156 0 259.5 107t117.5 279v95q-14 172 -117.5 278t-259.5 106h-28q-168 0 -275 -120.5t-107 -310.5zM521 1396q0 24 17 41t41 17t41.5 -17t17.5 -41t-17.5 -41.5t-41.5 -17.5t-41 17.5
t-17 41.5z" />
    <glyph glyph-name="uni0122" unicode="&#x122;" horiz-adv-x="1517" 
d="M779 -12q-275 0 -444 192.5t-169 517.5q0 324 169 516t444 192q196 0 339.5 -100t206.5 -277l-72 -28q-54 153 -175 240t-299 87q-248 0 -391.5 -169t-143.5 -461q0 -293 143.5 -462.5t391.5 -169.5q170 0 288.5 79.5t175.5 219.5v267h-484v76h560v-708h-76v210
q-78 -106 -197.5 -164t-266.5 -58zM645 -385l98 276h81v-33l-101 -243h-78z" />
    <glyph glyph-name="uni0123" unicode="&#x123;" horiz-adv-x="1211" 
d="M609 -402q-172 0 -286.5 95t-139.5 262h78q25 -135 114.5 -207.5t233.5 -72.5h29q175 0 268 114t93 337v89q-59 -107 -159.5 -167t-221.5 -60h-9q-199 0 -337 146.5t-138 363.5q0 219 130 363t327 144h27q122 0 222.5 -60t158.5 -167v221h78v-884q0 -247 -118.5 -382
t-320.5 -135h-29zM212 498q0 -191 107 -312.5t276 -121.5h27q156 0 259.5 107t117.5 279v95q-14 172 -117.5 278t-259.5 106h-27q-169 0 -276 -120.5t-107 -310.5zM589 1275v33l102 243h77l-97 -276h-82z" />
    <glyph glyph-name="Hcircumflex" unicode="&#x124;" horiz-adv-x="1219" 
d="M170 0v1394h78v-649h721v649h80v-1394h-80v669h-721v-669h-78zM433 1577l153 221h65l153 -221h-94l-93 139l-92 -139h-92z" />
    <glyph glyph-name="hcircumflex" unicode="&#x125;" horiz-adv-x="977" 
d="M34 0v1394h78v-552q94 165 340 165q196 0 289.5 -103t93.5 -307v-597h-77v587q0 182 -70.5 264t-235.5 82q-168 0 -254 -108t-86 -337v-488h-78zM-110 1577l154 221h65l153 -221h-94l-93 139l-92 -139h-93z" />
    <glyph glyph-name="Hbar" unicode="&#x126;" horiz-adv-x="1131" 
d="M131 0v1011h-79v80h79v303h78v-303h721v303h80v-303h71v-80h-71v-1011h-80v669h-721v-669h-78zM209 745h721v266h-721v-266z" />
    <glyph glyph-name="hbar" unicode="&#x127;" horiz-adv-x="1068" 
d="M125 0v1151h-103v80h103v163h78v-163h212v-80h-212v-309q94 165 340 165q196 0 289.5 -103t93.5 -307v-597h-77v587q0 182 -70.5 264t-235.5 82q-168 0 -254 -108t-86 -337v-488h-78z" />
    <glyph glyph-name="Itilde" unicode="&#x128;" horiz-adv-x="185" 
d="M55 0v1394h78v-1394h-78zM-97 1633q-5 54 18 86.5t70 32.5q37 0 117 -27q67 -22 85 -22q9 0 10.5 2.5t1.5 17.5v21h77q5 -54 -18 -86.5t-71 -32.5q-36 0 -117 26q-66 23 -85 23q-9 0 -10.5 -3.5t-1.5 -19.5v-18h-76z" />
    <glyph glyph-name="itilde" unicode="&#x129;" horiz-adv-x="169" 
d="M30 0v997h78v-997h-78zM-105 1371q-5 54 18 86t70 32q36 0 117 -26q65 -22 86 -22q10 0 10.5 3t0.5 37h77q5 -54 -18 -86t-70 -32q-40 0 -117 26q-69 22 -86 22q-10 0 -10.5 -3t-0.5 -37h-77z" />
    <glyph glyph-name="Imacron" unicode="&#x12a;" horiz-adv-x="207" 
d="M65 0v1394h78v-1394h-78zM-52 1647v79h311v-79h-311z" />
    <glyph glyph-name="imacron" unicode="&#x12b;" horiz-adv-x="191" 
d="M56 0v997h78v-997h-78zM-60 1351v80h311v-80h-311z" />
    <glyph glyph-name="Ibreve" unicode="&#x12c;" horiz-adv-x="242" 
d="M84 0v1394h77v-1394h-77zM-85 1851h74q-4 -83 32 -126t101 -43q66 0 102 43t32 126h74q6 -112 -52.5 -180.5t-155.5 -68.5q-98 0 -155.5 68t-51.5 181z" />
    <glyph glyph-name="ibreve" unicode="&#x12d;" horiz-adv-x="256" 
d="M128 1266q-98 0 -155.5 68t-51.5 180h73q-3 -83 33 -126t101 -43q66 0 102 43t32 126h74q6 -112 -52.5 -180t-155.5 -68zM86 0v997h78v-997h-78z" />
    <glyph glyph-name="Iogonek" unicode="&#x12e;" horiz-adv-x="415" 
d="M140 -434q-60 0 -102 36t-42 118q0 109 68.5 199t184.5 139l-18 9v1327h78v-1386q-106 -45 -168.5 -118t-62.5 -164q0 -46 17 -64t53 -18q38 0 70.5 20t75.5 71v-103q-63 -66 -154 -66z" />
    <glyph glyph-name="iogonek" unicode="&#x12f;" horiz-adv-x="440" 
d="M132 -430q-60 0 -102 36t-42 118q0 108 72.5 204.5t184.5 137.5v931h78v-997h-46q-93 -30 -150 -105t-57 -165q0 -46 17 -64t53 -18q38 0 70.5 20t75.5 71v-103q-63 -66 -154 -66zM226 1254q0 24 17 41t41 17t41 -17t17 -41t-17 -41t-41 -17t-41 17t-17 41z" />
    <glyph glyph-name="Idotaccent" unicode="&#x130;" horiz-adv-x="412" 
d="M167 0v1394h78v-1394h-78zM148 1687q0 24 17 41.5t41 17.5t41 -17.5t17 -41.5t-17 -41t-41 -17t-41 17t-17 41z" />
    <glyph glyph-name="dotlessi" unicode="&#x131;" horiz-adv-x="498" 
d="M210 0v997h78v-997h-78z" />
    <glyph glyph-name="IJ" unicode="&#x132;" horiz-adv-x="1519" 
d="M438 498v33h78q-3 -131 37.5 -234t108 -156t150.5 -78.5t166.5 -1t152.5 76.5t112.5 153t43.5 230v873h78v-875q0 -260 -153 -410q-120 -117 -288 -128t-298 89q-155 117 -183 339q-5 43 -5 89zM154 0v1394h77v-1394h-77z" />
    <glyph glyph-name="ij" unicode="&#x133;" horiz-adv-x="717" 
d="M304 -406q-98 0 -164 45l29 63q64 -34 134 -34h13q83 0 123 45t40 143v1141h78v-1141q0 -130 -62.5 -196t-176.5 -66h-14zM157 1250q0 24 17 41t41 17t41 -17t17 -41t-17 -41t-41 -17t-41 17t-17 41zM176 0v997h78v-997h-78zM460 1251q0 24 17 41t41 17t41.5 -17
t17.5 -41t-17.5 -41t-41.5 -17t-41 17t-17 41z" />
    <glyph glyph-name="Jcircumflex" unicode="&#x134;" horiz-adv-x="1016" 
d="M70 498v33h78q-3 -131 37.5 -234t108.5 -156t151 -78.5t166.5 -1t152.5 76.5t112.5 153t43.5 230v873h77v-875q0 -260 -153 -410q-120 -117 -288 -128t-298 89q-155 117 -183 339q-5 43 -5 89zM767 1577l153 221h65l153 -221h-94l-92 139l-93 -139h-92z" />
    <glyph glyph-name="jcircumflex" unicode="&#x135;" horiz-adv-x="289" 
d="M-3 -406q-99 0 -165 45l30 63q64 -34 133 -34h14q82 0 122.5 45t40.5 143v1141h78v-1141q0 -130 -63 -196t-176 -66h-14zM25 1273l150 253h66l150 -253h-92l-92 163l-92 -163h-90z" />
    <glyph glyph-name="uni0136" unicode="&#x136;" horiz-adv-x="1279" 
d="M224 0v1394h77v-792l762 792h108l-572 -595l564 -799h-96l-523 743l-243 -251v-492h-77zM498 -385l97 276h82v-33l-102 -243h-77z" />
    <glyph glyph-name="uni0137" unicode="&#x137;" horiz-adv-x="1069" 
d="M206 0v1394h78v-948l534 551h107l-360 -370l396 -627h-93l-358 571l-226 -233v-338h-78zM374 -385l97 276h82v-33l-102 -243h-77z" />
    <glyph glyph-name="kgreenlandic" unicode="&#x138;" horiz-adv-x="967" 
d="M162 0v1001h78v-555l534 551h107l-360 -370l396 -627h-93l-358 571l-226 -233v-338h-78z" />
    <glyph glyph-name="Lacute" unicode="&#x139;" horiz-adv-x="1092" 
d="M174 0v1394h77v-1318h801v-76h-878zM156 1577l125 221h102l-147 -221h-80z" />
    <glyph glyph-name="lacute" unicode="&#x13a;" horiz-adv-x="431" 
d="M345 -9q-90 -7 -136 45t-46 164v1194h78v-1190q0 -78 24 -108.5t76 -30.5zM148 1672l137 253h102l-159 -253h-80z" />
    <glyph glyph-name="uni013B" unicode="&#x13b;" horiz-adv-x="1220" 
d="M224 0v1394h77v-1318h801v-76h-878zM484 -385l97 276h82v-33l-102 -243h-77z" />
    <glyph glyph-name="uni013C" unicode="&#x13c;" horiz-adv-x="411" 
d="M351 -9q-90 -7 -136 45t-46 164v1194h78v-1190q0 -78 24 -108.5t76 -30.5zM140 -385l97 276h82v-33l-102 -243h-77z" />
    <glyph glyph-name="Lcaron" unicode="&#x13d;" horiz-adv-x="1089" 
d="M170 0v1394h78v-1318h801v-76h-879zM479 1120l96 274h76l-103 -274h-69z" />
    <glyph glyph-name="lcaron" unicode="&#x13e;" horiz-adv-x="404" 
d="M344 -9q-90 -7 -136 45t-46 164v1194h78v-1190q0 -78 24 -108.5t76 -30.5zM279 1112l98 276h81v-33l-101 -243h-78z" />
    <glyph glyph-name="Ldot" unicode="&#x13f;" horiz-adv-x="1089" 
d="M170 0v1394h78v-1318h801v-76h-879zM584 797q0 24 17.5 41t41.5 17t41 -17t17 -41t-17 -41t-41 -17t-41.5 17t-17.5 41z" />
    <glyph glyph-name="ldot" unicode="&#x140;" horiz-adv-x="489" 
d="M344 -9q-90 -7 -136 45t-46 164v1194h78v-1190q0 -78 24 -108.5t76 -30.5zM372 797q0 24 17.5 41t41.5 17t41 -17t17 -41t-17 -41t-41 -17t-41.5 17t-17.5 41z" />
    <glyph glyph-name="Lslash" unicode="&#x141;" horiz-adv-x="1160" 
d="M241 2v592l-223 -132v91l223 133v710h78v-664l360 214v-92l-360 -214v-562h801v-76h-879z" />
    <glyph glyph-name="lslash" unicode="&#x142;" horiz-adv-x="327" 
d="M305 -9q-90 -7 -136 45t-46 164v368l-111 -81v98l111 81v728h78v-672l114 82v-99l-114 -81v-420q0 -78 24 -108.5t76 -30.5z" />
    <glyph glyph-name="Nacute" unicode="&#x143;" horiz-adv-x="1266" 
d="M170 0v1394h85l763 -1258v1258h78v-1394h-87l-761 1254v-1254h-78zM576 1577l125 221h102l-146 -221h-81z" />
    <glyph glyph-name="nacute" unicode="&#x144;" horiz-adv-x="1105" 
d="M162 0v997h78v-155q94 165 340 165q196 0 289.5 -103t93.5 -307v-597h-77v587q0 182 -70.5 264t-235.5 82q-168 0 -254 -108t-86 -337v-488h-78zM493 1273l138 253h101l-158 -253h-81z" />
    <glyph glyph-name="uni0145" unicode="&#x145;" horiz-adv-x="1373" 
d="M224 0v1394h85l762 -1258v1258h78v-1394h-87l-761 1254v-1254h-77zM552 -385l97 276h82v-33l-102 -243h-77z" />
    <glyph glyph-name="uni0146" unicode="&#x146;" horiz-adv-x="1203" 
d="M206 0v997h78v-155q94 165 340 165q196 0 289.5 -103t93.5 -307v-597h-78v587q0 182 -70 264t-235 82q-168 0 -254 -108t-86 -337v-488h-78zM459 -385l97 276h82v-33l-102 -243h-77z" />
    <glyph glyph-name="Ncaron" unicode="&#x147;" horiz-adv-x="1266" 
d="M170 0v1394h85l763 -1258v1258h78v-1394h-87l-761 1254v-1254h-78zM448 1798h94l93 -140l92 140h93l-154 -221h-65z" />
    <glyph glyph-name="ncaron" unicode="&#x148;" horiz-adv-x="1105" 
d="M162 0v997h78v-155q94 165 340 165q196 0 289.5 -103t93.5 -307v-597h-77v587q0 182 -70.5 264t-235.5 82q-168 0 -254 -108t-86 -337v-488h-78zM368 1526h92l91 -163l92 163h90l-149 -253h-67z" />
    <glyph glyph-name="napostrophe" unicode="&#x149;" horiz-adv-x="1220" 
d="M277 0v997h78v-155q94 165 340 165q196 0 289.5 -103t93.5 -307v-597h-78v587q0 182 -70 264t-235 82q-169 0 -254.5 -108t-85.5 -337v-488h-78zM108 985l150 483h79l-147 -513h-76z" />
    <glyph glyph-name="Eng" unicode="&#x14a;" horiz-adv-x="1266" 
d="M788 -354q62 -1 102.5 7t69.5 31.5t41.5 65.5t12.5 108v142h-5l-761 1254v-1254h-78v1394h85l763 -1258v1258h78v-1505q0 -53 -2 -81q-10 -128 -84.5 -184t-221.5 -58v80z" />
    <glyph glyph-name="eng" unicode="&#x14b;" horiz-adv-x="1105" 
d="M709 -406q-99 0 -165 45l29 63q65 -34 134 -34h13q82 0 122 45t42 143l2 731q0 182 -70.5 264t-235.5 82q-168 0 -254 -108t-86 -337v-488h-78v997h78v-155q94 165 340 165q196 0 289.5 -103t93.5 -307l-2 -741q-1 -130 -63 -196t-176 -66h-13z" />
    <glyph glyph-name="Omacron" unicode="&#x14c;" horiz-adv-x="1406" 
d="M692 -17q-275 0 -443.5 191.5t-168.5 515.5q0 326 168.5 518t443.5 192h20q279 0 446.5 -195t167.5 -515t-167.5 -513.5t-446.5 -193.5h-20zM158 690q0 -292 143.5 -461t390.5 -169h20q249 0 392.5 169.5t143.5 460.5q0 293 -144 462.5t-392 169.5h-20
q-247 0 -390.5 -169.5t-143.5 -462.5zM552 1647v79h311v-79h-311z" />
    <glyph glyph-name="omacron" unicode="&#x14d;" horiz-adv-x="1097" 
d="M539 -10q-203 0 -331 142.5t-128 367.5t127 366t332 141h19q205 0 332 -141t127 -366t-127.5 -367.5t-331.5 -142.5h-19zM158 500q0 -196 104 -316t277 -120h19q173 0 277 119.5t104 316.5q0 196 -104.5 314.5t-276.5 118.5h-19q-173 0 -277 -118.5t-104 -314.5z
M392 1351v80h311v-80h-311z" />
    <glyph glyph-name="Obreve" unicode="&#x14e;" horiz-adv-x="1406" 
d="M692 -12q-275 0 -443.5 192t-168.5 516q0 326 168.5 518t443.5 192h20q279 0 446.5 -195t167.5 -515t-167.5 -514t-446.5 -194h-20zM158 696q0 -292 143.5 -461t390.5 -169h20q249 0 392.5 169t143.5 461q0 293 -144 462.5t-392 169.5h-20q-247 0 -390.5 -169.5
t-143.5 -462.5zM492 1851h74q-4 -83 32 -126t102 -43t102 43t32 126h73q7 -112 -51.5 -180.5t-155.5 -68.5q-98 0 -156 68t-52 181z" />
    <glyph glyph-name="obreve" unicode="&#x14f;" horiz-adv-x="1097" 
d="M539 -10q-203 0 -331 142.5t-128 367.5t127 366t332 141h19q205 0 332 -141t127 -366t-127.5 -367.5t-331.5 -142.5h-19zM158 500q0 -196 104 -316t277 -120h19q173 0 277 119.5t104 316.5q0 196 -104.5 314.5t-276.5 118.5h-19q-173 0 -277 -118.5t-104 -314.5z
M341 1514h73q-3 -83 33 -126t101 -43q66 0 102 43t32 126h74q6 -112 -52.5 -180t-155.5 -68q-98 0 -155.5 68t-51.5 180z" />
    <glyph glyph-name="Ohungarumlaut" unicode="&#x150;" horiz-adv-x="1406" 
d="M692 -17q-275 0 -443.5 191.5t-168.5 515.5q0 326 168.5 518t443.5 192h20q279 0 446.5 -195t167.5 -515t-167.5 -513.5t-446.5 -193.5h-20zM158 690q0 -292 143.5 -461t390.5 -169h20q249 0 392.5 169.5t143.5 460.5q0 293 -144 462.5t-392 169.5h-20
q-247 0 -390.5 -169.5t-143.5 -462.5zM509 1577l125 221h102l-146 -221h-81zM785 1577l125 221h102l-146 -221h-81z" />
    <glyph glyph-name="ohungarumlaut" unicode="&#x151;" horiz-adv-x="1097" 
d="M539 -10q-203 0 -331 142.5t-128 367.5t127 366t332 141h19q205 0 332 -141t127 -366t-127.5 -367.5t-331.5 -142.5h-19zM158 500q0 -196 104 -316t277 -120h19q173 0 277 119.5t104 316.5q0 196 -104.5 314.5t-276.5 118.5h-19q-173 0 -277 -118.5t-104 -314.5z
M352 1274l125 222h102l-147 -222h-80zM628 1274l125 222h102l-147 -222h-80z" />
    <glyph glyph-name="OE" unicode="&#x152;" horiz-adv-x="2217" 
d="M692 -17q-275 0 -443.5 191.5t-168.5 515.5q0 326 168.5 518t443.5 192h20q183 0 322 -88t214 -246v328h879v-76h-801v-577h733v-76h-733v-589h801v-76h-879v314q-75 -157 -214 -244t-322 -87h-20zM158 690q0 -292 143.5 -461t390.5 -169h20q249 0 392.5 169.5
t143.5 460.5q0 293 -144 462.5t-392 169.5h-20q-247 0 -390.5 -169.5t-143.5 -462.5z" />
    <glyph glyph-name="oe" unicode="&#x153;" horiz-adv-x="1917" 
d="M539 -10q-203 0 -331 142.5t-128 367.5t127 366t332 141h19q149 0 259.5 -77t161.5 -212q51 132 158.5 208.5t252.5 80.5q204 -5 328.5 -151.5t118.5 -375.5h-818q5 -188 109 -302t272 -114h19q113 0 196.5 52t133.5 148l71 -31q-59 -114 -163.5 -178.5t-237.5 -64.5h-19
q-147 0 -258 78t-163 214q-51 -136 -162 -214t-259 -78h-19zM158 500q0 -196 104 -316t277 -120h19q173 0 277 119.5t104 316.5q0 196 -104.5 314.5t-276.5 118.5h-19q-173 0 -277 -118.5t-104 -314.5zM1020 550h738q-14 171 -113 275t-255 108q-157 -4 -256.5 -108
t-113.5 -275z" />
    <glyph glyph-name="Racute" unicode="&#x154;" horiz-adv-x="1149" 
d="M170 0v1394h465q217 0 330 -96t113 -283v-2q0 -169 -93 -264t-271 -111l365 -638h-90l-363 634h-378v-634h-78zM248 710h387q187 0 276 75t89 230q0 154 -89.5 228.5t-275.5 74.5h-387v-608zM545 1577l125 221h102l-146 -221h-81z" />
    <glyph glyph-name="racute" unicode="&#x155;" horiz-adv-x="808" 
d="M162 0v997h78v-155q94 165 340 165q87 0 158 -21l-17 -73q-68 20 -141 20q-168 0 -254 -108t-86 -337v-488h-78zM342 1273l137 253h102l-159 -253h-80z" />
    <glyph glyph-name="uni0156" unicode="&#x156;" horiz-adv-x="1228" 
d="M224 0v1394h464q217 0 330.5 -96t113.5 -283v-2q0 -169 -93 -264t-272 -111l365 -638h-89l-364 634h-378v-634h-77zM301 710h387q187 0 276.5 74.5t89.5 230.5q0 154 -89.5 228.5t-276.5 74.5h-387v-608zM501 -385l98 276h82v-33l-102 -243h-78z" />
    <glyph glyph-name="uni0157" unicode="&#x157;" horiz-adv-x="882" 
d="M211 0v997h78v-155q94 165 340 165q88 0 157 -21l-16 -73q-70 20 -141 20q-168 0 -254 -108t-86 -337v-488h-78zM117 -385l97 276h82v-33l-102 -243h-77z" />
    <glyph glyph-name="Rcaron" unicode="&#x158;" horiz-adv-x="1149" 
d="M170 0v1394h465q217 0 330 -96t113 -283v-2q0 -169 -93 -264t-271 -111l365 -638h-90l-363 634h-378v-634h-78zM248 710h387q187 0 276 75t89 230q0 154 -89.5 228.5t-275.5 74.5h-387v-608zM417 1798h94l93 -140l92 140h93l-154 -221h-65z" />
    <glyph glyph-name="rcaron" unicode="&#x159;" horiz-adv-x="685" 
d="M84 0v997h77v-155q94 165 341 165q86 0 157 -21l-17 -73q-68 20 -140 20q-169 0 -255 -108t-86 -337v-488h-77zM137 1526h92l92 -163l91 163h91l-150 -253h-67z" />
    <glyph glyph-name="Sacute" unicode="&#x15a;" horiz-adv-x="1138" 
d="M589 -27q-96 0 -180.5 25.5t-153 75t-111.5 130.5t-50 185h81q8 -108 66.5 -185.5t148.5 -114.5t201 -37q161 0 264.5 80.5t103.5 207.5q0 132 -81 198t-292 126q-116 33 -191.5 65.5t-131.5 77.5t-80.5 104t-24.5 141q0 101 60.5 183.5t159 127t213.5 44.5q99 0 179 -33
t132.5 -90t83 -129.5t37.5 -155.5h-81q-22 155 -117 242t-236 87q-86 0 -163 -29.5t-130 -93t-53 -149.5q0 -54 14 -94.5t39.5 -71t74 -56t103.5 -45.5t142 -45q225 -64 326.5 -152.5t101.5 -247.5q0 -158 -130 -264.5t-325 -106.5zM527 1577l125 221h102l-147 -221h-80z
" />
    <glyph glyph-name="sacute" unicode="&#x15b;" horiz-adv-x="962" 
d="M495 -14q-79 0 -147 19.5t-123 59t-89.5 105.5t-41.5 153h81q19 -141 102.5 -201t221.5 -60q122 0 199 48.5t77 136.5t-64.5 132t-246.5 82q-68 14 -120.5 33t-100 49.5t-73 77.5t-25.5 108q0 116 95.5 192t242.5 76q166 0 258.5 -88t110.5 -227h-81q-29 125 -98 182
t-192 57q-107 0 -179.5 -50.5t-72.5 -139.5q0 -83 64.5 -125.5t197.5 -69.5q190 -39 278.5 -103t88.5 -184q0 -119 -102 -191t-261 -72zM418 1273l138 253h101l-158 -253h-81z" />
    <glyph glyph-name="Scircumflex" unicode="&#x15c;" horiz-adv-x="1138" 
d="M589 -27q-96 0 -180.5 25.5t-153 75t-111.5 130.5t-50 185h81q8 -108 66.5 -185.5t148.5 -114.5t201 -37q161 0 264.5 80.5t103.5 207.5q0 132 -81 198t-292 126q-116 33 -191.5 65.5t-131.5 77.5t-80.5 104t-24.5 141q0 101 60.5 183.5t159 127t213.5 44.5q99 0 179 -33
t132.5 -90t83 -129.5t37.5 -155.5h-81q-22 155 -117 242t-236 87q-86 0 -163 -29.5t-130 -93t-53 -149.5q0 -54 14 -94.5t39.5 -71t74 -56t103.5 -45.5t142 -45q225 -64 326.5 -152.5t101.5 -247.5q0 -158 -130 -264.5t-325 -106.5zM401 1577l154 221h65l153 -221h-94
l-93 139l-92 -139h-93z" />
    <glyph glyph-name="scircumflex" unicode="&#x15d;" horiz-adv-x="962" 
d="M495 -14q-79 0 -147 19.5t-123 59t-89.5 105.5t-41.5 153h81q19 -141 102.5 -201t221.5 -60q122 0 199 48.5t77 136.5t-64.5 132t-246.5 82q-68 14 -120.5 33t-100 49.5t-73 77.5t-25.5 108q0 116 95.5 192t242.5 76q166 0 258.5 -88t110.5 -227h-81q-29 125 -98 182
t-192 57q-107 0 -179.5 -50.5t-72.5 -139.5q0 -83 64.5 -125.5t197.5 -69.5q190 -39 278.5 -103t88.5 -184q0 -119 -102 -191t-261 -72zM293 1273l149 253h67l149 -253h-92l-92 163l-91 -163h-90z" />
    <glyph glyph-name="Scedilla" unicode="&#x15e;" horiz-adv-x="1138" 
d="M504 -450q-78 0 -123 27v90q30 -21 55.5 -29t67.5 -8q132 0 132 99q0 56 -47 79t-158 14l83 155q-84 9 -156 39t-129.5 80t-93 125t-41.5 168h81q8 -108 66.5 -185.5t148.5 -114.5t201 -37q161 0 264.5 80.5t103.5 207.5q0 132 -81 198t-292 126q-116 33 -191.5 65.5
t-131.5 77.5t-80.5 104t-24.5 141q0 101 60.5 183.5t159 127t213.5 44.5q99 0 179 -33t132.5 -90t83 -129.5t37.5 -155.5h-81q-22 155 -117 242t-236 87q-86 0 -163 -29.5t-130 -93t-53 -149.5q0 -54 14 -94.5t39.5 -71t74 -56t103.5 -45.5t142 -45q225 -64 326.5 -152.5
t101.5 -247.5q0 -155 -126 -261t-315 -110l-43 -79q159 -26 159 -165q0 -88 -64.5 -133.5t-150.5 -45.5z" />
    <glyph glyph-name="scedilla" unicode="&#x15f;" horiz-adv-x="962" 
d="M425 -446q-78 0 -123 27v90q29 -21 55.5 -29t67.5 -8q132 0 132 99q0 55 -47 78.5t-155 14.5l75 164q-141 15 -233 98.5t-103 234.5h81q19 -141 102.5 -201t221.5 -60q122 0 199 48.5t77 136.5t-64.5 132t-246.5 82q-68 14 -120.5 33t-100 49.5t-73 77.5t-25.5 108
q0 116 95.5 192t242.5 76q166 0 258.5 -88t110.5 -227h-81q-29 125 -98 182t-192 57q-107 0 -179.5 -50.5t-72.5 -139.5q0 -83 64.5 -125.5t197.5 -69.5q190 -39 278.5 -103t88.5 -184q0 -114 -94.5 -185t-245.5 -77l-39 -89q162 -25 162 -165q0 -88 -65 -133.5t-151 -45.5z
" />
    <glyph glyph-name="Scaron" unicode="&#x160;" horiz-adv-x="1138" 
d="M589 -27q-96 0 -180.5 25.5t-153 75t-111.5 130.5t-50 185h81q8 -108 66.5 -185.5t148.5 -114.5t201 -37q161 0 264.5 80.5t103.5 207.5q0 132 -81 198t-292 126q-116 33 -191.5 65.5t-131.5 77.5t-80.5 104t-24.5 141q0 101 60.5 183.5t159 127t213.5 44.5q99 0 179 -33
t132.5 -90t83 -129.5t37.5 -155.5h-81q-22 155 -117 242t-236 87q-86 0 -163 -29.5t-130 -93t-53 -149.5q0 -54 14 -94.5t39.5 -71t74 -56t103.5 -45.5t142 -45q225 -64 326.5 -152.5t101.5 -247.5q0 -158 -130 -264.5t-325 -106.5zM398 1798h95l92 -140l93 140h92
l-153 -221h-65z" />
    <glyph glyph-name="scaron" unicode="&#x161;" horiz-adv-x="962" 
d="M495 -14q-79 0 -147 19.5t-123 59t-89.5 105.5t-41.5 153h81q19 -141 102.5 -201t221.5 -60q122 0 199 48.5t77 136.5t-64.5 132t-246.5 82q-68 14 -120.5 33t-100 49.5t-73 77.5t-25.5 108q0 116 95.5 192t242.5 76q166 0 258.5 -88t110.5 -227h-81q-29 125 -98 182
t-192 57q-107 0 -179.5 -50.5t-72.5 -139.5q0 -83 64.5 -125.5t197.5 -69.5q190 -39 278.5 -103t88.5 -184q0 -119 -102 -191t-261 -72zM293 1526h92l91 -163l92 163h90l-149 -253h-67z" />
    <glyph glyph-name="uni0162" unicode="&#x162;" horiz-adv-x="1264" 
d="M554 -447q-78 0 -122 27v90q29 -21 55 -29t67 -8q132 0 132 99q0 56 -47 79t-158 14l110 199v1294h-511v76h1102v-76h-511v-1303l-62 -118q161 -27 161 -165q0 -88 -65 -133.5t-151 -45.5z" />
    <glyph glyph-name="uni0163" unicode="&#x163;" horiz-adv-x="706" 
d="M371 -446q-78 0 -122 27v90q29 -21 55 -29t67 -8q133 0 133 99q0 55 -47 78.5t-155 14.5l85 198q-100 63 -100 227v674h-237v72h237v395h78v-395h243v-72h-243v-674q0 -98 40 -143.5t123 -45.5h13q15 0 39.5 3.5t27.5 3.5v-75q-63 -6 -69 -6h-13q-27 0 -59 5l-42 -95
q162 -25 162 -165q0 -88 -65 -133.5t-151 -45.5z" />
    <glyph glyph-name="Tcaron" unicode="&#x164;" horiz-adv-x="1182" 
d="M551 0v1318h-511v76h1102v-76h-511v-1318h-80zM406 1798h94l93 -140l93 140h92l-153 -221h-66z" />
    <glyph glyph-name="tcaron" unicode="&#x165;" horiz-adv-x="656" 
d="M526 -12q-114 0 -176.5 66.5t-62.5 196.5v674h-237v72h237v395h78v-395h243v-72h-243v-674q0 -98 40 -143.5t123 -45.5h13q15 0 39.5 3.5t27.5 3.5v-75q-63 -6 -69 -6h-13zM468 1190l98 276h81v-33l-101 -243h-78z" />
    <glyph glyph-name="Tbar" unicode="&#x166;" horiz-adv-x="1182" 
d="M551 0v628h-281v80h281v610h-511v76h1102v-76h-511v-610h281v-80h-281v-628h-80z" />
    <glyph glyph-name="tbar" unicode="&#x167;" horiz-adv-x="658" 
d="M526 -12q-114 0 -176.5 66.5t-62.5 196.5v302h-124v72h124v300h-237v72h237v395h78v-395h243v-72h-243v-300h129v-72h-129v-302q0 -98 40 -143.5t123 -45.5h13q15 0 39.5 3.5t27.5 3.5v-75q-63 -6 -69 -6h-13z" />
    <glyph glyph-name="Utilde" unicode="&#x168;" 
d="M154 498v896h77v-883q0 -127 42.5 -226.5t110.5 -150t150.5 -73.5t165 2t150.5 77.5t110.5 153t42.5 227.5v873h78v-875q0 -260 -153 -410q-120 -117 -288 -128t-298 89q-155 117 -183 339q-5 43 -5 89zM427 1633q-5 54 18 86.5t70 32.5q37 0 117 -27q67 -22 85 -22
q11 0 11.5 3.5t0.5 37.5h77q5 -54 -18 -86.5t-71 -32.5q-36 0 -117 26q-66 23 -85 23q-10 0 -10.5 -3.5t-0.5 -37.5h-77z" />
    <glyph glyph-name="utilde" unicode="&#x169;" horiz-adv-x="1085" 
d="M525 -10q-196 0 -289.5 103t-93.5 307v597h78v-587q0 -182 70 -264t235 -82q169 0 254.5 108t85.5 337v488h78v-997h-78v155q-94 -165 -340 -165zM347 1371q-5 54 18 86t71 32q36 0 117 -26q63 -22 85 -22q9 0 10.5 3t1.5 19v18h76q5 -54 -18 -86t-70 -32q-40 0 -117 26
q-67 22 -85 22q-9 0 -10.5 -2.5t-1.5 -20.5v-17h-77z" />
    <glyph glyph-name="Umacron" unicode="&#x16a;" 
d="M154 498v896h77v-883q0 -127 42.5 -226.5t110.5 -150t150.5 -73.5t165 2t150.5 77.5t110.5 153t42.5 227.5v873h78v-875q0 -260 -153 -410q-120 -117 -288 -128t-298 89q-155 117 -183 339q-5 43 -5 89zM460 1647v79h311v-79h-311z" />
    <glyph glyph-name="umacron" unicode="&#x16b;" horiz-adv-x="1085" 
d="M525 -10q-196 0 -289.5 103t-93.5 307v597h78v-587q0 -182 70 -264t235 -82q169 0 254.5 108t85.5 337v488h78v-997h-78v155q-94 -165 -340 -165zM386 1351v80h311v-80h-311z" />
    <glyph glyph-name="Ubreve" unicode="&#x16c;" 
d="M154 498v896h77v-883q0 -127 42.5 -226.5t110.5 -150t150.5 -73.5t165 2t150.5 77.5t110.5 153t42.5 227.5v873h78v-875q0 -260 -153 -410q-120 -117 -288 -128t-298 89q-155 117 -183 339q-5 43 -5 89zM408 1851h73q-3 -83 33 -126t101 -43q66 0 102 43t32 126h74
q6 -112 -52.5 -180.5t-155.5 -68.5q-98 0 -155.5 68t-51.5 181z" />
    <glyph glyph-name="ubreve" unicode="&#x16d;" horiz-adv-x="1085" 
d="M525 -10q-196 0 -289.5 103t-93.5 307v597h78v-587q0 -182 70 -264t235 -82q169 0 254.5 108t85.5 337v488h78v-997h-78v155q-94 -165 -340 -165zM325 1514h74q-4 -83 32 -126t102 -43q65 0 101 43t33 126h73q7 -112 -51.5 -180t-155.5 -68q-98 0 -156 68t-52 180z" />
    <glyph glyph-name="Uring" unicode="&#x16e;" 
d="M154 498v896h77v-883q0 -127 42.5 -226.5t110.5 -150t150.5 -73.5t165 2t150.5 77.5t110.5 153t42.5 227.5v873h78v-875q0 -260 -153 -410q-120 -117 -288 -128t-298 89q-155 117 -183 339q-5 43 -5 89zM473 1687q0 62 41.5 100t100.5 38t100.5 -38t41.5 -100t-41.5 -100
t-100.5 -38t-100.5 38t-41.5 100zM559 1687q0 -58 56 -58q57 0 57 58q0 59 -57 59q-56 0 -56 -59z" />
    <glyph glyph-name="uring" unicode="&#x16f;" horiz-adv-x="1085" 
d="M525 -10q-196 0 -289.5 103t-93.5 307v597h78v-587q0 -182 70 -264t235 -82q169 0 254.5 108t85.5 337v488h78v-997h-78v155q-94 -165 -340 -165zM402 1398q0 62 40.5 101t99.5 39q58 0 98.5 -39t40.5 -101q0 -63 -40.5 -101.5t-98.5 -38.5q-59 0 -99.5 38.5t-40.5 101.5
zM485 1398q0 -61 57 -61q56 0 56 61q0 60 -56 60q-57 0 -57 -60z" />
    <glyph glyph-name="Uhungarumlaut" unicode="&#x170;" 
d="M154 498v896h77v-883q0 -127 42.5 -226.5t110.5 -150t150.5 -73.5t165 2t150.5 77.5t110.5 153t42.5 227.5v873h78v-875q0 -260 -153 -410q-120 -117 -288 -128t-298 89q-155 117 -183 339q-5 43 -5 89zM427 1577l125 221h101l-146 -221h-80zM703 1577l125 221h101
l-146 -221h-80z" />
    <glyph glyph-name="uhungarumlaut" unicode="&#x171;" horiz-adv-x="1085" 
d="M525 -10q-196 0 -289.5 103t-93.5 307v597h78v-587q0 -182 70 -264t235 -82q169 0 254.5 108t85.5 337v488h78v-997h-78v155q-94 -165 -340 -165zM354 1274l125 222h102l-147 -222h-80zM630 1274l125 222h102l-147 -222h-80z" />
    <glyph glyph-name="Uogonek" unicode="&#x172;" 
d="M593 -434q-60 0 -102 36t-42 118q0 152 128 261q-83 6 -158 42t-135 98.5t-95 160t-35 216.5v896h77v-883q0 -127 42.5 -226.5t110.5 -150t150.5 -73.5t165 2t150.5 77.5t110.5 153t42.5 227.5v873h78v-875q0 -199 -89 -331t-229 -182q-106 -44 -169 -116.5t-63 -163.5
q0 -45 17 -63.5t53 -18.5q38 0 70.5 20.5t75.5 71.5v-103q-63 -67 -154 -67z" />
    <glyph glyph-name="uogonek" unicode="&#x173;" horiz-adv-x="1085" 
d="M755 -428q-60 0 -102 36t-42 118q0 110 70 204.5t184 134.5v90q-94 -165 -340 -165q-196 0 -289.5 103t-93.5 307v597h78v-587q0 -182 70 -264t235 -82q169 0 254.5 108t85.5 337v488h78v-997h-48q-91 -31 -146.5 -105.5t-55.5 -162.5q0 -46 17 -64t53 -18q38 0 70.5 20
t75.5 71v-103q-63 -66 -154 -66z" />
    <glyph glyph-name="Wcircumflex" unicode="&#x174;" horiz-adv-x="1750" 
d="M418 0l-388 1394h83l348 -1256l377 1188h74l379 -1188l348 1256h81l-388 -1394h-80l-376 1184l-379 -1184h-79zM688 1577l153 221h66l153 -221h-94l-93 139l-93 -139h-92z" />
    <glyph glyph-name="wcircumflex" unicode="&#x175;" horiz-adv-x="1447" 
d="M341 0l-277 997h83l237 -860l304 860h74l303 -858l237 858h81l-275 -997h-78l-305 873l-309 -873h-75zM541 1273l149 253h67l149 -253h-92l-92 163l-91 -163h-90z" />
    <glyph glyph-name="Ycircumflex" unicode="&#x176;" horiz-adv-x="1107" 
d="M515 0l-4 415l-491 979h91l439 -888l446 888h91l-499 -979l5 -415h-78zM368 1577l153 221h65l153 -221h-94l-93 139l-92 -139h-92z" />
    <glyph glyph-name="ycircumflex" unicode="&#x177;" horiz-adv-x="986" 
d="M205 -309q44 -24 80.5 -4t65.5 93l100 243l-401 974h87l354 -877l360 877h85l-514 -1249q-87 -211 -248 -124zM312 1273l150 253h67l149 -253h-92l-92 163l-92 -163h-90z" />
    <glyph glyph-name="Ydieresis" unicode="&#x178;" horiz-adv-x="1107" 
d="M515 0l-4 415l-491 979h91l439 -888l446 888h91l-499 -979l5 -415h-78zM374 1687q0 24 17 41.5t41 17.5t41 -17.5t17 -41.5t-17 -41t-41 -17t-41 17t-17 41zM619 1687q0 24 17 41.5t41 17.5t41 -17.5t17 -41.5t-17 -41t-41 -17t-41 17t-17 41z" />
    <glyph glyph-name="Zacute" unicode="&#x179;" horiz-adv-x="1057" 
d="M66 0v72l829 1246h-829v76h925v-70l-830 -1248h830v-76h-925zM472 1577l125 221h102l-146 -221h-81z" />
    <glyph glyph-name="zacute" unicode="&#x17a;" horiz-adv-x="923" 
d="M66 0v69l695 854h-695v74h791v-75l-686 -848h686v-74h-791zM390 1273l138 253h101l-158 -253h-81z" />
    <glyph glyph-name="Zdotaccent" unicode="&#x17b;" horiz-adv-x="1057" 
d="M66 0v72l829 1246h-829v76h925v-70l-830 -1248h830v-76h-925zM471 1687q0 24 17 41.5t41 17.5t41 -17.5t17 -41.5t-17 -41t-41 -17t-41 17t-17 41z" />
    <glyph glyph-name="zdotaccent" unicode="&#x17c;" horiz-adv-x="923" 
d="M66 0v69l695 854h-695v74h791v-75l-686 -848h686v-74h-791zM388 1396q0 24 17 41t41 17t41.5 -17t17.5 -41t-17.5 -41.5t-41.5 -17.5t-41 17.5t-17 41.5z" />
    <glyph glyph-name="Zcaron" unicode="&#x17d;" horiz-adv-x="1057" 
d="M66 0v72l829 1246h-829v76h925v-70l-830 -1248h830v-76h-925zM344 1798h94l93 -140l92 140h93l-154 -221h-65z" />
    <glyph glyph-name="zcaron" unicode="&#x17e;" horiz-adv-x="923" 
d="M66 0v69l695 854h-695v74h791v-75l-686 -848h686v-74h-791zM264 1526h92l92 -163l92 163h90l-149 -253h-67z" />
    <glyph glyph-name="uni0218" unicode="&#x218;" horiz-adv-x="1167" 
d="M604 -27q-96 0 -180.5 25.5t-153.5 75t-112 130.5t-50 185h82q12 -161 128.5 -249t287.5 -88q161 0 264 80t103 208q0 132 -80.5 198t-292.5 126q-116 33 -191 65.5t-131.5 77.5t-81 104.5t-24.5 140.5q0 101 60.5 183.5t159.5 127t214 44.5q98 0 178.5 -33t132.5 -90
t82.5 -129.5t37.5 -155.5h-81q-22 155 -116.5 242t-235.5 87q-87 0 -164 -29.5t-129.5 -93t-52.5 -149.5q0 -54 14 -94.5t39.5 -71t74 -56t103.5 -45.5t142 -45q224 -64 326 -152.5t102 -247.5q0 -158 -130 -264.5t-325 -106.5zM464 -385l97 276h82v-33l-102 -243h-77z" />
    <glyph glyph-name="uni0219" unicode="&#x219;" horiz-adv-x="984" 
d="M510 -14q-164 0 -275.5 84t-124.5 253h81q19 -141 102 -201t221 -60q122 0 199 48t77 137q0 88 -64.5 132t-246.5 82q-68 14 -120 33t-99.5 49.5t-73 77.5t-25.5 108q0 116 95.5 192t242.5 76q166 0 258.5 -88t109.5 -227h-80q-30 125 -98.5 182t-191.5 57
q-108 0 -180.5 -50.5t-72.5 -139.5q0 -83 64.5 -125.5t198.5 -69.5q190 -39 278.5 -103t88.5 -184q0 -119 -102.5 -191t-261.5 -72zM375 -385l97 276h82v-33l-102 -243h-77z" />
    <glyph glyph-name="uni021A" unicode="&#x21a;" horiz-adv-x="1264" 
d="M591 0v1318h-511v76h1102v-76h-511v-1318h-80zM496 -385l97 276h82v-33l-102 -243h-77z" />
    <glyph glyph-name="uni021B" unicode="&#x21b;" horiz-adv-x="706" 
d="M526 -12q-114 0 -176.5 66.5t-62.5 196.5v674h-237v72h237v395h78v-395h243v-72h-243v-674q0 -98 40 -143.5t123 -45.5h13q15 0 39.5 3.5t27.5 3.5v-75q-63 -6 -69 -6h-13zM298 -385l97 276h82v-33l-101 -243h-78z" />
    <glyph glyph-name="uni0237" unicode="&#x237;" horiz-adv-x="488" 
d="M33 -406q-99 0 -165 45l30 63q64 -34 133 -34h14q82 0 122.5 45t40.5 143v1141h78v-1141q0 -130 -63 -196t-176 -66h-14z" />
    <glyph glyph-name="circumflex" unicode="&#x2c6;" horiz-adv-x="658" 
d="M146 1565l150 253h67l149 -253h-92l-92 163l-92 -163h-90z" />
    <glyph glyph-name="caron" unicode="&#x2c7;" horiz-adv-x="658" 
d="M296 1565l-150 253h92l92 -163l92 163h90l-149 -253h-67z" />
    <glyph glyph-name="breve" unicode="&#x2d8;" horiz-adv-x="752" 
d="M376 1557q-98 0 -155.5 68t-51.5 181h73q-3 -83 33 -126t101 -43q66 0 102 43t32 126h74q6 -112 -52.5 -180.5t-155.5 -68.5z" />
    <glyph glyph-name="dotaccent" unicode="&#x2d9;" horiz-adv-x="893" 
d="M446 1629q-24 0 -41 17t-17 41t17 41.5t41 17.5t41.5 -17.5t17.5 -41.5t-17.5 -41t-41.5 -17z" />
    <glyph glyph-name="ring" unicode="&#x2da;" horiz-adv-x="832" 
d="M416 1549q-59 0 -99.5 39t-40.5 101q0 63 40.5 101.5t99.5 38.5t99.5 -38.5t40.5 -101.5q0 -62 -40.5 -101t-99.5 -39zM360 1689q0 -60 56 -60q57 0 57 60q0 61 -57 61q-56 0 -56 -61z" />
    <glyph glyph-name="ogonek" unicode="&#x2db;" horiz-adv-x="919" 
d="M320 -434q-60 0 -102 36t-42 118q0 117 77.5 215t202.5 132l57 -58q-121 -32 -188 -109.5t-67 -173.5q0 -46 17 -64t53 -18q38 0 70.5 20t75.5 71v-103q-63 -66 -154 -66z" />
    <glyph glyph-name="tilde" unicode="&#x2dc;" horiz-adv-x="665" 
d="M434 1654q-38 0 -117 27q-69 22 -86 22q-10 0 -10.5 -3t-0.5 -38h-77q-5 54 18 86.5t70 32.5q39 0 117 -27q69 -22 86 -22q10 0 10.5 3.5t0.5 37.5h77q5 -54 -18 -86.5t-70 -32.5z" />
    <glyph glyph-name="hungarumlaut" unicode="&#x2dd;" horiz-adv-x="815" 
d="M494 1565l125 222h102l-146 -222h-81zM218 1565l125 222h102l-146 -222h-81z" />
    <glyph glyph-name="uni0326" unicode="&#x326;" horiz-adv-x="0" 
d="M220 -336l97 276h82v-33l-102 -243h-77z" />
    <glyph glyph-name="Wgrave" unicode="&#x1e80;" horiz-adv-x="1750" 
d="M418 0l-388 1394h83l348 -1256l377 1188h74l379 -1188l348 1256h81l-388 -1394h-80l-376 1184l-379 -1184h-79zM701 1798h102l125 -221h-81z" />
    <glyph glyph-name="wgrave" unicode="&#x1e81;" horiz-adv-x="1447" 
d="M341 0l-277 997h83l237 -860l304 860h74l303 -858l237 858h81l-275 -997h-78l-305 873l-309 -873h-75zM543 1526h102l137 -253h-80z" />
    <glyph glyph-name="Wacute" unicode="&#x1e82;" horiz-adv-x="1750" 
d="M418 0l-388 1394h83l348 -1256l377 1188h74l379 -1188l348 1256h81l-388 -1394h-80l-376 1184l-379 -1184h-79zM802 1577l125 221h102l-146 -221h-81z" />
    <glyph glyph-name="wacute" unicode="&#x1e83;" horiz-adv-x="1447" 
d="M341 0l-277 997h83l237 -860l304 860h74l303 -858l237 858h81l-275 -997h-78l-305 873l-309 -873h-75zM666 1273l138 253h101l-158 -253h-81z" />
    <glyph glyph-name="Wdieresis" unicode="&#x1e84;" horiz-adv-x="1750" 
d="M418 0l-388 1394h83l348 -1256l377 1188h74l379 -1188l348 1256h81l-388 -1394h-80l-376 1184l-379 -1184h-79zM697 1687q0 24 17 41.5t41 17.5t41.5 -17.5t17.5 -41.5t-17.5 -41t-41.5 -17t-41 17t-17 41zM942 1687q0 24 17 41.5t41 17.5t41.5 -17.5t17.5 -41.5
t-17.5 -41t-41.5 -17t-41 17t-17 41z" />
    <glyph glyph-name="wdieresis" unicode="&#x1e85;" horiz-adv-x="1447" 
d="M341 0l-277 997h83l237 -860l304 860h74l303 -858l237 858h81l-275 -997h-78l-305 873l-309 -873h-75zM544 1398q0 24 17 41t41 17t41 -17t17 -41t-17 -41.5t-41 -17.5t-41 17.5t-17 41.5zM789 1398q0 24 17 41t41 17t41 -17t17 -41t-17 -41.5t-41 -17.5t-41 17.5
t-17 41.5z" />
    <glyph glyph-name="uni1E9E" unicode="&#x1e9e;" horiz-adv-x="1250" 
d="M718 -8q-123 0 -229 23v85q116 -28 229 -28q131 0 204 51t73 147q0 62 -33 116t-128 142q-87 80 -116 132.5t-29 122.5q0 71 29 123.5t116 132.5q95 88 128 142t33 116q0 96 -73 147t-204 51h-413v-1495h-81v1575h497q168 0 263.5 -75.5t95.5 -208.5q0 -82 -47.5 -157.5
t-149.5 -164.5q-63 -55 -85.5 -95t-22.5 -91t22.5 -91t85.5 -94q102 -89 149.5 -164.5t47.5 -157.5q0 -134 -96 -209t-266 -75z" />
    <glyph glyph-name="Ygrave" unicode="&#x1ef2;" horiz-adv-x="1107" 
d="M515 0l-4 415l-491 979h91l439 -888l446 888h91l-499 -979l5 -415h-78zM376 1798h102l125 -221h-80z" />
    <glyph glyph-name="ygrave" unicode="&#x1ef3;" horiz-adv-x="986" 
d="M205 -309q44 -24 80.5 -4t65.5 93l100 243l-401 974h87l354 -877l360 877h85l-514 -1249q-87 -211 -248 -124zM315 1526h101l138 -253h-80z" />
    <glyph glyph-name="endash" unicode="&#x2013;" horiz-adv-x="1039" 
d="M150 544v80h739v-80h-739z" />
    <glyph glyph-name="emdash" unicode="&#x2014;" horiz-adv-x="1870" 
d="M80 544v80h1710v-80h-1710z" />
    <glyph glyph-name="quoteleft" unicode="&#x2018;" horiz-adv-x="441" 
d="M111 955l-7 30l150 483h79l-147 -513h-75z" />
    <glyph glyph-name="quoteright" unicode="&#x2019;" horiz-adv-x="440" 
d="M108 955l147 513h75l6 -30l-149 -483h-79z" />
    <glyph glyph-name="quotesinglbase" unicode="&#x201a;" horiz-adv-x="407" 
d="M104 -226l102 312h75l6 -31l-106 -281h-77z" />
    <glyph glyph-name="quotedblleft" unicode="&#x201c;" horiz-adv-x="616" 
d="M285 955l-6 30l150 483h79l-147 -513h-76zM104 985l150 483h79l-147 -513h-75z" />
    <glyph glyph-name="quotedblright" unicode="&#x201d;" horiz-adv-x="615" 
d="M283 955l147 513h75l6 -30l-149 -483h-79zM108 955l147 513h75l6 -30l-149 -483h-79z" />
    <glyph glyph-name="quotedblbase" unicode="&#x201e;" horiz-adv-x="543" 
d="M240 -226l102 312h75l6 -31l-106 -281h-77zM104 -226l102 312h75l6 -31l-106 -281h-77z" />
    <glyph glyph-name="dagger" unicode="&#x2020;" horiz-adv-x="1073" 
d="M496 -311l-2 1096l-364 -2v84l364 -2l-2 515h89l-2 -515l364 2v-84l-364 2l2 -1096h-85z" />
    <glyph glyph-name="daggerdbl" unicode="&#x2021;" horiz-adv-x="1073" 
d="M496 -311l-2 511l-364 -2v84l364 -2v505l-364 -2v84l364 -2l-2 515h89l-2 -515l364 2v-84l-364 2v-505l364 2v-84l-364 2l2 -511h-85z" />
    <glyph glyph-name="bullet" unicode="&#x2022;" horiz-adv-x="533" 
d="M266 505q-46 0 -76 30.5t-30 76.5t30 76.5t76 30.5t76.5 -30.5t30.5 -76.5t-30.5 -76.5t-76.5 -30.5z" />
    <glyph glyph-name="ellipsis" unicode="&#x2026;" horiz-adv-x="745" 
d="M567 -27q-24 0 -41.5 17t-17.5 41t17.5 41t41.5 17t41 -17t17 -41t-17 -41t-41 -17zM120 31q0 24 17 41t41 17t41 -17t17 -41t-17 -41t-41 -17t-41 17t-17 41zM314 31q0 24 17 41t41 17t41.5 -17t17.5 -41t-17.5 -41t-41.5 -17t-41 17t-17 41z" />
    <glyph glyph-name="perthousand" unicode="&#x2030;" horiz-adv-x="1878" 
d="M145 0l894 1380h97l-894 -1380h-97zM80 1079q0 142 72.5 235t195.5 93t195.5 -93t72.5 -235q0 -140 -73 -234.5t-195 -94.5t-195 94.5t-73 234.5zM165 1079q0 -115 47 -182t136 -67t136 67t47 182q0 117 -46.5 183t-136.5 66q-89 0 -136 -66.5t-47 -182.5zM665 301
q0 142 72.5 235.5t195.5 93.5t195.5 -93.5t72.5 -235.5q0 -139 -72.5 -233.5t-195.5 -94.5q-122 0 -195 94.5t-73 233.5zM750 301q0 -115 47 -182t136 -67t136 66.5t47 182.5q0 117 -46.5 183t-136.5 66q-89 0 -136 -66.5t-47 -182.5zM1262 301q0 142 72.5 235.5t195.5 93.5
t195.5 -93.5t72.5 -235.5q0 -139 -73 -233.5t-195 -94.5t-195 94.5t-73 233.5zM1347 301q0 -115 47 -182t136 -67t136 67t47 182q0 116 -47 182.5t-136 66.5t-136 -66.5t-47 -182.5z" />
    <glyph glyph-name="guilsinglleft" unicode="&#x2039;" horiz-adv-x="559" 
d="M362 159l-282 343l282 342h107l-282 -342l282 -343h-107z" />
    <glyph glyph-name="guilsinglright" unicode="&#x203a;" horiz-adv-x="559" 
d="M90 159l282 343l-282 342h106l283 -342l-283 -343h-106z" />
    <glyph glyph-name="fraction" unicode="&#x2044;" horiz-adv-x="103" 
d="M-280 -64l509 1492l80 13l-509 -1492z" />
    <glyph glyph-name="Euro" unicode="&#x20ac;" horiz-adv-x="1149" 
d="M699 -27q-231 0 -364.5 141.5t-158.5 429.5h-183l38 80h140q-1 20 -1 60q0 5 3 74h-132l38 80h99q33 278 175 423.5t354 145.5q116 0 194.5 -31t149.5 -104l-56 -60q-62 65 -126.5 90.5t-165.5 25.5q-79 0 -148.5 -26.5t-130.5 -82.5t-103 -153.5t-57 -227.5h730l-42 -80
h-695q-1 -21 -1 -66q0 -47 1 -68h654l-34 -80h-615q25 -255 136 -373.5t311 -118.5q161 0 291 96v-95q-132 -80 -301 -80z" />
    <glyph glyph-name="trademark" unicode="&#x2122;" horiz-adv-x="1033" 
d="M471 886v434h93l125 -323l125 323h89v-434h-78l3 273l-104 -269h-73l-103 267l1 -271h-78zM50 1246v76h408v-76h-163v-360h-82v360h-163z" />
    <glyph glyph-name="partialdiff" unicode="&#x2202;" horiz-adv-x="1076" 
d="M510 -27q-178 0 -289 125.5t-111 323.5q0 231 126.5 368t322.5 137q97 0 176 -39.5t133 -106.5q-6 143 -28.5 257.5t-65 205t-112 140t-161.5 49.5q-82 0 -144 -24t-127 -82l-50 61q75 67 152.5 95.5t173.5 28.5q450 0 450 -865q0 -210 -44.5 -357.5t-146 -232
t-255.5 -84.5zM195 426q0 -174 87.5 -274t227.5 -100q177 0 266 137.5t94 446.5q-49 108 -132 160t-177 52q-169 0 -267.5 -116t-98.5 -306z" />
    <glyph glyph-name="emptyset" unicode="&#x2205;" horiz-adv-x="1734" 
d="M867 -29q-139 0 -265.5 50t-225.5 140l-162 -161l-57 56l164 164q-181 208 -181 490q0 155 58.5 292.5t156.5 235t232 154t280 56.5q138 0 265 -50t227 -140l161 161l57 -56l-164 -164q86 -98 133.5 -223.5t47.5 -265.5q0 -155 -58.5 -293t-156.5 -235t-232 -154
t-280 -57zM226 710q0 -248 154 -431l920 920q-183 170 -433 170q-130 0 -248 -50.5t-204.5 -137t-137.5 -209.5t-51 -262zM434 220q182 -169 433 -169q174 0 321 85t234 237t87 337q0 248 -155 430z" />
    <glyph glyph-name="product" unicode="&#x220f;" horiz-adv-x="1082" 
d="M199 -214v1515h-109v79h902v-79h-108v-1515h-82v1515h-521v-1515h-82z" />
    <glyph glyph-name="summation" unicode="&#x2211;" horiz-adv-x="1078" 
d="M50 -214v65l555 754l-497 711v64h881v-79h-772l488 -699l-543 -736h838v-80h-950z" />
    <glyph glyph-name="minus" unicode="&#x2212;" horiz-adv-x="1009" 
d="M96 597v80h817v-80h-817z" />
    <glyph glyph-name="radical" unicode="&#x221a;" horiz-adv-x="1093" 
d="M498 -311l-257 873h-133v80h193l240 -824l401 1737h85l-435 -1866h-94z" />
    <glyph glyph-name="infinity" unicode="&#x221e;" horiz-adv-x="2035" 
d="M561 -27q-210 0 -340.5 155t-130.5 405q0 251 130.5 407t340.5 156q165 0 281.5 -96t175.5 -283q51 183 171 281t286 98q210 0 340 -156t130 -407q0 -250 -130.5 -405t-339.5 -155q-166 0 -282.5 96.5t-175.5 285.5q-53 -188 -171 -285t-285 -97zM176 533
q0 -120 32 -214.5t87 -151.5t122.5 -86t143.5 -29q72 0 137 25t123.5 78.5t98.5 150.5t51 228q-18 133 -59 229.5t-98 150.5t-119.5 78.5t-133.5 24.5q-76 0 -143.5 -29.5t-122 -86.5t-87 -152t-32.5 -216zM1065 535q14 -107 43.5 -190.5t68.5 -138t89 -89.5t101 -50
t108 -15q75 0 142.5 29t122.5 86t87.5 151.5t32.5 214.5q0 121 -32.5 216t-87.5 152t-122.5 86.5t-142.5 29.5q-57 0 -109.5 -14.5t-104.5 -50.5t-92 -89.5t-68 -137.5t-36 -190z" />
    <glyph glyph-name="integral" unicode="&#x222b;" horiz-adv-x="589" 
d="M214 -311q-42 0 -80.5 19t-63.5 56l54 58q37 -53 92 -53q107 0 107 256q0 144 -70 563q-43 262 -57.5 379.5t-14.5 216.5q0 88 17 153t46 100t61.5 51.5t69.5 16.5q94 0 144 -76l-54 -57q-37 53 -92 53q-106 0 -106 -257q0 -149 69 -562q42 -256 57 -376t15 -220
q0 -88 -17 -153t-45.5 -100t-61.5 -51.5t-70 -16.5z" />
    <glyph glyph-name="approxequal" unicode="&#x2248;" horiz-adv-x="1149" 
d="M777 680q-50 0 -94.5 16t-126.5 59q-74 38 -107 49.5t-75 11.5q-66 0 -103 -26.5t-86 -102.5l-59 47q85 162 248 162q51 0 96 -16t125 -58q74 -38 107.5 -50t74.5 -12q66 0 103 26.5t87 103.5l58 -47q-85 -163 -248 -163zM126 384q85 162 248 162q51 0 96 -16t125 -58
q74 -38 107.5 -50t74.5 -12q66 0 103 26.5t87 103.5l58 -47q-85 -163 -248 -163q-50 0 -94.5 16t-126.5 59q-75 39 -107.5 50.5t-74.5 11.5q-66 0 -103 -26.5t-86 -103.5z" />
    <glyph glyph-name="notequal" unicode="&#x2260;" horiz-adv-x="1087" 
d="M241 200l130 222h-255v80h302l158 270h-460v79h506l130 224h92l-131 -224h258v-79h-304l-158 -270h462v-80h-508l-130 -222h-92z" />
    <glyph glyph-name="lessequal" unicode="&#x2264;" horiz-adv-x="1009" 
d="M913 165l-817 357v64l817 357v-89l-694 -300l694 -300v-89zM96 0v80h817v-80h-817z" />
    <glyph glyph-name="greaterequal" unicode="&#x2265;" horiz-adv-x="1009" 
d="M96 165v89l694 300l-694 300v89l817 -357v-64zM96 0v80h817v-80h-817z" />
    <glyph glyph-name="lozenge" unicode="&#x25ca;" horiz-adv-x="916" 
d="M424 0l-334 690l334 690h68l334 -690l-334 -690h-68zM180 690l278 -579l278 579l-278 577z" />
    <glyph glyph-name="uniF8FF" unicode="&#xf8ff;" horiz-adv-x="1602" 
d="M788 253q-151 0 -279.5 75.5t-203 204.5t-74.5 280q0 152 75 280.5t203.5 203t280.5 74.5q151 0 279.5 -75t203.5 -203.5t75 -279.5q0 -152 -74.5 -281t-203.5 -204t-282 -75zM230 29v146h59q26 0 44 -9q37 -17 37 -64q0 -23 -10 -39q-21 -34 -71 -34h-59zM265 56h22
q18 0 26 4q22 10 22 42q0 18 -5 27q-12 20 -43 20h-22v-93zM298 814q0 -205 144 -350t348 -145q203 0 347.5 144.5t144.5 347.5q0 100 -39 191.5t-104.5 157.5t-156 105t-190.5 40q-134 0 -248 -65.5t-180 -178.5t-66 -247zM382 84q0 16 8 29q16 27 52 27q26 0 42 -14
q18 -15 18 -42v-8h-85q0 -8 3 -13q7 -13 25 -13q7 0 10 1q9 3 14 12l31 -3q-2 -10 -10 -17q-14 -16 -45 -16q-17 0 -33 7q-30 14 -30 50zM417 95h52l-3 10q-6 12 -23 12q-10 0 -14 -3q-10 -6 -12 -19zM472 912q10 -2 12 -4q52 -21 98 -27q41 -3 72 2q43 11 47 12
q3 0 8.5 2.5t7.5 3.5q-5 2 -16.5 8t-17 9t-13 8.5t-13.5 12.5h19q39 0 75 19q65 40 136 61q24 8 58 11q4 0 19.5 1t23.5 0q54 -2 89 -33q10 -11 28 -33v-2l-6 2q-45 17 -83 3.5t-62 -53.5q-7 -13 -25 -55q-9 -21 -27 -63.5t-20 -48.5q-33 -64 -65 -101q-27 -33 -66 -58
q-45 -34 -116 -55h-5l24 22q12 11 25 44q41 116 45 127q24 73 57 131v3q-2 -4 -11 -13q-8 -10 -10 -12q-23 -36 -31 -57q-2 -6 -8 -6q-99 3 -177 67q-40 38 -59 55q-1 1 -5 7t-8 10zM511 61l33 2q5 -14 23 -14q20 0 20 11q0 8 -16 11l-21 4q-36 6 -36 31q0 10 6 18
q13 16 46 16q48 0 53 -32l-31 -3q-4 14 -21 14q-19 0 -19 -11q0 -8 16 -12l22 -3q36 -6 36 -30q0 -9 -7 -18q-13 -18 -48 -18q-51 0 -56 34zM635 168q0 15 19 15q18 0 18 -15t-18 -15q-19 0 -19 15zM637 29v109h34v-109h-34zM686 84q0 20 7 31q13 25 43 25q10 0 18 -3
q12 -5 18 -17h1v18h35v-110q0 -14 -9 -23q-15 -19 -52 -19q-50 0 -57 31l31 3l2 -2q2 -3 4 -4q5 -6 21 -6q25 0 25 21v19h-1q-2 -3 -7 -8q-11 -9 -29 -9q-13 0 -25 5q-25 13 -25 48zM721 84q0 -10 3 -16q6 -14 24 -14q25 0 25 30q0 10 -3 17q-6 15 -22 15q-7 0 -15 -4
q-12 -7 -12 -28zM828 29v109h34v-19q10 21 37 21q13 0 23 -5q20 -10 20 -36v-70h-35v64q0 22 -21 22q-7 0 -13 -3q-11 -6 -11 -19v-64h-34zM957 84q0 15 7 29q16 27 54 27q20 0 33 -7q28 -16 28 -49q0 -17 -7 -30q-16 -27 -54 -27q-16 0 -33 7q-28 16 -28 50zM992 84
q0 -9 3 -18q7 -15 23 -15q10 0 15 4q12 9 12 29q0 2 -3 17q-8 16 -24 16q-7 0 -14 -5q-12 -7 -12 -28zM1081 138h36l26 -78h1l26 78h36l-43 -109h-39zM1207 60q0 17 15 25q13 8 32 8l17 3q13 0 13 7v1q0 14 -19 14q-17 0 -22 -13l-32 3q3 10 10 17q15 15 45 15q20 0 37 -9
q15 -8 15 -28v-74h-33v16q-5 -7 -9 -9q-9 -9 -27 -9q-13 0 -21 4q-21 8 -21 29zM1240 60q0 -12 18 -12q8 0 14 3q12 5 12 18v11q-4 -2 -23 -5q-7 0 -12 -3q-9 -3 -9 -12zM1297 177q0 16 11 26.5t27 10.5t26.5 -10.5t10.5 -26.5t-10.5 -27t-26.5 -11t-27 11t-11 27zM1309 177
q0 -11 7.5 -19t18.5 -8t18.5 8t7.5 19t-7.5 18.5t-18.5 7.5t-18.5 -7.5t-7.5 -18.5zM1322 160v35h14q12 0 12 -11q0 -5 -5 -10l8 -14h-10l-6 11h-5v-11h-8zM1330 180h6q5 0 5 3t-5 3h-6v-6z" />
    <glyph glyph-name="_Designova" horiz-adv-x="1752" 
d="M874 41q-174 0 -322.5 87t-235 235.5t-86.5 323.5q1 131 52 250.5t137.5 205.5t206 137t250.5 51q175 0 323.5 -86t235.5 -234.5t87 -323.5q0 -176 -87 -324.5t-236 -235t-325 -86.5zM308 687q0 -116 45 -221.5t120.5 -181.5t181 -121t221.5 -45q154 0 285 76t207 207
t76 285q0 116 -45 221.5t-120.5 181.5t-180.5 121t-221 45t-221 -45t-181.5 -120.5t-121.5 -181t-45 -221.5zM510 800q7 0 13 -4q58 -22 115 -31q45 -5 81 3q29 4 53 14q5 0 11.5 3t8.5 4q-5 3 -22.5 11.5t-27.5 15.5t-19 17h21q39 0 86 20q85 53 158 73q37 10 66 10
q6 0 24.5 1.5t26.5 0.5q67 -4 102 -39q6 -5 33 -37v-2q-3 2 -7 2q-53 20 -95.5 4.5t-71.5 -59.5q-5 -9 -10 -20.5t-11 -25t-9 -21.5q-6 -14 -25 -59t-30 -68q-36 -74 -74 -119q-20 -27 -74 -66q-52 -38 -136 -63h-7l28 24q18 17 30 51q7 20 25 71t27 78q31 90 65 150v1
q-3 -3 -11 -13q-9 -7 -11 -16q-23 -27 -38 -65q-3 -5 -9 -5q-117 5 -204 78q-10 10 -32.5 31t-33.5 32q-12 14 -16 18z" />
    <glyph glyph-name="_Origin" horiz-adv-x="2255" 
d="M150 1055v50h1955v-50h-1955zM150 236v50h1955v-50h-1955zM228 437v177h42v-177h-42zM260 734v177h148v-32h-107v-39h97v-31h-97v-42h107v-33h-148zM298 437v177h34l89 -107v107h40v-177h-33l-88 109v-109h-42zM438 734v177h34l88 -107v107h40v-177h-33l-88 109v-109h-41
zM554 437v177h87q72 0 72 -45q0 -28 -26 -40q3 0 3 -2q28 -12 28 -42q0 -48 -71 -48h-93zM596 468h48q32 0 32 22t-32 22h-48v-44zM596 545h42q33 0 33 20q0 22 -33 22h-42v-42zM629 879v32h156v-32h-57v-145h-41v145h-58zM738 437v177h148v-33h-107v-38h96v-31h-96v-41h105
v-34h-146zM803 911h44l40 -124l42 124h38l40 -126l42 126h39l-57 -177h-45l-39 121l-41 -121h-43zM914 437v177h81q28 0 42 -6q36 -19 36 -57q0 -21 -10 -35q-15 -18 -29 -23l37 -56h-43l-35 50h-37v-50h-42zM956 520h37q38 0 38 31q0 30 -38 30h-37v-61zM1093 437v177h40
v-143h106v-34h-146zM1096 823q0 39 28 65q26 26 69 26t69 -26q28 -25 28 -65q0 -39 -28 -65q-26 -27 -68 -27q-44 0 -70 27q-28 28 -28 65zM1138 823q0 -25 15.5 -40.5t39.5 -15.5t39.5 15.5t15.5 40.5t-15.5 41.5t-39.5 16.5t-39.5 -16.5t-15.5 -41.5zM1268 437v177h41
v-177h-41zM1313 734v177h81q28 0 41 -6q36 -17 36 -57q0 -21 -10 -35q-9 -15 -29 -23l39 -56h-45l-33 50h-39v-50h-41zM1338 437v177h35l87 -107v107h42v-177h-34l-89 109v-109h-41zM1354 817h37q38 0 38 31t-38 31h-37v-62zM1491 734v177h148v-32h-107v-39h96v-31h-96v-75
h-41zM1528 461q0 24 25 24q10 0 17 -7t7 -17q0 -11 -7 -25l-14 -38h-26l12 41q-14 5 -14 22zM1655 734v177h147v-32h-106v-39h95v-31h-95v-42h106v-33h-147zM1678 437v177h80q30 0 52 -11q46 -21 46 -77q0 -28 -12 -47q-23 -42 -86 -42h-80zM1720 471h37q17 0 31 7
q26 14 26 48q0 21 -6 29q-14 26 -51 26h-37v-110zM1832 734v177h33l90 -107v107h40v-177h-34l-89 109v-109h-40zM1880 437v177h147v-33h-107v-38h97v-31h-97v-41h106v-34h-146z" />
    <glyph glyph-name="_VendorID" horiz-adv-x="1176" 
d="M103 154v1187h974v-1187h-974zM106 63q0 13 7.5 20.5t18.5 7.5q9 0 12 -3l4 -5v26h13v-72h-13v9l-4 -7q-8 -5 -15 -5q-23 0 -23 29zM120 63q0 -17 13 -17q15 0 15 17v1q0 18 -13 18q-15 0 -15 -19zM156 205h869v1084h-869v-1084zM171 63q0 13 7.5 20.5t19.5 7.5
q11 0 18.5 -7.5t7.5 -19.5q0 -2 -2 -5h-37q1 -13 13 -13q10 0 12 9h12q-4 -21 -24 -21q-27 0 -27 29zM185 67h25q-3 15 -12 15q-12 0 -13 -15zM228 52h14q3 -9 9 -9q9 0 9 7q0 3 -12 9q-18 5 -18 16q0 16 21 16t21 -16h-14q-1 7 -7 7q-7 0 -7 -6q0 -4 12 -9q17 -5 17 -15
q0 -18 -22 -18q-20 0 -23 18zM270 455q0 59 46 125l97 137h64l-84 -120q11 3 23 3q62 0 102.5 -41.5t40.5 -103.5q0 -61 -41.5 -103.5t-101.5 -42.5q-61 0 -103.5 42.5t-42.5 103.5zM270 926q0 56 46 123l97 142h64l-84 -122q7 2 23 2q63 0 103 -41t40 -104
q0 -61 -41 -102.5t-102 -41.5t-103.5 42t-42.5 102zM281 102q0 7 8 7t8 -7q0 -8 -8 -8t-8 8zM282 37v54h14v-54h-14zM306 63q0 28 26 28q9 0 12 -3l4 -5v8h14v-41q0 -8 -2 -11q0 -24 -27 -24q-26 0 -26 18v1h14v-1q0 -8 12 -8q11 0 15 13v8l-4 -7q-8 -2 -14 -2q-24 0 -24 26
zM321 64q0 -18 12 -18q15 0 15 17v1q0 18 -15 18q-12 0 -12 -18zM324 455q0 -42 25.5 -68t66.5 -26q39 0 64.5 26t25.5 68q0 40 -25.5 65t-64.5 25q-41 0 -66.5 -25t-25.5 -65zM324 926q0 -41 25.5 -67t66.5 -26q39 0 64.5 26.5t25.5 66.5t-25.5 66t-64.5 26
q-41 0 -66.5 -25t-25.5 -67zM373 37v54h14v-10l4 7q5 3 13 3q17 0 20 -15q1 -3 1 -9v-30h-15v34q0 11 -10 11q-13 0 -13 -21v-24h-14zM432 63q0 13 7.5 20.5t19.5 7.5q28 0 28 -28q0 -29 -28 -29q-12 0 -19.5 8t-7.5 21zM446 63q0 -17 13 -17q15 0 15 17q0 19 -15 19
q-13 0 -13 -19zM492 91h14l14 -45l13 45h14l-19 -54h-18zM552 52q0 16 30 16h3v7q0 7 -9 7q-11 0 -11 -9h-13q0 18 24 18q19 0 21 -15v-39h-12v6l-3 -5q-8 -4 -14 -4q-16 0 -16 18zM565 52q0 -6 8 -6q12 0 12 9v6q-20 2 -20 -9zM606 80v9h6v8q0 15 19 15h6v-11q-11 2 -11 -5
v-7h11v-9h-11v-43h-14v43h-6zM619 455q0 62 44 125l97 137h66l-86 -120q11 3 25 3q61 0 102 -41.5t41 -103.5q0 -61 -41.5 -103.5t-101.5 -42.5q-61 0 -103.5 42.5t-42.5 103.5zM619 926q0 57 44 123l97 142h66l-87 -122q8 2 26 2q61 0 102 -41.5t41 -103.5
q0 -61 -41.5 -102.5t-101.5 -41.5q-61 0 -103.5 41.5t-42.5 102.5zM641 63q0 28 28 28q27 0 27 -28q0 -29 -27 -29q-28 0 -28 29zM655 63q0 -17 14 -17q13 0 13 17q0 19 -13 19q-14 0 -14 -19zM672 455q0 -42 26 -68t67 -26q38 0 62.5 26t24.5 68q0 40 -24.5 65t-62.5 25
q-41 0 -67 -25t-26 -65zM672 926q0 -41 26 -67t67 -26q38 0 62.5 26t24.5 67q0 40 -24.5 66t-62.5 26q-41 0 -67 -25.5t-26 -66.5zM705 37v54h12v-10l6 7q4 3 13 3q16 0 19 -15v-39h-14v34q-4 11 -9 11q-15 0 -15 -21v-24h-12zM762 80v9h8v13h14v-13h10v-9h-10v-28
q2 -10 9 -6v-10h-8q-15 0 -15 10v34h-8zM798 52h15q1 -9 10 -9q8 0 8 7q0 3 -12 9q-17 5 -17 16q0 16 20 16q19 0 24 -16h-16q0 7 -9 7q-5 0 -5 -6q0 -5 11 -9q19 -6 19 -15q0 -18 -23 -18q-21 0 -25 18zM850 42q0 10 9 10t9 -10q0 -8 -9 -8t-9 8zM874 63q0 13 8 20.5
t18 7.5q25 0 25 -20h-13q-3 11 -12 11q-12 0 -12 -19q0 -17 12 -17q10 0 12 9h13q-1 -21 -25 -21q-26 0 -26 29zM930 63q0 28 29 28q26 0 26 -28q0 -29 -26 -29q-29 0 -29 29zM944 63q0 -17 15 -17q13 0 13 17q0 19 -13 19q-15 0 -15 -19zM995 37v54h14v-9l5 6q3 3 9 3
q13 0 18 -10l5 7q3 3 11 3q17 0 17 -12q1 -4 1 -12v-30h-13v27q0 2 -0.5 5t-0.5 4q0 9 -10 9q-9 0 -9 -18v-27h-13v36q-5 9 -10 9q-10 0 -10 -18v-27h-14z" />
    </font>
</defs>
</svg>
