<?xml version="1.0" standalone="no"?>
<!DOCTYPE svg PUBLIC "-//W3C//DTD SVG 1.1//EN" "http://www.w3.org/Graphics/SVG/1.1/DTD/svg11.dtd" >
<svg xmlns="http://www.w3.org/2000/svg" xmlns:xlink="http://www.w3.org/1999/xlink" version="1.1">
<metadata>
Created by FontForge 20201107 at Tue Feb 27 18:47:59 2024
 By 
Copyright (c) 2024 by Designova. All rights reserved.
</metadata>
<defs>
<font id="RovelleUno-BookItalic" horiz-adv-x="1104" >
  <font-face 
    font-family="Rovelle Uno Book Italic"
    font-weight="400"
    font-style="italic"
    font-stretch="normal"
    units-per-em="2048"
    panose-1="0 0 0 0 0 0 0 0 0 0"
    ascent="1638"
    descent="-410"
    x-height="1017"
    cap-height="1394"
    bbox="-296 -428 2311 1901"
    underline-thickness="100"
    underline-position="-255"
    unicode-range="U+0020-F8FF"
  />
<missing-glyph horiz-adv-x="1267" 
d="M157 0l219 1380h953l-219 -1380h-953zM309 240l368 457l-223 456zM338 113h626l-237 482zM531 1268l229 -469l378 469h-607zM810 697l224 -457l145 913z" />
    <glyph glyph-name=".notdef" horiz-adv-x="1267" 
d="M157 0l219 1380h953l-219 -1380h-953zM309 240l368 457l-223 456zM338 113h626l-237 482zM531 1268l229 -469l378 469h-607zM810 697l224 -457l145 913z" />
    <glyph glyph-name=".null" horiz-adv-x="0" 
 />
    <glyph glyph-name="nonmarkingreturn" horiz-adv-x="682" 
 />
    <glyph glyph-name="space" unicode=" " horiz-adv-x="552" 
 />
    <glyph glyph-name="exclam" unicode="!" horiz-adv-x="548" 
d="M241 239l178 1178h157l-193 -1178h-142zM196 69q6 36 35.5 62t66.5 26t59.5 -26t16.5 -62q-6 -38 -36.5 -64t-67.5 -26t-58.5 26t-15.5 64z" />
    <glyph glyph-name="quotedbl" unicode="&#x22;" horiz-adv-x="637" 
d="M497 910l82 556h145l-94 -556h-133zM295 910l82 556h146l-96 -556h-132z" />
    <glyph glyph-name="numbersign" unicode="#" horiz-adv-x="1052" 
d="M186 0l167 454h-196l23 143h228l67 187h-210l23 143h240l171 454h144l-167 -454h98l168 454h145l-167 -454h194l-23 -143h-226l-69 -187h212l-23 -143h-243l-168 -454h-145l167 454h-98l-168 -454h-144zM552 597h99l70 187h-98z" />
    <glyph glyph-name="dollar" unicode="$" horiz-adv-x="1101" 
d="M493 -21q-166 22 -260 139.5t-65 319.5h146q-36 -275 201 -315l81 507q-67 24 -118 54.5t-94 76.5t-59.5 113t-3.5 150q24 152 135.5 253.5t261.5 123.5l23 147h146l-23 -145q86 -12 148.5 -54t95.5 -104.5t44 -137t1 -156.5h-146q30 269 -166 306l-81 -512
q333 -116 288 -405q-22 -138 -132 -240.5t-277 -120.5l-23 -146h-146zM470 1024q-15 -95 23 -147.5t128 -88.5l74 468q-90 -18 -149.5 -76t-75.5 -156zM661 122q105 15 164.5 70t73.5 144q15 93 -24.5 151.5t-139.5 100.5z" />
    <glyph glyph-name="percent" unicode="%" horiz-adv-x="1285" 
d="M108 0l1113 1381h174l-1114 -1381h-173zM243 1062q23 147 117.5 246t226.5 99q130 0 192.5 -99t39.5 -246q-23 -146 -116.5 -247t-225.5 -101q-131 0 -194 101t-40 247zM392 1062q-32 -204 108 -204t172 204q32 202 -108 202t-172 -202zM683 321q23 148 117.5 247
t226.5 99t194.5 -99t39.5 -247q-24 -146 -118 -246.5t-226 -100.5t-194.5 101t-39.5 246zM832 321q-32 -205 107 -205q142 0 174 205q32 202 -109 202q-140 0 -172 -202z" />
    <glyph glyph-name="ampersand" unicode="&#x26;" horiz-adv-x="1267" 
d="M979 347q107 154 145 375h139q-38 -233 -141 -397q-16 -28 -59 -84l165 -203l-116 -97l-155 191q-173 -149 -418 -169q-132 -8 -223 28q-96 37 -144 114.5t-40 187.5q15 175 165 303q80 66 186 127q-6 9 -20 31l-21 33q-77 123 -67 251q13 151 125.5 254t276.5 114
q159 12 241 -65.5t70 -205.5q-11 -116 -84 -208q-102 -125 -308 -229zM276 301q-10 -106 59.5 -156.5t213.5 -41.5q194 15 327 129l-313 387q-28 -15 -93 -56q-91 -58 -139 -118.5t-55 -143.5zM518 1049q-3 -55 11 -94q20 -65 87 -158q60 33 157 96q83 54 124.5 107
t47.5 125q8 78 -34 115.5t-149 29.5q-109 -7 -172.5 -66.5t-71.5 -154.5z" />
    <glyph glyph-name="quotesingle" unicode="'" horiz-adv-x="436" 
d="M295 910l82 556h146l-96 -556h-132z" />
    <glyph glyph-name="parenleft" unicode="(" horiz-adv-x="595" 
d="M341 -149q-83 154 -112.5 383t7.5 466q37 234 139.5 464.5t234.5 383.5h165q-149 -169 -250 -387t-140 -461q-38 -247 -6.5 -463t127.5 -386h-165z" />
    <glyph glyph-name="parenright" unicode=")" horiz-adv-x="596" 
d="M42 -149q150 170 251.5 388t140.5 461q38 247 5.5 463t-129.5 385h167q84 -152 113 -382t-8 -466q-37 -235 -139 -465.5t-235 -383.5h-166z" />
    <glyph glyph-name="asterisk" unicode="*" horiz-adv-x="929" 
d="M303 165l-109 87l237 261l-261 89l68 141l259 -97l47 335h150l-57 -335l291 97l21 -141l-289 -89l157 -261l-139 -87l-145 266z" />
    <glyph glyph-name="plus" unicode="+" horiz-adv-x="1028" 
d="M467 161l65 407h-351l23 144h351l64 406h145l-64 -406h350l-23 -144h-350l-65 -407h-145z" />
    <glyph glyph-name="comma" unicode="," horiz-adv-x="469" 
d="M65 -214l177 363h124l1 -66l-159 -297h-143z" />
    <glyph glyph-name="hyphen" unicode="-" horiz-adv-x="684" 
d="M174 501l23 143h494l-23 -143h-494z" />
    <glyph glyph-name="period" unicode="." horiz-adv-x="408" 
d="M201 -26q-38 0 -60 26.5t-16 63.5q6 36 36.5 62t67.5 26t58.5 -26t15.5 -62q-6 -38 -35.5 -64t-66.5 -26z" />
    <glyph glyph-name="slash" unicode="/" horiz-adv-x="748" 
d="M26 -56l737 1494h150l-737 -1494h-150z" />
    <glyph glyph-name="zero" unicode="0" horiz-adv-x="1164" 
d="M578 -26q-101 0 -176 36t-119.5 99.5t-66.5 154.5t-22 196.5t20 229.5q20 125 53 231t84 197t116 154.5t151 99t187 35.5t176 -36t119.5 -99.5t66.5 -154.5t21.5 -197t-20.5 -230t-53 -230t-83.5 -196.5t-115.5 -154t-151 -99.5t-187 -36zM363 690q-22 -129 -20.5 -234.5
t26 -181t83 -117t148.5 -41.5q176 0 276 149t143 425q26 174 18 301.5t-71.5 200t-183.5 72.5q-176 0 -275.5 -149t-143.5 -425z" />
    <glyph glyph-name="one" unicode="1" horiz-adv-x="754" 
d="M499 0l189 1192l-387 -219l27 169l429 239h107l-219 -1381h-146z" />
    <glyph glyph-name="two" unicode="2" horiz-adv-x="1060" 
d="M75 0l16 103l528 446q100 84 162 147t95.5 117.5t47 94.5t23.5 100q19 119 -36.5 187.5t-185.5 68.5q-126 0 -217.5 -77.5t-128.5 -216.5l-17 -66h-144l19 76q52 192 193 309.5t318 117.5q99 0 173.5 -32t115.5 -87t56 -126.5t2 -153.5q-23 -140 -109 -269.5t-274 -285.5
l-371 -309h677l-23 -144h-920z" />
    <glyph glyph-name="three" unicode="3" horiz-adv-x="1128" 
d="M564 -10q-235 0 -345.5 134t-57.5 344l144 6q-46 -165 28 -254.5t254 -89.5q162 0 261 74.5t120 203.5q20 129 -56 202.5t-238 73.5q-67 0 -139 -15l18 115l450 467h-697l23 143h922l-16 -101l-461 -473q178 -21 269 -134t65 -278q-29 -184 -179.5 -301t-364.5 -117z
M571 772h23l-13 15l-9 -9z" />
    <glyph glyph-name="four" unicode="4" horiz-adv-x="1185" 
d="M760 0l50 314h-685l17 107l852 973h128l-149 -942h213l-22 -138h-213l-50 -314h-141zM341 452h491l108 686z" />
    <glyph glyph-name="five" unicode="5" horiz-adv-x="1070" 
d="M516 -14q-59 0 -113.5 14t-103.5 46t-84 78t-53.5 114.5t-13.5 151.5l5 76h144l-4 -65q-7 -127 56.5 -199t191.5 -72q64 0 122.5 18.5t109 56t87 101.5t49.5 148q24 153 -39.5 237t-197.5 84h-27q-217 0 -310 -216h-143l239 835h745l-23 -143h-618l-115 -398
q113 65 243 65h34q131 0 221 -62t125 -166.5t14 -233.5q-22 -142 -104 -251t-196 -164t-241 -55z" />
    <glyph glyph-name="six" unicode="6" horiz-adv-x="1095" 
d="M546 -10q-127 0 -224 60.5t-141.5 166t-24.5 231.5q20 123 112 249l516 697h160l-368 -500q65 17 118 17q126 0 222 -61t140.5 -167.5t24.5 -232.5q-30 -192 -186 -326t-349 -134zM300 450q-22 -142 53.5 -231t215.5 -89t244.5 90t127.5 232q22 139 -55 230t-216 91
q-137 0 -242.5 -91t-127.5 -232z" />
    <glyph glyph-name="seven" unicode="7" horiz-adv-x="1121" 
d="M193 0l889 1255h-848l22 139h1021l-17 -109l-906 -1285h-161z" />
    <glyph glyph-name="eight" unicode="8" horiz-adv-x="1112" 
d="M551 -28q-204 0 -320 107.5t-86 296.5q18 113 86.5 203t174.5 143q-61 49 -85.5 128t-9.5 174q26 162 157.5 272.5t325.5 110.5q135 0 224 -53t121.5 -138t15.5 -192q-16 -97 -69 -176.5t-133 -128.5q84 -52 117.5 -140.5t16.5 -202.5q-20 -127 -102.5 -220.5
t-195 -138.5t-238.5 -45zM293 376q-21 -131 61.5 -195.5t222.5 -64.5q84 0 157.5 25t131.5 86t72 149q20 128 -46.5 198t-226.5 70q-163 0 -257.5 -71t-114.5 -197zM459 1024q-19 -120 48.5 -179t187.5 -59q119 0 206 59t106 179q19 116 -42 178t-194 62
q-134 0 -213.5 -61.5t-98.5 -178.5z" />
    <glyph glyph-name="nine" unicode="9" horiz-adv-x="1095" 
d="M741 501q-55 -16 -119 -16q-191 0 -304.5 134t-83.5 324q31 194 186 327.5t349 133.5q95 0 175 -35.5t132.5 -96.5t75.5 -146.5t8 -180.5q-20 -124 -110 -247l-518 -698h-159zM376 942q-22 -139 54.5 -229t215.5 -90q140 0 244 90t126 230q23 143 -52 232t-217 89
q-139 0 -244 -90t-127 -232z" />
    <glyph glyph-name="colon" unicode=":" horiz-adv-x="450" 
d="M371 924q-37 0 -59 26.5t-16 64.5q5 36 36 62.5t68 26.5t59 -26.5t17 -62.5q-6 -38 -37 -64.5t-68 -26.5zM145 64q6 36 36.5 62t67.5 26t59.5 -25.5t16.5 -62.5q-6 -38 -36.5 -64t-67.5 -26q-38 0 -60 26.5t-16 63.5z" />
    <glyph glyph-name="semicolon" unicode=";" horiz-adv-x="530" 
d="M85 -214l178 363h124l2 -66l-160 -297h-144zM379 1015q5 36 36 62.5t66 26.5q36 0 58 -26.5t17 -62.5q-6 -38 -37 -64.5t-67 -26.5t-57.5 26.5t-15.5 64.5z" />
    <glyph glyph-name="less" unicode="&#x3c;" horiz-adv-x="1029" 
d="M951 79l-782 412l16 103l912 411l-25 -162l-667 -300l571 -302z" />
    <glyph glyph-name="equal" unicode="=" 
d="M175 401l22 144h882l-22 -144h-882zM227 735l23 143h882l-23 -143h-882z" />
    <glyph glyph-name="greater" unicode="&#x3e;" horiz-adv-x="1029" 
d="M104 79l25 162l669 302l-573 300l25 162l782 -411l-16 -103z" />
    <glyph glyph-name="question" unicode="?" horiz-adv-x="1036" 
d="M452 229q17 107 32 165t48 122.5t84 119t141 131.5q89 75 132.5 140.5t56.5 144.5q19 118 -38.5 178t-183.5 60q-148 0 -235.5 -90.5t-115.5 -260.5h-142q11 105 56.5 197t113.5 157t158 102.5t188 37.5q190 0 281.5 -108.5t65.5 -272.5q-34 -209 -251 -384
q-77 -64 -118 -105.5t-68.5 -94t-38 -99t-24.5 -140.5h-142zM410 64q6 36 36 62t68 26q36 0 58.5 -26t16.5 -62q-6 -37 -36.5 -63.5t-66.5 -26.5q-38 0 -60 26t-16 64z" />
    <glyph glyph-name="at" unicode="@" horiz-adv-x="1657" 
d="M736 -193q-100 0 -191.5 27.5t-169.5 82.5t-129.5 138t-72.5 195t2 253q24 151 92 285.5t163.5 232.5t211 169.5t237 107.5t238.5 36q144 0 258.5 -49t186.5 -135t101 -208t6 -264q-20 -127 -69 -231t-114 -170.5t-141 -102t-153 -35.5q-71 0 -131.5 25.5t-66.5 66.5
q-116 -107 -249 -107q-38 0 -72.5 9.5t-69.5 32t-56.5 60.5t-32 95t3.5 135q22 142 98.5 266t191.5 200.5t240 76.5q102 0 154 -65l-2 9l10 22h153l-181 -451q-36 -95 -46 -152q-7 -45 11.5 -62.5t71.5 -17.5q104 0 188 103t112 283q39 250 -77.5 386.5t-358.5 136.5
q-115 0 -237 -46.5t-229.5 -131t-187.5 -216.5t-104 -288q-22 -136 2.5 -244.5t86.5 -176t150 -103t195 -35.5q153 0 270.5 38.5t278.5 145.5l59 -123q-188 -121 -327 -162.5t-304 -41.5zM667 464q-17 -109 9.5 -153t98.5 -44q77 0 148.5 71t136.5 242l29 75
q37 95 17.5 147.5t-88.5 52.5q-118 0 -221.5 -112t-129.5 -279z" />
    <glyph glyph-name="A" unicode="A" horiz-adv-x="1164" 
d="M35 0l707 1394h120l267 -1394h-153l-83 445h-482l-224 -445h-152zM480 584h388l-105 559z" />
    <glyph glyph-name="B" unicode="B" horiz-adv-x="1224" 
d="M165 0l221 1394h507q192 0 287.5 -99t69.5 -269q-29 -183 -167 -283q80 -46 114 -135.5t15 -211.5q-31 -193 -164.5 -294.5t-354.5 -101.5h-528zM329 140h386q169 0 251.5 60t104.5 196q20 129 -30.5 191.5t-173.5 62.5h-457zM432 790h415q110 0 176.5 60t84.5 172
q18 117 -40 175t-197 58h-365z" />
    <glyph glyph-name="C" unicode="C" horiz-adv-x="1343" 
d="M688 -12q-181 0 -306.5 86t-178 247.5t-18.5 374.5q34 215 137.5 376.5t256.5 247.5t334 86h20q203 0 334.5 -107t169.5 -296l-140 -49q-58 310 -387 310h-20q-223 0 -371.5 -149t-191.5 -419q-43 -268 59 -417t325 -149h20q328 0 485 310l124 -49q-97 -188 -263 -295.5
t-369 -107.5h-20z" />
    <glyph glyph-name="D" unicode="D" horiz-adv-x="1250" 
d="M165 0l221 1394h310q331 0 486 -186.5t102 -521.5q-52 -327 -263.5 -506.5t-546.5 -179.5h-309zM329 140h163q284 0 443.5 134.5t203.5 411.5q45 284 -73 426.5t-393 142.5h-167z" />
    <glyph glyph-name="E" unicode="E" horiz-adv-x="1155" 
d="M165 0l221 1394h905l-22 -139h-763l-76 -481h698l-23 -140h-698l-78 -494h763l-22 -140h-905z" />
    <glyph glyph-name="F" unicode="F" horiz-adv-x="1155" 
d="M165 0l221 1394h905l-22 -139h-763l-76 -481h698l-23 -140h-698l-100 -634h-142z" />
    <glyph glyph-name="G" unicode="G" horiz-adv-x="1317" 
d="M688 -12q-275 0 -414 193.5t-88 516.5t251.5 515.5t475.5 192.5q207 0 338 -110t158 -302l-138 -51q-20 153 -114.5 237t-266.5 84q-223 0 -371.5 -149t-190.5 -417q-43 -270 58.5 -419t324.5 -149q300 0 449 257l34 215h-459l23 140h599l-118 -742h-140l23 145
q-185 -157 -434 -157z" />
    <glyph glyph-name="H" unicode="H" horiz-adv-x="1235" 
d="M165 0l221 1394h142l-98 -616h620l98 616h143l-221 -1394h-143l101 637h-620l-101 -637h-142z" />
    <glyph glyph-name="I" unicode="I" horiz-adv-x="472" 
d="M165 0l221 1394h142l-221 -1394h-142z" />
    <glyph glyph-name="J" unicode="J" horiz-adv-x="1163" 
d="M145 507l11 66h142q-54 -235 46 -365q74 -96 200 -99q131 -4 242 92q137 118 171 328l137 865h141l-138 -867q-41 -262 -220 -414q-143 -121 -320 -131q-170 -9 -287 89q-139 117 -134 338q1 47 9 98z" />
    <glyph glyph-name="K" unicode="K" horiz-adv-x="1226" 
d="M165 0l221 1394h142l-112 -703l789 703h197l-678 -603l436 -791h-174l-377 688l-225 -199l-77 -489h-142z" />
    <glyph glyph-name="L" unicode="L" horiz-adv-x="1105" 
d="M165 0l221 1394h142l-199 -1254h763l-22 -140h-905z" />
    <glyph glyph-name="M" unicode="M" horiz-adv-x="1569" 
d="M165 0l221 1394h147l305 -1067l642 1067h145l-221 -1394h-141l168 1059l-577 -958h-106l-273 958l-168 -1059h-142z" />
    <glyph glyph-name="N" unicode="N" horiz-adv-x="1279" 
d="M165 0l221 1394h134l497 -1110l176 1110h142l-221 -1394h-136l-496 1107l-175 -1107h-142z" />
    <glyph glyph-name="O" unicode="O" horiz-adv-x="1404" 
d="M688 -12q-181 0 -306.5 86t-178 247.5t-18.5 374.5q34 215 137.5 376.5t256.5 247.5t334 86h20q280 0 418.5 -195.5t87.5 -514.5q-33 -209 -135 -370t-256.5 -249.5t-339.5 -88.5h-20zM327 696q-43 -268 59 -417t325 -149h20q227 0 375.5 148.5t190.5 417.5
q43 270 -59 419t-328 149h-20q-223 0 -371.5 -149t-191.5 -419z" />
    <glyph glyph-name="P" unicode="P" horiz-adv-x="1151" 
d="M165 0l221 1394h477q219 0 320.5 -100.5t70.5 -293.5v-2q-31 -193 -164 -293.5t-352 -100.5h-335l-96 -604h-142zM425 744h335q168 0 250 60t103 196q22 135 -41.5 195t-230.5 60h-335z" />
    <glyph glyph-name="Q" unicode="Q" horiz-adv-x="1406" 
d="M688 -12q-181 0 -306.5 86t-178 247.5t-18.5 374.5q34 215 137.5 376.5t256.5 247.5t334 86h20q280 0 418.5 -195.5t87.5 -514.5q-45 -285 -210 -469l130 -149l-115 -100l-123 148q-180 -138 -413 -138h-20zM327 696q-43 -268 59 -417t325 -149h20q175 0 305 94l-238 279
l111 104l236 -278q116 140 152 367q43 270 -59 419t-328 149h-20q-223 0 -371.5 -149t-191.5 -419z" />
    <glyph glyph-name="R" unicode="R" horiz-adv-x="1188" 
d="M165 0l221 1394h477q219 0 320.5 -100.5t70.5 -293.5v-2q-25 -161 -124 -259t-261 -125l254 -614h-165l-248 604h-307l-96 -604h-142zM425 744h335q168 0 250 60t103 196q22 135 -41.5 195t-230.5 60h-335z" />
    <glyph glyph-name="S" unicode="S" horiz-adv-x="1152" 
d="M592 -26q-79 0 -149 17t-129 54.5t-98.5 91t-55.5 131t-2 170.5h144q-24 -156 63.5 -239t250.5 -83q143 0 240.5 66t115.5 175q9 59 0 98.5t-46 71.5t-91.5 55t-150.5 52q-109 32 -179 64.5t-120 79t-66.5 110t-2.5 148.5q25 159 174.5 265t330.5 106q72 0 132.5 -17.5
t103 -49t74.5 -74.5t47 -93.5t21.5 -107t-3.5 -114.5h-144q12 152 -56 232.5t-200 80.5q-78 0 -147.5 -24t-121 -76t-62.5 -124q-9 -58 0 -95.5t46.5 -67.5t90.5 -51.5t152 -51.5q104 -31 174.5 -65.5t120.5 -82.5t67.5 -114t3.5 -152q-17 -108 -92.5 -196.5t-190.5 -139
t-245 -50.5z" />
    <glyph glyph-name="T" unicode="T" horiz-adv-x="1186" 
d="M520 0l199 1255h-485l22 139h1116l-22 -139h-487l-199 -1255h-144z" />
    <glyph glyph-name="U" unicode="U" horiz-adv-x="1247" 
d="M229 507l141 887h140l-139 -874q-34 -216 71 -330q81 -88 210 -81q134 7 240 112q119 116 149 308l137 865h141l-138 -867q-41 -262 -220 -414q-143 -121 -320 -131q-170 -9 -287 89q-139 117 -134 338q1 47 9 98z" />
    <glyph glyph-name="V" unicode="V" horiz-adv-x="1257" 
d="M573 0l-327 1394h152l269 -1156l633 1156h153l-767 -1394h-113z" />
    <glyph glyph-name="W" unicode="W" horiz-adv-x="1749" 
d="M413 0l-167 1394h150l131 -1110l499 1047h118l169 -1047l483 1110h149l-609 -1394h-128l-167 1050l-502 -1050h-126z" />
    <glyph glyph-name="X" unicode="X" horiz-adv-x="1273" 
d="M45 0l614 708l-380 686h174l314 -567l495 567h172l-598 -686l392 -708h-174l-325 585l-511 -585h-173z" />
    <glyph glyph-name="Y" unicode="Y" horiz-adv-x="1154" 
d="M508 0l63 421l-335 973h161l271 -803l530 803h162l-649 -973l-62 -421h-141z" />
    <glyph glyph-name="Z" unicode="Z" horiz-adv-x="1069" 
d="M61 0l18 113l940 1142h-759l22 139h947l-18 -111l-941 -1143h760l-22 -140h-947z" />
    <glyph glyph-name="bracketleft" unicode="[" horiz-adv-x="578" 
d="M141 -149l269 1697h388l-23 -144h-242l-223 -1409h242l-23 -144h-388z" />
    <glyph glyph-name="backslash" unicode="\" horiz-adv-x="747" 
d="M553 -56l-262 1494h149l263 -1494h-150z" />
    <glyph glyph-name="bracketright" unicode="]" horiz-adv-x="577" 
d="M1 -149l23 144h242l223 1409h-242l23 144h387l-269 -1697h-387z" />
    <glyph glyph-name="asciicircum" unicode="^" horiz-adv-x="1130" 
d="M208 398l495 846h119l226 -846h-161l-161 621l-362 -621h-156z" />
    <glyph glyph-name="underscore" unicode="_" horiz-adv-x="935" 
d="M21 -149l23 144h845l-23 -144h-845z" />
    <glyph glyph-name="grave" unicode="`" horiz-adv-x="963" 
d="M641 1490l-145 308h178l118 -308h-151z" />
    <glyph glyph-name="a" unicode="a" horiz-adv-x="1090" 
d="M466 -10q-165 0 -250 85t-63 229q25 158 152 236q101 68 310 75l297 13q34 261 -244 261q-101 0 -172 -41t-153 -146l-96 87q98 124 204.5 181t238.5 57q191 0 291 -108t69 -304l-97 -615h-140l20 125q-78 -63 -175.5 -99t-191.5 -36zM295 304q-14 -87 35 -132.5
t162 -45.5q139 0 254.5 93.5t138.5 234.5l6 37l-288 -10q-163 -6 -229 -49q-35 -22 -53 -51t-26 -77z" />
    <glyph glyph-name="b" unicode="b" horiz-adv-x="1196" 
d="M626 -10q-196 0 -306 146l-22 -136h-141l221 1394h141l-81 -512q153 145 353 145h25q201 0 311 -147.5t75 -370.5q-35 -221 -192.5 -370t-358.5 -149h-25zM377 509q-27 -171 46.5 -275t221.5 -104h27q148 0 255.5 104t134.5 275t-47.5 274.5t-223.5 103.5h-27
q-149 0 -254.5 -103t-132.5 -275z" />
    <glyph glyph-name="c" unicode="c" horiz-adv-x="1065" 
d="M543 -10q-136 0 -233 66t-137.5 184.5t-16.5 268.5q36 229 189.5 373.5t362.5 144.5h18q147 0 247.5 -75.5t134.5 -206.5l-141 -55q-52 199 -263 199h-18q-153 0 -256.5 -101t-131.5 -279q-29 -177 42.5 -279t224.5 -102h18q211 0 329 201l121 -56
q-78 -130 -202.5 -206.5t-269.5 -76.5h-18z" />
    <glyph glyph-name="d" unicode="d" horiz-adv-x="1197" 
d="M541 -10q-133 0 -229.5 68.5t-137.5 187t-18 263.5q35 223 191.5 370.5t358.5 147.5h26q198 0 307 -145l81 512h141l-221 -1394h-141l21 135q-74 -69 -165.5 -107t-187.5 -38h-26zM298 509q-27 -171 47 -275t222 -104h27q147 0 254 104t134 275t-47 274.5t-222 103.5h-27
q-149 0 -255 -103t-133 -275z" />
    <glyph glyph-name="e" unicode="e" horiz-adv-x="1071" 
d="M543 -10q-136 0 -233 66t-137.5 184.5t-16.5 268.5q39 250 213 394q139 116 312 122q166 6 278 -94q135 -120 125 -343q-3 -63 -18 -131h-776q-11 -155 61.5 -242t213.5 -87h18q211 0 329 201l121 -56q-78 -130 -202.5 -206.5t-269.5 -76.5h-18zM315 591h627
q1 67 -16 122t-47 91t-69.5 60.5t-85.5 30.5t-94 0t-95.5 -30.5t-89 -60.5t-76 -91.5t-54.5 -121.5z" />
    <glyph glyph-name="f" unicode="f" horiz-adv-x="792" 
d="M283 0l140 881h-238l21 136h238l16 103q22 138 103.5 211t202.5 73h13q120 0 190 -67l-73 -114q-4 2 -15.5 8t-15 8t-12.5 6.5t-12.5 5.5t-11.5 4.5t-12 4t-11.5 2.5t-14 2.5t-14.5 1t-17 0.5h-13q-67 0 -100 -32t-46 -114l-16 -103h241l-21 -136h-241l-140 -881h-141z
" />
    <glyph glyph-name="g" unicode="g" horiz-adv-x="1196" 
d="M498 -382q-186 0 -289 109.5t-87 297.5h140q-9 -267 259 -267h28q147 0 241.5 76.5t112.5 191.5l29 118q-69 -72 -166 -114t-199 -42h-10q-133 0 -233 68t-146 187.5t-23 263.5q35 223 191.5 370.5t358.5 147.5h26q97 0 176.5 -38t130.5 -107l22 139h141l-138 -876
q-40 -249 -184.5 -387t-352.5 -138h-28zM297 507q-27 -171 47 -275t222 -104h27q138 0 239.5 90.5t139.5 245.5l14 87q11 154 -62 244t-211 90h-27q-149 0 -255 -103t-134 -275z" />
    <glyph glyph-name="h" unicode="h" horiz-adv-x="1123" 
d="M157 0l221 1394h141l-73 -462q120 95 305 95q201 0 282 -108.5t49 -315.5l-96 -603h-140l94 593q26 164 -20 230t-191 66q-148 0 -233.5 -91t-118.5 -300l-79 -498h-141z" />
    <glyph glyph-name="i" unicode="i" horiz-adv-x="450" 
d="M156 0l161 1017h141l-161 -1017h-141zM329 1224q6 38 36.5 64t67.5 26t59.5 -26t16.5 -64q-6 -37 -36.5 -62.5t-67.5 -25.5t-59.5 26t-16.5 62z" />
    <glyph glyph-name="j" unicode="j" horiz-adv-x="454" 
d="M-35 -386q-123 0 -189 66l75 116q46 -27 69 -35.5t65 -8.5h14q67 0 99 31.5t45 113.5l177 1120h142l-177 -1120q-22 -138 -103.5 -210.5t-202.5 -72.5h-14zM335 1224q6 37 36 63.5t66 26.5q38 0 60 -26.5t16 -63.5q-6 -36 -36.5 -62t-67.5 -26q-36 0 -58 26t-16 62z" />
    <glyph glyph-name="k" unicode="k" horiz-adv-x="1014" 
d="M157 0l221 1394h141l-135 -852l536 475h195l-442 -391l296 -626h-166l-246 523l-205 -180l-54 -343h-141z" />
    <glyph glyph-name="l" unicode="l" horiz-adv-x="455" 
d="M399 -4q-117 -21 -172.5 37t-34.5 190l186 1171h141l-185 -1167q-6 -39 -5.5 -58t8.5 -29.5t26.5 -10t48.5 0.5z" />
    <glyph glyph-name="m" unicode="m" horiz-adv-x="1570" 
d="M157 0l161 1017h141l-12 -76q107 86 243 86q196 0 256 -153q122 153 310 153q92 0 154 -34.5t89.5 -95.5t35 -143.5t-10.5 -177.5l-91 -576h-143l90 571q17 101 8 179q-9 75 -44.5 107t-117.5 32q-55 0 -110 -32q-127 -78 -164 -308l-87 -549h-142l94 593q26 164 -10 230
t-145 66q-50 0 -111 -34q-129 -85 -170 -343l-81 -512h-143z" />
    <glyph glyph-name="n" unicode="n" horiz-adv-x="1123" 
d="M157 0l161 1017h141l-13 -85q120 95 305 95q201 0 282 -108.5t49 -315.5l-96 -603h-140l94 593q26 164 -20 230t-191 66q-148 0 -233.5 -91t-118.5 -300l-79 -498h-141z" />
    <glyph glyph-name="o" unicode="o" horiz-adv-x="1109" 
d="M543 -10q-136 0 -233 66t-137.5 184.5t-16.5 268.5q36 229 189.5 373.5t362.5 144.5h18q209 0 317 -144.5t72 -373.5q-36 -228 -191 -373.5t-363 -145.5h-18zM298 509q-29 -177 42.5 -279t224.5 -102h18q153 0 257.5 102t133.5 279q28 177 -44.5 278.5t-225.5 101.5h-18
q-153 0 -256.5 -101t-131.5 -279z" />
    <glyph glyph-name="p" unicode="p" horiz-adv-x="1196" 
d="M97 -377l221 1394h141l-21 -136q156 146 353 146h25q133 0 229.5 -68.5t137.5 -187.5t18 -264q-35 -221 -192 -369t-358 -148h-25q-198 0 -307 145l-81 -512h-141zM376 507q-27 -171 46.5 -274t222.5 -103h27q148 0 255 103.5t134 273.5q28 171 -47 275.5t-223 104.5h-27
q-148 0 -254 -104t-134 -276z" />
    <glyph glyph-name="q" unicode="q" horiz-adv-x="1197" 
d="M920 135q-153 -145 -353 -145h-26q-201 0 -311 147.5t-75 369.5q23 145 102.5 264t197.5 187.5t251 68.5h26q195 0 307 -145l21 135h141l-221 -1394h-141zM297 507q-27 -170 47 -273.5t223 -103.5h27q148 0 254 103t133 274q28 171 -46.5 275.5t-221.5 104.5h-27
q-148 0 -254.5 -104t-134.5 -276z" />
    <glyph glyph-name="r" unicode="r" horiz-adv-x="842" 
d="M157 0l161 1017h141l-13 -85q120 95 305 95q108 0 183 -33l-52 -135q-81 30 -153 30q-148 0 -233.5 -91t-118.5 -300l-79 -498h-141z" />
    <glyph glyph-name="s" unicode="s" horiz-adv-x="989" 
d="M507 -14q-84 0 -153.5 22.5t-121 68t-74 122t-8.5 175.5h143q-10 -138 49.5 -193t189.5 -55q107 0 173.5 36t78.5 107q8 49 -9.5 77t-69.5 49t-163 45q-66 14 -117 34t-95.5 52.5t-64 84t-9.5 117.5q20 126 134.5 207.5t268.5 81.5q93 0 162 -30t106.5 -82.5t52.5 -117.5
t7 -139h-140q-5 127 -51.5 178t-160.5 51q-94 0 -157 -38t-74 -109q-11 -64 35 -96t163 -57q185 -39 267.5 -108t61.5 -198t-141 -207t-283 -78z" />
    <glyph glyph-name="t" unicode="t" horiz-adv-x="689" 
d="M644 2q-177 -39 -267.5 31.5t-63.5 238.5l97 609h-225l21 136h225l59 375h142l-59 -375h232l-21 -136h-232l-97 -609q-17 -107 27.5 -132t183.5 -2z" />
    <glyph glyph-name="u" unicode="u" 
d="M533 -10q-200 0 -281.5 108.5t-48.5 315.5l95 603h142l-94 -593q-26 -164 19.5 -230t189.5 -66q151 0 235 90.5t117 299.5l79 499h142l-161 -1017h-142l13 85q-116 -95 -305 -95z" />
    <glyph glyph-name="v" unicode="v" horiz-adv-x="1033" 
d="M463 0l-257 1017h156l191 -782l438 782h158l-577 -1017h-109z" />
    <glyph glyph-name="w" unicode="w" horiz-adv-x="1463" 
d="M342 0l-122 1017h151l86 -740l379 740h117l144 -738l321 738h147l-442 -1017h-123l-146 763l-392 -763h-120z" />
    <glyph glyph-name="x" unicode="x" horiz-adv-x="1038" 
d="M35 0l473 507l-312 510h176l246 -394l364 394h178l-474 -510l317 -507h-180l-241 395l-369 -395h-178z" />
    <glyph glyph-name="y" unicode="y" horiz-adv-x="1035" 
d="M193 -213q45 -33 69.5 -25.5t62.5 75.5l126 219l-245 961h156l193 -779l442 779h154l-706 -1235q-70 -124 -154.5 -155t-172.5 36z" />
    <glyph glyph-name="z" unicode="z" horiz-adv-x="942" 
d="M61 0l18 111l745 768h-624l22 138h820l-18 -117l-737 -762h616l-22 -138h-820z" />
    <glyph glyph-name="braceleft" unicode="{" horiz-adv-x="607" 
d="M475 -149q-130 0 -200.5 61.5t-49.5 196.5q10 59 52 202q35 119 48 194q11 67 -16 97.5t-115 24.5l23 145q85 -6 122 25t48 98q10 71 14 196q2 140 11 200q22 134 112 195.5t220 61.5h83l-23 -144h-85q-82 0 -117 -22t-45 -89q-2 -14 -10 -169q-4 -149 -15 -229
q-21 -126 -109 -194q36 -38 45.5 -91.5t1.5 -104.5q-15 -86 -57 -229q-42 -155 -44 -169q-11 -67 17 -89.5t110 -22.5h85l-23 -144h-83z" />
    <glyph glyph-name="bar" unicode="|" horiz-adv-x="555" 
d="M146 -370l310 1955h145l-310 -1955h-145z" />
    <glyph glyph-name="braceright" unicode="}" horiz-adv-x="605" 
d="M1 -149l23 144h85q80 0 115.5 22.5t46.5 89.5q5 33 9 169q5 166 16 229q19 124 108 193q-66 71 -46 197q10 69 56 229q40 139 45 169q10 67 -18 89t-109 22h-85l23 144h83q62 0 110.5 -14t85 -43t51 -80t3.5 -120q-8 -57 -52 -200q-36 -123 -47 -196q-11 -67 15.5 -98
t112.5 -25l-23 -145q-84 6 -120 -24.5t-47 -97.5t-15 -194q-1 -145 -11 -202q-21 -134 -111.5 -196t-220.5 -62h-83z" />
    <glyph glyph-name="asciitilde" unicode="~" horiz-adv-x="1119" 
d="M190 424q12 159 82 240.5t178 81.5q58 0 105.5 -18.5t143.5 -75.5q79 -49 112.5 -63t68.5 -14q45 0 63 34t31 143h144q-15 -160 -85 -240.5t-178 -80.5q-59 0 -107 18t-143 76q-79 48 -112.5 62.5t-67.5 14.5q-45 0 -63.5 -35t-31.5 -143h-140z" />
    <glyph glyph-name="uni00A0" unicode="&#xa0;" horiz-adv-x="524" 
 />
    <glyph glyph-name="exclamdown" unicode="&#xa1;" horiz-adv-x="548" 
d="M340 863h142l-180 -1178h-157zM349 1036q6 36 35.5 62t66.5 26t59.5 -26t16.5 -62q-6 -38 -36.5 -64t-67.5 -26t-58.5 26t-15.5 64z" />
    <glyph glyph-name="cent" unicode="&#xa2;" horiz-adv-x="1115" 
d="M494 -21q-176 28 -268 179t-55 385q35 223 176 375t325 184l23 149h146l-22 -142q166 -18 253 -137t65 -294h-145q20 256 -196 287l-134 -843q103 19 176 88t103 184h145q-40 -169 -162 -280.5t-284 -134.5l-23 -146h-146zM320 551q-29 -185 27 -292t170 -135l132 834
q-121 -33 -211.5 -135.5t-117.5 -271.5z" />
    <glyph glyph-name="sterling" unicode="&#xa3;" horiz-adv-x="1028" 
d="M86 130q60 12 112.5 35t100 58.5t80 89t42.5 119.5q16 98 -39 218h-198l23 144h117q-35 116 -16 228q27 168 157.5 276.5t299.5 108.5q84 0 148 -24.5t102.5 -67t61 -101.5t24 -128t-8.5 -146h-145q27 168 -22.5 246t-186.5 78q-107 0 -185.5 -64t-96.5 -176
q-16 -107 34 -230h457l-23 -144h-373q38 -110 20 -218q-26 -167 -167 -288h562l-23 -144h-878z" />
    <glyph glyph-name="currency" unicode="&#xa4;" horiz-adv-x="1228" 
d="M319 177l-85 103l128 111q-48 94 -28 219q18 123 97 219l-93 109l119 104l93 -110q106 63 222 63t203 -63l127 110l86 -104l-128 -109q48 -94 29 -219q-21 -125 -98 -219l92 -111l-118 -103l-93 110q-110 -64 -223 -64t-202 64zM483 610q-18 -111 32.5 -177.5
t156.5 -66.5t177.5 66.5t89.5 177.5q17 110 -33.5 175.5t-156.5 65.5t-177.5 -65.5t-88.5 -175.5z" />
    <glyph glyph-name="yen" unicode="&#xa5;" horiz-adv-x="1199" 
d="M529 0l59 374h-340l23 142h340l12 78h-340l23 144h275l-307 643h179l274 -591l461 591h175l-509 -643h278l-23 -144h-340l-12 -78h340l-23 -142h-340l-59 -374h-146z" />
    <glyph glyph-name="brokenbar" unicode="&#xa6;" horiz-adv-x="555" 
d="M307 647l117 734h145l-117 -734h-145zM158 -296l116 734h145l-116 -734h-145z" />
    <glyph glyph-name="section" unicode="&#xa7;" horiz-adv-x="1149" 
d="M514 -322q-177 0 -270 101.5t-88 307.5h145q4 -144 60 -205.5t179 -61.5q107 0 175.5 42t80.5 118q10 63 -6.5 100t-79.5 68.5t-192 60.5q-65 15 -123.5 42t-110 69.5t-76.5 106.5t-13 140q17 108 83 183.5t162 116.5q-91 86 -68 225q22 142 135 228.5t268 86.5
q94 0 162.5 -31.5t105.5 -87t52.5 -123.5t10.5 -149h-143q-5 136 -52.5 192t-160.5 56q-94 0 -154.5 -41t-73.5 -125q-14 -89 49.5 -135t186.5 -66q90 -17 160 -46t123 -73t76 -107t11 -140q-17 -109 -86 -186t-170 -117q99 -90 73 -244q-21 -139 -143 -222.5t-288 -83.5z
M345 573q-13 -85 52.5 -141.5t180.5 -80.5q59 -9 108 -26q54 2 101.5 14t88 35t67.5 62.5t35 90.5q15 89 -51 140.5t-232 85.5q-6 1 -89 21q-233 -25 -261 -201z" />
    <glyph glyph-name="dieresis" unicode="&#xa8;" horiz-adv-x="750" 
d="M739 1551q-38 0 -60 26t-16 62q6 38 36 64.5t68 26.5q36 0 58.5 -27t16.5 -64t-36.5 -62.5t-66.5 -25.5zM430 1639q6 37 36 64t66 27q38 0 60.5 -26.5t16.5 -64.5q-6 -37 -36.5 -62.5t-68.5 -25.5q-36 0 -58 26t-16 62z" />
    <glyph glyph-name="copyright" unicode="&#xa9;" horiz-adv-x="1659" 
d="M825 -30q-149 0 -274.5 58t-206.5 157t-116 236t-11 289t102.5 288.5t191 235t256 156.5t292.5 58t274 -58t206 -156.5t116 -235.5t11 -288q-32 -203 -155 -373t-305 -268.5t-381 -98.5zM363 710q-26 -168 28 -304t174.5 -213t282.5 -77q163 0 307.5 77t241.5 213
t123 304q27 167 -26.5 303t-173.5 213.5t-283 77.5q-162 0 -307.5 -77.5t-242.5 -213.5t-124 -303zM564 710q21 131 89.5 232t163.5 153.5t200 52.5q154 0 240.5 -94.5t60.5 -266.5h-142q6 112 -35.5 165.5t-146.5 53.5q-111 0 -187.5 -83t-96.5 -211q-21 -133 29 -213
t155 -80q103 0 163.5 49.5t93.5 166.5h145q-42 -174 -156.5 -266.5t-273.5 -92.5q-74 0 -136.5 30.5t-104.5 85.5t-59 138t-2 180z" />
    <glyph glyph-name="ordfeminine" unicode="&#xaa;" horiz-adv-x="788" 
d="M429 648q-121 0 -183 63t-45 170q17 115 110 177q45 29 98 39t127 13l188 10q7 79 -31.5 114t-124.5 35q-69 0 -115 -28.5t-109 -109.5l-85 80q72 96 151 140t178 44q139 0 212 -78.5t51 -220.5l-70 -442h-130l11 69q-108 -75 -233 -75zM330 881q-9 -54 19 -79.5
t103 -25.5q90 0 163 58.5t88 150.5l2 10l-181 -10q-110 -3 -149 -30q-22 -14 -31.5 -29t-13.5 -45z" />
    <glyph glyph-name="guillemotleft" unicode="&#xab;" horiz-adv-x="1259" 
d="M916 152l-239 359l353 360h188l-353 -360l239 -359h-188zM384 511l354 360h188l-355 -360l240 -359h-187z" />
    <glyph glyph-name="logicalnot" unicode="&#xac;" horiz-adv-x="1001" 
d="M762 388l40 249h-610l23 143h755l-63 -392h-145z" />
    <glyph glyph-name="registered" unicode="&#xae;" horiz-adv-x="1005" 
d="M605 646q-191 0 -295 123.5t-73 315.5q30 189 173 311.5t334 122.5q190 0 294 -123t74 -311q-31 -192 -173.5 -315.5t-333.5 -123.5zM367 1085q-23 -144 47 -229t211 -85t238 85t120 229q23 141 -47.5 225t-211.5 84t-237.5 -84t-119.5 -225zM470 845l73 462h173
q75 0 114.5 -39t27.5 -110q-14 -89 -88 -128l78 -185h-146l-67 163h-14l-26 -163h-125zM641 1134h48q31 0 36.5 3t7.5 21q3 18 -1.5 21t-35.5 3h-48z" />
    <glyph glyph-name="macron" unicode="&#xaf;" horiz-adv-x="728" 
d="M431 1564l22 143h362l-22 -143h-362z" />
    <glyph glyph-name="degree" unicode="&#xb0;" horiz-adv-x="712" 
d="M504 928q-104 0 -162 68.5t-42 172.5q16 102 96 170t184 68q103 0 160.5 -68t41.5 -170q-16 -104 -95.5 -172.5t-182.5 -68.5zM446 1169q-8 -51 11 -74t70 -23q49 0 75 23t34 74q8 49 -11 72t-68 23q-50 0 -76.5 -23t-34.5 -72z" />
    <glyph glyph-name="plusminus" unicode="&#xb1;" horiz-adv-x="1028" 
d="M476 215l62 389h-351l22 144h351l62 388h145l-62 -388h350l-22 -144h-350l-62 -389h-145zM89 -13l23 143h846l-23 -143h-846z" />
    <glyph glyph-name="uni00B2" unicode="&#xb2;" horiz-adv-x="908" 
d="M303 904l14 90l337 270q80 65 121 108.5t53.5 72t19.5 72.5q11 66 -18.5 98.5t-105.5 32.5q-151 0 -193 -151l-10 -62h-141l25 71q31 119 126 193.5t213 74.5q131 0 191.5 -73t43.5 -184q-13 -85 -68.5 -164.5t-177.5 -176.5l-185 -146h392l-20 -126h-617z" />
    <glyph glyph-name="uni00B3" unicode="&#xb3;" horiz-adv-x="899" 
d="M584 897q-155 0 -225.5 94t-25.5 234h124q-67 -202 147 -202q184 0 208 146q11 67 -29.5 102.5t-133.5 35.5q-42 0 -103 -9l16 104l240 244h-392l20 128h591l-14 -90l-252 -256q96 -23 144.5 -93.5t33.5 -165.5q-19 -120 -116.5 -196t-232.5 -76z" />
    <glyph glyph-name="acute" unicode="&#xb4;" horiz-adv-x="963" 
d="M643 1490l217 308h177l-241 -308h-153z" />
    <glyph glyph-name="paragraph" unicode="&#xb6;" horiz-adv-x="1120" 
d="M586 593q-69 0 -97 2q-79 4 -139.5 38.5t-93 88t-46 122.5t0.5 143q16 101 68 186.5t139.5 142.5t194.5 63q33 2 108 2h413l-251 -1586h-145l228 1443h-132l-228 -1443h-146z" />
    <glyph glyph-name="periodcentered" unicode="&#xb7;" horiz-adv-x="456" 
d="M312 523q-40 0 -63 27t-16 67q6 39 37 66t71 27t62 -27t16 -66q-7 -40 -37.5 -67t-69.5 -27z" />
    <glyph glyph-name="cedilla" unicode="&#xb8;" horiz-adv-x="921" 
d="M333 -423q-95 0 -143 42l27 173q53 -49 73 -60t66 -11q54 0 76.5 13t27.5 48q4 22 -2.5 34t-29.5 19t-66.5 5.5t-114.5 -10.5l191 286h163l-103 -155q60 -20 90 -65t18 -114q-11 -69 -57 -117t-101.5 -68t-114.5 -20z" />
    <glyph glyph-name="uni00B9" unicode="&#xb9;" horiz-adv-x="588" 
d="M414 913l108 684l-218 -124l25 156l260 144h95l-136 -860h-134z" />
    <glyph glyph-name="ordmasculine" unicode="&#xba;" horiz-adv-x="815" 
d="M505 659q-149 0 -227.5 106t-52.5 269t137 267t262 104h11q152 0 230.5 -104t52.5 -267q-26 -164 -138.5 -269.5t-263.5 -105.5h-11zM355 1034q-19 -118 26 -182.5t145 -64.5h11q102 0 167 64.5t84 182.5q18 117 -27.5 179.5t-146.5 62.5h-11q-101 0 -165.5 -62.5
t-82.5 -179.5z" />
    <glyph glyph-name="guillemotright" unicode="&#xbb;" horiz-adv-x="1259" 
d="M392 152h-189l354 359l-240 360h189l238 -360zM494 152l355 359l-241 360h190l239 -360l-353 -359h-190z" />
    <glyph glyph-name="questiondown" unicode="&#xbf;" horiz-adv-x="1036" 
d="M756 859q-13 -86 -24.5 -136.5t-31.5 -104t-51.5 -96.5t-78.5 -91.5t-119 -110.5q-89 -74 -131.5 -139t-55.5 -144q-19 -119 37 -179t182 -60q150 0 237.5 90t113.5 260h143q-24 -214 -170 -354t-347 -140q-127 0 -212 52.5t-117.5 138t-15.5 192.5q32 205 252 384
q52 43 85 73.5t59.5 64.5t41 59t27 66t19.5 76.5t16 98.5h141zM620 1025q6 37 36 62.5t67 25.5q38 0 60 -25.5t16 -62.5q-6 -38 -36.5 -64t-67.5 -26t-59 26.5t-16 63.5z" />
    <glyph glyph-name="Agrave" unicode="&#xc0;" horiz-adv-x="1164" 
d="M35 0l707 1394h120l267 -1394h-153l-83 445h-482l-224 -445h-152zM480 584h388l-105 559zM634 1778h179l114 -277h-152z" />
    <glyph glyph-name="Aacute" unicode="&#xc1;" horiz-adv-x="1164" 
d="M35 0l707 1394h120l267 -1394h-153l-83 445h-482l-224 -445h-152zM480 584h388l-105 559zM708 1501l202 277h180l-229 -277h-153z" />
    <glyph glyph-name="Acircumflex" unicode="&#xc2;" horiz-adv-x="1164" 
d="M35 0l707 1394h120l267 -1394h-153l-83 445h-482l-224 -445h-152zM480 584h388l-105 559zM580 1501l237 277h96l151 -277h-172l-54 107l-88 -107h-170z" />
    <glyph glyph-name="Atilde" unicode="&#xc3;" horiz-adv-x="1164" 
d="M35 0l707 1394h120l267 -1394h-153l-83 445h-482l-224 -445h-152zM480 584h388l-105 559zM618 1555q-4 77 36 129t108 52q41 0 117 -27q27 -10 46 -16q0 2 8 35h133q5 -77 -34.5 -129t-108.5 -52q-40 0 -116 26q-9 4 -18 7t-17.5 6t-11.5 4q-4 -22 -7 -35h-135z" />
    <glyph glyph-name="Adieresis" unicode="&#xc4;" horiz-adv-x="1164" 
d="M35 0l707 1394h120l267 -1394h-153l-83 445h-482l-224 -445h-152zM480 584h388l-105 559zM641 1639q6 38 36 64.5t68 26.5q36 0 58.5 -27t16.5 -64t-36.5 -62.5t-66.5 -25.5q-37 0 -59.5 26t-16.5 62zM875 1639q6 37 36 64t66 27q38 0 61 -26.5t17 -64.5
q-6 -36 -37.5 -62t-68.5 -26q-36 0 -58 26t-16 62z" />
    <glyph glyph-name="Aring" unicode="&#xc5;" horiz-adv-x="1164" 
d="M35 0l707 1394h120l267 -1394h-153l-83 445h-482l-224 -445h-152zM480 584h388l-105 559zM674 1639q12 74 68.5 119.5t126.5 45.5t112.5 -45t30.5 -120q-12 -73 -69 -118t-126 -45t-112 45t-31 118zM790 1639q-4 -23 9 -36t36 -13t40 13t21 36q4 24 -9 37.5t-36 13.5
t-40 -13.5t-21 -37.5z" />
    <glyph glyph-name="AE" unicode="&#xc6;" horiz-adv-x="1628" 
d="M21 0l707 1394h1036l-22 -139h-761l-76 -481h698l-23 -140h-698l-78 -494h761l-22 -140h-903l70 445h-312l-222 -445h-155zM469 584h263l106 665h-35z" />
    <glyph glyph-name="Ccedilla" unicode="&#xc7;" horiz-adv-x="1343" 
d="M584 -418q-98 0 -143 42l28 174q53 -51 71.5 -62t65.5 -11q52 0 75 13.5t28 48.5q5 29 -8.5 42t-61 16t-139.5 -11l102 160q-235 32 -349.5 219.5t-67.5 482.5q34 215 137.5 376.5t256.5 247.5t334 86h20q203 0 334.5 -107t169.5 -296l-140 -49q-58 310 -387 310h-20
q-223 0 -371.5 -149t-191.5 -419q-43 -268 59 -417t325 -149h20q328 0 485 310l124 -49q-90 -174 -242 -280.5t-338 -120.5l-14 -23q131 -44 110 -180q-16 -101 -97.5 -153t-174.5 -52z" />
    <glyph glyph-name="Egrave" unicode="&#xc8;" horiz-adv-x="1155" 
d="M165 0l221 1394h905l-22 -139h-763l-76 -481h698l-23 -140h-698l-78 -494h763l-22 -140h-905zM635 1778h180l114 -277h-151z" />
    <glyph glyph-name="Eacute" unicode="&#xc9;" horiz-adv-x="1155" 
d="M165 0l221 1394h905l-22 -139h-763l-76 -481h698l-23 -140h-698l-78 -494h763l-22 -140h-905zM711 1501l202 277h179l-228 -277h-153z" />
    <glyph glyph-name="Ecircumflex" unicode="&#xca;" horiz-adv-x="1155" 
d="M165 0l221 1394h905l-22 -139h-763l-76 -481h698l-23 -140h-698l-78 -494h763l-22 -140h-905zM583 1501l237 277h96l149 -277h-172l-53 106l-87 -106h-170z" />
    <glyph glyph-name="Edieresis" unicode="&#xcb;" horiz-adv-x="1155" 
d="M165 0l221 1394h905l-22 -139h-763l-76 -481h698l-23 -140h-698l-78 -494h763l-22 -140h-905zM640 1639q6 38 36 64.5t68 26.5q36 0 58 -27t16 -64q-6 -36 -36 -62t-66 -26q-38 0 -60 26t-16 62zM874 1639q6 37 36 64t66 27q38 0 60 -26.5t16 -64.5q-6 -36 -36 -62
t-68 -26q-36 0 -58 26t-16 62z" />
    <glyph glyph-name="Igrave" unicode="&#xcc;" horiz-adv-x="383" 
d="M56 0l221 1394h141l-221 -1394h-141zM179 1778h179l112 -277h-152z" />
    <glyph glyph-name="Iacute" unicode="&#xcd;" horiz-adv-x="383" 
d="M191 0l221 1394h141l-221 -1394h-141zM389 1501l200 277h179l-228 -277h-151z" />
    <glyph glyph-name="Icircumflex" unicode="&#xce;" horiz-adv-x="267" 
d="M64 0l221 1394h141l-221 -1394h-141zM131 1501l237 277h99l147 -277h-172l-54 107l-85 -107h-172z" />
    <glyph glyph-name="Idieresis" unicode="&#xcf;" horiz-adv-x="250" 
d="M54 0l221 1394h141l-221 -1394h-141zM180 1639q6 38 35.5 64.5t66.5 26.5q36 0 58.5 -27t16.5 -64t-36.5 -62.5t-66.5 -25.5t-58 26t-16 62zM412 1639q6 37 36 64t66 27q38 0 61 -26.5t17 -64.5q-6 -37 -37 -62.5t-69 -25.5q-36 0 -58 26t-16 62z" />
    <glyph glyph-name="Eth" unicode="&#xd0;" horiz-adv-x="1231" 
d="M147 0l95 598h-102l23 144h102l103 652h309q330 0 485 -187t103 -521q-52 -327 -263.5 -506.5t-547.5 -179.5h-307zM309 140h163q284 0 443.5 134.5t203.5 411.5q45 284 -73 426.5t-393 142.5h-167l-81 -513h356l-23 -144h-356z" />
    <glyph glyph-name="Ntilde" unicode="&#xd1;" horiz-adv-x="1279" 
d="M165 0l221 1394h134l497 -1110l176 1110h142l-221 -1394h-136l-496 1107l-175 -1107h-142zM676 1555q-5 77 34.5 129t107.5 52q40 0 119 -27q25 -10 45 -16q2 11 8 35h131q8 -77 -31.5 -129t-108.5 -52q-38 0 -119 26l-44 17q-4 -22 -7 -35h-135z" />
    <glyph glyph-name="Ograve" unicode="&#xd2;" horiz-adv-x="1404" 
d="M687 -16q-181 0 -306.5 85.5t-178 246.5t-18.5 374q34 215 137.5 376.5t256.5 247.5t334 86h20q280 0 418.5 -195.5t87.5 -514.5q-50 -317 -251 -511.5t-480 -194.5h-20zM326 690q-42 -267 60 -416.5t324 -149.5h20q226 0 375 149t191 417q43 270 -59 419t-328 149h-20
q-223 0 -371.5 -149t-191.5 -419zM757 1778h179l114 -277h-152z" />
    <glyph glyph-name="Oacute" unicode="&#xd3;" horiz-adv-x="1404" 
d="M687 -16q-181 0 -306.5 85.5t-178 246.5t-18.5 374q34 215 137.5 376.5t256.5 247.5t334 86h20q280 0 418.5 -195.5t87.5 -514.5q-50 -317 -251 -511.5t-480 -194.5h-20zM326 690q-42 -267 60 -416.5t324 -149.5h20q226 0 375 149t191 417q43 270 -59 419t-328 149h-20
q-223 0 -371.5 -149t-191.5 -419zM831 1501l202 277h180l-228 -277h-154z" />
    <glyph glyph-name="Ocircumflex" unicode="&#xd4;" horiz-adv-x="1404" 
d="M687 -16q-181 0 -306.5 85.5t-178 246.5t-18.5 374q34 215 137.5 376.5t256.5 247.5t334 86h20q280 0 418.5 -195.5t87.5 -514.5q-50 -317 -251 -511.5t-480 -194.5h-20zM326 690q-42 -267 60 -416.5t324 -149.5h20q226 0 375 149t191 417q43 270 -59 419t-328 149h-20
q-223 0 -371.5 -149t-191.5 -419zM703 1501l237 277h96l150 -277h-172l-53 106l-88 -106h-170z" />
    <glyph glyph-name="Otilde" unicode="&#xd5;" horiz-adv-x="1404" 
d="M687 -16q-181 0 -306.5 85.5t-178 246.5t-18.5 374q34 215 137.5 376.5t256.5 247.5t334 86h20q280 0 418.5 -195.5t87.5 -514.5q-50 -317 -251 -511.5t-480 -194.5h-20zM326 690q-42 -267 60 -416.5t324 -149.5h20q226 0 375 149t191 417q43 270 -59 419t-328 149h-20
q-223 0 -371.5 -149t-191.5 -419zM743 1555q-5 77 34.5 129t107.5 52q40 0 118 -27q31 -12 45 -16q0 2 8 35h133q5 -77 -34.5 -129t-108.5 -52q-40 0 -116 26q-39 15 -47 17q-4 -22 -7 -35h-133z" />
    <glyph glyph-name="Odieresis" unicode="&#xd6;" horiz-adv-x="1404" 
d="M687 -16q-181 0 -306.5 85.5t-178 246.5t-18.5 374q34 215 137.5 376.5t256.5 247.5t334 86h20q280 0 418.5 -195.5t87.5 -514.5q-50 -317 -251 -511.5t-480 -194.5h-20zM326 690q-42 -267 60 -416.5t324 -149.5h20q226 0 375 149t191 417q43 270 -59 419t-328 149h-20
q-223 0 -371.5 -149t-191.5 -419zM761 1639q6 38 35.5 64.5t66.5 26.5q36 0 58.5 -27t16.5 -64t-36.5 -62.5t-66.5 -25.5t-58 26t-16 62zM994 1639q6 38 35.5 64.5t66.5 26.5t59.5 -26.5t16.5 -64.5q-6 -36 -36.5 -62t-67.5 -26t-58.5 26t-15.5 62z" />
    <glyph glyph-name="multiply" unicode="&#xd7;" horiz-adv-x="1027" 
d="M277 251l-89 99l325 282l-236 279l120 102l235 -279l324 279l83 -102l-322 -279l235 -279l-117 -103l-235 279z" />
    <glyph glyph-name="Oslash" unicode="&#xd8;" horiz-adv-x="1464" 
d="M714 -16q-255 0 -396 167l-139 -119l-83 102l150 132q-75 181 -37 424q51 324 252.5 517t477.5 193h18q262 0 403 -174l143 124l84 -103l-157 -138q73 -180 34 -419q-50 -317 -251 -511.5t-481 -194.5h-18zM351 690q-30 -189 17 -320l877 756q-106 132 -311 132h-18
q-224 0 -373 -149t-192 -419zM433 250q106 -126 304 -126h18q227 0 376.5 149t191.5 417q29 185 -15 315z" />
    <glyph glyph-name="Ugrave" unicode="&#xd9;" horiz-adv-x="1247" 
d="M229 507l141 887h140l-139 -874q-34 -216 71 -330q81 -88 210 -81q134 7 240 112q119 116 149 308l137 865h141l-138 -867q-41 -262 -220 -414q-143 -121 -320 -131q-170 -9 -287 89q-139 117 -134 338q1 47 9 98zM673 1778h180l114 -277h-155z" />
    <glyph glyph-name="Uacute" unicode="&#xda;" horiz-adv-x="1247" 
d="M229 507l141 887h140l-139 -874q-34 -216 71 -330q81 -88 210 -81q134 7 240 112q119 116 149 308l137 865h141l-138 -867q-41 -262 -220 -414q-143 -121 -320 -131q-170 -9 -287 89q-139 117 -134 338q1 47 9 98zM749 1501l200 277h181l-230 -277h-151z" />
    <glyph glyph-name="Ucircumflex" unicode="&#xdb;" horiz-adv-x="1247" 
d="M229 507l141 887h140l-139 -874q-34 -216 71 -330q81 -88 210 -81q134 7 240 112q119 116 149 308l137 865h141l-138 -867q-41 -262 -220 -414q-143 -121 -320 -131q-170 -9 -287 89q-139 117 -134 338q1 47 9 98zM620 1501l236 277h98l149 -277h-172l-54 106l-87 -106
h-170z" />
    <glyph glyph-name="Udieresis" unicode="&#xdc;" horiz-adv-x="1247" 
d="M229 507l141 887h140l-139 -874q-34 -216 71 -330q81 -88 210 -81q134 7 240 112q119 116 149 308l137 865h141l-138 -867q-41 -262 -220 -414q-143 -121 -320 -131q-170 -9 -287 89q-139 117 -134 338q1 47 9 98zM679 1639q6 38 36.5 64.5t67.5 26.5t58.5 -26.5
t15.5 -64.5q-6 -36 -35.5 -62t-66.5 -26t-59.5 26t-16.5 62zM912 1639q6 38 36.5 64.5t67.5 26.5q36 0 58 -27t16 -64q-6 -36 -36 -62t-66 -26t-59 26t-17 62z" />
    <glyph glyph-name="Yacute" unicode="&#xdd;" horiz-adv-x="1154" 
d="M508 0l63 421l-335 973h161l271 -803l530 803h162l-649 -973l-62 -421h-141zM702 1501l202 277h179l-227 -277h-154z" />
    <glyph glyph-name="Thorn" unicode="&#xde;" horiz-adv-x="1169" 
d="M165 0l219 1381h142l-34 -211h333q219 0 321 -101t71 -293v-2q-31 -194 -164.5 -295t-352.5 -101h-333l-60 -378h-142zM389 517h333q167 0 249.5 61t104.5 198q21 134 -42.5 194.5t-230.5 60.5h-333z" />
    <glyph glyph-name="germandbls" unicode="&#xdf;" horiz-adv-x="1130" 
d="M671 -8q-94 0 -206 8t-132 27l19 120q259 -3 378 -10q197 12 219 154q8 52 -12.5 95.5t-96.5 125.5q-75 80 -95.5 136.5t-8.5 131.5t50.5 131t138.5 136q101 82 136 125.5t43 95.5q13 79 -38.5 117t-168.5 38q-184 0 -280.5 -69.5t-130.5 -216.5q-11 -49 -21 -107
l-163 -1030h-145l163 1026q9 56 22 120q43 200 193.5 310t387.5 111q173 1 261.5 -80.5t66.5 -223.5q-14 -86 -76 -165t-177 -166q-63 -50 -85.5 -80.5t-28.5 -71.5q-7 -42 5.5 -72.5t59.5 -79.5q88 -88 125.5 -166.5t23.5 -164.5q-22 -143 -137 -224t-290 -81z" />
    <glyph glyph-name="agrave" unicode="&#xe0;" horiz-adv-x="1026" 
d="M466 -10q-165 0 -250 85t-63 229q25 158 152 236q101 68 310 75l297 13q34 261 -244 261q-101 0 -172 -41t-153 -146l-96 87q98 124 204.5 181t238.5 57q191 0 291 -108t69 -304l-97 -615h-140l20 125q-78 -63 -175.5 -99t-191.5 -36zM295 304q-14 -87 35 -132.5
t162 -45.5q139 0 254.5 93.5t138.5 234.5l6 37l-288 -10q-163 -6 -229 -49q-35 -22 -53 -51t-26 -77zM529 1520h179l117 -309h-151z" />
    <glyph glyph-name="aacute" unicode="&#xe1;" horiz-adv-x="1026" 
d="M466 -10q-165 0 -250 85t-63 229q25 158 152 236q101 68 310 75l297 13q34 261 -244 261q-101 0 -172 -41t-153 -146l-96 87q98 124 204.5 181t238.5 57q191 0 291 -108t69 -304l-97 -615h-140l20 125q-78 -63 -175.5 -99t-191.5 -36zM295 304q-14 -87 35 -132.5
t162 -45.5q139 0 254.5 93.5t138.5 234.5l6 37l-288 -10q-163 -6 -229 -49q-35 -22 -53 -51t-26 -77zM634 1211l216 309h178l-242 -309h-152z" />
    <glyph glyph-name="acircumflex" unicode="&#xe2;" horiz-adv-x="1026" 
d="M466 -10q-165 0 -250 85t-63 229q25 158 152 236q101 68 310 75l297 13q34 261 -244 261q-101 0 -172 -41t-153 -146l-96 87q98 124 204.5 181t238.5 57q191 0 291 -108t69 -304l-97 -615h-140l20 125q-78 -63 -175.5 -99t-191.5 -36zM295 304q-14 -87 35 -132.5
t162 -45.5q139 0 254.5 93.5t138.5 234.5l6 37l-288 -10q-163 -6 -229 -49q-35 -22 -53 -51t-26 -77zM512 1211l231 309h102l131 -309h-165l-49 120l-85 -120h-165z" />
    <glyph glyph-name="atilde" unicode="&#xe3;" horiz-adv-x="1026" 
d="M466 -10q-165 0 -250 85t-63 229q25 158 152 236q101 68 310 75l297 13q34 261 -244 261q-101 0 -172 -41t-153 -146l-96 87q98 124 204.5 181t238.5 57q191 0 291 -108t69 -304l-97 -615h-140l20 125q-78 -63 -175.5 -99t-191.5 -36zM295 304q-14 -87 35 -132.5
t162 -45.5q139 0 254.5 93.5t138.5 234.5l6 37l-288 -10q-163 -6 -229 -49q-35 -22 -53 -51t-26 -77zM569 1306q-6 75 33.5 127.5t107.5 52.5q33 0 117 -28q36 -12 46 -14q2 10 8 34h133q5 -77 -33.5 -128.5t-108.5 -51.5q-44 0 -116 26q-20 8 -47 15q-5 -25 -7 -33h-133z
" />
    <glyph glyph-name="adieresis" unicode="&#xe4;" horiz-adv-x="1026" 
d="M466 -10q-165 0 -250 85t-63 229q25 158 152 236q104 70 311 75l296 13q34 261 -244 261q-101 0 -172 -41t-153 -146l-96 87q98 124 204.5 181t238.5 57q191 0 291 -108t69 -304l-97 -615h-140l20 125q-78 -63 -175.5 -99t-191.5 -36zM295 304q-14 -87 35 -132.5
t162 -45.5q139 0 254.5 93.5t138.5 234.5l6 37l-287 -10q-87 -4 -140 -14t-90 -35q-35 -22 -53 -51t-26 -77zM565 1364q6 38 35.5 64t66.5 26q36 0 58 -26.5t16 -63.5q-6 -36 -36 -62.5t-66 -26.5q-37 0 -58.5 26.5t-15.5 62.5zM797 1364q6 37 36 63.5t66 26.5q38 0 60 -26
t16 -64q-6 -37 -36 -63t-68 -26q-36 0 -58 26.5t-16 62.5z" />
    <glyph glyph-name="aring" unicode="&#xe5;" horiz-adv-x="1026" 
d="M466 -10q-165 0 -250 85t-63 229q25 158 152 236q101 68 310 75l297 13q34 261 -244 261q-101 0 -172 -41t-153 -146l-96 87q98 124 204.5 181t238.5 57q191 0 291 -108t69 -304l-97 -615h-140l20 125q-78 -63 -175.5 -99t-191.5 -36zM295 304q-14 -87 35 -132.5
t162 -45.5q139 0 254.5 93.5t138.5 234.5l6 37l-288 -10q-163 -6 -229 -49q-35 -22 -53 -51t-26 -77zM610 1364q12 74 68.5 119.5t126.5 45.5t112.5 -45t30.5 -120q-12 -73 -69 -118.5t-126 -45.5t-112 45.5t-31 118.5zM728 1364q-4 -23 8.5 -36t34.5 -13q23 0 40 13t21 36
q4 24 -9 37.5t-36 13.5t-39 -13t-20 -38z" />
    <glyph glyph-name="ae" unicode="&#xe6;" horiz-adv-x="1811" 
d="M466 -10q-165 0 -250 85t-63 229q25 158 152 236q104 70 311 75l296 13q34 261 -244 261q-101 0 -172 -41t-153 -146l-96 87q98 124 204.5 181t238.5 57q128 0 219 -50.5t126 -146.5q49 58 109.5 100t123.5 64.5t129.5 29t126 -7t114 -42t94 -77t65 -112t27.5 -147
t-18 -181.5h-775q-11 -155 61 -242t213 -87h19q210 0 328 200l122 -55q-78 -130 -202.5 -206.5t-269.5 -76.5h-19q-130 0 -224.5 62t-138.5 172q-90 -112 -212 -173t-242 -61zM295 304q-14 -87 35 -132.5t162 -45.5q139 0 254.5 93.5t138.5 234.5l6 37l-287 -10
q-87 -4 -140 -14t-90 -35q-35 -22 -53 -51t-26 -77zM1055 591h628q1 67 -16 122t-47 91t-69.5 60.5t-86 30.5t-94 0t-95 -30.5t-89 -60.5t-76 -91.5t-55.5 -121.5z" />
    <glyph glyph-name="ccedilla" unicode="&#xe7;" horiz-adv-x="1065" 
d="M404 -423q-95 0 -143 42l27 172q57 -51 71 -59q22 -11 68 -11q52 0 74 13t27 48q4 22 -2.5 34.5t-29 19t-65.5 5t-114 -10.5l116 173q-157 38 -232.5 175t-44.5 331q36 229 189.5 373.5t362.5 144.5h18q147 0 247.5 -75.5t134.5 -206.5l-141 -55q-52 199 -263 199h-18
q-153 0 -256.5 -101t-131.5 -279q-29 -177 42.5 -279t224.5 -102h18q211 0 329 201l121 -56q-73 -123 -184.5 -191.5t-235.5 -51.5l-46 -69q60 -20 90 -65t18 -114q-11 -69 -57 -117t-101.5 -68t-112.5 -20z" />
    <glyph glyph-name="egrave" unicode="&#xe8;" horiz-adv-x="1071" 
d="M543 -10q-136 0 -233 66t-137.5 184.5t-16.5 268.5q35 225 185.5 369.5t356.5 148.5q107 -2 190 -46t130 -119.5t62 -179t-14 -225.5h-776q-11 -155 61.5 -242t213.5 -87h18q211 0 329 201l121 -56q-78 -130 -202.5 -206.5t-269.5 -76.5h-18zM315 591h627
q1 137 -68.5 215.5t-197.5 82.5q-130 -4 -225 -82.5t-136 -215.5zM550 1520h177l119 -309h-153z" />
    <glyph glyph-name="eacute" unicode="&#xe9;" horiz-adv-x="1071" 
d="M543 -10q-136 0 -233 66t-137.5 184.5t-16.5 268.5q35 225 185.5 369.5t356.5 148.5q107 -2 190 -46t130 -119.5t62 -179t-14 -225.5h-776q-11 -155 61.5 -242t213.5 -87h18q211 0 329 201l121 -56q-78 -130 -202.5 -206.5t-269.5 -76.5h-18zM315 591h627
q1 137 -68.5 215.5t-197.5 82.5q-130 -4 -225 -82.5t-136 -215.5zM618 1211l217 309h177l-242 -309h-152z" />
    <glyph glyph-name="ecircumflex" unicode="&#xea;" horiz-adv-x="1071" 
d="M543 -10q-136 0 -233 66t-137.5 184.5t-16.5 268.5q35 225 185.5 369.5t356.5 148.5q107 -2 190 -46t130 -119.5t62 -179t-14 -225.5h-776q-11 -155 61.5 -242t213.5 -87h18q211 0 329 201l121 -56q-78 -130 -202.5 -206.5t-269.5 -76.5h-18zM315 591h627
q1 137 -68.5 215.5t-197.5 82.5q-130 -4 -225 -82.5t-136 -215.5zM495 1211l231 309h103l132 -309h-166l-49 120l-86 -120h-165z" />
    <glyph glyph-name="edieresis" unicode="&#xeb;" horiz-adv-x="1071" 
d="M543 -10q-136 0 -233 66t-137.5 184.5t-16.5 268.5q35 225 185.5 369.5t356.5 148.5q107 -2 190 -46t130 -119.5t62 -179t-14 -225.5h-776q-11 -155 61.5 -242t213.5 -87h18q211 0 329 201l121 -56q-78 -130 -202.5 -206.5t-269.5 -76.5h-18zM315 591h627
q1 137 -68.5 215.5t-197.5 82.5q-130 -4 -225 -82.5t-136 -215.5zM548 1364q6 37 36 63.5t66 26.5q37 0 59.5 -26t16.5 -64q-6 -36 -36.5 -62.5t-67.5 -26.5q-36 0 -58 26.5t-16 62.5zM781 1364q6 38 35.5 64t66.5 26q38 0 60.5 -26t16.5 -64q-6 -36 -37 -62.5t-68 -26.5
t-58.5 26.5t-15.5 62.5z" />
    <glyph glyph-name="igrave" unicode="&#xec;" horiz-adv-x="467" 
d="M155 0l161 1017h142l-161 -1017h-142zM204 1520h177l121 -309h-153z" />
    <glyph glyph-name="iacute" unicode="&#xed;" horiz-adv-x="465" 
d="M192 0l161 1017h142l-161 -1017h-142zM349 1211l217 309h177l-242 -309h-152z" />
    <glyph glyph-name="icircumflex" unicode="&#xee;" horiz-adv-x="254" 
d="M85 1211l233 309h101l134 -309h-167l-49 120l-86 -120h-166zM56 0l161 1017h141l-161 -1017h-141z" />
    <glyph glyph-name="idieresis" unicode="&#xef;" horiz-adv-x="253" 
d="M56 0l161 1017h141l-161 -1017h-141zM138 1364q6 38 35.5 64t66.5 26q36 0 58.5 -26t16.5 -64q-6 -36 -36.5 -62.5t-66.5 -26.5q-37 0 -58.5 26.5t-15.5 62.5zM370 1364q6 37 36 63.5t66 26.5q38 0 60.5 -26t16.5 -64q-6 -36 -36.5 -62.5t-68.5 -26.5q-36 0 -58 26.5
t-16 62.5z" />
    <glyph glyph-name="eth" unicode="&#xf0;" horiz-adv-x="1119" 
d="M543 -10q-136 0 -233 66t-137.5 184.5t-16.5 268.5q36 229 189.5 373.5t362.5 144.5h18q65 0 133 -20l-29 82l-177 -44l-13 138l147 39l-64 177h156l51 -140l153 39l15 -140l-123 -31l140 -395h-2q9 -23 10.5 -84.5t-8.5 -138.5q-36 -228 -191 -373.5t-363 -145.5h-18z
M298 509q-29 -177 42.5 -279t224.5 -102h18q153 0 257.5 102t133.5 279q28 177 -44.5 278.5t-225.5 101.5h-18q-153 0 -256.5 -101t-131.5 -279z" />
    <glyph glyph-name="ntilde" unicode="&#xf1;" horiz-adv-x="1123" 
d="M157 0l161 1017h141l-13 -85q120 95 305 95q201 0 282 -108.5t49 -315.5l-96 -603h-140l94 593q26 164 -20 230t-191 66q-148 0 -233.5 -91t-118.5 -300l-79 -498h-141zM558 1306q-7 75 32.5 127.5t107.5 52.5q32 0 118 -28q33 -12 45 -14q6 30 7 34h135
q5 -77 -34 -128.5t-108 -51.5q-43 0 -118 26q-20 8 -47 15q-1 -8 -7 -33h-131z" />
    <glyph glyph-name="ograve" unicode="&#xf2;" horiz-adv-x="1109" 
d="M543 -10q-136 0 -233 66t-137.5 184.5t-16.5 268.5q36 229 189.5 373.5t362.5 144.5h18q209 0 317 -144.5t72 -373.5q-36 -228 -191 -373.5t-363 -145.5h-18zM298 509q-29 -177 42.5 -279t224.5 -102h18q153 0 257.5 102t133.5 279q28 177 -44.5 278.5t-225.5 101.5h-18
q-153 0 -256.5 -101t-131.5 -279zM567 1520h177l119 -309h-151z" />
    <glyph glyph-name="oacute" unicode="&#xf3;" horiz-adv-x="1109" 
d="M543 -10q-136 0 -233 66t-137.5 184.5t-16.5 268.5q36 229 189.5 373.5t362.5 144.5h18q209 0 317 -144.5t72 -373.5q-36 -228 -191 -373.5t-363 -145.5h-18zM298 509q-29 -177 42.5 -279t224.5 -102h18q153 0 257.5 102t133.5 279q28 177 -44.5 278.5t-225.5 101.5h-18
q-153 0 -256.5 -101t-131.5 -279zM635 1211l217 309h178l-242 -309h-153z" />
    <glyph glyph-name="ocircumflex" unicode="&#xf4;" horiz-adv-x="1109" 
d="M543 -10q-136 0 -233 66t-137.5 184.5t-16.5 268.5q36 229 189.5 373.5t362.5 144.5h18q209 0 317 -144.5t72 -373.5q-36 -228 -191 -373.5t-363 -145.5h-18zM298 509q-29 -177 42.5 -279t224.5 -102h18q153 0 257.5 102t133.5 279q28 177 -44.5 278.5t-225.5 101.5h-18
q-153 0 -256.5 -101t-131.5 -279zM512 1211l233 309h102l131 -309h-165l-49 120l-85 -120h-167z" />
    <glyph glyph-name="otilde" unicode="&#xf5;" horiz-adv-x="1109" 
d="M543 -10q-136 0 -233 66t-137.5 184.5t-16.5 268.5q36 229 189.5 373.5t362.5 144.5h18q209 0 317 -144.5t72 -373.5q-36 -228 -191 -373.5t-363 -145.5h-18zM298 509q-29 -177 42.5 -279t224.5 -102h18q153 0 257.5 102t133.5 279q28 177 -44.5 278.5t-225.5 101.5h-18
q-153 0 -256.5 -101t-131.5 -279zM552 1306q-7 75 32.5 127.5t107.5 52.5q31 0 119 -28q35 -12 44 -14q6 30 7 34h135q5 -77 -34 -128.5t-108 -51.5q-43 0 -118 26q-20 8 -47 15q-1 -8 -7 -33h-131z" />
    <glyph glyph-name="odieresis" unicode="&#xf6;" horiz-adv-x="1109" 
d="M543 -10q-136 0 -233 66t-137.5 184.5t-16.5 268.5q36 229 189.5 373.5t362.5 144.5h18q209 0 317 -144.5t72 -373.5q-36 -228 -191 -373.5t-363 -145.5h-18zM298 509q-29 -177 42.5 -279t224.5 -102h18q153 0 257.5 102t133.5 279q28 177 -44.5 278.5t-225.5 101.5h-18
q-153 0 -256.5 -101t-131.5 -279zM565 1364q6 38 36.5 64t66.5 26t58 -26.5t16 -63.5q-6 -36 -36 -62.5t-66 -26.5q-37 0 -59 26.5t-16 62.5zM797 1364q6 38 36.5 64t66.5 26q38 0 60 -26t16 -64q-6 -37 -36 -63t-68 -26q-36 0 -58.5 26.5t-16.5 62.5z" />
    <glyph glyph-name="divide" unicode="&#xf7;" horiz-adv-x="1028" 
d="M181 568l23 144h846l-23 -144h-846zM470 353q7 42 40.5 70.5t75.5 28.5q43 0 68 -28.5t18 -70.5q-7 -43 -41 -72.5t-77 -29.5q-42 0 -66.5 29.5t-17.5 72.5zM561 925q7 43 40.5 72.5t75.5 29.5q43 0 68 -29.5t18 -72.5t-41 -71.5t-77 -28.5q-42 0 -66.5 29t-17.5 71z" />
    <glyph glyph-name="oslash" unicode="&#xf8;" horiz-adv-x="1299" 
d="M168 -37l-83 103l189 163q-46 128 -21 280q36 228 190.5 373t363.5 145h18q160 0 266 -92l207 179l86 -101l-211 -182q68 -131 39 -322q-36 -228 -190.5 -373.5t-361.5 -145.5h-18q-189 0 -298 125zM395 509q-16 -93 2 -173l579 499q-66 54 -173 54h-18
q-154 0 -258 -101.5t-132 -278.5zM457 213q74 -85 207 -85h18q154 0 257.5 102t132.5 279q20 131 -17 219z" />
    <glyph glyph-name="ugrave" unicode="&#xf9;" 
d="M533 -10q-200 0 -281.5 108.5t-48.5 315.5l95 603h142l-94 -593q-26 -164 19.5 -230t189.5 -66q151 0 235 90.5t117 299.5l79 499h142l-161 -1017h-142l13 85q-116 -95 -305 -95zM537 1520h178l118 -309h-151z" />
    <glyph glyph-name="uacute" unicode="&#xfa;" 
d="M533 -10q-200 0 -281.5 108.5t-48.5 315.5l95 603h142l-94 -593q-26 -164 19.5 -230t189.5 -66q151 0 235 90.5t117 299.5l79 499h142l-161 -1017h-142l13 85q-116 -95 -305 -95zM634 1211l216 309h178l-242 -309h-152z" />
    <glyph glyph-name="ucircumflex" unicode="&#xfb;" 
d="M533 -10q-200 0 -281.5 108.5t-48.5 315.5l95 603h142l-94 -593q-26 -164 19.5 -230t189.5 -66q151 0 235 90.5t117 299.5l79 499h142l-161 -1017h-142l13 85q-116 -95 -305 -95zM512 1211l231 309h102l132 -309h-166l-49 120l-85 -120h-165z" />
    <glyph glyph-name="udieresis" unicode="&#xfc;" 
d="M533 -10q-200 0 -281.5 108.5t-48.5 315.5l95 603h142l-94 -593q-26 -164 19.5 -230t189.5 -66q151 0 235 90.5t117 299.5l79 499h142l-161 -1017h-142l13 85q-116 -95 -305 -95zM563 1364q6 38 35.5 64t66.5 26q36 0 58 -26.5t16 -63.5q-6 -36 -36 -62.5t-66 -26.5
q-37 0 -58.5 26.5t-15.5 62.5zM795 1364q6 37 36 63.5t66 26.5q38 0 60.5 -26t16.5 -64q-6 -36 -36.5 -62.5t-68.5 -26.5q-36 0 -58 26.5t-16 62.5z" />
    <glyph glyph-name="yacute" unicode="&#xfd;" horiz-adv-x="1035" 
d="M193 -213q45 -33 69.5 -25.5t62.5 75.5l126 219l-245 961h156l193 -779l442 779h154l-706 -1235q-70 -124 -154.5 -155t-172.5 36zM601 1211l216 309h178l-243 -309h-151z" />
    <glyph glyph-name="thorn" unicode="&#xfe;" horiz-adv-x="1196" 
d="M97 -377l281 1771h141l-81 -513q156 146 353 146h25q133 0 229.5 -68.5t137.5 -187.5t18 -264q-35 -221 -192 -369t-358 -148h-25q-198 0 -307 145l-81 -512h-141zM376 507q-27 -171 46.5 -274t222.5 -103h27q148 0 255 103.5t134 273.5q28 171 -47 275.5t-223 104.5h-27
q-148 0 -254 -104t-134 -276z" />
    <glyph glyph-name="ydieresis" unicode="&#xff;" horiz-adv-x="1035" 
d="M193 -213q46 -33 69.5 -25.5t62.5 75.5l126 219l-245 961h156l193 -779l442 779h154l-706 -1235q-71 -124 -154.5 -154.5t-172.5 35.5zM530 1364q6 38 36.5 64t66.5 26q38 0 60.5 -26t16.5 -64q-6 -36 -36.5 -62.5t-68.5 -26.5q-36 0 -58.5 26.5t-16.5 62.5zM763 1364
q6 38 36.5 64t67.5 26q36 0 58.5 -26t16.5 -64q-6 -36 -36.5 -62.5t-66.5 -26.5q-37 0 -59.5 26.5t-16.5 62.5z" />
    <glyph glyph-name="Amacron" unicode="&#x100;" horiz-adv-x="1164" 
d="M35 0l707 1394h120l267 -1394h-153l-83 445h-482l-224 -445h-152zM480 584h388l-105 559zM648 1568l23 143h365l-23 -143h-365z" />
    <glyph glyph-name="amacron" unicode="&#x101;" horiz-adv-x="1026" 
d="M466 -10q-165 0 -250 85t-63 229q25 158 152 236q101 68 310 75l297 13q34 261 -244 261q-101 0 -172 -41t-153 -146l-96 87q98 124 204.5 181t238.5 57q191 0 291 -108t69 -304l-97 -615h-140l20 125q-78 -63 -175.5 -99t-191.5 -36zM295 304q-14 -87 35 -132.5
t162 -45.5q139 0 254.5 93.5t138.5 234.5l6 37l-288 -10q-163 -6 -229 -49q-35 -22 -53 -51t-26 -77zM574 1286l22 144h363l-22 -144h-363z" />
    <glyph glyph-name="Abreve" unicode="&#x102;" horiz-adv-x="1164" 
d="M35 0l707 1394h120l267 -1394h-153l-83 445h-482l-224 -445h-152zM480 584h388l-105 559zM636 1778h137q-23 -89 -7 -124t73 -35t85 36t32 123h137q-4 -133 -83 -217.5t-193 -84.5q-115 0 -167.5 84.5t-13.5 217.5z" />
    <glyph glyph-name="abreve" unicode="&#x103;" horiz-adv-x="1026" 
d="M466 -10q-165 0 -250 85t-63 229q25 158 152 236q104 70 311 75l296 13q34 261 -244 261q-101 0 -172 -41t-153 -146l-96 87q98 124 204.5 181t238.5 57q191 0 291 -108t69 -304l-97 -615h-140l20 125q-78 -63 -175.5 -99t-191.5 -36zM295 304q-14 -87 35 -132.5
t162 -45.5q139 0 254.5 93.5t138.5 234.5l6 37l-287 -10q-87 -4 -140 -14t-90 -35q-35 -22 -53 -51t-26 -77zM562 1508h137q-23 -89 -7 -124.5t73 -35.5q56 0 84 36.5t32 123.5h138q-4 -134 -83.5 -218.5t-193.5 -84.5q-115 0 -167 85t-13 218z" />
    <glyph glyph-name="Aogonek" unicode="&#x104;" horiz-adv-x="1157" 
d="M847 -413q-69 0 -113.5 43t-29.5 138q16 97 84 182.5t170 140.5l-65 354h-482l-224 -445h-152l707 1394h120l264 -1371q-117 -39 -190 -102t-86 -147q-5 -34 -1.5 -39.5t28.5 -5.5q36 0 70 26t124 121l-32 -207q-85 -82 -192 -82zM480 584h388l-105 559z" />
    <glyph glyph-name="aogonek" unicode="&#x105;" horiz-adv-x="1066" 
d="M689 -413q-30 0 -57 9t-50.5 29t-33.5 56.5t-2 86.5q17 107 94.5 200.5t189.5 139.5l3 17q-78 -63 -175.5 -99t-191.5 -36q-165 0 -250 85t-63 229q25 158 152 236q101 68 310 75l297 13q34 261 -244 261q-101 0 -172 -41t-153 -146l-96 87q98 124 204.5 181t238.5 57
q191 0 291 -108t69 -304l-95 -605q-102 -12 -174.5 -79.5t-87.5 -156.5q-5 -34 -1.5 -39.5t27.5 -5.5q37 0 71.5 26.5t124.5 120.5l-32 -207q-88 -82 -194 -82zM295 304q-14 -87 35 -132.5t162 -45.5q139 0 254.5 93.5t138.5 234.5l6 37l-288 -10q-163 -6 -229 -49
q-35 -22 -53 -51t-26 -77z" />
    <glyph glyph-name="Cacute" unicode="&#x106;" horiz-adv-x="1343" 
d="M688 -12q-181 0 -306.5 86t-178 247.5t-18.5 374.5q34 215 137.5 376.5t256.5 247.5t334 86h20q203 0 334.5 -107t169.5 -296l-140 -49q-58 310 -387 310h-20q-223 0 -371.5 -149t-191.5 -419q-43 -268 59 -417t325 -149h20q328 0 485 310l124 -49q-97 -188 -263 -295.5
t-369 -107.5h-20zM803 1501l201 277h179l-227 -277h-153z" />
    <glyph glyph-name="cacute" unicode="&#x107;" horiz-adv-x="1065" 
d="M543 -10q-136 0 -233 66t-137.5 184.5t-16.5 268.5q36 229 189.5 373.5t362.5 144.5h18q147 0 247.5 -75.5t134.5 -206.5l-141 -55q-52 199 -263 199h-18q-153 0 -256.5 -101t-131.5 -279q-29 -177 42.5 -279t224.5 -102h18q211 0 329 201l121 -56
q-78 -130 -202.5 -206.5t-269.5 -76.5h-18zM627 1211l217 309h177l-242 -309h-152z" />
    <glyph glyph-name="Ccircumflex" unicode="&#x108;" horiz-adv-x="1343" 
d="M688 -12q-181 0 -306.5 86t-178 247.5t-18.5 374.5q34 215 137.5 376.5t256.5 247.5t334 86h20q203 0 334.5 -107t169.5 -296l-140 -49q-58 310 -387 310h-20q-223 0 -371.5 -149t-191.5 -419q-43 -268 59 -417t325 -149h20q328 0 485 310l124 -49q-97 -188 -263 -295.5
t-369 -107.5h-20zM700 1501l237 277h96l151 -277h-173l-53 106l-88 -106h-170z" />
    <glyph glyph-name="ccircumflex" unicode="&#x109;" horiz-adv-x="1065" 
d="M543 -10q-136 0 -233 66t-137.5 184.5t-16.5 268.5q36 229 189.5 373.5t362.5 144.5h18q147 0 247.5 -75.5t134.5 -206.5l-141 -55q-52 199 -263 199h-18q-153 0 -256.5 -101t-131.5 -279q-29 -177 42.5 -279t224.5 -102h18q211 0 329 201l121 -56
q-78 -130 -202.5 -206.5t-269.5 -76.5h-18zM512 1211l233 309h102l131 -309h-165l-49 120l-85 -120h-167z" />
    <glyph glyph-name="Cdotaccent" unicode="&#x10a;" horiz-adv-x="1343" 
d="M688 -12q-181 0 -306.5 86t-178 247.5t-18.5 374.5q34 215 137.5 376.5t256.5 247.5t334 86h20q203 0 334.5 -107t169.5 -296l-140 -49q-58 310 -387 310h-20q-223 0 -371.5 -149t-191.5 -419q-43 -268 59 -417t325 -149h20q328 0 485 310l124 -49q-97 -188 -263 -295.5
t-369 -107.5h-20zM855 1639q6 38 35.5 64.5t66.5 26.5q38 0 60.5 -27t16.5 -64t-36.5 -62.5t-68.5 -25.5q-37 0 -58.5 26t-15.5 62z" />
    <glyph glyph-name="cdotaccent" unicode="&#x10b;" horiz-adv-x="1065" 
d="M543 -10q-136 0 -233 66t-137.5 184.5t-16.5 268.5q36 229 189.5 373.5t362.5 144.5h18q147 0 247.5 -75.5t134.5 -206.5l-141 -55q-52 199 -263 199h-18q-153 0 -256.5 -101t-131.5 -279q-29 -177 42.5 -279t224.5 -102h18q211 0 329 201l121 -56
q-78 -130 -202.5 -206.5t-269.5 -76.5h-18zM672 1362q6 38 36.5 64t66.5 26q38 0 60 -26.5t16 -63.5q-6 -36 -36.5 -62.5t-67.5 -26.5t-59 26.5t-16 62.5z" />
    <glyph glyph-name="Ccaron" unicode="&#x10c;" horiz-adv-x="1343" 
d="M688 -12q-181 0 -306.5 86t-178 247.5t-18.5 374.5q34 215 137.5 376.5t256.5 247.5t334 86h20q203 0 334.5 -107t169.5 -296l-140 -49q-58 310 -387 310h-20q-223 0 -371.5 -149t-191.5 -419q-43 -268 59 -417t325 -149h20q328 0 485 310l124 -49q-97 -188 -263 -295.5
t-369 -107.5h-20zM725 1778h172l53 -105l87 105h170l-235 -277h-98z" />
    <glyph glyph-name="ccaron" unicode="&#x10d;" horiz-adv-x="1065" 
d="M543 -10q-136 0 -233 66t-137.5 184.5t-16.5 268.5q36 229 189.5 373.5t362.5 144.5h18q147 0 247.5 -75.5t134.5 -206.5l-141 -55q-52 199 -263 199h-18q-153 0 -256.5 -101t-131.5 -279q-29 -177 42.5 -279t224.5 -102h18q211 0 329 201l121 -56
q-78 -130 -202.5 -206.5t-269.5 -76.5h-18zM554 1520h167l47 -121l87 121h164l-230 -309h-102z" />
    <glyph glyph-name="Dcaron" unicode="&#x10e;" horiz-adv-x="1250" 
d="M165 0l221 1394h310q331 0 486 -186.5t102 -521.5q-52 -327 -263.5 -506.5t-546.5 -179.5h-309zM329 140h163q284 0 443.5 134.5t203.5 411.5q45 284 -73 426.5t-393 142.5h-167zM660 1778h171l54 -105l87 105h170l-237 -277h-98z" />
    <glyph glyph-name="dcaron" unicode="&#x10f;" horiz-adv-x="1294" 
d="M541 -10q-133 0 -229.5 68.5t-137.5 187t-18 263.5q35 223 191.5 370.5t358.5 147.5h26q198 0 307 -145l81 512h141l-221 -1394h-141l21 135q-74 -69 -165.5 -107t-187.5 -38h-26zM298 509q-27 -171 47 -275t222 -104h27q147 0 254 104t134 275t-47 274.5t-222 103.5h-27
q-149 0 -255 -103t-133 -275zM1242 1133l169 331h136l-12 -73l-149 -258h-144z" />
    <glyph glyph-name="Dcroat" unicode="&#x110;" horiz-adv-x="1231" 
d="M147 0l95 598h-102l23 144h102l103 652h309q330 0 485 -187t103 -521q-52 -327 -263.5 -506.5t-547.5 -179.5h-307zM309 140h163q284 0 443.5 134.5t203.5 411.5q45 284 -73 426.5t-393 142.5h-167l-81 -513h356l-23 -144h-356z" />
    <glyph glyph-name="dcroat" unicode="&#x111;" horiz-adv-x="1143" 
d="M541 -10q-133 0 -229.5 68.5t-137.5 187t-18 263.5q35 223 191.5 370.5t358.5 147.5h26q198 0 307 -145l33 213h-215l23 144h215l25 155h141l-25 -155h86l-23 -144h-86l-173 -1095h-141l21 135q-74 -69 -165.5 -107t-187.5 -38h-26zM298 509q-27 -171 47 -275t222 -104
h27q147 0 254 104t134 275t-47 274.5t-222 103.5h-27q-149 0 -255 -103t-133 -275z" />
    <glyph glyph-name="Emacron" unicode="&#x112;" horiz-adv-x="1155" 
d="M165 0l221 1394h905l-22 -139h-763l-76 -481h698l-23 -140h-698l-78 -494h763l-22 -140h-905zM651 1568l23 143h364l-23 -143h-364z" />
    <glyph glyph-name="emacron" unicode="&#x113;" horiz-adv-x="1071" 
d="M543 -10q-136 0 -233 66t-137.5 184.5t-16.5 268.5q35 225 185.5 369.5t356.5 148.5q107 -2 190 -46t130 -119.5t62 -179t-14 -225.5h-776q-11 -155 61.5 -242t213.5 -87h18q211 0 329 201l121 -56q-78 -130 -202.5 -206.5t-269.5 -76.5h-18zM315 591h627
q1 137 -68.5 215.5t-197.5 82.5q-130 -4 -225 -82.5t-136 -215.5zM558 1286l22 144h363l-22 -144h-363z" />
    <glyph glyph-name="Ebreve" unicode="&#x114;" horiz-adv-x="1155" 
d="M165 0l221 1394h905l-22 -139h-763l-76 -481h698l-23 -140h-698l-78 -494h763l-22 -140h-905zM712 1829h138q-24 -90 -8.5 -125.5t73.5 -35.5q57 0 85 37t30 124h137q-3 -134 -81.5 -219t-192.5 -85q-117 0 -169 85t-12 219z" />
    <glyph glyph-name="ebreve" unicode="&#x115;" horiz-adv-x="1071" 
d="M543 -10q-136 0 -233 66t-137.5 184.5t-16.5 268.5q39 250 213 394q139 116 312 122q166 6 278 -94q135 -120 125 -343q-3 -63 -18 -131h-776q-11 -155 61.5 -242t213.5 -87h18q211 0 329 201l121 -56q-78 -130 -202.5 -206.5t-269.5 -76.5h-18zM315 591h627
q1 67 -16 122t-47 91t-69.5 60.5t-85.5 30.5t-94 0t-95.5 -30.5t-89 -60.5t-76 -91.5t-54.5 -121.5zM544 1508h139q-25 -89 -9 -124.5t73 -35.5q58 0 85.5 36t30.5 124h137q-2 -133 -82 -218t-194 -85q-115 0 -167 85t-13 218z" />
    <glyph glyph-name="Edotaccent" unicode="&#x116;" horiz-adv-x="1155" 
d="M165 0l221 1394h905l-22 -139h-763l-76 -481h698l-23 -140h-698l-78 -494h763l-22 -140h-905zM756 1639q6 37 36.5 64t66.5 27q37 0 59 -27t16 -64q-6 -36 -36 -62t-67 -26q-36 0 -58.5 26t-16.5 62z" />
    <glyph glyph-name="edotaccent" unicode="&#x117;" horiz-adv-x="1071" 
d="M543 -10q-136 0 -233 66t-137.5 184.5t-16.5 268.5q35 225 185.5 369.5t356.5 148.5q107 -2 190 -46t130 -119.5t62 -179t-14 -225.5h-776q-11 -155 61.5 -242t213.5 -87h18q211 0 329 201l121 -56q-78 -130 -202.5 -206.5t-269.5 -76.5h-18zM315 591h627
q1 137 -68.5 215.5t-197.5 82.5q-130 -4 -225 -82.5t-136 -215.5zM663 1362q6 37 36 63.5t66 26.5q38 0 60 -26.5t16 -63.5t-36 -63t-68 -26q-37 0 -58.5 26.5t-15.5 62.5z" />
    <glyph glyph-name="Eogonek" unicode="&#x118;" horiz-adv-x="1158" 
d="M811 -413q-69 0 -113.5 43t-29.5 138q21 128 128 232h-631l221 1394h905l-22 -139h-763l-76 -481h698l-23 -140h-698l-78 -494h766l-19 -124q-112 -38 -180.5 -99t-81.5 -143q-5 -33 -1 -39t28 -6q36 0 70.5 26.5t125.5 122.5l-33 -207q-86 -84 -193 -84z" />
    <glyph glyph-name="eogonek" unicode="&#x119;" horiz-adv-x="1071" 
d="M468 -413q-69 0 -113 43t-29 138q21 127 112 233q-159 37 -236 174.5t-46 333.5q35 225 185.5 369.5t356.5 148.5q107 -2 190 -46t130 -119.5t62 -179t-14 -225.5h-776q-11 -155 61.5 -242t213.5 -87h18q211 0 329 201l121 -56q-63 -106 -160 -177.5t-211 -95.5
q-75 -30 -126.5 -92t-62.5 -134q-5 -34 -2 -39.5t27 -5.5q38 0 73 27t123 123l-33 -207q-82 -85 -193 -85zM315 591h627q1 137 -68.5 215.5t-197.5 82.5q-130 -4 -225 -82.5t-136 -215.5zM558 1286l22 144h363l-22 -144h-363z" />
    <glyph glyph-name="Ecaron" unicode="&#x11a;" horiz-adv-x="1155" 
d="M165 0l221 1394h905l-22 -139h-763l-76 -481h698l-23 -140h-698l-78 -494h763l-22 -140h-905zM627 1778h172l53 -105l87 105h170l-237 -277h-96z" />
    <glyph glyph-name="ecaron" unicode="&#x11b;" horiz-adv-x="1071" 
d="M543 -10q-136 0 -233 66t-137.5 184.5t-16.5 268.5q35 225 185.5 369.5t356.5 148.5q107 -2 190 -46t130 -119.5t62 -179t-14 -225.5h-776q-11 -155 61.5 -242t213.5 -87h18q211 0 329 201l121 -56q-78 -130 -202.5 -206.5t-269.5 -76.5h-18zM315 591h627
q1 137 -68.5 215.5t-197.5 82.5q-130 -4 -225 -82.5t-136 -215.5zM544 1520h167l48 -121l87 121h164l-230 -309h-103z" />
    <glyph glyph-name="Gcircumflex" unicode="&#x11c;" horiz-adv-x="1317" 
d="M688 -12q-275 0 -414 193.5t-88 516.5t251.5 515.5t475.5 192.5q207 0 338 -110t158 -302l-138 -51q-20 153 -114.5 237t-266.5 84q-223 0 -371.5 -149t-190.5 -417q-43 -270 58.5 -419t324.5 -149q300 0 449 257l34 215h-459l23 140h599l-118 -742h-140l23 145
q-185 -157 -434 -157zM682 1501l238 277h98l147 -277h-171l-54 106l-87 -106h-171z" />
    <glyph glyph-name="gcircumflex" unicode="&#x11d;" horiz-adv-x="1196" 
d="M498 -382q-186 0 -289 109.5t-87 297.5h140q-9 -267 259 -267h28q147 0 241.5 76.5t112.5 191.5l29 118q-69 -72 -166 -114t-199 -42h-10q-133 0 -233 68t-146 187.5t-23 263.5q35 223 191.5 370.5t358.5 147.5h26q97 0 176.5 -38t130.5 -107l22 139h141l-138 -876
q-40 -249 -184.5 -387t-352.5 -138h-28zM297 507q-27 -171 47 -275t222 -104h27q138 0 239.5 90.5t139.5 245.5l14 87q11 154 -62 244t-211 90h-27q-149 0 -255 -103t-134 -275zM537 1211l230 309h103l131 -309h-165l-49 120l-87 -120h-163z" />
    <glyph glyph-name="Gbreve" unicode="&#x11e;" horiz-adv-x="1317" 
d="M688 -12q-275 0 -414 193.5t-88 516.5t251.5 515.5t475.5 192.5q207 0 338 -110t158 -302l-138 -51q-20 153 -114.5 237t-266.5 84q-223 0 -371.5 -149t-190.5 -417q-43 -270 58.5 -419t324.5 -149q300 0 449 257l34 215h-459l23 140h599l-118 -742h-140l23 145
q-185 -157 -434 -157zM753 1829h137q-23 -90 -7 -125.5t72 -35.5q58 0 86 36.5t32 124.5h137q-4 -134 -83.5 -219t-193.5 -85q-115 0 -167 85t-13 219z" />
    <glyph glyph-name="gbreve" unicode="&#x11f;" horiz-adv-x="1196" 
d="M498 -382q-186 0 -289 109.5t-87 297.5h140q-9 -267 259 -267h28q147 0 241.5 76.5t112.5 191.5l29 118q-69 -72 -166 -114t-199 -42h-10q-133 0 -233 68t-146 187.5t-23 263.5q35 223 191.5 370.5t358.5 147.5h26q97 0 176.5 -38t130.5 -107l22 139h141l-138 -876
q-40 -249 -184.5 -387t-352.5 -138h-28zM297 507q-27 -171 47 -275t222 -104h27q138 0 239.5 90.5t139.5 245.5l14 87q11 154 -62 244t-211 90h-27q-149 0 -255 -103t-134 -275zM573 1508h137q-23 -89 -7 -124.5t73 -35.5t85 36.5t31 123.5h137q-4 -134 -83 -218.5
t-193 -84.5q-115 0 -167 85t-13 218z" />
    <glyph glyph-name="Gdotaccent" unicode="&#x120;" horiz-adv-x="1317" 
d="M688 -12q-275 0 -414 193.5t-88 516.5t251.5 515.5t475.5 192.5q207 0 338 -110t158 -302l-138 -51q-20 153 -114.5 237t-266.5 84q-223 0 -371.5 -149t-190.5 -417q-43 -270 58.5 -419t324.5 -149q300 0 449 257l34 215h-459l23 140h599l-118 -742h-140l23 145
q-185 -157 -434 -157zM863 1639q6 37 36 64t66 27q38 0 60.5 -26.5t16.5 -64.5q-6 -36 -36.5 -62t-68.5 -26q-36 0 -58 26t-16 62z" />
    <glyph glyph-name="gdotaccent" unicode="&#x121;" horiz-adv-x="1196" 
d="M498 -382q-186 0 -289 109.5t-87 297.5h140q-9 -267 259 -267h28q147 0 241.5 76.5t112.5 191.5l29 118q-69 -72 -166 -114t-199 -42h-10q-133 0 -233 68t-146 187.5t-23 263.5q35 223 191.5 370.5t358.5 147.5h26q97 0 176.5 -38t130.5 -107l22 139h141l-138 -876
q-40 -249 -184.5 -387t-352.5 -138h-28zM297 507q-27 -171 47 -275t222 -104h27q138 0 239.5 90.5t139.5 245.5l14 87q11 154 -62 244t-211 90h-27q-149 0 -255 -103t-134 -275zM711 1362q6 37 36 63.5t66 26.5t58.5 -26t16.5 -64q-6 -36 -36 -62.5t-67 -26.5
q-36 0 -58 26.5t-16 62.5z" />
    <glyph glyph-name="uni0122" unicode="&#x122;" horiz-adv-x="1528" 
d="M777 -12q-277 0 -416.5 193.5t-88.5 516.5t252 515.5t478 192.5q205 0 337 -110.5t159 -302.5l-141 -50q-19 153 -113.5 237t-264.5 84q-225 0 -374 -148.5t-191 -417.5q-43 -270 59 -419t327 -149q300 0 448 257l34 215h-461l23 140h601l-118 -742h-140l23 144
q-187 -156 -433 -156zM546 -366l169 329h134l-11 -71l-149 -258h-143z" />
    <glyph glyph-name="uni0123" unicode="&#x123;" horiz-adv-x="1222" 
d="M554 -382q-187 0 -291 109.5t-88 297.5h141q-8 -267 261 -267h28q146 0 239.5 76.5t111.5 191.5l29 118q-69 -72 -165 -114t-198 -42h-9q-203 0 -320.5 149.5t-83.5 369.5q23 146 102.5 265t197.5 186t251 67h26q96 0 175.5 -37.5t130.5 -106.5l21 138h141l-138 -876
q-40 -248 -184 -386.5t-350 -138.5h-28zM350 507q-27 -171 48 -275t224 -104h26q137 0 239 91t138 245l14 87q13 153 -60.5 243.5t-210.5 90.5h-26q-150 0 -257 -103.5t-135 -274.5zM754 1213l12 73l149 258h143l-168 -331h-136z" />
    <glyph glyph-name="Hcircumflex" unicode="&#x124;" horiz-adv-x="1235" 
d="M165 0l221 1394h142l-98 -616h620l98 616h143l-221 -1394h-143l101 637h-620l-101 -637h-142zM623 1501l235 277h98l150 -277h-172l-54 106l-87 -106h-170z" />
    <glyph glyph-name="hcircumflex" unicode="&#x125;" horiz-adv-x="1021" 
d="M54 0l221 1394h142l-73 -462q118 95 305 95q200 0 281.5 -108.5t49.5 -315.5l-96 -603h-141l94 593q26 164 -20 230t-190 66q-150 0 -234.5 -91t-117.5 -300l-79 -498h-142zM123 1501l238 277h98l147 -277h-171l-54 106l-85 -106h-173z" />
    <glyph glyph-name="Hbar" unicode="&#x126;" horiz-adv-x="1138" 
d="M122 0l152 962h-75l23 144h75l46 288h141l-46 -288h620l46 288h144l-46 -288h66l-23 -144h-66l-152 -962h-144l101 637h-620l-101 -637h-141zM386 778h620l29 184h-620z" />
    <glyph glyph-name="hbar" unicode="&#x127;" horiz-adv-x="1082" 
d="M115 0l173 1095h-98l23 144h98l25 155h141l-25 -155h203l-23 -144h-203l-25 -163q120 95 306 95q200 0 281.5 -108.5t49.5 -315.5l-96 -603h-141l94 593q26 164 -20 230t-190 66q-149 0 -234.5 -91t-118.5 -300l-79 -498h-141z" />
    <glyph glyph-name="Itilde" unicode="&#x128;" horiz-adv-x="223" 
d="M42 0l221 1394h142l-221 -1394h-142zM149 1555q-6 77 33.5 129t107.5 52q40 0 118 -27q29 -12 45 -16q1 11 7 35h134q5 -77 -34 -129t-107 -52q-38 0 -119 26q-25 10 -45 16q-6 -27 -7 -34h-133z" />
    <glyph glyph-name="itilde" unicode="&#x129;" horiz-adv-x="208" 
d="M18 0l161 1017h142l-161 -1017h-142zM102 1306q-7 75 32.5 127.5t107.5 52.5q32 0 118 -28q10 -4 45 -14q6 30 7 34h135q5 -77 -33.5 -128.5t-106.5 -51.5q-44 0 -119 26q-35 12 -45 15q-1 -15 -6 -33h-135z" />
    <glyph glyph-name="Imacron" unicode="&#x12a;" horiz-adv-x="251" 
d="M56 0l221 1394h142l-221 -1394h-142zM191 1568l23 143h365l-23 -143h-365z" />
    <glyph glyph-name="imacron" unicode="&#x12b;" horiz-adv-x="234" 
d="M46 0l161 1017h142l-161 -1017h-142zM139 1286l22 144h364l-22 -144h-364z" />
    <glyph glyph-name="Ibreve" unicode="&#x12c;" horiz-adv-x="279" 
d="M71 0l221 1394h141l-221 -1394h-141zM202 1829h138q-23 -90 -7.5 -125.5t71.5 -35.5q57 0 85.5 36.5t31.5 124.5h138q-4 -134 -83.5 -219t-193.5 -85q-115 0 -167 85t-13 219z" />
    <glyph glyph-name="ibreve" unicode="&#x12d;" horiz-adv-x="293" 
d="M337 1205q-115 0 -167 85t-13 218h136q-22 -89 -6 -124.5t73 -35.5t84.5 36.5t31.5 123.5h138q-4 -134 -83.5 -218.5t-193.5 -84.5zM72 0l161 1017h143l-161 -1017h-143z" />
    <glyph glyph-name="Iogonek" unicode="&#x12e;" horiz-adv-x="459" 
d="M97 -413q-69 0 -113.5 43t-29.5 138q16 102 90 190.5t185 142.5l3 -2l205 1295h142l-218 -1376q-234 -84 -260 -244q-5 -34 -1.5 -39.5t27.5 -5.5q37 0 72 27t124 120l-32 -207q-88 -82 -194 -82z" />
    <glyph glyph-name="iogonek" unicode="&#x12f;" horiz-adv-x="480" 
d="M89 -409q-68 0 -112.5 43t-29.5 138q17 108 100 204t199 143l142 898h141l-161 -1017h-70q-83 -26 -138 -86.5t-67 -136.5q-5 -34 -1.5 -39.5t27.5 -5.5q37 0 70.5 26t126.5 122l-33 -207q-87 -82 -194 -82zM404 1227q6 37 36.5 63.5t67.5 26.5q36 0 57.5 -26.5
t15.5 -63.5q-5 -36 -35.5 -62t-66.5 -26q-37 0 -58.5 26t-16.5 62z" />
    <glyph glyph-name="Idotaccent" unicode="&#x130;" horiz-adv-x="464" 
d="M161 0l221 1394h142l-221 -1394h-142zM403 1639q6 37 36 64t66 27q38 0 60 -26.5t16 -64.5q-6 -36 -36 -62t-68 -26q-36 0 -58 26t-16 62z" />
    <glyph glyph-name="dotlessi" unicode="&#x131;" horiz-adv-x="552" 
d="M205 0l161 1017h142l-161 -1017h-142z" />
    <glyph glyph-name="IJ" unicode="&#x132;" horiz-adv-x="1517" 
d="M499 507l11 66h144q-54 -235 45 -365q73 -95 198 -99q130 -4 242 91q138 117 172 329l137 865h141l-138 -867q-41 -262 -220 -414q-143 -121 -320 -131q-170 -9 -287 89q-139 117 -134 338q1 47 9 98zM149 0l221 1394h140l-221 -1394h-140z" />
    <glyph glyph-name="ij" unicode="&#x133;" horiz-adv-x="763" 
d="M273 -386q-122 0 -189 66l74 117q44 -27 68.5 -36t67.5 -9h12q68 0 100 31t45 114l177 1120h141l-177 -1120q-22 -138 -103 -210.5t-203 -72.5h-13zM178 0l161 1017h142l-161 -1017h-142zM354 1223q6 37 36 63.5t66 26.5q38 0 60 -26.5t16 -63.5q-6 -36 -36.5 -62
t-67.5 -26q-36 0 -58 26t-16 62zM642 1224q6 37 36 63.5t66 26.5q38 0 61 -26t17 -64q-6 -37 -37 -62.5t-69 -25.5q-36 0 -58 26t-16 62z" />
    <glyph glyph-name="Jcircumflex" unicode="&#x134;" horiz-adv-x="1051" 
d="M145 507l11 66h142q-54 -235 46 -365q74 -96 200 -99q131 -4 242 92q137 118 171 328l137 865h141l-138 -867q-41 -262 -220 -414q-143 -121 -320 -131q-170 -9 -287 89q-139 117 -134 338q1 47 9 98zM936 1501l235 277h98l147 -277h-172l-52 106l-86 -106h-170z" />
    <glyph glyph-name="jcircumflex" unicode="&#x135;" horiz-adv-x="354" 
d="M-35 -386q-123 0 -189 66l75 116q46 -27 69 -35.5t65 -8.5h14q67 0 99 31.5t45 113.5l177 1120h142l-177 -1120q-22 -138 -103.5 -210.5t-202.5 -72.5h-14zM185 1211l233 309h101l134 -309h-167l-49 120l-87 -120h-165z" />
    <glyph glyph-name="uni0136" unicode="&#x136;" horiz-adv-x="1336" 
d="M219 0l221 1394h141l-112 -703l789 703h196l-676 -603l433 -791h-174l-374 688l-226 -199l-77 -489h-141zM408 -366l167 329h136l-11 -71l-149 -258h-143z" />
    <glyph glyph-name="uni0137" unicode="&#x137;" horiz-adv-x="1117" 
d="M201 0l221 1394h142l-135 -852l534 475h197l-443 -391l297 -626h-169l-243 523l-205 -180l-54 -343h-142zM289 -366l167 329h136l-11 -71l-149 -258h-143z" />
    <glyph glyph-name="kgreenlandic" unicode="&#x138;" horiz-adv-x="1014" 
d="M157 0l162 1021h141l-76 -479l536 475h195l-442 -391l296 -626h-166l-246 523l-205 -180l-54 -343h-141z" />
    <glyph glyph-name="Lacute" unicode="&#x139;" horiz-adv-x="1130" 
d="M191 0l221 1394h141l-199 -1254h763l-22 -140h-904zM389 1501l200 277h179l-228 -277h-151z" />
    <glyph glyph-name="lacute" unicode="&#x13a;" horiz-adv-x="527" 
d="M422 -4q-119 -21 -173.5 37t-33.5 190l186 1171h141l-185 -1167q-6 -39 -5.5 -58t8.5 -29.5t26.5 -10t48.5 0.5zM395 1592l215 309h179l-243 -309h-151z" />
    <glyph glyph-name="uni013B" unicode="&#x13b;" horiz-adv-x="1234" 
d="M219 0l221 1394h141l-199 -1254h761l-22 -140h-902zM395 -366l168 329h135l-11 -71l-150 -258h-142z" />
    <glyph glyph-name="uni013C" unicode="&#x13c;" horiz-adv-x="476" 
d="M420 -4q-118 -21 -173.5 37t-34.5 190l186 1171h142l-185 -1167q-6 -39 -5.5 -58t8.5 -29.5t26.5 -10t48.5 0.5zM77 -366l169 329h135l-11 -71l-148 -258h-145z" />
    <glyph glyph-name="Lcaron" unicode="&#x13d;" horiz-adv-x="1105" 
d="M165 0l221 1394h142l-199 -1254h763l-22 -140h-905z" />
    <glyph glyph-name="lcaron" unicode="&#x13e;" horiz-adv-x="455" 
d="M399 -4q-117 -21 -172.5 37t-34.5 190l186 1171h141l-185 -1167q-6 -39 -5.5 -58t8.5 -29.5t26.5 -10t48.5 0.5zM507 1063l171 331h133l-12 -73l-148 -258h-144z" />
    <glyph glyph-name="Ldot" unicode="&#x13f;" horiz-adv-x="1105" 
d="M165 0l221 1394h142l-199 -1254h763l-22 -140h-905zM684 792q6 37 37 63.5t69 26.5q36 0 57.5 -26.5t15.5 -63.5q-5 -37 -35 -62.5t-66 -25.5q-38 0 -60.5 25.5t-17.5 62.5z" />
    <glyph glyph-name="ldot" unicode="&#x140;" horiz-adv-x="530" 
d="M399 -4q-117 -21 -172.5 37t-34.5 190l186 1171h141l-185 -1167q-6 -39 -5.5 -58t8.5 -29.5t26.5 -10t48.5 0.5zM482 792q6 37 37 63.5t67 26.5q37 0 58.5 -26.5t15.5 -63.5q-5 -37 -35 -62.5t-67 -25.5q-36 0 -58.5 25.5t-17.5 62.5z" />
    <glyph glyph-name="Lslash" unicode="&#x141;" horiz-adv-x="1164" 
d="M224 2l85 537l-230 -125l26 166l231 126l109 690h142l-96 -607l375 205l-26 -167l-375 -203l-77 -482h763l-22 -140h-905z" />
    <glyph glyph-name="lslash" unicode="&#x142;" horiz-adv-x="371" 
d="M354 -4q-117 -21 -172.5 37t-34.5 190l46 286l-118 -78l28 176l117 78l113 709h142l-97 -608l123 79l-28 -177l-122 -78l-61 -383q-6 -39 -5.5 -58t9 -29.5t27 -10t47.5 0.5z" />
    <glyph glyph-name="Nacute" unicode="&#x143;" horiz-adv-x="1279" 
d="M165 0l221 1394h134l497 -1110l176 1110h142l-221 -1394h-136l-496 1107l-175 -1107h-142zM766 1501l200 277h179l-226 -277h-153z" />
    <glyph glyph-name="nacute" unicode="&#x144;" horiz-adv-x="1123" 
d="M157 0l161 1017h141l-13 -85q120 95 305 95q201 0 282 -108.5t49 -315.5l-96 -603h-140l94 593q26 164 -20 230t-191 66q-148 0 -233.5 -91t-118.5 -300l-79 -498h-141zM641 1211l217 309h178l-242 -309h-153z" />
    <glyph glyph-name="uni0145" unicode="&#x145;" horiz-adv-x="1386" 
d="M219 0l221 1394h132l498 -1110l176 1110h142l-221 -1394h-136l-496 1107l-175 -1107h-141zM458 -366l169 329h136l-11 -71l-149 -258h-145z" />
    <glyph glyph-name="uni0146" unicode="&#x146;" horiz-adv-x="1222" 
d="M201 0l161 1017h142l-13 -85q118 95 305 95q200 0 281.5 -108.5t49.5 -315.5l-96 -603h-142l94 593q26 164 -19.5 230t-189.5 66q-150 0 -234.5 -91t-117.5 -300l-79 -498h-142zM369 -366l169 329h134l-11 -71l-149 -258h-143z" />
    <glyph glyph-name="Ncaron" unicode="&#x147;" horiz-adv-x="1279" 
d="M165 0l221 1394h134l497 -1110l176 1110h142l-221 -1394h-136l-496 1107l-175 -1107h-142zM682 1778h172l53 -105l85 105h173l-238 -277h-98z" />
    <glyph glyph-name="ncaron" unicode="&#x148;" horiz-adv-x="1123" 
d="M157 0l161 1017h141l-13 -85q120 95 305 95q201 0 282 -108.5t49 -315.5l-96 -603h-140l94 593q26 164 -20 230t-191 66q-148 0 -233.5 -91t-118.5 -300l-79 -498h-141zM568 1520h168l46 -121l88 121h163l-229 -309h-102z" />
    <glyph glyph-name="napostrophe" unicode="&#x149;" horiz-adv-x="1231" 
d="M265 0l157 994l-37 -84h-125l-3 62l232 494h144l-200 -449h134l-13 -85q120 95 305 95q201 0 282 -108.5t49 -315.5l-96 -603h-141l94 593q26 164 -19.5 230t-190.5 66q-149 0 -234 -91t-118 -300l-79 -498h-141z" />
    <glyph glyph-name="Eng" unicode="&#x14a;" horiz-adv-x="1279" 
d="M711 -269q69 -2 106 1.5t67 21t44 51.5t24 94l19 121h-2l-487 1087l-175 -1107h-142l221 1394h134l497 -1110l176 1110h142l-232 -1465q-12 -68 -15 -80q-33 -144 -132.5 -205.5t-266.5 -56.5z" />
    <glyph glyph-name="eng" unicode="&#x14b;" horiz-adv-x="1123" 
d="M650 -386q-123 0 -190 66l74 116q61 -34 87 -40q20 -4 49 -4h12q67 0 98.5 31t47.5 114l112 696q26 164 -20 230t-191 66q-148 0 -233.5 -91t-118.5 -300l-79 -498h-141l161 1017h141l-13 -85q120 95 305 95q201 0 282 -108.5t49 -315.5l-114 -706q-24 -139 -104 -211
t-202 -72h-12z" />
    <glyph glyph-name="Omacron" unicode="&#x14c;" horiz-adv-x="1404" 
d="M687 -16q-181 0 -306.5 85.5t-178 246.5t-18.5 374q34 215 137.5 376.5t256.5 247.5t334 86h20q280 0 418.5 -195.5t87.5 -514.5q-50 -317 -251 -511.5t-480 -194.5h-20zM326 690q-42 -267 60 -416.5t324 -149.5h20q226 0 375 149t191 417q43 270 -59 419t-328 149h-20
q-223 0 -371.5 -149t-191.5 -419zM771 1568l23 143h365l-23 -143h-365z" />
    <glyph glyph-name="omacron" unicode="&#x14d;" horiz-adv-x="1109" 
d="M543 -10q-136 0 -233 66t-137.5 184.5t-16.5 268.5q36 229 189.5 373.5t362.5 144.5h18q209 0 317 -144.5t72 -373.5q-36 -228 -191 -373.5t-363 -145.5h-18zM298 509q-29 -177 42.5 -279t224.5 -102h18q153 0 257.5 102t133.5 279q28 177 -44.5 278.5t-225.5 101.5h-18
q-153 0 -256.5 -101t-131.5 -279zM575 1286l22 144h364l-22 -144h-364z" />
    <glyph glyph-name="Obreve" unicode="&#x14e;" horiz-adv-x="1404" 
d="M688 -12q-181 0 -306.5 86t-178 247.5t-18.5 374.5q34 215 137.5 376.5t256.5 247.5t334 86h20q280 0 418.5 -195.5t87.5 -514.5q-33 -209 -135 -370t-256.5 -249.5t-339.5 -88.5h-20zM327 696q-43 -268 59 -417t325 -149h20q227 0 375.5 148.5t190.5 417.5
q43 270 -59 419t-328 149h-20q-223 0 -371.5 -149t-191.5 -419zM759 1829h138q-23 -90 -7.5 -125.5t72.5 -35.5t85.5 36.5t32.5 124.5h136q-4 -134 -83 -219t-193 -85q-115 0 -167.5 85t-13.5 219z" />
    <glyph glyph-name="obreve" unicode="&#x14f;" horiz-adv-x="1109" 
d="M543 -10q-136 0 -233 66t-137.5 184.5t-16.5 268.5q36 229 189.5 373.5t362.5 144.5h18q209 0 317 -144.5t72 -373.5q-36 -228 -191 -373.5t-363 -145.5h-18zM298 509q-29 -177 42.5 -279t224.5 -102h18q153 0 257.5 102t133.5 279q28 177 -44.5 278.5t-225.5 101.5h-18
q-153 0 -256.5 -101t-131.5 -279zM564 1508h137q-22 -89 -6 -124.5t72 -35.5q57 0 85 36.5t32 123.5h137q-4 -134 -83.5 -218.5t-193.5 -84.5q-115 0 -167 85t-13 218z" />
    <glyph glyph-name="Ohungarumlaut" unicode="&#x150;" horiz-adv-x="1404" 
d="M687 -16q-181 0 -306.5 85.5t-178 246.5t-18.5 374q34 215 137.5 376.5t256.5 247.5t334 86h20q280 0 418.5 -195.5t87.5 -514.5q-50 -317 -251 -511.5t-480 -194.5h-20zM326 690q-42 -267 60 -416.5t324 -149.5h20q226 0 375 149t191 417q43 270 -59 419t-328 149h-20
q-223 0 -371.5 -149t-191.5 -419zM696 1501l202 277h180l-229 -277h-153zM959 1501l202 277h179l-227 -277h-154z" />
    <glyph glyph-name="ohungarumlaut" unicode="&#x151;" horiz-adv-x="1109" 
d="M543 -10q-136 0 -233 66t-137.5 184.5t-16.5 268.5q36 229 189.5 373.5t362.5 144.5h18q209 0 317 -144.5t72 -373.5q-36 -228 -191 -373.5t-363 -145.5h-18zM298 509q-29 -177 42.5 -279t224.5 -102h18q153 0 257.5 102t133.5 279q28 177 -44.5 278.5t-225.5 101.5h-18
q-153 0 -256.5 -101t-131.5 -279zM501 1212l202 279h179l-228 -279h-153zM763 1212l202 279h180l-228 -279h-154z" />
    <glyph glyph-name="OE" unicode="&#x152;" horiz-adv-x="2175" 
d="M687 -16q-181 0 -306.5 85.5t-178 246.5t-18.5 374q34 215 137.5 376.5t256.5 247.5t334 86h20q150 0 262.5 -59.5t177.5 -170.5l36 224h903l-22 -139h-761l-76 -481h697l-23 -140h-697l-78 -494h761l-22 -140h-903l33 211q-100 -109 -231.5 -168t-281.5 -59h-20z
M326 690q-42 -267 60 -416.5t324 -149.5h20q226 0 375 149t191 417q43 270 -59 419t-328 149h-20q-223 0 -371.5 -149t-191.5 -419z" />
    <glyph glyph-name="oe" unicode="&#x153;" horiz-adv-x="1890" 
d="M543 -10q-136 0 -233 66t-137.5 184.5t-16.5 268.5q36 229 189.5 373.5t362.5 144.5h18q131 0 226 -61t138 -169q76 105 187.5 165.5t240.5 64.5q107 -2 190 -46t130 -119.5t61.5 -179t-14.5 -225.5h-776q-10 -155 62.5 -242t212.5 -87h18q211 0 331 200l120 -55
q-76 -130 -201 -206.5t-272 -76.5h-18q-130 0 -224.5 61.5t-138.5 171.5q-77 -109 -191.5 -171t-246.5 -62h-18zM298 509q-29 -177 42.5 -279t224.5 -102h18q153 0 257.5 102t133.5 279q28 177 -44.5 278.5t-225.5 101.5h-18q-153 0 -256.5 -101t-131.5 -279zM1135 591h628
q0 137 -69.5 215.5t-197.5 82.5q-130 -4 -225 -82.5t-136 -215.5z" />
    <glyph glyph-name="Racute" unicode="&#x154;" horiz-adv-x="1188" 
d="M165 0l221 1394h477q219 0 320.5 -100.5t70.5 -293.5v-2q-25 -161 -124 -259t-261 -125l254 -614h-165l-248 604h-307l-96 -604h-142zM425 744h335q168 0 250 60t103 196q22 135 -41.5 195t-230.5 60h-335zM736 1501l202 277h180l-229 -277h-153z" />
    <glyph glyph-name="racute" unicode="&#x155;" horiz-adv-x="842" 
d="M157 0l161 1017h141l-13 -85q120 95 305 95q108 0 183 -33l-52 -135q-81 30 -153 30q-148 0 -233.5 -91t-118.5 -300l-79 -498h-141zM498 1211l215 309h179l-243 -309h-151z" />
    <glyph glyph-name="uni0156" unicode="&#x156;" horiz-adv-x="1265" 
d="M219 0l221 1394h475q221 0 322.5 -100.5t70.5 -293.5v-2q-25 -161 -125 -259t-263 -125l254 -614h-162l-250 604h-306l-96 -604h-141zM411 -366l168 329h136l-11 -71l-150 -258h-143zM478 744h334q169 0 251.5 60t103.5 196q22 135 -41.5 195t-232.5 60h-334z" />
    <glyph glyph-name="uni0157" unicode="&#x157;" horiz-adv-x="927" 
d="M217 0l161 1017h141l-13 -85q120 95 306 95q108 0 181 -33l-50 -133q-93 28 -153 28q-150 0 -235 -91t-118 -300l-79 -498h-141zM54 -366l169 329h136l-11 -71l-149 -258h-145z" />
    <glyph glyph-name="Rcaron" unicode="&#x158;" horiz-adv-x="1188" 
d="M165 0l221 1394h477q219 0 320.5 -100.5t70.5 -293.5v-2q-25 -161 -124 -259t-261 -125l254 -614h-165l-248 604h-307l-96 -604h-142zM425 744h335q168 0 250 60t103 196q22 135 -41.5 195t-230.5 60h-335zM652 1778h172l53 -105l87 105h171l-238 -277h-96z" />
    <glyph glyph-name="rcaron" unicode="&#x159;" horiz-adv-x="720" 
d="M79 0l161 1017h141l-13 -85q118 95 305 95q107 0 183 -33l-52 -135q-85 30 -153 30q-150 0 -234.5 -91t-117.5 -300l-79 -498h-141zM345 1520h166l49 -121l85 121h166l-232 -309h-102z" />
    <glyph glyph-name="Sacute" unicode="&#x15a;" horiz-adv-x="1152" 
d="M592 -26q-79 0 -149 17t-129 54.5t-98.5 91t-55.5 131t-2 170.5h144q-24 -156 63.5 -239t250.5 -83q143 0 240.5 66t115.5 175q9 59 0 98.5t-46 71.5t-91.5 55t-150.5 52q-109 32 -179 64.5t-120 79t-66.5 110t-2.5 148.5q25 159 174.5 265t330.5 106q72 0 132.5 -17.5
t103 -49t74.5 -74.5t47 -93.5t21.5 -107t-3.5 -114.5h-144q12 152 -56 232.5t-200 80.5q-78 0 -147.5 -24t-121 -76t-62.5 -124q-9 -58 0 -95.5t46.5 -67.5t90.5 -51.5t152 -51.5q104 -31 174.5 -65.5t120.5 -82.5t67.5 -114t3.5 -152q-17 -108 -92.5 -196.5t-190.5 -139
t-245 -50.5zM717 1501l202 277h179l-230 -277h-151z" />
    <glyph glyph-name="sacute" unicode="&#x15b;" horiz-adv-x="985" 
d="M505 -14q-84 0 -153.5 22.5t-121 68t-74 122t-8.5 175.5h143q-9 -138 50 -193t189 -55q107 0 173.5 36t78.5 107q8 49 -9.5 77t-69.5 49t-163 45q-66 14 -117 34t-95.5 52.5t-64 84t-9.5 117.5q20 126 134.5 207.5t268.5 81.5q93 0 162.5 -30t107 -82.5t52.5 -117
t7 -139.5h-141q-5 127 -51.5 178t-160.5 51q-94 0 -156.5 -38t-73.5 -109q-11 -64 35 -96t163 -57q184 -39 266.5 -108t61.5 -198t-141 -207t-283 -78zM568 1211l217 309h177l-242 -309h-152z" />
    <glyph glyph-name="Scircumflex" unicode="&#x15c;" horiz-adv-x="1152" 
d="M592 -26q-79 0 -149 17t-129 54.5t-98.5 91t-55.5 131t-2 170.5h144q-24 -156 63.5 -239t250.5 -83q143 0 240.5 66t115.5 175q9 59 0 98.5t-46 71.5t-91.5 55t-150.5 52q-109 32 -179 64.5t-120 79t-66.5 110t-2.5 148.5q25 159 174.5 265t330.5 106q72 0 132.5 -17.5
t103 -49t74.5 -74.5t47 -93.5t21.5 -107t-3.5 -114.5h-144q12 152 -56 232.5t-200 80.5q-78 0 -147.5 -24t-121 -76t-62.5 -124q-9 -58 0 -95.5t46.5 -67.5t90.5 -51.5t152 -51.5q104 -31 174.5 -65.5t120.5 -82.5t67.5 -114t3.5 -152q-17 -108 -92.5 -196.5t-190.5 -139
t-245 -50.5zM590 1501l239 277h96l149 -277h-172l-54 106l-87 -106h-171z" />
    <glyph glyph-name="scircumflex" unicode="&#x15d;" horiz-adv-x="985" 
d="M505 -14q-84 0 -153.5 22.5t-121 68t-74 122t-8.5 175.5h143q-9 -138 50 -193t189 -55q107 0 173.5 36t78.5 107q8 49 -9.5 77t-69.5 49t-163 45q-66 14 -117 34t-95.5 52.5t-64 84t-9.5 117.5q20 126 134.5 207.5t268.5 81.5q93 0 162.5 -30t107 -82.5t52.5 -117
t7 -139.5h-141q-5 127 -51.5 178t-160.5 51q-94 0 -156.5 -38t-73.5 -109q-11 -64 35 -96t163 -57q184 -39 266.5 -108t61.5 -198t-141 -207t-283 -78zM448 1211l229 309h103l133 -309h-167l-48 120l-87 -120h-163z" />
    <glyph glyph-name="Scedilla" unicode="&#x15e;" horiz-adv-x="1152" 
d="M446 -428q-96 0 -143 41l27 172q34 -31 42 -37.5t27 -18.5t32 -13t38 -1q52 0 74.5 13t28.5 48q4 30 -9.5 42.5t-62.5 15.5t-143 -10l113 161q-78 16 -140 51.5t-106.5 90.5t-62.5 135t-3 176h144q-24 -156 63.5 -239t250.5 -83q143 0 240.5 66t115.5 175q9 59 0 98.5
t-46 71.5t-91.5 55t-150.5 52q-109 32 -179 64.5t-120 79t-66.5 110t-2.5 148.5q25 159 174.5 265t330.5 106q72 0 132.5 -17.5t103 -49t74.5 -74.5t47 -93.5t21.5 -107t-3.5 -114.5h-144q12 152 -56 232.5t-200 80.5q-78 0 -147.5 -24t-121 -76t-62.5 -124q-9 -58 0 -95.5
t46.5 -67.5t90.5 -51.5t152 -51.5q104 -31 174.5 -65.5t120.5 -82.5t67.5 -114t3.5 -152q-25 -156 -166 -266t-328 -120l-14 -20q60 -20 89 -64.5t18 -113.5t-57.5 -117t-102 -67.5t-113.5 -19.5z" />
    <glyph glyph-name="scedilla" unicode="&#x15f;" horiz-adv-x="985" 
d="M373 -425q-96 0 -145 42l28 172q53 -48 72.5 -59t66.5 -11q52 0 74 13t27 48q5 29 -8.5 42t-60 16t-135.5 -10l103 169q-131 26 -201 121.5t-46 255.5h143q-9 -138 50 -193t189 -55q107 0 173.5 36t78.5 107q8 49 -9.5 77t-69.5 49t-163 45q-66 14 -117 34t-95.5 52.5
t-64 84t-9.5 117.5q20 126 134.5 207.5t268.5 81.5q93 0 162.5 -30t107 -82.5t52.5 -117t7 -139.5h-141q-5 127 -51.5 178t-160.5 51q-94 0 -156.5 -38t-73.5 -109q-11 -64 35 -96t163 -57q184 -39 266.5 -108t61.5 -198q-19 -120 -125 -195.5t-254 -87.5l-18 -28
q62 -20 92.5 -65t18.5 -115q-11 -69 -56.5 -117t-100.5 -68t-113 -20z" />
    <glyph glyph-name="Scaron" unicode="&#x160;" horiz-adv-x="1152" 
d="M592 -26q-79 0 -149 17t-129 54.5t-98.5 91t-55.5 131t-2 170.5h144q-24 -156 63.5 -239t250.5 -83q143 0 240.5 66t115.5 175q9 59 0 98.5t-46 71.5t-91.5 55t-150.5 52q-109 32 -179 64.5t-120 79t-66.5 110t-2.5 148.5q25 159 174.5 265t330.5 106q72 0 132.5 -17.5
t103 -49t74.5 -74.5t47 -93.5t21.5 -107t-3.5 -114.5h-144q12 152 -56 232.5t-200 80.5q-78 0 -147.5 -24t-121 -76t-62.5 -124q-9 -58 0 -95.5t46.5 -67.5t90.5 -51.5t152 -51.5q104 -31 174.5 -65.5t120.5 -82.5t67.5 -114t3.5 -152q-17 -108 -92.5 -196.5t-190.5 -139
t-245 -50.5zM631 1778h173l53 -105l88 105h170l-237 -277h-96z" />
    <glyph glyph-name="scaron" unicode="&#x161;" horiz-adv-x="985" 
d="M505 -14q-84 0 -153.5 22.5t-121 68t-74 122t-8.5 175.5h143q-9 -138 50 -193t189 -55q107 0 173.5 36t78.5 107q8 49 -9.5 77t-69.5 49t-163 45q-66 14 -117 34t-95.5 52.5t-64 84t-9.5 117.5q20 126 134.5 207.5t268.5 81.5q93 0 162.5 -30t107 -82.5t52.5 -117
t7 -139.5h-141q-5 127 -51.5 178t-160.5 51q-94 0 -156.5 -38t-73.5 -109q-11 -64 35 -96t163 -57q184 -39 266.5 -108t61.5 -198t-141 -207t-283 -78zM497 1520h165l49 -121l86 121h165l-231 -309h-103z" />
    <glyph glyph-name="uni0162" unicode="&#x162;" horiz-adv-x="1269" 
d="M492 -426q-96 0 -144 42l28 173q56 -52 73 -60q22 -11 65 -11q52 0 74.5 13t27.5 48q4 22 -2.5 34.5t-30 19t-66.5 4.5t-116 -11l170 240l189 1189h-486l22 139h1117l-22 -139h-488l-193 -1215l-54 -81q128 -44 107 -180q-11 -69 -56.5 -117t-101 -68t-113.5 -20z" />
    <glyph glyph-name="uni0163" unicode="&#x163;" horiz-adv-x="737" 
d="M317 -425q-96 0 -144 42l28 173q53 -50 72 -60.5t66 -10.5q52 0 75.5 13.5t28.5 47.5q5 29 -8.5 42t-60.5 16t-136 -10l127 216q-75 77 -52 228l97 609h-225l21 136h225l59 375h142l-59 -375h232l-21 -136h-232l-97 -609q-13 -82 9 -114t89 -32q44 0 113 12l-22 -136
q-59 -14 -115 -14h-10q-8 0 -24 2l-17 -30q62 -20 92.5 -65t18.5 -115q-11 -69 -57 -117t-101.5 -68t-113.5 -20z" />
    <glyph glyph-name="Tcaron" unicode="&#x164;" horiz-adv-x="1186" 
d="M520 0l199 1255h-485l22 139h1116l-22 -139h-487l-199 -1255h-144zM634 1778h172l54 -105l88 105h170l-238 -277h-97z" />
    <glyph glyph-name="tcaron" unicode="&#x165;" horiz-adv-x="684" 
d="M313 272l97 609h-225l21 136h225l59 375h142l-59 -375h232l-21 -136h-232l-97 -609q-17 -107 27.5 -132t183.5 -2l-22 -136q-177 -39 -267.5 31.5t-63.5 238.5zM608 1133l171 331h133l-12 -73l-148 -258h-144z" />
    <glyph glyph-name="Tbar" unicode="&#x166;" horiz-adv-x="1186" 
d="M520 0l95 598h-267l23 144h267l81 513h-485l22 139h1116l-22 -139h-487l-81 -513h268l-23 -144h-268l-95 -598h-144z" />
    <glyph glyph-name="tbar" unicode="&#x167;" horiz-adv-x="689" 
d="M313 272l40 254h-117l22 136h117l35 219h-225l21 136h225l59 375h142l-59 -375h232l-21 -136h-232l-35 -219h122l-22 -136h-122l-40 -254q-17 -107 27.5 -132t183.5 -2l-22 -136q-177 -39 -267.5 31.5t-63.5 238.5z" />
    <glyph glyph-name="Utilde" unicode="&#x168;" horiz-adv-x="1247" 
d="M229 507l141 887h140l-139 -874q-34 -216 71 -330q81 -88 210 -81q134 7 240 112q119 116 149 308l137 865h141l-138 -867q-41 -262 -220 -414q-143 -121 -320 -131q-170 -9 -287 89q-139 117 -134 338q1 47 9 98zM660 1555q-5 77 34 129t107 52q40 0 118 -27
q27 -10 46 -16q5 26 7 35h133q6 -77 -33.5 -129t-107.5 -52q-38 0 -119 26l-44 17q-4 -22 -6 -35h-135z" />
    <glyph glyph-name="utilde" unicode="&#x169;" 
d="M533 -10q-200 0 -281.5 108.5t-48.5 315.5l95 603h142l-94 -593q-26 -164 19.5 -230t189.5 -66q151 0 235 90.5t117 299.5l79 499h142l-161 -1017h-142l13 85q-116 -95 -305 -95zM546 1306q-7 75 32.5 127.5t107.5 52.5q32 0 119 -28q35 -12 45 -14q1 10 7 34h133
q5 -77 -33.5 -128.5t-106.5 -51.5q-43 0 -118 26q-36 12 -47 15q-1 -15 -6 -33h-133z" />
    <glyph glyph-name="Umacron" unicode="&#x16a;" horiz-adv-x="1247" 
d="M229 507l141 887h140l-139 -874q-34 -216 71 -330q81 -88 210 -81q134 7 240 112q119 116 149 308l137 865h141l-138 -867q-41 -262 -220 -414q-143 -121 -320 -131q-170 -9 -287 89q-139 117 -134 338q1 47 9 98zM688 1568l23 143h363l-23 -143h-363z" />
    <glyph glyph-name="umacron" unicode="&#x16b;" 
d="M533 -10q-200 0 -281.5 108.5t-48.5 315.5l95 603h142l-94 -593q-26 -164 19.5 -230t189.5 -66q151 0 235 90.5t117 299.5l79 499h142l-161 -1017h-142l13 85q-116 -95 -305 -95zM574 1286l22 144h363l-22 -144h-363z" />
    <glyph glyph-name="Ubreve" unicode="&#x16c;" horiz-adv-x="1247" 
d="M229 507l141 887h140l-139 -874q-34 -216 71 -330q81 -88 210 -81q134 7 240 112q119 116 149 308l137 865h141l-138 -867q-41 -262 -220 -414q-143 -121 -320 -131q-170 -9 -287 89q-139 117 -134 338q1 47 9 98zM684 1829h136q-22 -90 -6.5 -125.5t72.5 -35.5t85.5 37
t29.5 124h140q-4 -134 -83.5 -219t-193.5 -85q-115 0 -167 85t-13 219z" />
    <glyph glyph-name="ubreve" unicode="&#x16d;" 
d="M533 -10q-200 0 -281.5 108.5t-48.5 315.5l95 603h142l-94 -593q-26 -164 19.5 -230t189.5 -66q151 0 235 90.5t117 299.5l79 499h142l-161 -1017h-142l13 85q-116 -95 -305 -95zM553 1508h140q-25 -89 -9 -124.5t73 -35.5t85 36.5t32 123.5h136q-2 -133 -82 -218
t-194 -85q-115 0 -167.5 85t-13.5 218z" />
    <glyph glyph-name="Uring" unicode="&#x16e;" horiz-adv-x="1247" 
d="M229 507l141 887h140l-139 -874q-34 -216 71 -330q81 -88 210 -81q134 7 240 112q119 116 149 308l137 865h141l-138 -867q-41 -262 -220 -414q-143 -121 -320 -131q-170 -9 -287 89q-139 117 -134 338q1 47 9 98zM712 1639q12 74 68.5 119.5t126.5 45.5q69 0 112 -45.5
t31 -119.5q-12 -72 -69.5 -117.5t-125.5 -45.5q-69 0 -112 45t-31 118zM828 1639q-4 -23 9 -36t36 -13q22 0 38.5 13t20.5 36q4 25 -8 38t-35 13t-40 -13.5t-21 -37.5z" />
    <glyph glyph-name="uring" unicode="&#x16f;" 
d="M533 -10q-200 0 -281.5 108.5t-48.5 315.5l95 603h142l-94 -593q-26 -164 19.5 -230t189.5 -66q151 0 235 90.5t117 299.5l79 499h142l-161 -1017h-142l13 85q-116 -95 -305 -95zM601 1364q12 74 69 119.5t126 45.5q70 0 112.5 -45t30.5 -120q-12 -73 -69 -118.5
t-126 -45.5t-112 45.5t-31 118.5zM719 1364q-4 -23 8.5 -36t34.5 -13q23 0 40 13t21 36q4 24 -9 37.5t-36 13.5t-39 -13t-20 -38z" />
    <glyph glyph-name="Uhungarumlaut" unicode="&#x170;" horiz-adv-x="1247" 
d="M229 507l141 887h140l-139 -874q-34 -216 71 -330q81 -88 210 -81q134 7 240 112q119 116 149 308l137 865h141l-138 -867q-41 -262 -220 -414q-143 -121 -320 -131q-170 -9 -287 89q-139 117 -134 338q1 47 9 98zM623 1501l200 277h179l-227 -277h-152zM886 1501
l201 277h179l-229 -277h-151z" />
    <glyph glyph-name="uhungarumlaut" unicode="&#x171;" 
d="M533 -10q-200 0 -281.5 108.5t-48.5 315.5l95 603h142l-94 -593q-26 -164 19.5 -230t189.5 -66q151 0 235 90.5t117 299.5l79 499h142l-161 -1017h-142l13 85q-116 -95 -305 -95zM507 1212l202 279h179l-228 -279h-153zM769 1212l202 279h180l-228 -279h-154z" />
    <glyph glyph-name="Uogonek" unicode="&#x172;" horiz-adv-x="1247" 
d="M536 -413q-69 0 -113.5 43t-29.5 138q20 125 121 224q-152 35 -235 169t-50 346l141 887h140l-139 -874q-34 -216 71 -330q81 -88 210 -81q134 7 240 112q119 116 149 308l137 865h141l-138 -867q-31 -201 -143.5 -335.5t-262.5 -184.5q-211 -81 -236 -233
q-5 -33 -1.5 -39t28.5 -6q36 0 72 28t125 123l-33 -209q-87 -84 -194 -84z" />
    <glyph glyph-name="uogonek" unicode="&#x173;" 
d="M691 -407q-68 0 -113 43t-30 138q20 127 124 231q-63 -15 -139 -15q-200 0 -281.5 108.5t-48.5 315.5l95 603h142l-94 -593q-26 -164 19.5 -230t189.5 -66q151 0 235 90.5t117 299.5l79 499h142l-161 -1017h-72q-82 -27 -135 -86.5t-65 -134.5q-5 -34 -1.5 -39.5
t27.5 -5.5q36 0 70.5 26.5t125.5 121.5l-32 -207q-88 -82 -194 -82z" />
    <glyph glyph-name="Wcircumflex" unicode="&#x174;" horiz-adv-x="1749" 
d="M413 0l-167 1394h150l131 -1110l499 1047h118l169 -1047l483 1110h149l-609 -1394h-128l-167 1050l-502 -1050h-126zM870 1501l237 277h97l149 -277h-172l-54 107l-88 -107h-169z" />
    <glyph glyph-name="wcircumflex" unicode="&#x175;" horiz-adv-x="1463" 
d="M342 0l-122 1017h151l86 -740l379 740h117l144 -738l321 738h147l-442 -1017h-123l-146 763l-392 -763h-120zM691 1211l231 309h102l132 -309h-165l-49 120l-87 -120h-164z" />
    <glyph glyph-name="Ycircumflex" unicode="&#x176;" horiz-adv-x="1154" 
d="M508 0l63 421l-335 973h161l271 -803l530 803h162l-649 -973l-62 -421h-141zM574 1501l237 277h96l149 -277h-172l-54 106l-87 -106h-169z" />
    <glyph glyph-name="ycircumflex" unicode="&#x177;" horiz-adv-x="1035" 
d="M193 -213q45 -33 69.5 -25.5t62.5 75.5l126 219l-245 961h156l193 -779l442 779h154l-706 -1235q-70 -124 -154.5 -155t-172.5 36zM477 1211l233 309h102l133 -309h-167l-48 120l-87 -120h-166z" />
    <glyph glyph-name="Ydieresis" unicode="&#x178;" horiz-adv-x="1154" 
d="M508 0l63 421l-335 973h161l271 -803l530 803h162l-649 -973l-62 -421h-141zM633 1639q6 37 36 64t66 27q37 0 59 -27t16 -64q-6 -36 -36 -62t-67 -26q-36 0 -58 26t-16 62zM866 1639q6 38 35.5 64.5t66.5 26.5q38 0 60 -26.5t16 -64.5q-6 -36 -36.5 -62t-67.5 -26
q-36 0 -58 26t-16 62z" />
    <glyph glyph-name="Zacute" unicode="&#x179;" horiz-adv-x="1069" 
d="M61 0l18 113l940 1142h-759l22 139h947l-18 -111l-941 -1143h760l-22 -140h-947zM661 1501l201 277h179l-227 -277h-153z" />
    <glyph glyph-name="zacute" unicode="&#x17a;" horiz-adv-x="942" 
d="M61 0l18 111l745 768h-624l22 138h820l-18 -117l-737 -762h616l-22 -138h-820zM537 1211l217 309h177l-242 -309h-152z" />
    <glyph glyph-name="Zdotaccent" unicode="&#x17b;" horiz-adv-x="1069" 
d="M61 0l18 113l940 1142h-759l22 139h947l-18 -111l-941 -1143h760l-22 -140h-947zM706 1639q6 38 35.5 64.5t66.5 26.5q38 0 60 -26.5t16 -64.5q-6 -36 -36.5 -62t-67.5 -26q-36 0 -58 26t-16 62z" />
    <glyph glyph-name="zdotaccent" unicode="&#x17c;" horiz-adv-x="942" 
d="M61 0l18 111l745 768h-624l22 138h820l-18 -117l-737 -762h616l-22 -138h-820zM583 1362q6 37 36.5 63.5t66.5 26.5t58.5 -26t16.5 -64q-6 -36 -36.5 -62.5t-66.5 -26.5q-38 0 -59.5 26.5t-15.5 62.5z" />
    <glyph glyph-name="Zcaron" unicode="&#x17d;" horiz-adv-x="1069" 
d="M61 0l18 113l940 1142h-759l22 139h947l-18 -111l-941 -1143h760l-22 -140h-947zM575 1778h172l54 -105l87 105h171l-236 -277h-98z" />
    <glyph glyph-name="zcaron" unicode="&#x17e;" horiz-adv-x="942" 
d="M61 0l18 111l745 768h-624l22 138h820l-18 -117l-737 -762h616l-22 -138h-820zM465 1520h165l50 -121l86 121h165l-231 -309h-103z" />
    <glyph glyph-name="uni0218" unicode="&#x218;" horiz-adv-x="1182" 
d="M607 -26q-100 0 -184.5 28t-147.5 83t-91.5 146t-11.5 207h146q-25 -156 62.5 -239t250.5 -83q144 0 240.5 65.5t114.5 175.5q9 59 0 98.5t-45.5 71.5t-91 55t-151.5 52q-108 32 -178 64.5t-120.5 79t-67 110t-2.5 148.5q25 159 174.5 265t331.5 106q86 0 155 -25
t113 -68t73 -101t35 -124.5t-2 -137.5h-143q11 152 -56.5 232.5t-199.5 80.5q-122 0 -217.5 -58.5t-112.5 -165.5q-9 -58 0 -95.5t46.5 -67.5t90.5 -51.5t151 -51.5q104 -31 174.5 -65.5t121 -82.5t68 -114t3.5 -152q-26 -164 -178.5 -275t-350.5 -111zM372 -366l169 329
h134l-11 -71l-149 -258h-143z" />
    <glyph glyph-name="uni0219" unicode="&#x219;" horiz-adv-x="1007" 
d="M519 -14q-83 0 -152 22.5t-120.5 68t-74 122t-8.5 175.5h143q-11 -138 49 -193t189 -55q108 0 174.5 36t78.5 107q8 49 -9.5 77t-69.5 49t-163 45q-66 14 -116.5 34t-95 52.5t-64 84t-9.5 117.5q20 125 134.5 207t266.5 82q94 0 163.5 -30t107 -82t52 -117t6.5 -140h-139
q-8 128 -54 178.5t-159 50.5q-94 0 -157 -38t-74 -109q-11 -64 35 -95.5t163 -57.5q185 -39 267.5 -108t61.5 -198t-141 -207t-285 -78zM288 -366l167 329h136l-11 -71l-149 -258h-143z" />
    <glyph glyph-name="uni021A" unicode="&#x21a;" horiz-adv-x="1269" 
d="M561 0l199 1255h-486l22 139h1117l-22 -139h-488l-199 -1255h-143zM399 -366l168 329h135l-11 -71l-149 -258h-143z" />
    <glyph glyph-name="uni021B" unicode="&#x21b;" horiz-adv-x="737" 
d="M529 -12q-12 0 -38 2q-36 4 -60 13q-73 27 -104 95t-14 174l97 609h-225l21 136h225l59 375h142l-59 -375h232l-21 -136h-232l-97 -609q-13 -82 9 -114t89 -32q44 0 113 12l-22 -136q-59 -14 -115 -14zM209 -366l169 329h134l-11 -71l-147 -258h-145z" />
    <glyph glyph-name="uni0237" unicode="&#x237;" horiz-adv-x="534" 
d="M1 -386q-123 0 -189 66l73 116q33 -19 47.5 -26.5t36.5 -12.5t52 -5h14q67 0 99 31.5t45 113.5l177 1120h142l-177 -1120q-22 -138 -103.5 -210.5t-202.5 -72.5h-14z" />
    <glyph glyph-name="circumflex" unicode="&#x2c6;" horiz-adv-x="749" 
d="M377 1490l231 308h103l133 -308h-167l-48 120l-88 -120h-164z" />
    <glyph glyph-name="caron" unicode="&#x2c7;" horiz-adv-x="749" 
d="M559 1490l-133 308h166l50 -121l86 121h165l-231 -308h-103z" />
    <glyph glyph-name="breve" unicode="&#x2d8;" horiz-adv-x="790" 
d="M629 1482q-115 0 -166.5 85.5t-12.5 218.5h138q-23 -90 -7.5 -124.5t71.5 -34.5q58 0 85.5 35.5t31.5 123.5h137q-2 -133 -82.5 -218.5t-194.5 -85.5z" />
    <glyph glyph-name="dotaccent" unicode="&#x2d9;" horiz-adv-x="944" 
d="M718 1551q-36 0 -58.5 26t-16.5 62q6 38 35.5 64.5t67.5 26.5q36 0 58.5 -27t16.5 -64t-36.5 -62.5t-66.5 -25.5z" />
    <glyph glyph-name="ring" unicode="&#x2da;" horiz-adv-x="880" 
d="M531 1642q12 74 68.5 119.5t126.5 45.5t112.5 -45t30.5 -120q-12 -73 -69 -118t-126 -45t-112 45t-31 118zM647 1642q-4 -23 9 -36t36 -13t40 13t21 36q4 24 -9 37.5t-36 13.5t-40 -13.5t-21 -37.5z" />
    <glyph glyph-name="ogonek" unicode="&#x2db;" horiz-adv-x="993" 
d="M277 -413q-69 0 -113.5 43t-29.5 138q20 126 124 231t245 137l92 -114q-138 -20 -218.5 -87.5t-95.5 -160.5q-5 -34 -2 -39.5t28 -5.5q37 0 71 26.5t123 120.5l-32 -207q-85 -82 -192 -82z" />
    <glyph glyph-name="tilde" unicode="&#x2dc;" horiz-adv-x="703" 
d="M697 1575q-41 0 -117 27l-45 15q-6 -30 -7 -34h-134q-5 76 33.5 128.5t105.5 52.5q33 0 119 -28q10 -4 45 -14l6 34h135q6 -77 -33.5 -129t-107.5 -52z" />
    <glyph glyph-name="hungarumlaut" unicode="&#x2dd;" horiz-adv-x="902" 
d="M712 1490l202 280h179l-227 -280h-154zM449 1490l202 280h180l-229 -280h-153z" />
    <glyph glyph-name="uni0326" unicode="&#x326;" horiz-adv-x="0" 
d="M164 -320l167 330h137l-12 -73l-150 -257h-142z" />
    <glyph glyph-name="Wgrave" unicode="&#x1e80;" horiz-adv-x="1749" 
d="M413 0l-167 1394h150l131 -1110l499 1047h118l169 -1047l483 1110h149l-609 -1394h-128l-167 1050l-502 -1050h-126zM927 1778h180l114 -277h-153z" />
    <glyph glyph-name="wgrave" unicode="&#x1e81;" horiz-adv-x="1463" 
d="M342 0l-122 1017h151l86 -740l379 740h117l144 -738l321 738h147l-442 -1017h-123l-146 763l-392 -763h-120zM741 1520h176l120 -309h-152z" />
    <glyph glyph-name="Wacute" unicode="&#x1e82;" horiz-adv-x="1749" 
d="M413 0l-167 1394h150l131 -1110l499 1047h118l169 -1047l483 1110h149l-609 -1394h-128l-167 1050l-502 -1050h-126zM984 1501l202 277h180l-229 -277h-153z" />
    <glyph glyph-name="wacute" unicode="&#x1e83;" horiz-adv-x="1463" 
d="M342 0l-122 1017h151l86 -740l379 740h117l144 -738l321 738h147l-442 -1017h-123l-146 763l-392 -763h-120zM812 1211l218 309h176l-242 -309h-152z" />
    <glyph glyph-name="Wdieresis" unicode="&#x1e84;" horiz-adv-x="1749" 
d="M413 0l-167 1394h150l131 -1110l499 1047h118l169 -1047l483 1110h149l-609 -1394h-128l-167 1050l-502 -1050h-126zM930 1639q6 38 36.5 64.5t67.5 26.5t59 -27t16 -64t-36.5 -62.5t-66.5 -25.5q-37 0 -59.5 26t-16.5 62zM1165 1639q6 38 35.5 64.5t66.5 26.5
q36 0 59.5 -27t17.5 -64q-6 -36 -37.5 -62t-67.5 -26q-37 0 -58.5 26t-15.5 62z" />
    <glyph glyph-name="wdieresis" unicode="&#x1e85;" horiz-adv-x="1463" 
d="M342 0l-122 1017h151l86 -740l379 740h117l144 -738l321 738h147l-442 -1017h-123l-146 763l-392 -763h-120zM742 1364q6 37 36.5 63.5t68.5 26.5q36 0 58 -26.5t16 -63.5q-6 -36 -36 -62.5t-66 -26.5q-38 0 -60.5 26.5t-16.5 62.5zM977 1364q6 37 36 63.5t66 26.5
t59 -26.5t17 -63.5t-36 -63t-68 -26q-37 0 -58.5 26.5t-15.5 62.5z" />
    <glyph glyph-name="uni1E9E" unicode="&#x1e9e;" horiz-adv-x="1265" 
d="M722 -8q-137 0 -248 29l24 151q123 -36 247 -36q228 0 253 155q9 53 -11.5 96.5t-95.5 124.5q-75 82 -97 138t-10 130q11 73 51 129.5t141 137.5q100 81 134 124.5t43 96.5q13 79 -38 117t-167 38h-359l-225 -1423h-145l248 1567h506q174 0 261.5 -81t65.5 -223
q-14 -87 -75.5 -166t-175.5 -166q-64 -49 -86.5 -79t-28.5 -72q-7 -43 5.5 -73t61.5 -79q87 -87 123.5 -165.5t22.5 -165.5q-22 -143 -136 -224t-289 -81z" />
    <glyph glyph-name="Ygrave" unicode="&#x1ef2;" horiz-adv-x="1154" 
d="M508 0l63 421l-335 973h161l271 -803l530 803h162l-649 -973l-62 -421h-141zM626 1778h180l114 -277h-152z" />
    <glyph glyph-name="ygrave" unicode="&#x1ef3;" horiz-adv-x="1035" 
d="M193 -213q45 -33 69.5 -25.5t62.5 75.5l126 219l-245 961h156l193 -779l442 779h154l-706 -1235q-70 -124 -154.5 -155t-172.5 36zM528 1520h177l119 -309h-151z" />
    <glyph glyph-name="endash" unicode="&#x2013;" horiz-adv-x="1062" 
d="M227 517l23 144h772l-23 -144h-772z" />
    <glyph glyph-name="emdash" unicode="&#x2014;" horiz-adv-x="1846" 
d="M157 517l23 144h1696l-23 -144h-1696z" />
    <glyph glyph-name="quoteleft" unicode="&#x2018;" horiz-adv-x="500" 
d="M257 910l-4 62l232 494h144l-248 -556h-124z" />
    <glyph glyph-name="quoteright" unicode="&#x2019;" horiz-adv-x="499" 
d="M247 910l247 556h125l3 -65l-231 -491h-144z" />
    <glyph glyph-name="quotesinglbase" unicode="&#x201a;" horiz-adv-x="469" 
d="M65 -214l177 363h124l1 -66l-159 -297h-143z" />
    <glyph glyph-name="quotedblleft" unicode="&#x201c;" horiz-adv-x="707" 
d="M466 910l-4 62l231 494h143l-245 -556h-125zM253 972l232 494h144l-248 -556h-124z" />
    <glyph glyph-name="quotedblright" unicode="&#x201d;" horiz-adv-x="710" 
d="M457 910l248 556h124l4 -64l-230 -492h-146zM247 910l247 556h125l3 -65l-231 -491h-144z" />
    <glyph glyph-name="quotedblbase" unicode="&#x201e;" horiz-adv-x="664" 
d="M65 -214l176 363h124l2 -66l-161 -297h-141zM260 -214l178 363h124v-66l-158 -297h-144z" />
    <glyph glyph-name="dagger" unicode="&#x2020;" horiz-adv-x="1091" 
d="M427 -296l163 1044l-347 -2l23 147l347 -1l76 489h152l-79 -489l345 1l-23 -147l-345 2l-164 -1044h-148z" />
    <glyph glyph-name="daggerdbl" unicode="&#x2021;" horiz-adv-x="1091" 
d="M427 -296l75 487l-347 -2l23 148l347 -2l65 413l-347 -2l23 147l347 -1l76 489h152l-79 -489l345 1l-23 -147l-346 2l-65 -413l346 2l-23 -148l-345 2l-76 -487h-148z" />
    <glyph glyph-name="bullet" unicode="&#x2022;" horiz-adv-x="580" 
d="M365 482q-57 0 -89 39t-23 96t53.5 96t101.5 39q58 0 91 -39t24 -96t-54.5 -96t-103.5 -39z" />
    <glyph glyph-name="ellipsis" unicode="&#x2026;" horiz-adv-x="831" 
d="M125 64q6 36 36.5 62t67.5 26t58.5 -26t15.5 -62q-6 -38 -35.5 -64t-66.5 -26q-38 0 -60 26.5t-16 63.5zM336 64q6 36 36 62t67 26q36 0 59.5 -26t17.5 -62q-6 -37 -37.5 -63.5t-67.5 -26.5q-37 0 -59 26.5t-16 63.5zM547 64q6 36 36 62t68 26q36 0 58.5 -26t16.5 -62
q-6 -37 -36.5 -63.5t-66.5 -26.5q-38 0 -60 26t-16 64z" />
    <glyph glyph-name="perthousand" unicode="&#x2030;" horiz-adv-x="1853" 
d="M108 0l1113 1381h174l-1114 -1381h-173zM243 1062q23 147 117.5 246t226.5 99q130 0 192.5 -99t39.5 -246q-23 -146 -116.5 -247t-225.5 -101q-131 0 -194 101t-40 247zM392 1062q-32 -204 108 -204t172 204q32 202 -108 202t-172 -202zM683 321q23 148 117.5 247
t226.5 99q116 0 179 -78t61 -202q36 124 124 202t205 78q131 0 193.5 -99t39.5 -247q-23 -145 -117.5 -246t-225.5 -101q-116 0 -179 79.5t-61 202.5q-37 -123 -125 -202.5t-204 -79.5q-132 0 -194.5 101t-39.5 246zM832 321q-32 -205 107 -205q142 0 174 205
q32 202 -109 202q-140 0 -172 -202zM1400 321q-32 -205 108 -205t172 205q32 202 -107 202q-141 0 -173 -202z" />
    <glyph glyph-name="guilsinglleft" unicode="&#x2039;" horiz-adv-x="646" 
d="M395 152l-239 359l353 360h190l-353 -360l239 -359h-190z" />
    <glyph glyph-name="guilsinglright" unicode="&#x203a;" horiz-adv-x="646" 
d="M109 152l353 359l-239 360h189l240 -360l-354 -359h-189z" />
    <glyph glyph-name="fraction" unicode="&#x2044;" horiz-adv-x="164" 
d="M-296 -70l745 1492l155 26l-745 -1493z" />
    <glyph glyph-name="Euro" unicode="&#x20ac;" horiz-adv-x="1188" 
d="M710 -26q-226 0 -341 136.5t-102 406.5h-197l93 144h119l3 24q3 15 8 37h-144l90 143h87q80 263 245.5 402.5t373.5 139.5q126 0 205 -37.5t142 -125.5l-116 -106q-54 75 -106.5 100.5t-151.5 25.5q-69 0 -131 -21t-120.5 -66t-107.5 -124.5t-82 -187.5h711l-99 -143
h-648q-1 -5 -2.5 -15t-1.5 -15q-4 -20 -5 -31h640l-84 -144h-569q-7 -213 71.5 -307t251.5 -94q88 0 166 30t166 99l-29 -179q-156 -92 -335 -92z" />
    <glyph glyph-name="trademark" unicode="&#x2122;" horiz-adv-x="1042" 
d="M587 855l56 348h-122l-56 -348h-128l56 348h-157l19 122h443v-2h95l60 -269l147 269h127l-75 -468h-124l27 154l-83 -150h-103l-34 150l-24 -154h-124z" />
    <glyph glyph-name="partialdiff" unicode="&#x2202;" horiz-adv-x="1093" 
d="M516 -26q-183 0 -278.5 130t-63.5 332q37 233 189.5 373t353.5 140q144 0 242 -86q37 501 -231 501q-80 0 -140.5 -25t-138.5 -91l-74 111q94 78 185.5 112.5t194.5 34.5q461 0 326 -857q-25 -154 -70 -275.5t-113.5 -212t-165 -139t-216.5 -48.5zM324 439
q-25 -156 33.5 -239.5t180.5 -83.5q104 0 177 48.5t126.5 163t87.5 303.5q-54 176 -232 176q-150 0 -248.5 -98t-124.5 -270z" />
    <glyph glyph-name="emptyset" unicode="&#x2205;" horiz-adv-x="1722" 
d="M857 -28q-129 0 -242 44t-197 124l-181 -154l-85 100l183 160q-129 203 -88 464q33 205 159 375t307.5 265.5t376.5 95.5q130 0 243 -44t196 -124l182 154l85 -100l-183 -160q61 -94 84 -213t2 -249q-24 -155 -104 -292.5t-193.5 -235t-256 -154t-288.5 -56.5zM397 710
q-32 -205 59 -360l954 823q-136 131 -342 131q-159 0 -303 -76t-242.5 -212.5t-125.5 -305.5zM537 246q135 -130 342 -130q160 0 304 75.5t243 212t125 306.5q33 201 -60 359z" />
    <glyph glyph-name="product" unicode="&#x220f;" horiz-adv-x="1096" 
d="M157 -205l228 1443h-104l23 143h926l-23 -143h-102l-228 -1443h-145l228 1443h-429l-228 -1443h-146z" />
    <glyph glyph-name="summation" unicode="&#x2211;" horiz-adv-x="1090" 
d="M13 -205l16 107l634 709l-362 664l17 106h907l-23 -143h-703l341 -631l-598 -668h765l-22 -144h-972z" />
    <glyph glyph-name="minus" unicode="&#x2212;" horiz-adv-x="1028" 
d="M181 568l23 144h846l-23 -144h-846z" />
    <glyph glyph-name="radical" unicode="&#x221a;" horiz-adv-x="1116" 
d="M437 -296l-112 831h-137l22 143h243l93 -684l605 1554h149l-721 -1844h-142z" />
    <glyph glyph-name="infinity" unicode="&#x221e;" horiz-adv-x="2004" 
d="M563 -26q-214 0 -323 157.5t-69 409.5t199 410.5t373 158.5q148 0 246.5 -75t140.5 -220q84 142 209.5 218.5t273.5 76.5q142 0 240.5 -72t138 -201.5t13.5 -295.5q-40 -251 -199 -409t-373 -158q-148 0 -246.5 76t-141.5 223q-85 -146 -209 -222.5t-273 -76.5zM319 541
q-16 -113 -3.5 -193t52.5 -132t94.5 -76t122.5 -24q51 0 99 12.5t97.5 43t91 78t77.5 122t60 169.5q6 427 -290 427q-68 0 -130.5 -25t-117.5 -74.5t-95.5 -133.5t-57.5 -194zM1167 543q-3 -119 18 -205t62.5 -133t92.5 -68t115 -21q67 0 129.5 25t117.5 74.5t96 133
t58 192.5q16 114 3 194.5t-53 132.5t-94.5 76t-121.5 24q-65 0 -124.5 -21t-117.5 -67.5t-105.5 -132.5t-75.5 -204z" />
    <glyph glyph-name="integral" unicode="&#x222b;" horiz-adv-x="639" 
d="M195 -296q-52 0 -96.5 28t-63.5 81l115 107q20 -48 32.5 -60.5t37.5 -12.5q35 0 59 44.5t43 166.5q22 138 17 530q0 254 4 365.5t19 207.5q14 91 44 159.5t68 106t77.5 55t80.5 17.5q55 0 100.5 -28t61.5 -83l-113 -102q-21 47 -33.5 58.5t-39.5 11.5q-33 0 -56.5 -44.5
t-42.5 -165.5q-21 -133 -20 -531q3 -238 -1 -355.5t-20 -215.5q-15 -92 -44.5 -160.5t-68 -106.5t-78.5 -55.5t-82 -17.5z" />
    <glyph glyph-name="approxequal" unicode="&#x2248;" horiz-adv-x="1180" 
d="M886 647q-53 0 -96.5 16.5t-118.5 58.5q-61 35 -87 45t-63 10q-58 0 -88 -23t-104 -116l-94 84q121 199 309 199q55 0 100 -17t115 -59q64 -35 89.5 -45t60.5 -10q41 0 67.5 12.5t49.5 37t76 91.5l93 -86q-122 -198 -309 -198zM183 390q120 197 308 197q55 0 101 -17
t114 -57q61 -35 88 -45t63 -10q58 0 88.5 23t104.5 116l92 -84q-121 -198 -308 -198q-54 0 -99.5 17t-115.5 58q-64 35 -89.5 45t-61.5 10q-58 0 -88.5 -23.5t-103.5 -117.5z" />
    <glyph glyph-name="notequal" unicode="&#x2260;" 
d="M236 191l157 210h-218l22 144h302l142 190h-414l23 143h497l157 212h167l-160 -212h221l-23 -143h-304l-140 -190h414l-22 -144h-499l-157 -210h-165z" />
    <glyph glyph-name="lessequal" unicode="&#x2264;" horiz-adv-x="1028" 
d="M973 230l-787 368l16 104l905 370l-25 -158l-652 -264l568 -262zM95 26l23 144h846l-23 -144h-846z" />
    <glyph glyph-name="greaterequal" unicode="&#x2265;" horiz-adv-x="1028" 
d="M127 230l25 158l652 262l-568 264l25 158l787 -370l-16 -103zM95 26l23 144h846l-23 -144h-846z" />
    <glyph glyph-name="lozenge" unicode="&#x25ca;" horiz-adv-x="947" 
d="M420 0l-226 690l445 691h107l225 -691l-444 -690h-107zM355 690l153 -473l302 473l-152 472z" />
    <glyph glyph-name="uniF8FF" unicode="&#xf8ff;" horiz-adv-x="1592" 
d="M783 253q-151 0 -279.5 75.5t-203 204.5t-74.5 280q0 152 75 280.5t203.5 203t280.5 74.5q151 0 279.5 -75t203.5 -203.5t75 -279.5q0 -152 -74.5 -281t-203.5 -204t-282 -75zM225 29v146h59q26 0 44 -9q37 -17 37 -64q0 -23 -10 -39q-21 -34 -71 -34h-59zM260 56h22
q18 0 26 4q22 10 22 42q0 18 -5 27q-12 20 -43 20h-22v-93zM293 814q0 -205 144 -350t348 -145q203 0 347.5 144.5t144.5 347.5q0 100 -39 191.5t-104.5 157.5t-156 105t-190.5 40q-134 0 -248 -65.5t-180 -178.5t-66 -247zM377 84q0 16 8 29q16 27 52 27q26 0 42 -14
q18 -15 18 -42v-8h-85q0 -8 3 -13q7 -13 25 -13q7 0 10 1q9 3 14 12l31 -3q-2 -10 -10 -17q-14 -16 -45 -16q-17 0 -33 7q-30 14 -30 50zM412 95h52l-3 10q-6 12 -23 12q-10 0 -14 -3q-10 -6 -12 -19zM467 912q10 -2 12 -4q52 -21 98 -27q41 -3 72 2q43 11 47 12
q3 0 8.5 2.5t7.5 3.5q-5 2 -16.5 8t-17 9t-13 8.5t-13.5 12.5h19q39 0 75 19q65 40 136 61q24 8 58 11q4 0 19.5 1t23.5 0q54 -2 89 -33q10 -11 28 -33v-2l-6 2q-45 17 -83 3.5t-62 -53.5q-7 -13 -25 -55q-9 -21 -27 -63.5t-20 -48.5q-33 -64 -65 -101q-27 -33 -66 -58
q-45 -34 -116 -55h-5l24 22q12 11 25 44q41 116 45 127q24 73 57 131v3q-2 -4 -11 -13q-8 -10 -10 -12q-23 -36 -31 -57q-2 -6 -8 -6q-99 3 -177 67q-40 38 -59 55q-1 1 -5 7t-8 10zM506 61l33 2q5 -14 23 -14q20 0 20 11q0 8 -16 11l-21 4q-36 6 -36 31q0 10 6 18
q13 16 46 16q48 0 53 -32l-31 -3q-3 14 -21 14q-19 0 -19 -11q0 -8 16 -12l22 -3q36 -6 36 -30q0 -9 -7 -18q-14 -18 -48 -18q-51 0 -56 34zM630 168q0 15 19 15q18 0 18 -15t-18 -15q-19 0 -19 15zM632 29v109h34v-109h-34zM681 84q0 20 7 31q13 25 43 25q11 0 18 -3
q12 -5 18 -17h1v18h35v-110q0 -14 -9 -23q-15 -19 -52 -19q-50 0 -57 31l31 3l6 -6q4 -6 21 -6q25 0 25 21v19h-1q-2 -3 -7 -8q-11 -9 -29 -9q-13 0 -25 5q-25 13 -25 48zM716 84q0 -10 3 -16q6 -14 24 -14q25 0 25 30q0 10 -3 17q-6 15 -22 15q-7 0 -15 -4q-12 -7 -12 -28z
M823 29v109h34v-19q10 21 37 21q13 0 23 -5q20 -10 20 -36v-70h-35v64q0 22 -21 22q-7 0 -13 -3q-11 -6 -11 -19v-64h-34zM952 84q0 15 7 29q16 27 54 27q20 0 33 -7q28 -16 28 -49q0 -17 -7 -30q-16 -27 -54 -27q-15 0 -33 7q-28 16 -28 50zM987 84q0 -9 3 -18
q7 -15 23 -15q10 0 15 4q12 9 12 29q0 2 -3 17q-8 16 -24 16q-7 0 -14 -5q-12 -7 -12 -28zM1076 138h36l26 -78h1l26 78h36l-43 -109h-39zM1202 60q0 17 15 25q13 8 32 8l17 3q13 0 13 7v1q0 14 -19 14q-17 0 -22 -13l-32 3q4 10 10 17q15 15 45 15q21 0 37 -9q15 -8 15 -28
v-74h-33v16q-5 -7 -9 -9q-9 -9 -27 -9q-13 0 -21 4q-21 8 -21 29zM1235 60q0 -12 18 -12q8 0 14 3q12 5 12 18v11q-3 -2 -23 -5q-8 0 -12 -3q-9 -3 -9 -12zM1292 177q0 16 11 26.5t27 10.5t26.5 -10.5t10.5 -26.5t-10.5 -27t-26.5 -11t-27 11t-11 27zM1304 177
q0 -11 7.5 -19t18.5 -8t18.5 8t7.5 19t-7.5 18.5t-18.5 7.5t-18.5 -7.5t-7.5 -18.5zM1317 160v35h14q12 0 12 -11q0 -5 -5 -10l8 -14h-10l-6 11h-5v-11h-8zM1325 180h6q5 0 5 3t-5 3h-6v-6z" />
    <glyph glyph-name="_Designova" horiz-adv-x="1742" 
d="M869 41q-174 0 -322.5 87t-235 235.5t-86.5 323.5q1 131 52 250.5t137.5 205.5t206 137t250.5 51q175 0 323.5 -86t235.5 -234.5t87 -323.5q0 -176 -87 -324.5t-236 -235t-325 -86.5zM303 687q0 -116 45 -221.5t120.5 -181.5t181 -121t221.5 -45q154 0 285 76t207 207
t76 285q0 116 -45 221.5t-120.5 181.5t-180.5 121t-221 45t-221 -45t-181.5 -120.5t-121.5 -181t-45 -221.5zM505 800q7 0 13 -4q58 -22 115 -31q45 -5 81 3q29 4 53 14q5 0 11.5 3t8.5 4q-5 3 -22.5 11.5t-27.5 15.5t-19 17h21q39 0 86 20q85 53 158 73q37 10 66 10
q7 0 25 1.5t26 0.5q66 -4 102 -39q6 -5 33 -37v-2q-3 2 -7 2q-53 20 -95.5 4.5t-71.5 -59.5q-5 -9 -10 -20.5t-11 -25t-9 -21.5q-6 -14 -25 -59t-30 -68q-36 -74 -74 -119q-20 -27 -74 -66q-52 -38 -136 -63h-7l28 24q18 17 30 51q7 20 25 71t27 78q31 90 65 150v1
q-3 -3 -11 -13q-9 -7 -11 -16q-23 -27 -38 -65q-3 -5 -9 -5q-117 5 -204 78q-10 10 -32.5 31t-33.5 32q-12 14 -16 18z" />
    <glyph glyph-name="_Origin" horiz-adv-x="2245" 
d="M145 1055v50h1955v-50h-1955zM145 236v50h1955v-50h-1955zM223 437v177h42v-177h-42zM255 734v177h148v-32h-107v-39h97v-31h-97v-42h107v-33h-148zM293 437v177h34l89 -107v107h40v-177h-33l-88 109v-109h-42zM433 734v177h34l88 -107v107h40v-177h-33l-88 109v-109h-41
zM549 437v177h87q72 0 72 -45q0 -28 -26 -40q3 0 3 -2q28 -12 28 -42q0 -48 -71 -48h-93zM591 468h48q32 0 32 22t-32 22h-48v-44zM591 545h42q33 0 33 20q0 22 -33 22h-42v-42zM624 879v32h156v-32h-57v-145h-41v145h-58zM733 437v177h148v-33h-107v-38h96v-31h-96v-41h105
v-34h-146zM798 911h44l40 -124l42 124h38l40 -126l42 126h39l-57 -177h-45l-39 121l-41 -121h-43zM909 437v177h81q28 0 42 -6q36 -19 36 -57q0 -21 -10 -35q-15 -18 -29 -23l37 -56h-43l-35 50h-37v-50h-42zM951 520h37q38 0 38 31q0 30 -38 30h-37v-61zM1088 437v177h40
v-143h106v-34h-146zM1091 823q0 39 28 65q26 26 69 26t69 -26q28 -25 28 -65q0 -39 -28 -65q-25 -27 -68 -27q-45 0 -70 27q-28 28 -28 65zM1133 823q0 -25 15.5 -40.5t39.5 -15.5t39.5 15.5t15.5 40.5t-15.5 41.5t-39.5 16.5t-39.5 -16.5t-15.5 -41.5zM1263 437v177h41
v-177h-41zM1308 734v177h81q28 0 41 -6q36 -17 36 -57q0 -21 -10 -35q-9 -15 -29 -23l39 -56h-45l-33 50h-39v-50h-41zM1333 437v177h35l87 -107v107h42v-177h-34l-89 109v-109h-41zM1349 817h37q38 0 38 31t-38 31h-37v-62zM1486 734v177h148v-32h-107v-39h96v-31h-96v-75
h-41zM1523 461q0 24 25 24q10 0 17 -7t7 -17q0 -11 -7 -25l-14 -38h-26l12 41q-14 5 -14 22zM1650 734v177h147v-32h-106v-39h95v-31h-95v-42h106v-33h-147zM1673 437v177h80q30 0 52 -11q46 -21 46 -77q0 -28 -12 -47q-23 -42 -86 -42h-80zM1715 471h37q17 0 31 7
q26 14 26 48q0 21 -6 29q-14 26 -51 26h-37v-110zM1827 734v177h33l90 -107v107h40v-177h-34l-89 109v-109h-40zM1875 437v177h147v-33h-107v-38h97v-31h-97v-41h106v-34h-146z" />
    <glyph glyph-name="_VendorID" horiz-adv-x="1166" 
d="M98 154v1187h974v-1187h-974zM101 63q0 13 7.5 20.5t18.5 7.5q9 0 12 -3l4 -5v26h13v-72h-13v9l-4 -7q-7 -5 -15 -5q-23 0 -23 29zM115 63q0 -17 13 -17q15 0 15 17v1q0 18 -13 18q-15 0 -15 -19zM151 205h869v1084h-869v-1084zM166 63q0 13 7.5 20.5t19.5 7.5
q11 0 18.5 -7.5t7.5 -19.5q0 -2 -2 -5h-37q1 -13 13 -13q10 0 12 9h12q-5 -21 -24 -21q-27 0 -27 29zM180 67h25q-3 15 -12 15q-11 0 -13 -15zM223 52h14q3 -9 9 -9q9 0 9 7q0 3 -12 9q-18 5 -18 16q0 16 21 16t21 -16h-14q-1 7 -7 7q-7 0 -7 -6q0 -4 12 -9q17 -5 17 -15
q0 -18 -22 -18q-20 0 -23 18zM265 455q0 59 46 125l97 137h64l-84 -120q10 3 23 3q62 0 102.5 -41.5t40.5 -103.5q0 -61 -41.5 -103.5t-101.5 -42.5q-61 0 -103.5 42.5t-42.5 103.5zM265 926q0 56 46 123l97 142h64l-84 -122q7 2 23 2q63 0 103 -41t40 -104
q0 -61 -41 -102.5t-102 -41.5t-103.5 42t-42.5 102zM276 102q0 7 8 7t8 -7q0 -8 -8 -8t-8 8zM277 37v54h14v-54h-14zM301 63q0 28 26 28q9 0 12 -3l4 -5v8h14v-41q0 -8 -2 -11q0 -24 -27 -24q-26 0 -26 18v1h14v-1q0 -8 12 -8q11 0 15 13v8l-4 -7q-8 -2 -14 -2q-24 0 -24 26
zM316 64q0 -18 12 -18q15 0 15 17v1q0 18 -15 18q-12 0 -12 -18zM319 455q0 -42 25.5 -68t66.5 -26q39 0 64.5 26t25.5 68q0 40 -25.5 65t-64.5 25q-41 0 -66.5 -25t-25.5 -65zM319 926q0 -41 25.5 -67t66.5 -26q39 0 64.5 26.5t25.5 66.5t-25.5 66t-64.5 26
q-41 0 -66.5 -25t-25.5 -67zM368 37v54h14v-10l4 7q5 3 13 3q17 0 20 -15q1 -3 1 -9v-30h-15v34q0 11 -10 11q-13 0 -13 -21v-24h-14zM427 63q0 13 7.5 20.5t19.5 7.5q28 0 28 -28q0 -29 -28 -29q-12 0 -19.5 8t-7.5 21zM441 63q0 -17 13 -17q15 0 15 17q0 19 -15 19
q-13 0 -13 -19zM487 91h14l14 -45l13 45h14l-19 -54h-18zM547 52q0 16 30 16h3v7q0 7 -9 7q-11 0 -11 -9h-13q0 18 24 18q19 0 21 -15v-39h-12v6l-3 -5q-8 -4 -14 -4q-16 0 -16 18zM560 52q0 -6 8 -6q12 0 12 9v6q-20 2 -20 -9zM601 80v9h6v8q0 15 19 15h6v-11q-11 2 -11 -5
v-7h11v-9h-11v-43h-14v43h-6zM614 455q0 62 44 125l97 137h66l-86 -120q11 3 25 3q61 0 102 -41.5t41 -103.5q0 -61 -41.5 -103.5t-101.5 -42.5q-61 0 -103.5 42.5t-42.5 103.5zM614 926q0 57 44 123l97 142h66l-87 -122q8 2 26 2q61 0 102 -41.5t41 -103.5
q0 -61 -41.5 -102.5t-101.5 -41.5q-61 0 -103.5 41.5t-42.5 102.5zM636 63q0 28 28 28q27 0 27 -28q0 -29 -27 -29q-28 0 -28 29zM650 63q0 -17 14 -17q13 0 13 17q0 19 -13 19q-14 0 -14 -19zM667 455q0 -42 26 -68t67 -26q38 0 62.5 26t24.5 68q0 40 -24.5 65t-62.5 25
q-41 0 -67 -25t-26 -65zM667 926q0 -41 26 -67t67 -26q38 0 62.5 26t24.5 67q0 40 -24.5 66t-62.5 26q-41 0 -67 -25.5t-26 -66.5zM700 37v54h12v-10l6 7q4 3 13 3q16 0 19 -15v-39h-14v34q-4 11 -9 11q-15 0 -15 -21v-24h-12zM757 80v9h8v13h14v-13h10v-9h-10v-28
q2 -10 9 -6v-10h-8q-15 0 -15 10v34h-8zM793 52h15q2 -9 10 -9t8 7q0 3 -12 9q-17 5 -17 16q0 16 20 16q19 0 24 -16h-16q0 7 -9 7q-5 0 -5 -6q0 -5 11 -9q19 -6 19 -15q0 -18 -23 -18q-20 0 -25 18zM845 42q0 10 9 10t9 -10q0 -8 -9 -8t-9 8zM869 63q0 13 8 20.5t18 7.5
q25 0 25 -20h-13q-3 11 -12 11q-12 0 -12 -19q0 -17 12 -17q10 0 12 9h13q-2 -21 -25 -21q-26 0 -26 29zM925 63q0 28 29 28q26 0 26 -28q0 -29 -26 -29q-29 0 -29 29zM939 63q0 -17 15 -17q13 0 13 17q0 19 -13 19q-15 0 -15 -19zM990 37v54h14v-9l5 6q3 3 9 3q13 0 18 -10
l5 7q3 3 11 3q17 0 17 -12q1 -4 1 -12v-30h-13v27q0 2 -0.5 5t-0.5 4q0 9 -10 9q-9 0 -9 -18v-27h-13v36q-4 9 -10 9q-10 0 -10 -18v-27h-14z" />
    </font>
</defs>
</svg>
