<?xml version="1.0" standalone="no"?>
<!DOCTYPE svg PUBLIC "-//W3C//DTD SVG 1.1//EN" "http://www.w3.org/Graphics/SVG/1.1/DTD/svg11.dtd" >
<svg xmlns="http://www.w3.org/2000/svg" xmlns:xlink="http://www.w3.org/1999/xlink" version="1.1">
<metadata>
Created by FontForge 20201107 at Tue Feb 27 18:48:16 2024
 By 
Copyright (c) 2024 by Designova. All rights reserved.
</metadata>
<defs>
<font id="RovelleUno-Book" horiz-adv-x="1104" >
  <font-face 
    font-family="Rovelle Uno Book"
    font-weight="400"
    font-stretch="normal"
    units-per-em="2048"
    panose-1="0 0 0 0 0 0 0 0 0 0"
    ascent="1638"
    descent="-410"
    x-height="1017"
    cap-height="1394"
    bbox="-285 -428 2100 1901"
    underline-thickness="100"
    underline-position="-255"
    unicode-range="U+0020-F8FF"
  />
<missing-glyph horiz-adv-x="1267" 
d="M157 0v1380h953v-1380h-953zM271 240l296 457l-296 456v-913zM320 113h626l-313 482zM330 1268l303 -469l304 469h-607zM700 697l296 -457v913z" />
    <glyph glyph-name=".notdef" horiz-adv-x="1267" 
d="M157 0v1380h953v-1380h-953zM271 240l296 457l-296 456v-913zM320 113h626l-313 482zM330 1268l303 -469l304 469h-607zM700 697l296 -457v913z" />
    <glyph glyph-name=".null" horiz-adv-x="0" 
 />
    <glyph glyph-name="nonmarkingreturn" horiz-adv-x="682" 
 />
    <glyph glyph-name="space" unicode=" " horiz-adv-x="552" 
 />
    <glyph glyph-name="exclam" unicode="!" horiz-adv-x="548" 
d="M203 239l-8 1178h157l-7 -1178h-142zM185 69q0 36 25.5 62t62.5 26t63.5 -26t26.5 -62q0 -38 -26.5 -64t-63.5 -26t-62.5 26t-25.5 64z" />
    <glyph glyph-name="quotedbl" unicode="&#x22;" horiz-adv-x="637" 
d="M353 910l-6 556h145l-6 -556h-133zM145 1466h146l-8 -556h-132z" />
    <glyph glyph-name="numbersign" unicode="#" horiz-adv-x="1052" 
d="M186 0l95 454h-196v143h228l38 187h-210v143h240l99 454h144l-95 -454h98l96 454h145l-95 -454h194v-143h-226l-40 -187h212v-143h-243l-96 -454h-145l95 454h-98l-96 -454h-144zM457 597h99l41 187h-98z" />
    <glyph glyph-name="dollar" unicode="$" horiz-adv-x="1101" 
d="M496 -21q-169 22 -281.5 139.5t-115.5 319.5h146q7 -275 251 -315v507q-71 24 -126.5 54.5t-105.5 76.5t-77.5 113t-27.5 150q0 152 95 253.5t242 123.5v147h146v-145q88 -12 157 -54t111.5 -104.5t65.5 -137t26 -156.5h-146q-12 269 -214 306v-512q352 -117 352 -405
q0 -138 -93.5 -240.5t-258.5 -120.5v-146h-146v146zM308 1024q0 -95 46 -147.5t142 -88.5v468q-87 -18 -137.5 -76t-50.5 -156zM642 122q102 15 153 70t51 144q0 93 -48.5 151.5t-155.5 100.5v-466z" />
    <glyph glyph-name="percent" unicode="%" horiz-adv-x="1285" 
d="M108 0l894 1381h174l-895 -1381h-173zM75 1062q0 147 78.5 246t210.5 99q131 0 209 -99t78 -246q0 -146 -77.5 -247t-209.5 -101q-131 0 -210 101t-79 247zM224 1062q0 -204 140 -204t140 204q0 202 -140 202t-140 -202zM632 321q0 148 78.5 247t210.5 99t210.5 -99
t78.5 -247q0 -146 -78.5 -246.5t-210.5 -100.5t-210.5 101t-78.5 246zM781 321q0 -205 140 -205q141 0 141 205q0 202 -141 202q-140 0 -140 -202z" />
    <glyph glyph-name="ampersand" unicode="&#x26;" horiz-adv-x="1267" 
d="M924 347q83 154 86 375h139q-2 -232 -78 -397q-14 -31 -46 -84l197 -203l-101 -97l-185 191q-149 -149 -391 -169q-131 -8 -228 28q-102 37 -162 114.5t-69 187.5q-14 174 117 303q66 63 165 127q-38 49 -51 64q-97 125 -106 251q-11 151 85 254t258 114
q158 12 251.5 -65.5t102.5 -205.5q8 -116 -51 -208q-82 -125 -272 -229zM228 301q7 -106 84.5 -156.5t220.5 -41.5q190 15 306 129l-374 387q-23 -14 -84 -56q-82 -57 -120.5 -118t-32.5 -144zM352 1049q5 -53 26 -94q30 -65 111 -158q65 39 143 96q74 54 107 107t28 125
q-5 78 -53 115.5t-153 29.5q-108 -7 -162 -66.5t-47 -154.5z" />
    <glyph glyph-name="quotesingle" unicode="'" horiz-adv-x="436" 
d="M151 910l-6 556h146l-8 -556h-132z" />
    <glyph glyph-name="parenleft" unicode="(" horiz-adv-x="595" 
d="M365 -149q-108 154 -174 384.5t-66 464.5t66 464.5t174 383.5h165q-123 -169 -189.5 -387t-66.5 -461t66.5 -461t189.5 -388h-165z" />
    <glyph glyph-name="parenright" unicode=")" horiz-adv-x="596" 
d="M66 -149q123 170 190 388.5t67 460.5q0 243 -67 461t-191 387h167q108 -152 173.5 -382.5t65.5 -465.5t-65.5 -465.5t-173.5 -383.5h-166z" />
    <glyph glyph-name="asterisk" unicode="*" horiz-adv-x="929" 
d="M277 165l-123 87l196 261l-275 89l45 141l275 -97l-6 335h150l-4 -335l275 97l44 -141l-275 -89l198 -261l-125 -87l-187 266z" />
    <glyph glyph-name="plus" unicode="+" horiz-adv-x="1028" 
d="M442 161v407h-351v144h351v406h145v-406h350v-144h-350v-407h-145z" />
    <glyph glyph-name="comma" unicode="," horiz-adv-x="469" 
d="M99 -214l119 363h124l12 -66l-112 -297h-143z" />
    <glyph glyph-name="hyphen" unicode="-" horiz-adv-x="684" 
d="M95 501v143h494v-143h-494z" />
    <glyph glyph-name="period" unicode="." horiz-adv-x="408" 
d="M205 -26q-37 0 -63.5 26t-26.5 64q0 36 26.5 62t63.5 26t62.5 -26t25.5 -62q0 -38 -25.5 -64t-62.5 -26z" />
    <glyph glyph-name="slash" unicode="/" horiz-adv-x="748" 
d="M35 -56l500 1494h150l-500 -1494h-150z" />
    <glyph glyph-name="zero" unicode="0" horiz-adv-x="1164" 
d="M582 -26q-125 0 -219 54.5t-149 153t-82 225.5t-27 283q0 125 16.5 231t52.5 197t91 154.5t135.5 99t181.5 35.5q125 0 219 -54.5t149.5 -153t82 -225.5t26.5 -284q0 -124 -16.5 -230t-52.5 -196.5t-91 -154t-135.5 -99.5t-181.5 -36zM254 690q0 -106 10.5 -191.5
t34 -158t61 -121.5t93.5 -76t129 -27q91 0 155.5 40.5t101.5 118t54 179.5t17 236t-17 235.5t-54 179.5t-101.5 118.5t-155.5 40.5t-155.5 -40.5t-101.5 -118t-54 -179.5t-17 -236z" />
    <glyph glyph-name="one" unicode="1" horiz-adv-x="754" 
d="M499 0v1192l-352 -219v169l391 239h107v-1381h-146z" />
    <glyph glyph-name="two" unicode="2" horiz-adv-x="1060" 
d="M75 0v103l457 446q87 84 139 147t77 117.5t32 94.5t7 100q0 119 -66 187.5t-196 68.5q-126 0 -205.5 -77.5t-94.5 -216.5l-6 -66h-144l7 76q21 192 143.5 309.5t299.5 117.5q196 0 303 -114t107 -285q0 -140 -65.5 -269t-229.5 -286l-322 -309h677v-144h-920z" />
    <glyph glyph-name="three" unicode="3" horiz-adv-x="1128" 
d="M566 -10q-235 0 -367 134t-112 344l143 6q-19 -165 68.5 -254.5t267.5 -89.5q162 0 249.5 74.5t87.5 203.5t-87.5 202.5t-249.5 73.5q-67 0 -137 -15v115l376 467h-697v143h922v-101l-386 -473q181 -21 290 -134t109 -278q0 -184 -131.5 -301t-345.5 -117zM449 772h23
l-16 15l-7 -9v-6z" />
    <glyph glyph-name="four" unicode="4" horiz-adv-x="1185" 
d="M760 0v314h-685v107l698 973h128v-942h213v-138h-213v-314h-141zM269 452h491v686z" />
    <glyph glyph-name="five" unicode="5" horiz-adv-x="1070" 
d="M518 -14q-59 0 -116 14t-110.5 46t-96 78t-71.5 114.5t-38 151.5l-7 76h144l6 -65q14 -127 88.5 -199t202.5 -72q64 0 119.5 18.5t100.5 56t71 101.5t26 148q0 153 -76.5 237t-211.5 84h-27q-217 0 -276 -216h-143l107 835h745v-143h-618l-52 -398q101 65 233 65h34
q197 0 315 -132t118 -330q0 -142 -65 -251t-170 -164t-232 -55z" />
    <glyph glyph-name="six" unicode="6" horiz-adv-x="1095" 
d="M548 -10q-194 0 -328.5 133t-134.5 325q0 123 73 249l405 697h160l-289 -500q63 17 116 17q192 0 326 -134t134 -327q0 -192 -134.5 -326t-327.5 -134zM229 450q0 -142 89.5 -231t229.5 -89t230.5 90t90.5 232q0 139 -91 230t-230 91q-137 0 -228 -91t-91 -232z" />
    <glyph glyph-name="seven" unicode="7" horiz-adv-x="1121" 
d="M193 0l690 1255h-848v139h1021v-109l-702 -1285h-161z" />
    <glyph glyph-name="eight" unicode="8" horiz-adv-x="1112" 
d="M555 -28q-204 0 -337 107.5t-133 296.5q0 113 54.5 203t152.5 143q-69 49 -106 128t-37 174q0 162 114 272.5t308 110.5q201 0 311.5 -109t110.5 -274q0 -97 -40.5 -176.5t-113.5 -128.5q92 -52 140 -140.5t48 -202.5q0 -126 -67.5 -220t-173 -139t-231.5 -45zM233 376
q0 -89 47 -149.5t118 -85.5t161 -25q62 0 117 15t101.5 45t73.5 81.5t27 118.5q0 128 -77.5 198t-237.5 70q-163 0 -246.5 -71t-83.5 -197zM297 1024q0 -120 77 -179t197 -59q119 0 196.5 59t77.5 179q0 116 -70.5 178t-203.5 62q-134 0 -204 -61.5t-70 -178.5z" />
    <glyph glyph-name="nine" unicode="9" horiz-adv-x="1095" 
d="M662 501q-54 -16 -117 -16q-191 0 -325.5 134t-134.5 324q0 194 134 327.5t328 133.5q193 0 328 -132.5t135 -326.5q0 -123 -71 -247l-407 -698h-159zM227 942q0 -139 90.5 -229t229.5 -90q140 0 230 90t90 230q0 143 -89 232t-231 89q-139 0 -229.5 -90t-90.5 -232z" />
    <glyph glyph-name="colon" unicode=":" horiz-adv-x="450" 
d="M225 924q-37 0 -63.5 26.5t-26.5 64.5q0 36 26.5 62.5t63.5 26.5t63.5 -26.5t26.5 -62.5q0 -38 -26.5 -64.5t-63.5 -26.5zM135 64q0 36 26.5 62t63.5 26t63.5 -25.5t26.5 -62.5q0 -38 -26.5 -64t-63.5 -26t-63.5 26t-26.5 64z" />
    <glyph glyph-name="semicolon" unicode=";" horiz-adv-x="530" 
d="M119 -214l120 363h124l13 -66l-113 -297h-144zM218 1015q0 36 26.5 62.5t61.5 26.5q36 0 62.5 -26.5t26.5 -62.5q0 -38 -26.5 -64.5t-62.5 -26.5t-62 26.5t-26 64.5z" />
    <glyph glyph-name="less" unicode="&#x3c;" horiz-adv-x="1029" 
d="M938 79l-847 412v103l847 411v-162l-619 -300l619 -302v-162z" />
    <glyph glyph-name="equal" unicode="=" 
d="M111 401v144h882v-144h-882zM111 735v143h882v-143h-882z" />
    <glyph glyph-name="greater" unicode="&#x3e;" horiz-adv-x="1029" 
d="M91 79v162l621 302l-621 300v162l847 -411v-103z" />
    <glyph glyph-name="question" unicode="?" horiz-adv-x="1036" 
d="M416 229q0 107 5.5 165t28.5 122.5t65.5 119t120.5 131.5q77 75 110 140.5t33 144.5q0 118 -66.5 178t-192.5 60q-148 0 -221.5 -90.5t-74.5 -260.5h-142q-10 214 114 354t324 140q190 0 298.5 -108.5t108.5 -272.5q0 -209 -190 -384q-45 -43 -73.5 -74t-50 -64.5
t-32 -59t-16.5 -66.5t-7 -76t0 -99h-142zM400 64q0 36 26 62t64 26q36 0 62.5 -26t26.5 -62q0 -37 -26.5 -63.5t-62.5 -26.5q-38 0 -64 26t-26 64z" />
    <glyph glyph-name="at" unicode="@" horiz-adv-x="1657" 
d="M767 -193q-100 0 -196 26.5t-182.5 83.5t-151.5 137.5t-103.5 196t-38.5 252.5q0 151 47 285.5t127 232.5t184 169.5t220 107.5t233 36q192 0 341.5 -84t232 -233t82.5 -339q0 -127 -32.5 -231t-87 -170.5t-125 -102t-147.5 -35.5q-71 0 -135 25.5t-78 66.5
q-100 -107 -232 -107q-48 0 -93.5 16t-89 51t-70 103.5t-26.5 161.5q0 142 56.5 266t159.5 200.5t228 76.5q103 0 164 -65l-3 9l6 22h153l-109 -451q-22 -96 -22 -152q0 -45 21 -62.5t74 -17.5q104 0 171.5 102.5t67.5 283.5q0 250 -138.5 386.5t-380.5 136.5
q-92 0 -184 -29t-176 -87t-148.5 -138t-103 -191t-38.5 -237q0 -136 42 -244.5t114.5 -176t166 -103t200.5 -35.5q153 0 264.5 38.5t255.5 145.5l78 -123q-169 -121 -301.5 -162.5t-296.5 -41.5zM594 464q0 -109 33.5 -153t105.5 -44q78 0 137.5 71t97.5 242l17 75
q22 94 -5.5 147t-96.5 53q-118 0 -203.5 -112t-85.5 -279z" />
    <glyph glyph-name="A" unicode="A" horiz-adv-x="1164" 
d="M35 0l486 1394h120l488 -1394h-153l-153 445h-482l-154 -445h-152zM388 584h388l-194 559z" />
    <glyph glyph-name="B" unicode="B" horiz-adv-x="1224" 
d="M165 0v1394h507q192 0 303.5 -99t111.5 -269q0 -183 -122 -283q88 -46 136 -135.5t48 -211.5q0 -193 -117.5 -294.5t-338.5 -101.5h-528zM307 140h386q169 0 242 60t73 196q0 129 -60.5 191.5t-183.5 62.5h-457v-510zM307 790h415q110 0 167 60t57 172q0 233 -274 233
h-365v-465z" />
    <glyph glyph-name="C" unicode="C" horiz-adv-x="1343" 
d="M690 -12q-275 0 -445 193t-170 515q0 324 170 517t445 193h20q203 0 351.5 -107t216.5 -296l-132 -49q-107 310 -436 310h-20q-223 0 -348 -149t-125 -419q0 -268 125 -417t348 -149h20q328 0 436 310l132 -49q-68 -188 -216.5 -295.5t-351.5 -107.5h-20z" />
    <glyph glyph-name="D" unicode="D" horiz-adv-x="1250" 
d="M165 0v1394h310q331 0 515.5 -186.5t184.5 -521.5q0 -327 -183 -506.5t-518 -179.5h-309zM307 140h163q284 0 422 134.5t138 411.5q0 284 -140.5 426.5t-415.5 142.5h-167v-1115z" />
    <glyph glyph-name="E" unicode="E" horiz-adv-x="1155" 
d="M165 0v1394h905v-139h-763v-481h698v-140h-698v-494h763v-140h-905z" />
    <glyph glyph-name="F" unicode="F" horiz-adv-x="1155" 
d="M165 0v1394h905v-139h-763v-481h698v-140h-698v-634h-142z" />
    <glyph glyph-name="G" unicode="G" horiz-adv-x="1317" 
d="M690 -12q-275 0 -445 193.5t-170 516.5t170 515.5t445 192.5q207 0 355.5 -110t206.5 -302l-130 -51q-45 153 -153 237t-279 84q-223 0 -348 -149t-125 -417q0 -270 125 -419t348 -149q300 0 409 257v215h-459v140h599v-742h-140v145q-77 -76 -182.5 -116.5t-226.5 -40.5
z" />
    <glyph glyph-name="H" unicode="H" horiz-adv-x="1235" 
d="M165 0v1394h142v-616h620v616h143v-1394h-143v637h-620v-637h-142z" />
    <glyph glyph-name="I" unicode="I" horiz-adv-x="472" 
d="M165 0v1394h142v-1394h-142z" />
    <glyph glyph-name="J" unicode="J" horiz-adv-x="1163" 
d="M65 507v66h142q-17 -235 105 -366q90 -97 220 -98q129 -2 224 93q117 118 117 327v865h141v-867q0 -261 -155 -413q-122 -120 -294 -131q-170 -12 -304 87q-158 116 -189 336q-7 49 -7 101z" />
    <glyph glyph-name="K" unicode="K" horiz-adv-x="1226" 
d="M165 0v1394h142v-703l677 703h197l-582 -603l561 -791h-174l-486 688l-193 -199v-489h-142z" />
    <glyph glyph-name="L" unicode="L" horiz-adv-x="1105" 
d="M165 0v1394h142v-1254h763v-140h-905z" />
    <glyph glyph-name="M" unicode="M" horiz-adv-x="1569" 
d="M165 0v1394h147l474 -1067l473 1067h145v-1394h-141v1059l-425 -958h-106l-425 958v-1059h-142z" />
    <glyph glyph-name="N" unicode="N" horiz-adv-x="1279" 
d="M165 0v1394h134l673 -1110v1110h142v-1394h-136l-671 1107v-1107h-142z" />
    <glyph glyph-name="O" unicode="O" horiz-adv-x="1404" 
d="M690 -12q-275 0 -445 193t-170 515q0 324 170 517t445 193h20q280 0 449.5 -195.5t169.5 -514.5q0 -209 -76.5 -370t-217 -249.5t-325.5 -88.5h-20zM217 696q0 -268 125 -417t348 -149h20q226 0 351.5 148.5t125.5 417.5q0 270 -125.5 419t-351.5 149h-20
q-223 0 -348 -149t-125 -419z" />
    <glyph glyph-name="P" unicode="P" horiz-adv-x="1151" 
d="M165 0v1394h477q219 0 336.5 -101t117.5 -293v-2q0 -192 -117.5 -293t-336.5 -101h-335v-604h-142zM307 744h335q167 0 240 60t73 196q0 135 -73 195t-240 60h-335v-511z" />
    <glyph glyph-name="Q" unicode="Q" horiz-adv-x="1406" 
d="M690 -12q-275 0 -445 193t-170 515q0 324 170 517t445 193h20q280 0 449.5 -195.5t169.5 -514.5q0 -286 -136 -469l154 -149l-100 -100l-146 148q-158 -138 -391 -138h-20zM217 696q0 -268 125 -417t348 -149h20q174 0 291 94l-283 279l95 104l280 -278q94 141 94 367
q0 270 -125.5 419t-351.5 149h-20q-223 0 -348 -149t-125 -419z" />
    <glyph glyph-name="R" unicode="R" horiz-adv-x="1188" 
d="M165 0v1394h477q219 0 336.5 -101t117.5 -293v-2q0 -161 -83.5 -259t-240.5 -125l351 -614h-165l-344 604h-307v-604h-142zM307 744h335q167 0 240 60t73 196q0 135 -73 195t-240 60h-335v-511z" />
    <glyph glyph-name="S" unicode="S" horiz-adv-x="1152" 
d="M596 -26q-100 0 -189 28t-160.5 83t-114 146t-43.5 207h144q1 -156 101.5 -239t263.5 -83q143 0 230 66t87 175q0 59 -15.5 98.5t-57 71.5t-99.5 55t-159 52q-91 25 -155.5 50.5t-119.5 59t-88 74.5t-51 95t-18 123q0 159 132.5 265t313.5 106q107 0 193 -38t139.5 -103
t83 -145.5t31.5 -169.5h-144q-12 152 -92.5 232.5t-212.5 80.5q-122 0 -209 -59t-87 -165q0 -58 15 -95.5t57.5 -67.5t99 -51.5t159.5 -51.5q110 -31 185.5 -65.5t133.5 -82.5t85.5 -114t27.5 -152q0 -164 -134.5 -275t-332.5 -111z" />
    <glyph glyph-name="T" unicode="T" horiz-adv-x="1186" 
d="M520 0v1255h-485v139h1116v-139h-487v-1255h-144z" />
    <glyph glyph-name="U" unicode="U" horiz-adv-x="1247" 
d="M149 507v887h140v-874q0 -114 37 -203.5t96 -134.5t130 -66t142 1.5t130 69.5t96 137.5t37 204.5v865h141v-867q0 -261 -155 -413q-122 -120 -294 -131q-170 -12 -304 87q-158 116 -189 336q-7 49 -7 101z" />
    <glyph glyph-name="V" unicode="V" horiz-adv-x="1257" 
d="M573 0l-548 1394h152l452 -1156l450 1156h153l-546 -1394h-113z" />
    <glyph glyph-name="W" unicode="W" horiz-adv-x="1749" 
d="M413 0l-388 1394h150l307 -1110l333 1047h118l335 -1047l307 1110h149l-388 -1394h-128l-333 1050l-336 -1050h-126z" />
    <glyph glyph-name="X" unicode="X" horiz-adv-x="1273" 
d="M45 0l502 708l-489 686h174l404 -567l405 567h172l-489 -686l504 -708h-174l-418 585l-418 -585h-173z" />
    <glyph glyph-name="Y" unicode="Y" horiz-adv-x="1154" 
d="M508 0l-4 421l-489 973h161l398 -803l403 803h162l-495 -973l5 -421h-141z" />
    <glyph glyph-name="Z" unicode="Z" horiz-adv-x="1069" 
d="M61 0v113l759 1142h-759v139h947v-111l-760 -1143h760v-140h-947z" />
    <glyph glyph-name="bracketleft" unicode="[" horiz-adv-x="578" 
d="M165 -149v1697h388v-144h-242v-1409h242v-144h-388z" />
    <glyph glyph-name="backslash" unicode="\" horiz-adv-x="747" 
d="M562 -56l-499 1494h149l500 -1494h-150z" />
    <glyph glyph-name="bracketright" unicode="]" horiz-adv-x="577" 
d="M25 -149v144h242v1409h-242v144h387v-1697h-387z" />
    <glyph glyph-name="asciicircum" unicode="^" horiz-adv-x="1130" 
d="M145 398l361 846h119l360 -846h-161l-259 621l-264 -621h-156z" />
    <glyph glyph-name="underscore" unicode="_" horiz-adv-x="935" 
d="M45 -149v144h845v-144h-845z" />
    <glyph glyph-name="grave" unicode="`" horiz-adv-x="963" 
d="M405 1490l-194 308h178l167 -308h-151z" />
    <glyph glyph-name="a" unicode="a" horiz-adv-x="1090" 
d="M468 -10q-165 0 -264 85t-99 229q0 79 31 139.5t83 96.5q54 40 126.5 55.5t172.5 19.5l295 13q-7 261 -286 261q-100 0 -165 -41t-130 -146l-110 87q78 124 175.5 181t229.5 57q191 0 308.5 -108t117.5 -304v-615h-140v125q-67 -63 -159 -99t-186 -36zM247 304
q0 -178 225 -178q139 0 240 93.5t101 234.5v37l-286 -10q-162 -6 -221 -49q-32 -22 -45.5 -51t-13.5 -77z" />
    <glyph glyph-name="b" unicode="b" horiz-adv-x="1196" 
d="M628 -10q-197 0 -330 146v-136h-141v1394h141v-512q131 145 330 145h25q201 0 334.5 -147.5t133.5 -370.5q0 -221 -133.5 -370t-334.5 -149h-25zM296 509q0 -171 90 -275t238 -104h27q148 0 239 104t91 275t-90.5 274.5t-239.5 103.5h-27q-149 0 -238.5 -103t-89.5 -275z
" />
    <glyph glyph-name="c" unicode="c" horiz-adv-x="1065" 
d="M545 -10q-207 0 -338.5 145.5t-131.5 373.5q0 229 130.5 373.5t339.5 144.5h18q147 0 259.5 -75.5t167.5 -206.5l-132 -55q-85 199 -295 199h-18q-153 0 -240.5 -101t-87.5 -279q0 -177 87.5 -279t240.5 -102h18q211 0 297 201l130 -56q-57 -130 -169.5 -206.5
t-257.5 -76.5h-18z" />
    <glyph glyph-name="d" unicode="d" horiz-adv-x="1197" 
d="M543 -10q-201 0 -334.5 149t-133.5 370q0 223 133 370.5t335 147.5h26q199 0 330 -145v512h141v-1394h-141v135q-64 -69 -149 -107t-181 -38h-26zM217 509q0 -171 90.5 -275t238.5 -104h27q147 0 237.5 104t90.5 275t-90 274.5t-238 103.5h-27q-149 0 -239 -103.5
t-90 -274.5z" />
    <glyph glyph-name="e" unicode="e" horiz-adv-x="1071" 
d="M545 -10q-207 0 -338.5 145.5t-131.5 373.5q0 250 150 394q120 114 288 122t298 -93q155 -120 180 -343q7 -63 3 -132h-776q13 -155 99 -242t228 -87h18q211 0 297 201l130 -56q-57 -130 -169.5 -206.5t-257.5 -76.5h-18zM221 591h627q-14 99 -63 170.5t-113 104
t-137.5 32.5t-137.5 -32.5t-112.5 -104t-63.5 -170.5z" />
    <glyph glyph-name="f" unicode="f" horiz-adv-x="792" 
d="M283 0v881h-238v136h238v103q0 138 70 211t191 73h13q120 0 200 -67l-55 -114q-70 34 -97 39q-20 4 -46 4h-13q-67 0 -94.5 -32t-27.5 -114v-103h241v-136h-241v-881h-141z" />
    <glyph glyph-name="g" unicode="g" horiz-adv-x="1196" 
d="M559 -382q-186 0 -306.5 109.5t-134.5 297.5h140q33 -267 301 -267h28q147 0 229.5 76.5t82.5 191.5l10 118q-58 -72 -148 -114t-192 -42h-10q-133 0 -244 68t-175.5 187.5t-64.5 263.5q0 223 133 370.5t335 147.5h26q199 0 330 -145v139h141v-876q0 -248 -122.5 -386.5
t-330.5 -138.5h-28zM217 507q0 -171 90.5 -275t238.5 -104h27q138 0 225 90.5t101 245.5v87q-14 154 -101 244t-225 90h-27q-149 0 -239 -103.5t-90 -274.5z" />
    <glyph glyph-name="h" unicode="h" horiz-adv-x="1123" 
d="M157 0v1394h141v-462q106 95 290 95q201 0 299.5 -108.5t98.5 -315.5v-603h-140v593q0 164 -56.5 230t-201.5 66q-148 0 -219 -91t-71 -300v-498h-141z" />
    <glyph glyph-name="i" unicode="i" horiz-adv-x="450" 
d="M156 0v1017h141v-1017h-141zM135 1224q0 38 26.5 64t63.5 26t63.5 -26t26.5 -64q0 -37 -26.5 -62.5t-63.5 -25.5t-63.5 26t-26.5 62z" />
    <glyph glyph-name="j" unicode="j" horiz-adv-x="454" 
d="M26 -386q-123 0 -199 66l56 116q50 -27 74.5 -35.5t66.5 -8.5h14q67 0 94 31.5t27 113.5v1120h142v-1120q0 -138 -70 -210.5t-191 -72.5h-14zM141 1224q0 37 26 63.5t62 26.5q37 0 63.5 -26t26.5 -64q0 -36 -26.5 -62t-63.5 -26q-36 0 -62 26t-26 62z" />
    <glyph glyph-name="k" unicode="k" horiz-adv-x="1014" 
d="M157 0v1394h141v-852l461 475h195l-380 -391l395 -626h-166l-329 523l-176 -180v-343h-141z" />
    <glyph glyph-name="l" unicode="l" horiz-adv-x="455" 
d="M400 -4q-114 -21 -178.5 37t-64.5 190v1171h141v-1167q0 -39 3.5 -58t13.5 -29.5t28 -10t48 0.5z" />
    <glyph glyph-name="m" unicode="m" horiz-adv-x="1570" 
d="M157 0v1017h141v-76q94 86 229 86q195 0 281 -153q97 153 285 153q92 0 159 -34t106 -96.5t57 -142t18 -178.5v-576h-143v571q0 103 -21 179q-21 75 -61 107t-123 32q-54 0 -105 -32q-115 -79 -115 -308v-549h-142v593q0 164 -46.5 230t-155.5 66q-50 0 -105 -34
q-116 -85 -116 -343v-512h-143z" />
    <glyph glyph-name="n" unicode="n" horiz-adv-x="1123" 
d="M157 0v1017h141v-85q106 95 290 95q201 0 299.5 -108.5t98.5 -315.5v-603h-140v593q0 164 -56.5 230t-201.5 66q-148 0 -219 -91t-71 -300v-498h-141z" />
    <glyph glyph-name="o" unicode="o" horiz-adv-x="1109" 
d="M545 -10q-207 0 -338.5 145.5t-131.5 373.5q0 229 130.5 373.5t339.5 144.5h18q209 0 340 -144.5t131 -373.5q0 -228 -131.5 -373.5t-339.5 -145.5h-18zM217 509q0 -177 87.5 -279t240.5 -102h18q153 0 241.5 102t88.5 279t-88.5 278.5t-241.5 101.5h-18
q-153 0 -240.5 -101t-87.5 -279z" />
    <glyph glyph-name="p" unicode="p" horiz-adv-x="1196" 
d="M157 -377v1394h141v-136q133 146 330 146h25q133 0 240.5 -68.5t167.5 -187.5t60 -264q0 -221 -133.5 -369t-334.5 -148h-25q-199 0 -330 145v-512h-141zM296 507q0 -171 89.5 -274t238.5 -103h27q148 0 239 103.5t91 273.5q0 171 -91 275.5t-239 104.5h-27
q-148 0 -238 -104t-90 -276z" />
    <glyph glyph-name="q" unicode="q" horiz-adv-x="1197" 
d="M899 135q-131 -145 -330 -145h-26q-201 0 -334.5 147.5t-133.5 369.5q0 145 60 264t167.5 187.5t240.5 68.5h26q96 0 181 -38t149 -107v135h141v-1394h-141v512zM217 507q0 -170 90 -273.5t239 -103.5h27q148 0 238 103t90 274t-90.5 275.5t-237.5 104.5h-27
q-149 0 -239 -104t-90 -276z" />
    <glyph glyph-name="r" unicode="r" horiz-adv-x="842" 
d="M157 0v1017h141v-85q106 95 290 95q109 0 189 -33l-31 -135q-86 30 -158 30q-148 0 -219 -91t-71 -300v-498h-141z" />
    <glyph glyph-name="s" unicode="s" horiz-adv-x="989" 
d="M509 -14q-84 0 -157 22.5t-132 68t-93.5 122t-35.5 175.5h143q11 -138 79.5 -193t198.5 -55q108 0 168.5 36.5t60.5 106.5q0 49 -21.5 77t-77 49t-170.5 45q-68 14 -122 34t-104 52.5t-77.5 84t-27.5 117.5q0 126 101.5 207.5t255.5 81.5q93 0 167 -30t119.5 -82.5
t71 -117.5t28.5 -139h-140q-24 127 -79 178t-169 51q-94 0 -151 -38t-57 -109q0 -64 51 -96t172 -57q190 -39 283.5 -108t93.5 -198t-108 -207t-271 -78z" />
    <glyph glyph-name="t" unicode="t" horiz-adv-x="689" 
d="M644 2q-171 -39 -272.5 31.5t-101.5 238.5v609h-225v136h225v375h142v-375h232v-136h-232v-609q0 -107 48 -132t184 -2v-136z" />
    <glyph glyph-name="u" unicode="u" 
d="M535 -10q-200 0 -299 108.5t-99 315.5v603h142v-593q0 -164 56 -230t200 -66q151 0 220.5 90.5t69.5 299.5v499h142v-1017h-142v85q-101 -95 -290 -95z" />
    <glyph glyph-name="v" unicode="v" horiz-adv-x="1033" 
d="M463 0l-418 1017h156l315 -782l314 782h158l-416 -1017h-109z" />
    <glyph glyph-name="w" unicode="w" horiz-adv-x="1463" 
d="M342 0l-283 1017h151l203 -740l262 740h117l261 -738l204 738h147l-281 -1017h-123l-267 763l-271 -763h-120z" />
    <glyph glyph-name="x" unicode="x" horiz-adv-x="1038" 
d="M35 0l393 507l-393 510h176l308 -394l302 394h178l-393 -510l397 -507h-180l-304 395l-306 -395h-178z" />
    <glyph glyph-name="y" unicode="y" horiz-adv-x="1035" 
d="M227 -213q50 -33 73.5 -25.5t50.5 75.5l91 219l-397 961h156l316 -779l319 779h154l-510 -1235q-50 -124 -130.5 -155t-178.5 36z" />
    <glyph glyph-name="z" unicode="z" horiz-adv-x="942" 
d="M61 0v111l624 768h-624v138h820v-117l-616 -762h616v-138h-820z" />
    <glyph glyph-name="braceleft" unicode="{" horiz-adv-x="607" 
d="M499 -149q-130 0 -210.5 61.5t-80.5 196.5q0 57 20 202q17 127 17 194t-32 97.5t-118 24.5v145q86 -6 118 25t32 98q0 69 -17 196q-20 143 -20 200q0 134 80.5 195.5t210.5 61.5h83v-144h-85q-82 0 -113.5 -22t-31.5 -89q0 -14 17 -169q21 -154 21 -229q0 -125 -78 -194
q78 -72 78 -196q0 -75 -21 -229q-17 -155 -17 -169q0 -67 31.5 -89.5t113.5 -22.5h85v-144h-83z" />
    <glyph glyph-name="bar" unicode="|" horiz-adv-x="555" 
d="M205 -370v1955h145v-1955h-145z" />
    <glyph glyph-name="braceright" unicode="}" horiz-adv-x="605" 
d="M25 -149v144h85q80 0 112 22.5t32 89.5q0 31 -18 169q-20 156 -20 229q0 125 77 193q-77 72 -77 197q0 73 20 229q18 138 18 169q0 67 -31.5 89t-112.5 22h-85v144h83q62 0 112.5 -14t91.5 -43t64 -80t23 -120q0 -59 -21 -200q-16 -120 -16 -196q0 -67 31.5 -98
t116.5 -25v-145q-85 6 -116.5 -24.5t-31.5 -97.5q0 -74 16 -194q21 -143 21 -202q0 -69 -23 -120.5t-64 -80.5t-91.5 -43t-112.5 -14h-83z" />
    <glyph glyph-name="asciitilde" unicode="~" horiz-adv-x="1119" 
d="M123 424q-13 159 44 240.5t165 81.5q58 0 108 -18.5t156 -75.5q87 -49 122.5 -63t70.5 -14q45 0 58 34t8 143h144q10 -160 -47 -240.5t-165 -80.5q-59 0 -110.5 18t-154.5 76q-87 48 -122.5 62.5t-69.5 14.5q-45 0 -58.5 -35.5t-8.5 -142.5h-140z" />
    <glyph glyph-name="uni00A0" unicode="&#xa0;" horiz-adv-x="524" 
 />
    <glyph glyph-name="exclamdown" unicode="&#xa1;" horiz-adv-x="548" 
d="M203 863h142l7 -1178h-157zM185 1036q0 36 25.5 62t62.5 26t63.5 -26t26.5 -62q0 -38 -26.5 -64t-63.5 -26t-62.5 26t-25.5 64z" />
    <glyph glyph-name="cent" unicode="&#xa2;" horiz-adv-x="1115" 
d="M497 -21q-180 28 -296 179t-116 385q0 223 116.5 375t295.5 184v149h146v-142q169 -18 275 -137t112 -294h-145q-22 256 -242 287v-843q100 19 162 88t74 184h145q-13 -169 -118 -280.5t-263 -134.5v-146h-146v146zM233 551q0 -185 73 -292t191 -135v834
q-115 -33 -189.5 -135.5t-74.5 -271.5z" />
    <glyph glyph-name="sterling" unicode="&#xa3;" horiz-adv-x="1028" 
d="M65 130q58 12 107 35t91 58.5t66 89t24 119.5q0 98 -74 218h-198v144h117q-52 116 -52 228q0 168 113.5 276.5t282.5 108.5q104 0 183 -37t125.5 -102t69.5 -147.5t23 -180.5h-145q1 168 -61 246t-199 78q-107 0 -175.5 -64t-68.5 -176q0 -105 70 -230h457v-144h-373
q55 -110 55 -218q0 -168 -122 -288h562v-144h-878v130z" />
    <glyph glyph-name="currency" unicode="&#xa4;" horiz-adv-x="1228" 
d="M291 177l-101 103l110 111q-63 94 -63 219t63 219l-111 109l103 104l110 -110q96 63 212 63q117 0 213 -63l110 110l102 -104l-110 -109q63 -96 63 -219q0 -125 -63 -219l110 -111l-102 -103l-110 110q-100 -64 -213 -64q-114 0 -212 64zM386 610q0 -111 61 -177.5
t167 -66.5t167 66.5t61 177.5q0 110 -61 175.5t-167 65.5t-167 -65.5t-61 -175.5z" />
    <glyph glyph-name="yen" unicode="&#xa5;" horiz-adv-x="1199" 
d="M529 0v374h-340v142h340v78h-340v144h275l-409 643h179l368 -591l367 591h175l-407 -643h278v-144h-340v-78h340v-142h-340v-374h-146z" />
    <glyph glyph-name="brokenbar" unicode="&#xa6;" horiz-adv-x="555" 
d="M205 647v734h145v-734h-145zM205 -296v734h145v-734h-145z" />
    <glyph glyph-name="section" unicode="&#xa7;" horiz-adv-x="1149" 
d="M565 -322q-177 0 -286 101.5t-137 307.5h145q27 -144 93 -205.5t189 -61.5q106 0 168 42t62 118q0 63 -22.5 100t-90 68.5t-201.5 60.5q-68 15 -130.5 42t-121 69.5t-93.5 106.5t-35 140q0 108 54.5 183.5t143.5 116.5q-104 86 -104 225q0 142 99 228.5t254 86.5
q94 0 167.5 -31.5t119.5 -87t72 -123.5t34 -149h-143q-27 137 -83 192.5t-169 55.5q-94 0 -148 -41t-54 -125q0 -46 20 -81t58 -58.5t83.5 -37.5t106.5 -24q93 -17 167.5 -46t134.5 -73t93 -107t33 -140q0 -109 -57 -186t-151 -117q112 -89 112 -244q0 -139 -108.5 -222.5
t-274.5 -83.5zM254 573q0 -85 74.5 -141.5t193.5 -80.5q61 -9 113 -26q73 2 129.5 22t93.5 66t37 114q0 89 -74 140.5t-245 85.5q-14 2 -29.5 5.5t-34.5 8.5t-29 7q-229 -25 -229 -201z" />
    <glyph glyph-name="dieresis" unicode="&#xa8;" horiz-adv-x="750" 
d="M493 1551q-38 0 -64 26t-26 62q0 38 26 64.5t64 26.5q36 0 62.5 -27t26.5 -64q0 -36 -26.5 -62t-62.5 -26zM170 1639q0 37 26 64t62 27q38 0 64.5 -26.5t26.5 -64.5q0 -37 -26.5 -62.5t-64.5 -25.5q-36 0 -62 26t-26 62z" />
    <glyph glyph-name="copyright" unicode="&#xa9;" horiz-adv-x="1659" 
d="M830 -30q-199 0 -366 98.5t-263 268.5t-96 373q0 152 57 288.5t153.5 235t231 156.5t283.5 58t283 -58t231 -156.5t153.5 -235t56.5 -288.5t-56.5 -289t-153.5 -236t-231 -157t-283 -58zM251 710q0 -167 75.5 -303.5t208.5 -213.5t295 -77q122 0 229.5 45.5t184 124
t120.5 188.5t44 236q0 125 -44 235t-120.5 189t-184 124.5t-229.5 45.5q-162 0 -295 -77.5t-208.5 -213.5t-75.5 -303zM452 710q0 197 111 317.5t272 120.5q100 0 179 -39.5t128.5 -122.5t50.5 -199h-142q-12 112 -62 165.5t-154 53.5q-111 0 -174.5 -83t-63.5 -211
q0 -133 63 -213t168 -80q103 0 155 49.5t67 166.5h145q-14 -174 -114 -266.5t-259 -92.5q-154 0 -262 120t-108 314z" />
    <glyph glyph-name="ordfeminine" unicode="&#xaa;" horiz-adv-x="788" 
d="M326 648q-121 0 -193 63t-72 170q0 115 82 177q41 29 92.5 39t124.5 13l186 10q-5 79 -49 114t-130 35q-69 0 -110.5 -28.5t-91.5 -109.5l-98 80q57 96 129 140t171 44q139 0 224.5 -78.5t85.5 -220.5v-442h-130v69q-95 -75 -221 -75zM190 881q0 -54 32.5 -79.5
t106.5 -25.5q90 0 154 58.5t64 150.5v10l-179 -10q-110 -3 -144 -30q-20 -14 -27 -29t-7 -45z" />
    <glyph glyph-name="guillemotleft" unicode="&#xab;" horiz-adv-x="1259" 
d="M892 152l-296 359l296 360h188l-296 -360l296 -359h-188zM303 511l297 360h188l-298 -360l297 -359h-187z" />
    <glyph glyph-name="logicalnot" unicode="&#xac;" horiz-adv-x="1001" 
d="M701 388v249h-610v143h755v-392h-145z" />
    <glyph glyph-name="registered" unicode="&#xae;" horiz-adv-x="1005" 
d="M503 646q-191 0 -314.5 123.5t-123.5 315.5q0 189 123.5 311.5t314.5 122.5q190 0 313.5 -123t123.5 -311q0 -192 -123 -315.5t-314 -123.5zM195 1085q0 -144 83.5 -229t224.5 -85t224.5 85t83.5 229q0 141 -83.5 225t-224.5 84t-224.5 -84t-83.5 -225zM336 845v462h173
q75 0 120.5 -39t45.5 -110q0 -88 -68 -128l107 -185h-146l-93 163h-14v-163h-125zM461 1134h48q31 0 36 3t5 21t-5 21t-36 3h-48v-48z" />
    <glyph glyph-name="macron" unicode="&#xaf;" horiz-adv-x="728" 
d="M183 1564v143h362v-143h-362z" />
    <glyph glyph-name="degree" unicode="&#xb0;" horiz-adv-x="712" 
d="M357 928q-104 0 -173 68.5t-69 172.5q0 102 69 170t173 68q103 0 171.5 -68t68.5 -170q0 -104 -68.5 -172.5t-171.5 -68.5zM261 1169q0 -51 22.5 -74t73.5 -23q49 0 71.5 23t22.5 74q0 49 -22.5 72t-71.5 23q-50 0 -73 -23t-23 -72z" />
    <glyph glyph-name="plusminus" unicode="&#xb1;" horiz-adv-x="1028" 
d="M442 215v389h-351v144h351v388h145v-388h350v-144h-350v-389h-145zM91 -13v143h846v-143h-846z" />
    <glyph glyph-name="uni00B2" unicode="&#xb2;" horiz-adv-x="908" 
d="M160 904v90l294 270q101 93 127.5 141t26.5 112q0 66 -34.5 98.5t-110.5 32.5q-151 0 -169 -151v-62h-141l13 71q13 119 96 193.5t201 74.5q131 0 203.5 -73.5t72.5 -183.5q0 -85 -42.5 -165t-149.5 -176l-162 -146h392v-126h-617z" />
    <glyph glyph-name="uni00B3" unicode="&#xb3;" horiz-adv-x="899" 
d="M442 897q-155 0 -240.5 94t-62.5 234h124q-35 -202 179 -202q185 0 185 146q0 138 -185 138q-42 0 -102 -9v104l201 244h-392v128h591v-90l-211 -256q100 -23 159.5 -93.5t59.5 -165.5q0 -120 -85.5 -196t-220.5 -76z" />
    <glyph glyph-name="acute" unicode="&#xb4;" horiz-adv-x="963" 
d="M407 1490l168 308h177l-192 -308h-153z" />
    <glyph glyph-name="paragraph" unicode="&#xb6;" horiz-adv-x="1120" 
d="M492 593q-69 0 -97 2q-158 9 -249 122.5t-91 269.5t91 269.5t249 122.5q32 2 107 2h413v-1586h-145v1443h-132v-1443h-146v798z" />
    <glyph glyph-name="periodcentered" unicode="&#xb7;" horiz-adv-x="456" 
d="M229 523q-40 0 -67 27t-27 67q0 39 27 66t67 27q39 0 65.5 -27t26.5 -66q0 -40 -26 -67t-66 -27z" />
    <glyph glyph-name="cedilla" unicode="&#xb8;" horiz-adv-x="921" 
d="M400 -423q-95 0 -150 42v173q62 -49 83 -60t67 -11q54 0 74.5 13t20.5 48q0 43 -41 53t-180 -5l146 286h163l-79 -155q63 -20 100 -65t37 -114t-38.5 -117t-91 -68t-111.5 -20z" />
    <glyph glyph-name="uni00B9" unicode="&#xb9;" horiz-adv-x="588" 
d="M269 913v684l-198 -124v156l237 144h95v-860h-134z" />
    <glyph glyph-name="ordmasculine" unicode="&#xba;" horiz-adv-x="815" 
d="M401 659q-149 0 -244.5 106t-95.5 269t94.5 267t245.5 104h11q152 0 247 -104t95 -267q0 -164 -95.5 -269.5t-246.5 -105.5h-11zM191 1034q0 -118 55 -182.5t155 -64.5h11q102 0 157 64.5t55 182.5q0 116 -55.5 179t-156.5 63h-11q-101 0 -155.5 -62.5t-54.5 -179.5z" />
    <glyph glyph-name="guillemotright" unicode="&#xbb;" horiz-adv-x="1259" 
d="M368 152h-189l297 359l-297 360h189l295 -360zM470 152l298 359l-298 360h190l296 -360l-296 -359h-190z" />
    <glyph glyph-name="questiondown" unicode="&#xbf;" horiz-adv-x="1036" 
d="M620 859q0 -107 -5.5 -165.5t-28.5 -123t-65.5 -119t-120.5 -131.5q-77 -75 -109.5 -139.5t-32.5 -143.5q0 -239 257 -239q150 0 223.5 90t72.5 260h143q10 -214 -114 -354t-325 -140q-190 0 -298 109.5t-108 273.5q0 205 191 384q54 52 85.5 89.5t52 70.5t29 77t11 84.5
t1.5 116.5h141zM458 1025q0 37 26 62.5t63 25.5q38 0 64 -25.5t26 -62.5t-26.5 -63.5t-63.5 -26.5t-63 26.5t-26 63.5z" />
    <glyph glyph-name="Agrave" unicode="&#xc0;" horiz-adv-x="1164" 
d="M35 0l486 1394h120l488 -1394h-153l-153 445h-482l-154 -445h-152zM352 1778h179l158 -277h-152zM388 584h388l-194 559z" />
    <glyph glyph-name="Aacute" unicode="&#xc1;" horiz-adv-x="1164" 
d="M35 0l486 1394h120l488 -1394h-153l-153 445h-482l-154 -445h-152zM388 584h388l-194 559zM470 1501l158 277h180l-185 -277h-153z" />
    <glyph glyph-name="Acircumflex" unicode="&#xc2;" horiz-adv-x="1164" 
d="M35 0l486 1394h120l488 -1394h-153l-153 445h-482l-154 -445h-152zM342 1501l193 277h96l195 -277h-172l-71 107l-71 -107h-170zM388 584h388l-194 559z" />
    <glyph glyph-name="Atilde" unicode="&#xc3;" horiz-adv-x="1164" 
d="M35 0l486 1394h120l488 -1394h-153l-153 445h-482l-154 -445h-152zM372 1555q-16 77 15.5 129t99.5 52q42 0 121 -27q35 -12 49 -16q0 9 2 35h133q18 -77 -13.5 -129t-100.5 -52q-40 0 -120 26q-12 5 -28.5 10.5t-20.5 6.5q-1 -6 -1.5 -17.5t-0.5 -17.5h-135zM388 584
h388l-194 559z" />
    <glyph glyph-name="Adieresis" unicode="&#xc4;" horiz-adv-x="1164" 
d="M35 0l486 1394h120l488 -1394h-153l-153 445h-482l-154 -445h-152zM381 1639q0 38 26 64.5t64 26.5q36 0 62.5 -27t26.5 -64q0 -36 -26.5 -62t-62.5 -26q-37 0 -63.5 26t-26.5 62zM388 584h388l-194 559zM615 1639q0 37 26 64t62 27q38 0 65 -26.5t27 -64.5
q0 -36 -27.5 -62t-64.5 -26q-36 0 -62 26t-26 62z" />
    <glyph glyph-name="Aring" unicode="&#xc5;" horiz-adv-x="1164" 
d="M35 0l486 1394h120l488 -1394h-153l-153 445h-482l-154 -445h-152zM388 584h388l-194 559zM414 1639q0 75 49.5 120t119.5 45t119.5 -45t49.5 -120q0 -73 -50 -118t-119 -45t-119 45t-50 118zM530 1639q0 -23 15 -36t38 -13t38 13t15 36q0 24 -15 37.5t-38 13.5
t-38 -13.5t-15 -37.5z" />
    <glyph glyph-name="AE" unicode="&#xc6;" horiz-adv-x="1628" 
d="M21 0l486 1394h1036v-139h-761v-481h698v-140h-698v-494h761v-140h-903v445h-312l-152 -445h-155zM377 584h263v665h-35z" />
    <glyph glyph-name="Ccedilla" unicode="&#xc7;" horiz-adv-x="1343" 
d="M650 -418q-98 0 -149 42v174q61 -51 81.5 -62t67.5 -11q52 0 72.5 13.5t20.5 48.5q0 43 -40 53t-177 -6l77 160q-241 32 -384.5 219.5t-143.5 482.5q0 324 170 517t445 193h20q203 0 351.5 -107t216.5 -296l-132 -49q-107 310 -436 310h-20q-223 0 -348 -149t-125 -419
q0 -268 125 -417t348 -149h20q328 0 436 310l132 -49q-62 -174 -197 -280.5t-319 -120.5l-11 -23q139 -44 139 -180q0 -53 -22 -94t-58 -64t-77 -35t-83 -12z" />
    <glyph glyph-name="Egrave" unicode="&#xc8;" horiz-adv-x="1155" 
d="M165 0v1394h905v-139h-763v-481h698v-140h-698v-494h763v-140h-905zM353 1778h180l158 -277h-151z" />
    <glyph glyph-name="Eacute" unicode="&#xc9;" horiz-adv-x="1155" 
d="M165 0v1394h905v-139h-763v-481h698v-140h-698v-494h763v-140h-905zM473 1501l158 277h179l-184 -277h-153z" />
    <glyph glyph-name="Ecircumflex" unicode="&#xca;" horiz-adv-x="1155" 
d="M165 0v1394h905v-139h-763v-481h698v-140h-698v-494h763v-140h-905zM345 1501l193 277h96l193 -277h-172l-70 106l-70 -106h-170z" />
    <glyph glyph-name="Edieresis" unicode="&#xcb;" horiz-adv-x="1155" 
d="M165 0v1394h905v-139h-763v-481h698v-140h-698v-494h763v-140h-905zM380 1639q0 38 26 64.5t64 26.5q36 0 62 -27t26 -64q0 -36 -26 -62t-62 -26q-38 0 -64 26t-26 62zM614 1639q0 37 26 64t62 27q38 0 64 -26.5t26 -64.5q0 -36 -26 -62t-64 -26q-36 0 -62 26t-26 62z
" />
    <glyph glyph-name="Igrave" unicode="&#xcc;" horiz-adv-x="383" 
d="M56 0v1394h141v-1394h-141zM-103 1778h179l156 -277h-152z" />
    <glyph glyph-name="Iacute" unicode="&#xcd;" horiz-adv-x="383" 
d="M191 0v1394h141v-1394h-141zM151 1501l156 277h179l-184 -277h-151z" />
    <glyph glyph-name="Icircumflex" unicode="&#xce;" horiz-adv-x="267" 
d="M64 0v1394h141v-1394h-141zM-107 1501l193 277h99l191 -277h-172l-71 107l-68 -107h-172z" />
    <glyph glyph-name="Idieresis" unicode="&#xcf;" horiz-adv-x="250" 
d="M54 0v1394h141v-1394h-141zM-80 1639q0 38 25.5 64.5t62.5 26.5q36 0 62.5 -27t26.5 -64q0 -36 -26.5 -62t-62.5 -26t-62 26t-26 62zM152 1639q0 37 26 64t62 27q38 0 65 -26.5t27 -64.5q0 -37 -27 -62.5t-65 -25.5q-36 0 -62 26t-26 62z" />
    <glyph glyph-name="Eth" unicode="&#xd0;" horiz-adv-x="1231" 
d="M147 0v598h-102v144h102v652h309q330 0 515 -187t185 -521q0 -327 -183 -506.5t-519 -179.5h-307zM287 140h163q284 0 422 134.5t138 411.5q0 284 -140.5 426.5t-415.5 142.5h-167v-513h356v-144h-356v-458z" />
    <glyph glyph-name="Ntilde" unicode="&#xd1;" horiz-adv-x="1279" 
d="M165 0v1394h134l673 -1110v1110h142v-1394h-136l-671 1107v-1107h-142zM430 1555q-17 77 14 129t99 52q40 0 123 -27q32 -12 48 -16q0 11 2 35h131q20 -77 -11 -129t-100 -52q-38 0 -123 26q-9 4 -18 7t-17.5 6t-11.5 4q0 -22 -1 -35h-135z" />
    <glyph glyph-name="Ograve" unicode="&#xd2;" horiz-adv-x="1404" 
d="M690 -16q-275 0 -445 192.5t-170 513.5q0 324 170 517t445 193h20q280 0 449.5 -195.5t169.5 -514.5q0 -317 -170 -511.5t-449 -194.5h-20zM217 690q0 -267 125.5 -416.5t347.5 -149.5h20q226 0 351.5 149t125.5 417q0 270 -125.5 419t-351.5 149h-20q-223 0 -348 -149
t-125 -419zM475 1778h179l158 -277h-152z" />
    <glyph glyph-name="Oacute" unicode="&#xd3;" horiz-adv-x="1404" 
d="M690 -16q-275 0 -445 192.5t-170 513.5q0 324 170 517t445 193h20q280 0 449.5 -195.5t169.5 -514.5q0 -317 -170 -511.5t-449 -194.5h-20zM217 690q0 -267 125.5 -416.5t347.5 -149.5h20q226 0 351.5 149t125.5 417q0 270 -125.5 419t-351.5 149h-20q-223 0 -348 -149
t-125 -419zM593 1501l158 277h180l-184 -277h-154z" />
    <glyph glyph-name="Ocircumflex" unicode="&#xd4;" horiz-adv-x="1404" 
d="M690 -16q-275 0 -445 192.5t-170 513.5q0 324 170 517t445 193h20q280 0 449.5 -195.5t169.5 -514.5q0 -317 -170 -511.5t-449 -194.5h-20zM217 690q0 -267 125.5 -416.5t347.5 -149.5h20q226 0 351.5 149t125.5 417q0 270 -125.5 419t-351.5 149h-20q-223 0 -348 -149
t-125 -419zM465 1501l193 277h96l194 -277h-172l-70 106l-71 -106h-170z" />
    <glyph glyph-name="Otilde" unicode="&#xd5;" horiz-adv-x="1404" 
d="M690 -16q-275 0 -445 192.5t-170 513.5q0 324 170 517t445 193h20q280 0 449.5 -195.5t169.5 -514.5q0 -317 -170 -511.5t-449 -194.5h-20zM217 690q0 -267 125.5 -416.5t347.5 -149.5h20q226 0 351.5 149t125.5 417q0 270 -125.5 419t-351.5 149h-20q-223 0 -348 -149
t-125 -419zM497 1555q-18 77 13.5 129t99.5 52q41 0 122 -27q32 -12 48 -16q0 9 2 35h133q17 -78 -14 -129.5t-100 -51.5q-40 0 -120 26q-46 16 -50 17q0 -23 -1 -35h-133z" />
    <glyph glyph-name="Odieresis" unicode="&#xd6;" horiz-adv-x="1404" 
d="M690 -16q-275 0 -445 192.5t-170 513.5q0 324 170 517t445 193h20q280 0 449.5 -195.5t169.5 -514.5q0 -317 -170 -511.5t-449 -194.5h-20zM217 690q0 -267 125.5 -416.5t347.5 -149.5h20q226 0 351.5 149t125.5 417q0 270 -125.5 419t-351.5 149h-20q-223 0 -348 -149
t-125 -419zM501 1639q0 38 25.5 64.5t62.5 26.5q36 0 62.5 -27t26.5 -64q0 -36 -26.5 -62t-62.5 -26t-62 26t-26 62zM734 1639q0 38 25.5 64.5t62.5 26.5t63.5 -26.5t26.5 -64.5q0 -36 -26.5 -62t-63.5 -26t-62.5 26t-25.5 62z" />
    <glyph glyph-name="multiply" unicode="&#xd7;" horiz-adv-x="1027" 
d="M237 251l-104 99l280 282l-280 279l104 102l279 -279l280 279l99 -102l-278 -279l279 -279l-101 -103l-279 279z" />
    <glyph glyph-name="Oslash" unicode="&#xd8;" horiz-adv-x="1464" 
d="M717 -16q-256 0 -423 167l-120 -119l-99 102l129 132q-104 181 -104 424q0 324 170.5 517t446.5 193h18q262 0 431 -174l123 124l100 -103l-135 -138q101 -180 101 -419q0 -317 -170 -511.5t-450 -194.5h-18zM242 690q0 -188 67 -320l758 756q-127 132 -332 132h-18
q-224 0 -349.5 -149t-125.5 -419zM393 250q126 -126 324 -126h18q227 0 353 149t126 417q0 183 -65 315z" />
    <glyph glyph-name="Ugrave" unicode="&#xd9;" horiz-adv-x="1247" 
d="M149 507v887h140v-874q0 -114 37 -203.5t96 -134.5t130 -66t142 1.5t130 69.5t96 137.5t37 204.5v865h141v-867q0 -261 -155 -413q-122 -120 -294 -131q-170 -12 -304 87q-158 116 -189 336q-7 49 -7 101zM391 1778h180l158 -277h-155z" />
    <glyph glyph-name="Uacute" unicode="&#xda;" horiz-adv-x="1247" 
d="M149 507v887h140v-874q0 -114 37 -203.5t96 -134.5t130 -66t142 1.5t130 69.5t96 137.5t37 204.5v865h141v-867q0 -261 -155 -413q-122 -120 -294 -131q-170 -12 -304 87q-158 116 -189 336q-7 49 -7 101zM511 1501l156 277h181l-186 -277h-151z" />
    <glyph glyph-name="Ucircumflex" unicode="&#xdb;" horiz-adv-x="1247" 
d="M149 507v887h140v-874q0 -114 37 -203.5t96 -134.5t130 -66t142 1.5t130 69.5t96 137.5t37 204.5v865h141v-867q0 -261 -155 -413q-122 -120 -294 -131q-170 -12 -304 87q-158 116 -189 336q-7 49 -7 101zM382 1501l192 277h98l193 -277h-172l-71 106l-70 -106h-170z" />
    <glyph glyph-name="Udieresis" unicode="&#xdc;" horiz-adv-x="1247" 
d="M149 507v887h140v-874q0 -114 37 -203.5t96 -134.5t130 -66t142 1.5t130 69.5t96 137.5t37 204.5v865h141v-867q0 -261 -155 -413q-122 -120 -294 -131q-170 -12 -304 87q-158 116 -189 336q-7 49 -7 101zM419 1639q0 38 26.5 64.5t63.5 26.5t62.5 -26.5t25.5 -64.5
q0 -36 -25.5 -62t-62.5 -26t-63.5 26t-26.5 62zM652 1639q0 38 26.5 64.5t63.5 26.5q36 0 62 -27t26 -64q0 -36 -26 -62t-62 -26t-63 26t-27 62z" />
    <glyph glyph-name="Yacute" unicode="&#xdd;" horiz-adv-x="1154" 
d="M508 0l-4 421l-489 973h161l398 -803l403 803h162l-495 -973l5 -421h-141zM464 1501l158 277h179l-183 -277h-154z" />
    <glyph glyph-name="Thorn" unicode="&#xde;" horiz-adv-x="1169" 
d="M165 0v1381h142v-211h333q219 0 336.5 -101t117.5 -293v-2q0 -194 -117 -295t-337 -101h-333v-378h-142zM307 517h333q167 0 240 61t73 198q0 134 -73 194.5t-240 60.5h-333v-514z" />
    <glyph glyph-name="germandbls" unicode="&#xdf;" horiz-adv-x="1130" 
d="M672 -8q-94 0 -207.5 8t-135.5 27v120q261 -3 379 -10q195 12 195 154q0 52 -28 95.5t-116 125.5q-87 80 -117 136.5t-30 131.5t30 131t117 136q88 82 116 125.5t28 95.5q0 79 -57 117t-174 38q-184 0 -269.5 -69.5t-96.5 -216.5q-4 -52 -4 -107v-1030h-145v1026
q0 18 3 120q12 200 145 310t370 111q173 1 274.5 -80.5t101.5 -223.5q0 -86 -49.5 -165t-151.5 -166q-55 -50 -72.5 -80t-17.5 -72t17.5 -72.5t72.5 -79.5q102 -88 151.5 -166.5t49.5 -164.5q0 -143 -102 -224t-277 -81z" />
    <glyph glyph-name="agrave" unicode="&#xe0;" horiz-adv-x="1026" 
d="M468 -10q-165 0 -264 85t-99 229q0 79 31 139.5t83 96.5q54 40 126.5 55.5t172.5 19.5l295 13q-7 261 -286 261q-100 0 -165 -41t-130 -146l-110 87q78 124 175.5 181t229.5 57q191 0 308.5 -108t117.5 -304v-615h-140v125q-67 -63 -159 -99t-186 -36zM247 304
q0 -178 225 -178q139 0 240 93.5t101 234.5v37l-286 -10q-162 -6 -221 -49q-32 -22 -45.5 -51t-13.5 -77zM288 1520h179l166 -309h-151z" />
    <glyph glyph-name="aacute" unicode="&#xe1;" horiz-adv-x="1026" 
d="M468 -10q-165 0 -264 85t-99 229q0 79 31 139.5t83 96.5q54 40 126.5 55.5t172.5 19.5l295 13q-7 261 -286 261q-100 0 -165 -41t-130 -146l-110 87q78 124 175.5 181t229.5 57q191 0 308.5 -108t117.5 -304v-615h-140v125q-67 -63 -159 -99t-186 -36zM247 304
q0 -178 225 -178q139 0 240 93.5t101 234.5v37l-286 -10q-162 -6 -221 -49q-32 -22 -45.5 -51t-13.5 -77zM442 1211l167 309h178l-193 -309h-152z" />
    <glyph glyph-name="acircumflex" unicode="&#xe2;" horiz-adv-x="1026" 
d="M468 -10q-165 0 -264 85t-99 229q0 79 31 139.5t83 96.5q54 40 126.5 55.5t172.5 19.5l295 13q-7 261 -286 261q-100 0 -165 -41t-130 -146l-110 87q78 124 175.5 181t229.5 57q191 0 308.5 -108t117.5 -304v-615h-140v125q-67 -63 -159 -99t-186 -36zM247 304
q0 -178 225 -178q139 0 240 93.5t101 234.5v37l-286 -10q-162 -6 -221 -49q-32 -22 -45.5 -51t-13.5 -77zM320 1211l182 309h102l180 -309h-165l-68 120l-66 -120h-165z" />
    <glyph glyph-name="atilde" unicode="&#xe3;" horiz-adv-x="1026" 
d="M468 -10q-165 0 -264 85t-99 229q0 79 31 139.5t83 96.5q54 40 126.5 55.5t172.5 19.5l295 13q-7 261 -286 261q-100 0 -165 -41t-130 -146l-110 87q78 124 175.5 181t229.5 57q191 0 308.5 -108t117.5 -304v-615h-140v125q-67 -63 -159 -99t-186 -36zM247 304
q0 -178 225 -178q139 0 240 93.5t101 234.5v37l-286 -10q-162 -6 -221 -49q-32 -22 -45.5 -51t-13.5 -77zM362 1306q-18 75 13.5 127.5t99.5 52.5q33 0 121 -28q37 -12 49 -14q0 10 2 34h133q18 -76 -13 -128t-101 -52q-44 0 -120 26q-18 7 -49 15q0 -9 -2 -33h-133z" />
    <glyph glyph-name="adieresis" unicode="&#xe4;" horiz-adv-x="1026" 
d="M468 -10q-165 0 -264 85t-99 229q0 79 31 139.5t83 96.5q93 70 300 75l294 13q-7 261 -286 261q-100 0 -165 -41t-130 -146l-110 87q78 124 175.5 181t229.5 57q191 0 308.5 -108t117.5 -304v-615h-140v125q-67 -63 -159 -99t-186 -36zM247 304q0 -178 225 -178
q139 0 240 93.5t101 234.5v37l-285 -10q-86 -4 -137.5 -14t-84.5 -35q-32 -22 -45.5 -51t-13.5 -77zM349 1364q0 38 25.5 64t62.5 26q36 0 62 -26.5t26 -63.5q0 -36 -26 -62.5t-62 -26.5t-62 26.5t-26 62.5zM581 1364q0 37 26 63.5t62 26.5q38 0 64 -26t26 -64
q0 -36 -26 -62.5t-64 -26.5q-36 0 -62 26.5t-26 62.5z" />
    <glyph glyph-name="aring" unicode="&#xe5;" horiz-adv-x="1026" 
d="M468 -10q-165 0 -264 85t-99 229q0 79 31 139.5t83 96.5q54 40 126.5 55.5t172.5 19.5l295 13q-7 261 -286 261q-100 0 -165 -41t-130 -146l-110 87q78 124 175.5 181t229.5 57q191 0 308.5 -108t117.5 -304v-615h-140v125q-67 -63 -159 -99t-186 -36zM247 304
q0 -178 225 -178q139 0 240 93.5t101 234.5v37l-286 -10q-162 -6 -221 -49q-32 -22 -45.5 -51t-13.5 -77zM394 1364q0 75 49.5 120t119.5 45t119.5 -45t49.5 -120q0 -73 -50 -118.5t-119 -45.5t-119 45.5t-50 118.5zM512 1364q0 -23 14.5 -36t36.5 -13q23 0 38 13t15 36
q0 24 -15 37.5t-38 13.5t-37 -13t-14 -38z" />
    <glyph glyph-name="ae" unicode="&#xe6;" horiz-adv-x="1811" 
d="M468 -10q-165 0 -264 85t-99 229q0 79 31 139.5t83 96.5q93 70 300 75l294 13q-7 261 -286 261q-100 0 -165 -41t-130 -146l-110 87q78 124 175.5 181t229.5 57q128 0 227 -50.5t150 -146.5q44 65 106.5 110t131 65.5t141.5 19t141 -24t128 -70t102.5 -113t64.5 -159
t15 -201.5h-775q13 -155 99 -242t227 -87h19q209 0 296 200l131 -55q-57 -130 -169.5 -206.5t-257.5 -76.5h-19q-130 0 -234.5 62t-165.5 172q-72 -112 -184.5 -173t-232.5 -61zM247 304q0 -178 225 -178q139 0 240 93.5t101 234.5v37l-285 -10q-86 -4 -137.5 -14t-84.5 -35
q-32 -22 -45.5 -51t-13.5 -77zM961 591h628q-15 99 -63.5 170.5t-112.5 104t-137.5 32.5t-137.5 -32.5t-113 -104t-64 -170.5z" />
    <glyph glyph-name="ccedilla" unicode="&#xe7;" horiz-adv-x="1065" 
d="M471 -423q-95 0 -150 42v172q67 -52 83 -59q22 -11 67 -11q52 0 72 13t20 48q0 44 -40 54t-179 -6l89 173q-163 38 -260.5 175t-97.5 331q0 229 130.5 373.5t339.5 144.5h18q147 0 259.5 -75.5t167.5 -206.5l-132 -55q-85 199 -295 199h-18q-153 0 -240.5 -101
t-87.5 -279q0 -177 87.5 -279t240.5 -102h18q211 0 297 201l130 -56q-55 -123 -155 -191.5t-226 -51.5l-36 -69q63 -20 100 -65t37 -114t-38.5 -117t-91 -68t-109.5 -20z" />
    <glyph glyph-name="egrave" unicode="&#xe8;" horiz-adv-x="1071" 
d="M545 -10q-207 0 -338.5 145.5t-131.5 373.5q0 148 57.5 265t162 183.5t240.5 69.5q143 -3 252 -77t163.5 -203t43.5 -290h-776q13 -155 99 -242t228 -87h18q211 0 297 201l130 -56q-57 -130 -169.5 -206.5t-257.5 -76.5h-18zM221 591h627q-20 137 -102 215.5t-211 82.5
q-130 -4 -212 -82.5t-102 -215.5zM309 1520h177l168 -309h-153z" />
    <glyph glyph-name="eacute" unicode="&#xe9;" horiz-adv-x="1071" 
d="M545 -10q-207 0 -338.5 145.5t-131.5 373.5q0 148 57.5 265t162 183.5t240.5 69.5q143 -3 252 -77t163.5 -203t43.5 -290h-776q13 -155 99 -242t228 -87h18q211 0 297 201l130 -56q-57 -130 -169.5 -206.5t-257.5 -76.5h-18zM221 591h627q-20 137 -102 215.5t-211 82.5
q-130 -4 -212 -82.5t-102 -215.5zM426 1211l168 309h177l-193 -309h-152z" />
    <glyph glyph-name="ecircumflex" unicode="&#xea;" horiz-adv-x="1071" 
d="M545 -10q-207 0 -338.5 145.5t-131.5 373.5q0 148 57.5 265t162 183.5t240.5 69.5q143 -3 252 -77t163.5 -203t43.5 -290h-776q13 -155 99 -242t228 -87h18q211 0 297 201l130 -56q-57 -130 -169.5 -206.5t-257.5 -76.5h-18zM221 591h627q-20 137 -102 215.5t-211 82.5
q-130 -4 -212 -82.5t-102 -215.5zM303 1211l182 309h103l181 -309h-166l-68 120l-67 -120h-165z" />
    <glyph glyph-name="edieresis" unicode="&#xeb;" horiz-adv-x="1071" 
d="M545 -10q-207 0 -338.5 145.5t-131.5 373.5q0 148 57.5 265t162 183.5t240.5 69.5q143 -3 252 -77t163.5 -203t43.5 -290h-776q13 -155 99 -242t228 -87h18q211 0 297 201l130 -56q-57 -130 -169.5 -206.5t-257.5 -76.5h-18zM221 591h627q-20 137 -102 215.5t-211 82.5
q-130 -4 -212 -82.5t-102 -215.5zM332 1364q0 37 26 63.5t62 26.5q37 0 63.5 -26t26.5 -64q0 -36 -26.5 -62.5t-63.5 -26.5q-36 0 -62 26.5t-26 62.5zM565 1364q0 38 25.5 64t62.5 26q38 0 64.5 -26t26.5 -64q0 -36 -27 -62.5t-64 -26.5q-36 0 -62 26.5t-26 62.5z" />
    <glyph glyph-name="igrave" unicode="&#xec;" horiz-adv-x="467" 
d="M155 0v1017h142v-1017h-142zM-37 1520h177l170 -309h-153z" />
    <glyph glyph-name="iacute" unicode="&#xed;" horiz-adv-x="465" 
d="M192 0v1017h142v-1017h-142zM157 1211l168 309h177l-193 -309h-152z" />
    <glyph glyph-name="icircumflex" unicode="&#xee;" horiz-adv-x="254" 
d="M-107 1211l184 309h101l183 -309h-167l-68 120l-67 -120h-166zM56 0v1017h141v-1017h-141z" />
    <glyph glyph-name="idieresis" unicode="&#xef;" horiz-adv-x="253" 
d="M56 0v1017h141v-1017h-141zM-78 1364q0 38 25.5 64t62.5 26q36 0 62.5 -26t26.5 -64q0 -36 -26.5 -62.5t-62.5 -26.5t-62 26.5t-26 62.5zM154 1364q0 37 26 63.5t62 26.5q38 0 64.5 -26t26.5 -64q0 -36 -26.5 -62.5t-64.5 -26.5q-36 0 -62 26.5t-26 62.5z" />
    <glyph glyph-name="eth" unicode="&#xf0;" horiz-adv-x="1119" 
d="M545 -10q-207 0 -338.5 145.5t-131.5 373.5q0 229 130.5 373.5t339.5 144.5h18q65 0 137 -20l-42 82l-171 -44l-34 138l140 39l-92 177h156l74 -140l146 39l38 -140l-118 -31l202 -395h-2q13 -24 25 -89t12 -134q0 -228 -131.5 -373.5t-339.5 -145.5h-18zM217 509
q0 -177 87.5 -279t240.5 -102h18q153 0 241.5 102t88.5 279t-88.5 278.5t-241.5 101.5h-18q-153 0 -240.5 -101t-87.5 -279z" />
    <glyph glyph-name="ntilde" unicode="&#xf1;" horiz-adv-x="1123" 
d="M157 0v1017h141v-85q106 95 290 95q201 0 299.5 -108.5t98.5 -315.5v-603h-140v593q0 164 -56.5 230t-201.5 66q-148 0 -219 -91t-71 -300v-498h-141zM351 1306q-18 75 13 127.5t99 52.5q33 0 122 -28q35 -12 48 -14q0 22 1 34h135q17 -77 -14 -128.5t-100 -51.5
q-42 0 -122 26q-18 7 -49 15q0 -9 -2 -33h-131z" />
    <glyph glyph-name="ograve" unicode="&#xf2;" horiz-adv-x="1109" 
d="M545 -10q-207 0 -338.5 145.5t-131.5 373.5q0 229 130.5 373.5t339.5 144.5h18q209 0 340 -144.5t131 -373.5q0 -228 -131.5 -373.5t-339.5 -145.5h-18zM217 509q0 -177 87.5 -279t240.5 -102h18q153 0 241.5 102t88.5 279t-88.5 278.5t-241.5 101.5h-18
q-153 0 -240.5 -101t-87.5 -279zM326 1520h177l168 -309h-151z" />
    <glyph glyph-name="oacute" unicode="&#xf3;" horiz-adv-x="1109" 
d="M545 -10q-207 0 -338.5 145.5t-131.5 373.5q0 229 130.5 373.5t339.5 144.5h18q209 0 340 -144.5t131 -373.5q0 -228 -131.5 -373.5t-339.5 -145.5h-18zM217 509q0 -177 87.5 -279t240.5 -102h18q153 0 241.5 102t88.5 279t-88.5 278.5t-241.5 101.5h-18
q-153 0 -240.5 -101t-87.5 -279zM443 1211l168 309h178l-193 -309h-153z" />
    <glyph glyph-name="ocircumflex" unicode="&#xf4;" horiz-adv-x="1109" 
d="M545 -10q-207 0 -338.5 145.5t-131.5 373.5q0 229 130.5 373.5t339.5 144.5h18q209 0 340 -144.5t131 -373.5q0 -228 -131.5 -373.5t-339.5 -145.5h-18zM217 509q0 -177 87.5 -279t240.5 -102h18q153 0 241.5 102t88.5 279t-88.5 278.5t-241.5 101.5h-18
q-153 0 -240.5 -101t-87.5 -279zM320 1211l184 309h102l180 -309h-165l-68 120l-66 -120h-167z" />
    <glyph glyph-name="otilde" unicode="&#xf5;" horiz-adv-x="1109" 
d="M545 -10q-207 0 -338.5 145.5t-131.5 373.5q0 229 130.5 373.5t339.5 144.5h18q209 0 340 -144.5t131 -373.5q0 -228 -131.5 -373.5t-339.5 -145.5h-18zM217 509q0 -177 87.5 -279t240.5 -102h18q153 0 241.5 102t88.5 279t-88.5 278.5t-241.5 101.5h-18
q-153 0 -240.5 -101t-87.5 -279zM345 1306q-18 75 13 127.5t99 52.5q32 0 123 -28q36 -12 47 -14q0 22 1 34h135q17 -77 -14 -128.5t-100 -51.5q-42 0 -122 26q-18 7 -49 15q0 -9 -2 -33h-131z" />
    <glyph glyph-name="odieresis" unicode="&#xf6;" horiz-adv-x="1109" 
d="M545 -10q-207 0 -338.5 145.5t-131.5 373.5q0 229 130.5 373.5t339.5 144.5h18q209 0 340 -144.5t131 -373.5q0 -228 -131.5 -373.5t-339.5 -145.5h-18zM217 509q0 -177 87.5 -279t240.5 -102h18q153 0 241.5 102t88.5 279t-88.5 278.5t-241.5 101.5h-18
q-153 0 -240.5 -101t-87.5 -279zM349 1364q0 38 26.5 64t62.5 26t62 -26.5t26 -63.5q0 -36 -26 -62.5t-62 -26.5q-37 0 -63 26.5t-26 62.5zM581 1364q0 38 26.5 64t62.5 26q38 0 64 -26t26 -64q0 -36 -26 -62.5t-64 -26.5q-36 0 -62.5 26.5t-26.5 62.5z" />
    <glyph glyph-name="divide" unicode="&#xf7;" horiz-adv-x="1028" 
d="M91 568v144h846v-144h-846zM414 353q0 42 29 70.5t71 28.5q43 0 72.5 -28.5t29.5 -70.5q0 -43 -29.5 -72.5t-72.5 -29.5q-42 0 -71 29.5t-29 72.5zM414 925q0 43 29 72.5t71 29.5q43 0 72.5 -29.5t29.5 -72.5t-29.5 -71.5t-72.5 -28.5q-42 0 -71 29t-29 71z" />
    <glyph glyph-name="oslash" unicode="&#xf8;" horiz-adv-x="1299" 
d="M174 -37l-99 103l163 163q-66 127 -66 280q0 228 131.5 373t340.5 145h18q160 0 281 -92l179 179l102 -101l-183 -182q90 -131 90 -322q0 -228 -131 -373.5t-338 -145.5h-18q-190 0 -318 125zM314 509q0 -94 30 -173l500 499q-75 54 -182 54h-18q-154 0 -242 -101
t-88 -279zM423 213q88 -85 221 -85h18q154 0 241.5 102t87.5 279q0 129 -51 219z" />
    <glyph glyph-name="ugrave" unicode="&#xf9;" 
d="M535 -10q-200 0 -299 108.5t-99 315.5v603h142v-593q0 -164 56 -230t200 -66q151 0 220.5 90.5t69.5 299.5v499h142v-1017h-142v85q-101 -95 -290 -95zM296 1520h178l167 -309h-151z" />
    <glyph glyph-name="uacute" unicode="&#xfa;" 
d="M535 -10q-200 0 -299 108.5t-99 315.5v603h142v-593q0 -164 56 -230t200 -66q151 0 220.5 90.5t69.5 299.5v499h142v-1017h-142v85q-101 -95 -290 -95zM442 1211l167 309h178l-193 -309h-152z" />
    <glyph glyph-name="ucircumflex" unicode="&#xfb;" 
d="M535 -10q-200 0 -299 108.5t-99 315.5v603h142v-593q0 -164 56 -230t200 -66q151 0 220.5 90.5t69.5 299.5v499h142v-1017h-142v85q-101 -95 -290 -95zM320 1211l182 309h102l181 -309h-166l-68 120l-66 -120h-165z" />
    <glyph glyph-name="udieresis" unicode="&#xfc;" 
d="M535 -10q-200 0 -299 108.5t-99 315.5v603h142v-593q0 -164 56 -230t200 -66q151 0 220.5 90.5t69.5 299.5v499h142v-1017h-142v85q-101 -95 -290 -95zM347 1364q0 38 25.5 64t62.5 26q36 0 62 -26.5t26 -63.5q0 -36 -26 -62.5t-62 -26.5t-62 26.5t-26 62.5zM579 1364
q0 37 26 63.5t62 26.5q38 0 64.5 -26t26.5 -64q0 -36 -26.5 -62.5t-64.5 -26.5q-36 0 -62 26.5t-26 62.5z" />
    <glyph glyph-name="yacute" unicode="&#xfd;" horiz-adv-x="1035" 
d="M227 -213q50 -33 73.5 -25.5t50.5 75.5l91 219l-397 961h156l316 -779l319 779h154l-510 -1235q-50 -124 -130.5 -155t-178.5 36zM409 1211l167 309h178l-194 -309h-151z" />
    <glyph glyph-name="thorn" unicode="&#xfe;" horiz-adv-x="1196" 
d="M157 -377v1771h141v-513q133 146 330 146h25q133 0 240.5 -68.5t167.5 -187.5t60 -264q0 -221 -133.5 -369t-334.5 -148h-25q-199 0 -330 145v-512h-141zM296 507q0 -171 89.5 -274t238.5 -103h27q148 0 239 103.5t91 273.5q0 171 -91 275.5t-239 104.5h-27
q-148 0 -238 -104t-90 -276z" />
    <glyph glyph-name="ydieresis" unicode="&#xff;" horiz-adv-x="1035" 
d="M227 -213q51 -33 73.5 -25.5t50.5 75.5l91 219l-397 961h156l316 -779l319 779h154l-510 -1235q-51 -124 -130.5 -155t-178.5 36zM314 1364q0 38 26.5 64t62.5 26q38 0 64.5 -26t26.5 -64q0 -36 -26.5 -62.5t-64.5 -26.5q-36 0 -62.5 26.5t-26.5 62.5zM547 1364
q0 38 26.5 64t63.5 26q36 0 62.5 -26t26.5 -64q0 -36 -26.5 -62.5t-62.5 -26.5q-37 0 -63.5 26.5t-26.5 62.5z" />
    <glyph glyph-name="Amacron" unicode="&#x100;" horiz-adv-x="1164" 
d="M35 0l486 1394h120l488 -1394h-153l-153 445h-482l-154 -445h-152zM388 584h388l-194 559zM400 1568v143h365v-143h-365z" />
    <glyph glyph-name="amacron" unicode="&#x101;" horiz-adv-x="1026" 
d="M468 -10q-165 0 -264 85t-99 229q0 79 31 139.5t83 96.5q54 40 126.5 55.5t172.5 19.5l295 13q-7 261 -286 261q-100 0 -165 -41t-130 -146l-110 87q78 124 175.5 181t229.5 57q191 0 308.5 -108t117.5 -304v-615h-140v125q-67 -63 -159 -99t-186 -36zM247 304
q0 -178 225 -178q139 0 240 93.5t101 234.5v37l-286 -10q-162 -6 -221 -49q-32 -22 -45.5 -51t-13.5 -77zM370 1286v144h363v-144h-363z" />
    <glyph glyph-name="Abreve" unicode="&#x102;" horiz-adv-x="1164" 
d="M35 0l486 1394h120l488 -1394h-153l-153 445h-482l-154 -445h-152zM354 1778h137q-10 -87 12.5 -123t79.5 -36t79 36t12 123h137q18 -133 -48 -217.5t-180 -84.5q-115 0 -180.5 84.5t-48.5 217.5zM388 584h388l-194 559z" />
    <glyph glyph-name="abreve" unicode="&#x103;" horiz-adv-x="1026" 
d="M468 -10q-165 0 -264 85t-99 229q0 79 31 139.5t83 96.5q93 70 300 75l294 13q-7 261 -286 261q-100 0 -165 -41t-130 -146l-110 87q78 124 175.5 181t229.5 57q191 0 308.5 -108t117.5 -304v-615h-140v125q-67 -63 -159 -99t-186 -36zM247 304q0 -178 225 -178
q139 0 240 93.5t101 234.5v37l-285 -10q-86 -4 -137.5 -14t-84.5 -35q-32 -22 -45.5 -51t-13.5 -77zM323 1508h137q-10 -87 12.5 -123.5t78.5 -36.5t78.5 36.5t12.5 123.5h138q17 -134 -49 -218.5t-180 -84.5q-115 0 -180 85t-48 218z" />
    <glyph glyph-name="Aogonek" unicode="&#x104;" horiz-adv-x="1157" 
d="M912 -413q-31 0 -59.5 9t-54.5 29t-41.5 56.5t-15.5 86.5q0 97 54.5 182.5t148.5 140.5l-121 354h-482l-154 -445h-152l486 1394h120l481 -1371q-111 -39 -173.5 -102t-62.5 -147q0 -33 4.5 -39t29.5 -6q36 0 66 26t105 121v-207q-71 -82 -179 -82zM388 584h388l-194 559
z" />
    <glyph glyph-name="aogonek" unicode="&#x105;" horiz-adv-x="1066" 
d="M754 -413q-30 0 -58.5 9t-54.5 29t-42 56.5t-16 86.5q0 107 63 200.5t167 139.5v17q-67 -63 -159 -99t-186 -36q-165 0 -264 85t-99 229q0 79 31 139.5t83 96.5q54 40 126.5 55.5t172.5 19.5l295 13q-7 261 -286 261q-100 0 -165 -41t-130 -146l-110 87q78 124 175.5 181
t229.5 57q191 0 308.5 -108t117.5 -304v-605q-100 -13 -162 -80t-62 -156q0 -33 4.5 -39t28.5 -6q37 0 67 26.5t106 120.5v-207q-74 -82 -181 -82zM247 304q0 -178 225 -178q139 0 240 93.5t101 234.5v37l-286 -10q-162 -6 -221 -49q-32 -22 -45.5 -51t-13.5 -77z" />
    <glyph glyph-name="Cacute" unicode="&#x106;" horiz-adv-x="1343" 
d="M690 -12q-275 0 -445 193t-170 515q0 324 170 517t445 193h20q203 0 351.5 -107t216.5 -296l-132 -49q-107 310 -436 310h-20q-223 0 -348 -149t-125 -419q0 -268 125 -417t348 -149h20q328 0 436 310l132 -49q-68 -188 -216.5 -295.5t-351.5 -107.5h-20zM565 1501
l157 277h179l-183 -277h-153z" />
    <glyph glyph-name="cacute" unicode="&#x107;" horiz-adv-x="1065" 
d="M545 -10q-207 0 -338.5 145.5t-131.5 373.5q0 229 130.5 373.5t339.5 144.5h18q147 0 259.5 -75.5t167.5 -206.5l-132 -55q-85 199 -295 199h-18q-153 0 -240.5 -101t-87.5 -279q0 -177 87.5 -279t240.5 -102h18q211 0 297 201l130 -56q-57 -130 -169.5 -206.5
t-257.5 -76.5h-18zM435 1211l168 309h177l-193 -309h-152z" />
    <glyph glyph-name="Ccircumflex" unicode="&#x108;" horiz-adv-x="1343" 
d="M690 -12q-275 0 -445 193t-170 515q0 324 170 517t445 193h20q203 0 351.5 -107t216.5 -296l-132 -49q-107 310 -436 310h-20q-223 0 -348 -149t-125 -419q0 -268 125 -417t348 -149h20q328 0 436 310l132 -49q-68 -188 -216.5 -295.5t-351.5 -107.5h-20zM462 1501
l193 277h96l195 -277h-173l-70 106l-71 -106h-170z" />
    <glyph glyph-name="ccircumflex" unicode="&#x109;" horiz-adv-x="1065" 
d="M545 -10q-207 0 -338.5 145.5t-131.5 373.5q0 229 130.5 373.5t339.5 144.5h18q147 0 259.5 -75.5t167.5 -206.5l-132 -55q-85 199 -295 199h-18q-153 0 -240.5 -101t-87.5 -279q0 -177 87.5 -279t240.5 -102h18q211 0 297 201l130 -56q-57 -130 -169.5 -206.5
t-257.5 -76.5h-18zM320 1211l184 309h102l180 -309h-165l-68 120l-66 -120h-167z" />
    <glyph glyph-name="Cdotaccent" unicode="&#x10a;" horiz-adv-x="1343" 
d="M690 -12q-275 0 -445 193t-170 515q0 324 170 517t445 193h20q203 0 351.5 -107t216.5 -296l-132 -49q-107 310 -436 310h-20q-223 0 -348 -149t-125 -419q0 -268 125 -417t348 -149h20q328 0 436 310l132 -49q-68 -188 -216.5 -295.5t-351.5 -107.5h-20zM595 1639
q0 38 25.5 64.5t62.5 26.5t64 -27t27 -64t-26.5 -62.5t-64.5 -25.5q-37 0 -62.5 26t-25.5 62z" />
    <glyph glyph-name="cdotaccent" unicode="&#x10b;" horiz-adv-x="1065" 
d="M545 -10q-207 0 -338.5 145.5t-131.5 373.5q0 229 130.5 373.5t339.5 144.5h18q147 0 259.5 -75.5t167.5 -206.5l-132 -55q-85 199 -295 199h-18q-153 0 -240.5 -101t-87.5 -279q0 -177 87.5 -279t240.5 -102h18q211 0 297 201l130 -56q-57 -130 -169.5 -206.5
t-257.5 -76.5h-18zM456 1362q0 38 26.5 64t62.5 26q37 0 63.5 -26t26.5 -64q0 -36 -26.5 -62.5t-63.5 -26.5t-63 26.5t-26 62.5z" />
    <glyph glyph-name="Ccaron" unicode="&#x10c;" horiz-adv-x="1343" 
d="M690 -12q-275 0 -445 193t-170 515q0 324 170 517t445 193h20q203 0 351.5 -107t216.5 -296l-132 -49q-107 310 -436 310h-20q-223 0 -348 -149t-125 -419q0 -268 125 -417t348 -149h20q328 0 436 310l132 -49q-68 -188 -216.5 -295.5t-351.5 -107.5h-20zM443 1778h172
l70 -105l70 105h170l-191 -277h-98z" />
    <glyph glyph-name="ccaron" unicode="&#x10d;" horiz-adv-x="1065" 
d="M545 -10q-207 0 -338.5 145.5t-131.5 373.5q0 229 130.5 373.5t339.5 144.5h18q147 0 259.5 -75.5t167.5 -206.5l-132 -55q-85 199 -295 199h-18q-153 0 -240.5 -101t-87.5 -279q0 -177 87.5 -279t240.5 -102h18q211 0 297 201l130 -56q-57 -130 -169.5 -206.5
t-257.5 -76.5h-18zM313 1520h167l66 -121l68 121h164l-181 -309h-102z" />
    <glyph glyph-name="Dcaron" unicode="&#x10e;" horiz-adv-x="1250" 
d="M165 0v1394h310q331 0 515.5 -186.5t184.5 -521.5q0 -327 -183 -506.5t-518 -179.5h-309zM307 140h163q284 0 422 134.5t138 411.5q0 284 -140.5 426.5t-415.5 142.5h-167v-1115zM378 1778h171l71 -105l70 105h170l-193 -277h-98z" />
    <glyph glyph-name="dcaron" unicode="&#x10f;" horiz-adv-x="1294" 
d="M543 -10q-201 0 -334.5 149t-133.5 370q0 223 133 370.5t335 147.5h26q199 0 330 -145v512h141v-1394h-141v135q-64 -69 -149 -107t-181 -38h-26zM217 509q0 -171 90.5 -275t238.5 -104h27q147 0 237.5 104t90.5 275t-90 274.5t-238 103.5h-27q-149 0 -239 -103.5
t-90 -274.5zM1063 1133l116 331h136v-73l-108 -258h-144z" />
    <glyph glyph-name="Dcroat" unicode="&#x110;" horiz-adv-x="1231" 
d="M147 0v598h-102v144h102v652h309q330 0 515 -187t185 -521q0 -327 -183 -506.5t-519 -179.5h-307zM287 140h163q284 0 422 134.5t138 411.5q0 284 -140.5 426.5t-415.5 142.5h-167v-513h356v-144h-356v-458z" />
    <glyph glyph-name="dcroat" unicode="&#x111;" horiz-adv-x="1143" 
d="M543 -10q-201 0 -334.5 149t-133.5 370q0 223 133 370.5t335 147.5h26q199 0 330 -145v213h-215v144h215v155h141v-155h86v-144h-86v-1095h-141v135q-64 -69 -149 -107t-181 -38h-26zM217 509q0 -171 90.5 -275t238.5 -104h27q147 0 237.5 104t90.5 275t-90 274.5
t-238 103.5h-27q-149 0 -239 -103.5t-90 -274.5z" />
    <glyph glyph-name="Emacron" unicode="&#x112;" horiz-adv-x="1155" 
d="M165 0v1394h905v-139h-763v-481h698v-140h-698v-494h763v-140h-905zM403 1568v143h364v-143h-364z" />
    <glyph glyph-name="emacron" unicode="&#x113;" horiz-adv-x="1071" 
d="M545 -10q-207 0 -338.5 145.5t-131.5 373.5q0 148 57.5 265t162 183.5t240.5 69.5q143 -3 252 -77t163.5 -203t43.5 -290h-776q13 -155 99 -242t228 -87h18q211 0 297 201l130 -56q-57 -130 -169.5 -206.5t-257.5 -76.5h-18zM221 591h627q-20 137 -102 215.5t-211 82.5
q-130 -4 -212 -82.5t-102 -215.5zM354 1286v144h363v-144h-363z" />
    <glyph glyph-name="Ebreve" unicode="&#x114;" horiz-adv-x="1155" 
d="M165 0v1394h905v-139h-763v-481h698v-140h-698v-494h763v-140h-905zM422 1829h138q-11 -88 11 -124.5t80 -36.5q57 0 79 37t10 124h137q18 -134 -47 -219t-179 -85q-117 0 -182.5 84.5t-46.5 219.5z" />
    <glyph glyph-name="ebreve" unicode="&#x115;" horiz-adv-x="1071" 
d="M545 -10q-207 0 -338.5 145.5t-131.5 373.5q0 250 150 394q120 114 288 122t298 -93q155 -120 180 -343q7 -63 3 -132h-776q13 -155 99 -242t228 -87h18q211 0 297 201l130 -56q-57 -130 -169.5 -206.5t-257.5 -76.5h-18zM221 591h627q-14 99 -63 170.5t-113 104
t-137.5 32.5t-137.5 -32.5t-112.5 -104t-63.5 -170.5zM305 1508h139q-12 -87 10 -123.5t79 -36.5q58 0 80 36.5t11 123.5h137q19 -133 -47.5 -218t-180.5 -85q-115 0 -180.5 85t-47.5 218z" />
    <glyph glyph-name="Edotaccent" unicode="&#x116;" horiz-adv-x="1155" 
d="M165 0v1394h905v-139h-763v-481h698v-140h-698v-494h763v-140h-905zM496 1639q0 37 26.5 64t62.5 27q37 0 63 -26.5t26 -64.5q0 -36 -26 -62t-63 -26q-36 0 -62.5 26t-26.5 62z" />
    <glyph glyph-name="edotaccent" unicode="&#x117;" horiz-adv-x="1071" 
d="M545 -10q-207 0 -338.5 145.5t-131.5 373.5q0 148 57.5 265t162 183.5t240.5 69.5q143 -3 252 -77t163.5 -203t43.5 -290h-776q13 -155 99 -242t228 -87h18q211 0 297 201l130 -56q-57 -130 -169.5 -206.5t-257.5 -76.5h-18zM221 591h627q-20 137 -102 215.5t-211 82.5
q-130 -4 -212 -82.5t-102 -215.5zM447 1362q0 37 26 63.5t62 26.5q37 0 63.5 -26t26.5 -64q0 -36 -26 -62.5t-64 -26.5q-36 0 -62 26.5t-26 62.5z" />
    <glyph glyph-name="Eogonek" unicode="&#x118;" horiz-adv-x="1158" 
d="M876 -413q-31 0 -59.5 9t-54.5 29t-41.5 56.5t-15.5 86.5q0 128 91 232h-631v1394h905v-139h-763v-481h698v-140h-698v-494h766v-124q-106 -38 -164.5 -99t-58.5 -143q0 -33 5 -39t29 -6q36 0 66 26.5t106 122.5v-207q-72 -84 -180 -84z" />
    <glyph glyph-name="eogonek" unicode="&#x119;" horiz-adv-x="1071" 
d="M533 -413q-69 0 -119.5 43t-50.5 138q0 62 21.5 124.5t54.5 108.5q-165 37 -264.5 174.5t-99.5 333.5q0 148 57.5 265t162 183.5t240.5 69.5q143 -3 252 -77t163.5 -203t43.5 -290h-776q13 -155 99 -242t228 -87h18q211 0 297 201l130 -56q-47 -106 -132.5 -177.5
t-195.5 -95.5q-71 -30 -112 -92t-41 -134q0 -34 4 -39.5t28 -5.5q38 0 68.5 27t103.5 123v-207q-68 -85 -180 -85zM221 591h627q-20 137 -102 215.5t-211 82.5q-130 -4 -212 -82.5t-102 -215.5zM354 1286v144h363v-144h-363z" />
    <glyph glyph-name="Ecaron" unicode="&#x11a;" horiz-adv-x="1155" 
d="M165 0v1394h905v-139h-763v-481h698v-140h-698v-494h763v-140h-905zM345 1778h172l70 -105l70 105h170l-193 -277h-96z" />
    <glyph glyph-name="ecaron" unicode="&#x11b;" horiz-adv-x="1071" 
d="M545 -10q-207 0 -338.5 145.5t-131.5 373.5q0 148 57.5 265t162 183.5t240.5 69.5q143 -3 252 -77t163.5 -203t43.5 -290h-776q13 -155 99 -242t228 -87h18q211 0 297 201l130 -56q-57 -130 -169.5 -206.5t-257.5 -76.5h-18zM221 591h627q-20 137 -102 215.5t-211 82.5
q-130 -4 -212 -82.5t-102 -215.5zM303 1520h167l67 -121l68 121h164l-181 -309h-103z" />
    <glyph glyph-name="Gcircumflex" unicode="&#x11c;" horiz-adv-x="1317" 
d="M690 -12q-275 0 -445 193.5t-170 516.5t170 515.5t445 192.5q207 0 355.5 -110t206.5 -302l-130 -51q-45 153 -153 237t-279 84q-223 0 -348 -149t-125 -417q0 -270 125 -419t348 -149q300 0 409 257v215h-459v140h599v-742h-140v145q-77 -76 -182.5 -116.5t-226.5 -40.5
zM444 1501l194 277h98l191 -277h-171l-71 106l-70 -106h-171z" />
    <glyph glyph-name="gcircumflex" unicode="&#x11d;" horiz-adv-x="1196" 
d="M559 -382q-186 0 -306.5 109.5t-134.5 297.5h140q33 -267 301 -267h28q147 0 229.5 76.5t82.5 191.5l10 118q-58 -72 -148 -114t-192 -42h-10q-133 0 -244 68t-175.5 187.5t-64.5 263.5q0 223 133 370.5t335 147.5h26q199 0 330 -145v139h141v-876q0 -248 -122.5 -386.5
t-330.5 -138.5h-28zM217 507q0 -171 90.5 -275t238.5 -104h27q138 0 225 90.5t101 245.5v87q-14 154 -101 244t-225 90h-27q-149 0 -239 -103.5t-90 -274.5zM345 1211l181 309h103l180 -309h-165l-68 120l-68 -120h-163z" />
    <glyph glyph-name="Gbreve" unicode="&#x11e;" horiz-adv-x="1317" 
d="M690 -12q-275 0 -445 193.5t-170 516.5t170 515.5t445 192.5q207 0 355.5 -110t206.5 -302l-130 -51q-45 153 -153 237t-279 84q-223 0 -348 -149t-125 -417q0 -270 125 -419t348 -149q300 0 409 257v215h-459v140h599v-742h-140v145q-77 -76 -182.5 -116.5t-226.5 -40.5
zM463 1829h137q-10 -88 12 -124.5t79 -36.5q58 0 80 36.5t12 124.5h137q18 -134 -48.5 -219t-180.5 -85q-115 0 -180 85t-48 219z" />
    <glyph glyph-name="gbreve" unicode="&#x11f;" horiz-adv-x="1196" 
d="M559 -382q-186 0 -306.5 109.5t-134.5 297.5h140q33 -267 301 -267h28q147 0 229.5 76.5t82.5 191.5l10 118q-58 -72 -148 -114t-192 -42h-10q-133 0 -244 68t-175.5 187.5t-64.5 263.5q0 223 133 370.5t335 147.5h26q199 0 330 -145v139h141v-876q0 -248 -122.5 -386.5
t-330.5 -138.5h-28zM217 507q0 -171 90.5 -275t238.5 -104h27q138 0 225 90.5t101 245.5v87q-14 154 -101 244t-225 90h-27q-149 0 -239 -103.5t-90 -274.5zM334 1508h137q-10 -87 12 -123.5t79 -36.5t79.5 36.5t11.5 123.5h137q18 -134 -48 -218.5t-180 -84.5
q-115 0 -180.5 85t-47.5 218z" />
    <glyph glyph-name="Gdotaccent" unicode="&#x120;" horiz-adv-x="1317" 
d="M690 -12q-275 0 -445 193.5t-170 516.5t170 515.5t445 192.5q207 0 355.5 -110t206.5 -302l-130 -51q-45 153 -153 237t-279 84q-223 0 -348 -149t-125 -417q0 -270 125 -419t348 -149q300 0 409 257v215h-459v140h599v-742h-140v145q-77 -76 -182.5 -116.5t-226.5 -40.5
zM603 1639q0 37 26 64t62 27q38 0 64.5 -26.5t26.5 -64.5q0 -36 -26.5 -62t-64.5 -26q-36 0 -62 26t-26 62z" />
    <glyph glyph-name="gdotaccent" unicode="&#x121;" horiz-adv-x="1196" 
d="M559 -382q-186 0 -306.5 109.5t-134.5 297.5h140q33 -267 301 -267h28q147 0 229.5 76.5t82.5 191.5l10 118q-58 -72 -148 -114t-192 -42h-10q-133 0 -244 68t-175.5 187.5t-64.5 263.5q0 223 133 370.5t335 147.5h26q199 0 330 -145v139h141v-876q0 -248 -122.5 -386.5
t-330.5 -138.5h-28zM217 507q0 -171 90.5 -275t238.5 -104h27q138 0 225 90.5t101 245.5v87q-14 154 -101 244t-225 90h-27q-149 0 -239 -103.5t-90 -274.5zM495 1362q0 37 26 63.5t62 26.5t62.5 -26t26.5 -64q0 -36 -26 -62.5t-63 -26.5q-36 0 -62 26.5t-26 62.5z" />
    <glyph glyph-name="uni0122" unicode="&#x122;" horiz-adv-x="1528" 
d="M779 -12q-277 0 -447.5 193.5t-170.5 516.5t170.5 515.5t447.5 192.5q205 0 354.5 -110.5t207.5 -302.5l-133 -50q-44 153 -151.5 237t-277.5 84q-225 0 -350.5 -148.5t-125.5 -417.5q0 -270 125.5 -419t350.5 -149q300 0 408 257v215h-461v140h601v-742h-140v144
q-162 -156 -408 -156zM604 -366l117 329h134v-71l-108 -258h-143z" />
    <glyph glyph-name="uni0123" unicode="&#x123;" horiz-adv-x="1222" 
d="M615 -382q-187 0 -308.5 109.5t-135.5 297.5h141q35 -267 303 -267h28q146 0 227.5 76.5t81.5 191.5l10 118q-57 -72 -146.5 -114t-191.5 -42h-9q-133 0 -244.5 68t-176.5 187.5t-65 263.5q0 223 133.5 370.5t335.5 147.5h26q96 0 181 -37.5t147 -106.5v138h141v-876
q0 -248 -122 -386.5t-328 -138.5h-28zM270 507q0 -171 91.5 -275t240.5 -104h26q137 0 224.5 90.5t99.5 245.5v87q-12 153 -99.5 243.5t-224.5 90.5h-26q-150 0 -241 -103.5t-91 -274.5zM562 1213v73l108 258h143l-115 -331h-136z" />
    <glyph glyph-name="Hcircumflex" unicode="&#x124;" horiz-adv-x="1235" 
d="M165 0v1394h142v-616h620v616h143v-1394h-143v637h-620v-637h-142zM385 1501l191 277h98l194 -277h-172l-71 106l-70 -106h-170z" />
    <glyph glyph-name="hcircumflex" unicode="&#x125;" horiz-adv-x="1021" 
d="M54 0v1394h142v-462q104 95 290 95q200 0 299 -108.5t99 -315.5v-603h-141v593q0 164 -56.5 230t-200.5 66q-150 0 -220 -91t-70 -300v-498h-142zM-115 1501l194 277h98l191 -277h-171l-71 106l-68 -106h-173z" />
    <glyph glyph-name="Hbar" unicode="&#x126;" horiz-adv-x="1138" 
d="M122 0v962h-75v144h75v288h141v-288h620v288h144v-288h66v-144h-66v-962h-144v637h-620v-637h-141zM263 778h620v184h-620v-184z" />
    <glyph glyph-name="hbar" unicode="&#x127;" horiz-adv-x="1082" 
d="M115 0v1095h-98v144h98v155h141v-155h203v-144h-203v-163q106 95 291 95q200 0 299 -108.5t99 -315.5v-603h-141v593q0 164 -56.5 230t-200.5 66q-149 0 -220 -91t-71 -300v-498h-141z" />
    <glyph glyph-name="Itilde" unicode="&#x128;" horiz-adv-x="223" 
d="M42 0v1394h142v-1394h-142zM-97 1555q-18 77 13 129t99 52q41 0 122 -27l47 -16q0 11 2 35h134q17 -77 -13.5 -129t-98.5 -52q-38 0 -123 26q-32 12 -48 16q0 -21 -1 -34h-133z" />
    <glyph glyph-name="itilde" unicode="&#x129;" horiz-adv-x="208" 
d="M18 0v1017h142v-1017h-142zM-105 1306q-18 75 13 127.5t99 52.5q33 0 122 -28q39 -12 48 -14q0 22 1 34h135q17 -77 -13.5 -128.5t-98.5 -51.5q-43 0 -123 26q-36 12 -47 15q0 -21 -1 -33h-135z" />
    <glyph glyph-name="Imacron" unicode="&#x12a;" horiz-adv-x="251" 
d="M56 0v1394h142v-1394h-142zM-57 1568v143h365v-143h-365z" />
    <glyph glyph-name="imacron" unicode="&#x12b;" horiz-adv-x="234" 
d="M46 0v1017h142v-1017h-142zM-65 1286v144h364v-144h-364z" />
    <glyph glyph-name="Ibreve" unicode="&#x12c;" horiz-adv-x="279" 
d="M71 0v1394h141v-1394h-141zM-88 1829h138q-10 -88 12 -124.5t78 -36.5q57 0 79.5 36.5t11.5 124.5h138q17 -134 -49 -219t-180 -85q-115 0 -180 85t-48 219z" />
    <glyph glyph-name="ibreve" unicode="&#x12d;" horiz-adv-x="293" 
d="M146 1205q-115 0 -180 85t-48 218h136q-9 -87 13.5 -123.5t78.5 -36.5q57 0 79 36.5t12 123.5h138q17 -134 -49 -218.5t-180 -84.5zM72 0v1017h143v-1017h-143z" />
    <glyph glyph-name="Iogonek" unicode="&#x12e;" horiz-adv-x="459" 
d="M162 -413q-31 0 -59.5 9t-54.5 29t-41.5 56.5t-15.5 86.5q0 102 60 190.5t162 142.5l3 -2v1295h142v-1376q-221 -84 -221 -244q0 -33 4.5 -39t28.5 -6q37 0 68 26.5t105 120.5v-207q-74 -82 -181 -82z" />
    <glyph glyph-name="iogonek" unicode="&#x12f;" horiz-adv-x="480" 
d="M154 -409q-68 0 -119.5 43t-51.5 138q0 108 68 204t176 143v898h141v-1017h-70q-79 -26 -124.5 -86.5t-45.5 -136.5q0 -33 4.5 -39t28.5 -6q37 0 66.5 26t107.5 122v-207q-74 -82 -181 -82zM210 1227q0 37 26 63.5t63 26.5q36 0 62 -26.5t26 -63.5q0 -36 -26 -62t-62 -26
q-37 0 -63 26t-26 62z" />
    <glyph glyph-name="Idotaccent" unicode="&#x130;" horiz-adv-x="464" 
d="M161 0v1394h142v-1394h-142zM143 1639q0 37 26 64t62 27q38 0 64 -26.5t26 -64.5q0 -36 -26 -62t-64 -26q-36 0 -62 26t-26 62z" />
    <glyph glyph-name="dotlessi" unicode="&#x131;" horiz-adv-x="552" 
d="M205 0v1017h142v-1017h-142z" />
    <glyph glyph-name="IJ" unicode="&#x132;" horiz-adv-x="1517" 
d="M419 507v66h144q-17 -235 103 -365q90 -98 219 -99q129 -2 224 92q118 118 118 328v865h141v-867q0 -261 -155 -413q-122 -120 -294 -131q-170 -12 -304 87q-158 116 -189 336q-7 49 -7 101zM149 0v1394h140v-1394h-140z" />
    <glyph glyph-name="ij" unicode="&#x133;" horiz-adv-x="763" 
d="M334 -386q-122 0 -199 66l55 117q48 -27 74 -36t69 -9h12q68 0 95 31t27 114v1120h141v-1120q0 -138 -69.5 -210.5t-191.5 -72.5h-13zM160 1223q0 37 26 63.5t62 26.5q38 0 64 -26.5t26 -63.5q0 -36 -26.5 -62t-63.5 -26q-36 0 -62 26t-26 62zM178 0v1017h142v-1017h-142
zM448 1224q0 37 26 63.5t62 26.5q38 0 65 -26t27 -64q0 -37 -27 -62.5t-65 -25.5q-36 0 -62 26t-26 62z" />
    <glyph glyph-name="Jcircumflex" unicode="&#x134;" horiz-adv-x="1051" 
d="M65 507v66h142q-17 -235 105 -366q90 -97 220 -98q129 -2 224 93q117 118 117 327v865h141v-867q0 -261 -155 -413q-122 -120 -294 -131q-170 -12 -304 87q-158 116 -189 336q-7 49 -7 101zM698 1501l191 277h98l191 -277h-172l-69 106l-69 -106h-170z" />
    <glyph glyph-name="jcircumflex" unicode="&#x135;" horiz-adv-x="354" 
d="M26 -386q-123 0 -199 66l56 116q50 -27 74.5 -35.5t66.5 -8.5h14q67 0 94 31.5t27 113.5v1120h142v-1120q0 -138 -70 -210.5t-191 -72.5h-14zM-7 1211l184 309h101l183 -309h-167l-68 120l-68 -120h-165z" />
    <glyph glyph-name="uni0136" unicode="&#x136;" horiz-adv-x="1336" 
d="M219 0v1394h141v-703l677 703h196l-580 -603l558 -791h-174l-483 688l-194 -199v-489h-141zM466 -366l115 329h136v-71l-108 -258h-143z" />
    <glyph glyph-name="uni0137" unicode="&#x137;" horiz-adv-x="1117" 
d="M201 0v1394h142v-852l459 475h197l-381 -391l396 -626h-169l-326 523l-176 -180v-343h-142zM347 -366l115 329h136v-71l-108 -258h-143z" />
    <glyph glyph-name="kgreenlandic" unicode="&#x138;" horiz-adv-x="1014" 
d="M157 0v1021h141v-479l461 475h195l-380 -391l395 -626h-166l-329 523l-176 -180v-343h-141z" />
    <glyph glyph-name="Lacute" unicode="&#x139;" horiz-adv-x="1130" 
d="M191 0v1394h141v-1254h763v-140h-904zM151 1501l156 277h179l-184 -277h-151z" />
    <glyph glyph-name="lacute" unicode="&#x13a;" horiz-adv-x="527" 
d="M423 -4q-116 -21 -179.5 37t-63.5 190v1171h141v-1167q0 -39 3.5 -58t13.5 -29.5t28 -10t48 0.5zM143 1592l166 309h179l-194 -309h-151z" />
    <glyph glyph-name="uni013B" unicode="&#x13b;" horiz-adv-x="1234" 
d="M219 0v1394h141v-1254h761v-140h-902zM453 -366l116 329h135v-71l-109 -258h-142z" />
    <glyph glyph-name="uni013C" unicode="&#x13c;" horiz-adv-x="476" 
d="M421 -4q-115 -21 -179.5 37t-64.5 190v1171h142v-1167q0 -39 3.5 -58t13.5 -29.5t28 -10t48 0.5zM135 -366l117 329h135v-71l-107 -258h-145z" />
    <glyph glyph-name="Lcaron" unicode="&#x13d;" horiz-adv-x="1105" 
d="M165 0v1394h142v-1254h763v-140h-905z" />
    <glyph glyph-name="lcaron" unicode="&#x13e;" horiz-adv-x="455" 
d="M400 -4q-114 -21 -178.5 37t-64.5 190v1171h141v-1167q0 -39 3.5 -58t13.5 -29.5t28 -10t48 0.5zM339 1063l118 331h133v-73l-107 -258h-144z" />
    <glyph glyph-name="Ldot" unicode="&#x13f;" horiz-adv-x="1105" 
d="M165 0v1394h142v-1254h763v-140h-905zM559 792q0 37 26.5 63.5t64.5 26.5q36 0 62 -26.5t26 -63.5t-26 -62.5t-62 -25.5q-38 0 -64.5 25.5t-26.5 62.5z" />
    <glyph glyph-name="ldot" unicode="&#x140;" horiz-adv-x="530" 
d="M400 -4q-114 -21 -178.5 37t-64.5 190v1171h141v-1167q0 -39 3.5 -58t13.5 -29.5t28 -10t48 0.5zM357 792q0 37 26.5 63.5t62.5 26.5q37 0 63 -26.5t26 -63.5t-26 -62.5t-63 -25.5q-36 0 -62.5 26t-26.5 62z" />
    <glyph glyph-name="Lslash" unicode="&#x141;" horiz-adv-x="1164" 
d="M224 2v537l-211 -125v166l211 126v690h142v-607l343 205v-167l-343 -203v-482h763v-140h-905z" />
    <glyph glyph-name="lslash" unicode="&#x142;" horiz-adv-x="371" 
d="M355 -4q-114 -21 -178.5 37t-64.5 190v286l-105 -78v176l105 78v709h142v-608l110 79v-177l-110 -78v-383q0 -39 3.5 -58t13.5 -29.5t28.5 -10t47.5 0.5z" />
    <glyph glyph-name="Nacute" unicode="&#x143;" horiz-adv-x="1279" 
d="M165 0v1394h134l673 -1110v1110h142v-1394h-136l-671 1107v-1107h-142zM528 1501l156 277h179l-182 -277h-153z" />
    <glyph glyph-name="nacute" unicode="&#x144;" horiz-adv-x="1123" 
d="M157 0v1017h141v-85q106 95 290 95q201 0 299.5 -108.5t98.5 -315.5v-603h-140v593q0 164 -56.5 230t-201.5 66q-148 0 -219 -91t-71 -300v-498h-141zM449 1211l168 309h178l-193 -309h-153z" />
    <glyph glyph-name="uni0145" unicode="&#x145;" horiz-adv-x="1386" 
d="M219 0v1394h132l674 -1110v1110h142v-1394h-136l-671 1107v-1107h-141zM516 -366l117 329h136v-71l-108 -258h-145z" />
    <glyph glyph-name="uni0146" unicode="&#x146;" horiz-adv-x="1222" 
d="M201 0v1017h142v-85q104 95 290 95q200 0 299 -108.5t99 -315.5v-603h-142v593q0 164 -56 230t-200 66q-150 0 -220 -91t-70 -300v-498h-142zM427 -366l117 329h134v-71l-108 -258h-143z" />
    <glyph glyph-name="Ncaron" unicode="&#x147;" horiz-adv-x="1279" 
d="M165 0v1394h134l673 -1110v1110h142v-1394h-136l-671 1107v-1107h-142zM400 1778h172l70 -105l68 105h173l-194 -277h-98z" />
    <glyph glyph-name="ncaron" unicode="&#x148;" horiz-adv-x="1123" 
d="M157 0v1017h141v-85q106 95 290 95q201 0 299.5 -108.5t98.5 -315.5v-603h-140v593q0 164 -56.5 230t-201.5 66q-148 0 -219 -91t-71 -300v-498h-141zM327 1520h168l65 -121l69 121h163l-180 -309h-102z" />
    <glyph glyph-name="napostrophe" unicode="&#x149;" horiz-adv-x="1231" 
d="M265 0v993l-24 -83h-125l-13 62l154 494h144l-129 -449h134v-85q106 95 290 95q201 0 299.5 -108.5t98.5 -315.5v-603h-141v593q0 164 -56 230t-201 66q-149 0 -219.5 -91t-70.5 -300v-498h-141z" />
    <glyph glyph-name="Eng" unicode="&#x14a;" horiz-adv-x="1279" 
d="M754 -269q55 -2 87.5 0t60 10.5t40.5 28.5t19.5 50t6.5 79v121h-2l-659 1087v-1107h-142v1394h134l673 -1110v1110h142v-1465q0 -52 -2 -80q-11 -144 -100.5 -205.5t-257.5 -56.5v144z" />
    <glyph glyph-name="eng" unicode="&#x14b;" horiz-adv-x="1123" 
d="M711 -386q-123 0 -200 66l55 116q40 -20 53.5 -26.5t36.5 -12t53 -5.5h12q67 0 94 31t29 114l2 696q0 164 -56.5 230t-201.5 66q-148 0 -219 -91t-71 -300v-498h-141v1017h141v-85q106 95 290 95q201 0 299.5 -108.5t98.5 -315.5l-2 -706q-1 -139 -70 -211t-191 -72h-12z
" />
    <glyph glyph-name="Omacron" unicode="&#x14c;" horiz-adv-x="1404" 
d="M690 -16q-275 0 -445 192.5t-170 513.5q0 324 170 517t445 193h20q280 0 449.5 -195.5t169.5 -514.5q0 -317 -170 -511.5t-449 -194.5h-20zM217 690q0 -267 125.5 -416.5t347.5 -149.5h20q226 0 351.5 149t125.5 417q0 270 -125.5 419t-351.5 149h-20q-223 0 -348 -149
t-125 -419zM523 1568v143h365v-143h-365z" />
    <glyph glyph-name="omacron" unicode="&#x14d;" horiz-adv-x="1109" 
d="M545 -10q-207 0 -338.5 145.5t-131.5 373.5q0 229 130.5 373.5t339.5 144.5h18q209 0 340 -144.5t131 -373.5q0 -228 -131.5 -373.5t-339.5 -145.5h-18zM217 509q0 -177 87.5 -279t240.5 -102h18q153 0 241.5 102t88.5 279t-88.5 278.5t-241.5 101.5h-18
q-153 0 -240.5 -101t-87.5 -279zM371 1286v144h364v-144h-364z" />
    <glyph glyph-name="Obreve" unicode="&#x14e;" horiz-adv-x="1404" 
d="M690 -12q-275 0 -445 193t-170 515q0 324 170 517t445 193h20q280 0 449.5 -195.5t169.5 -514.5q0 -209 -76.5 -370t-217 -249.5t-325.5 -88.5h-20zM217 696q0 -268 125 -417t348 -149h20q226 0 351.5 148.5t125.5 417.5q0 270 -125.5 419t-351.5 149h-20
q-223 0 -348 -149t-125 -419zM469 1829h138q-10 -88 12 -124.5t79 -36.5t79.5 36.5t12.5 124.5h136q18 -134 -48 -219t-180 -85q-115 0 -180.5 85t-48.5 219z" />
    <glyph glyph-name="obreve" unicode="&#x14f;" horiz-adv-x="1109" 
d="M545 -10q-207 0 -338.5 145.5t-131.5 373.5q0 229 130.5 373.5t339.5 144.5h18q209 0 340 -144.5t131 -373.5q0 -228 -131.5 -373.5t-339.5 -145.5h-18zM217 509q0 -177 87.5 -279t240.5 -102h18q153 0 241.5 102t88.5 279t-88.5 278.5t-241.5 101.5h-18
q-153 0 -240.5 -101t-87.5 -279zM325 1508h137q-9 -87 13 -123.5t78 -36.5q57 0 79.5 36.5t12.5 123.5h137q18 -134 -48.5 -218.5t-180.5 -84.5t-179.5 85t-48.5 218z" />
    <glyph glyph-name="Ohungarumlaut" unicode="&#x150;" horiz-adv-x="1404" 
d="M690 -16q-275 0 -445 192.5t-170 513.5q0 324 170 517t445 193h20q280 0 449.5 -195.5t169.5 -514.5q0 -317 -170 -511.5t-449 -194.5h-20zM217 690q0 -267 125.5 -416.5t347.5 -149.5h20q226 0 351.5 149t125.5 417q0 270 -125.5 419t-351.5 149h-20q-223 0 -348 -149
t-125 -419zM458 1501l158 277h180l-185 -277h-153zM721 1501l158 277h179l-183 -277h-154z" />
    <glyph glyph-name="ohungarumlaut" unicode="&#x151;" horiz-adv-x="1109" 
d="M545 -10q-207 0 -338.5 145.5t-131.5 373.5q0 229 130.5 373.5t339.5 144.5h18q209 0 340 -144.5t131 -373.5q0 -228 -131.5 -373.5t-339.5 -145.5h-18zM217 509q0 -177 87.5 -279t240.5 -102h18q153 0 241.5 102t88.5 279t-88.5 278.5t-241.5 101.5h-18
q-153 0 -240.5 -101t-87.5 -279zM309 1212l158 279h179l-184 -279h-153zM571 1212l158 279h180l-184 -279h-154z" />
    <glyph glyph-name="OE" unicode="&#x152;" horiz-adv-x="2175" 
d="M690 -16q-275 0 -445 192.5t-170 513.5q0 324 170 517t445 193h20q150 0 272 -59.5t205 -170.5v224h903v-139h-761v-481h697v-140h-697v-494h761v-140h-903v211q-83 -109 -205 -168t-272 -59h-20zM217 690q0 -267 125.5 -416.5t347.5 -149.5h20q226 0 351.5 149
t125.5 417q0 270 -125.5 419t-351.5 149h-20q-223 0 -348 -149t-125 -419z" />
    <glyph glyph-name="oe" unicode="&#x153;" horiz-adv-x="1890" 
d="M545 -10q-207 0 -338.5 145.5t-131.5 373.5q0 229 130.5 373.5t339.5 144.5h18q131 0 236 -61t165 -169q59 105 161 165.5t230 64.5q143 -3 251.5 -77t163 -203t43.5 -290h-776q14 -155 100.5 -242t226.5 -87h18q211 0 299 200l129 -55q-56 -130 -168.5 -206.5
t-259.5 -76.5h-18q-130 0 -234.5 62t-165.5 171q-60 -109 -164.5 -171t-236.5 -62h-18zM217 509q0 -177 87.5 -279t240.5 -102h18q153 0 241.5 102t88.5 279t-88.5 278.5t-241.5 101.5h-18q-153 0 -240.5 -101t-87.5 -279zM1041 591h628q-21 137 -103 215.5t-211 82.5
q-129 -4 -211.5 -82.5t-102.5 -215.5z" />
    <glyph glyph-name="Racute" unicode="&#x154;" horiz-adv-x="1188" 
d="M165 0v1394h477q219 0 336.5 -101t117.5 -293v-2q0 -161 -83.5 -259t-240.5 -125l351 -614h-165l-344 604h-307v-604h-142zM307 744h335q167 0 240 60t73 196q0 135 -73 195t-240 60h-335v-511zM498 1501l158 277h180l-185 -277h-153z" />
    <glyph glyph-name="racute" unicode="&#x155;" horiz-adv-x="842" 
d="M157 0v1017h141v-85q106 95 290 95q109 0 189 -33l-31 -135q-86 30 -158 30q-148 0 -219 -91t-71 -300v-498h-141zM306 1211l166 309h179l-194 -309h-151z" />
    <glyph glyph-name="uni0156" unicode="&#x156;" horiz-adv-x="1265" 
d="M219 0v1394h475q221 0 338.5 -100.5t117.5 -293.5v-2q0 -161 -84.5 -259t-242.5 -125l351 -614h-162l-346 604h-306v-604h-141zM360 744h334q169 0 242 60t73 196q0 135 -73 195t-242 60h-334v-511zM469 -366l116 329h136v-71l-109 -258h-143z" />
    <glyph glyph-name="uni0157" unicode="&#x157;" horiz-adv-x="927" 
d="M217 0v1017h141v-85q106 95 291 95q109 0 187 -33l-29 -133q-99 28 -158 28q-150 0 -220.5 -91t-70.5 -300v-498h-141zM112 -366l117 329h136v-71l-108 -258h-145z" />
    <glyph glyph-name="Rcaron" unicode="&#x158;" horiz-adv-x="1188" 
d="M165 0v1394h477q219 0 336.5 -101t117.5 -293v-2q0 -161 -83.5 -259t-240.5 -125l351 -614h-165l-344 604h-307v-604h-142zM307 744h335q167 0 240 60t73 196q0 135 -73 195t-240 60h-335v-511zM370 1778h172l70 -105l70 105h171l-194 -277h-96z" />
    <glyph glyph-name="rcaron" unicode="&#x159;" horiz-adv-x="720" 
d="M79 0v1017h141v-85q104 95 290 95q107 0 189 -33l-31 -135q-90 30 -158 30q-150 0 -220 -91t-70 -300v-498h-141zM104 1520h166l68 -121l66 121h166l-183 -309h-102z" />
    <glyph glyph-name="Sacute" unicode="&#x15a;" horiz-adv-x="1152" 
d="M596 -26q-100 0 -189 28t-160.5 83t-114 146t-43.5 207h144q1 -156 101.5 -239t263.5 -83q143 0 230 66t87 175q0 59 -15.5 98.5t-57 71.5t-99.5 55t-159 52q-91 25 -155.5 50.5t-119.5 59t-88 74.5t-51 95t-18 123q0 159 132.5 265t313.5 106q107 0 193 -38t139.5 -103
t83 -145.5t31.5 -169.5h-144q-12 152 -92.5 232.5t-212.5 80.5q-122 0 -209 -59t-87 -165q0 -58 15 -95.5t57.5 -67.5t99 -51.5t159.5 -51.5q110 -31 185.5 -65.5t133.5 -82.5t85.5 -114t27.5 -152q0 -164 -134.5 -275t-332.5 -111zM479 1501l158 277h179l-186 -277h-151z
" />
    <glyph glyph-name="sacute" unicode="&#x15b;" horiz-adv-x="985" 
d="M507 -14q-84 0 -157 22.5t-132 68t-93.5 122t-35.5 175.5h143q12 -138 80 -193t198 -55q108 0 168.5 36.5t60.5 106.5q0 49 -21.5 77t-77 49t-170.5 45q-68 14 -122 34t-104 52.5t-77.5 84t-27.5 117.5q0 126 101.5 207.5t255.5 81.5q93 0 167 -30t120 -82.5t71 -117
t29 -139.5h-141q-24 127 -79 178t-169 51q-94 0 -150.5 -38t-56.5 -109q0 -64 51 -96t172 -57q93 -19 159 -43t116.5 -59.5t75.5 -86t25 -117.5q0 -129 -108 -207t-271 -78zM376 1211l168 309h177l-193 -309h-152z" />
    <glyph glyph-name="Scircumflex" unicode="&#x15c;" horiz-adv-x="1152" 
d="M596 -26q-100 0 -189 28t-160.5 83t-114 146t-43.5 207h144q1 -156 101.5 -239t263.5 -83q143 0 230 66t87 175q0 59 -15.5 98.5t-57 71.5t-99.5 55t-159 52q-91 25 -155.5 50.5t-119.5 59t-88 74.5t-51 95t-18 123q0 159 132.5 265t313.5 106q107 0 193 -38t139.5 -103
t83 -145.5t31.5 -169.5h-144q-12 152 -92.5 232.5t-212.5 80.5q-122 0 -209 -59t-87 -165q0 -58 15 -95.5t57.5 -67.5t99 -51.5t159.5 -51.5q110 -31 185.5 -65.5t133.5 -82.5t85.5 -114t27.5 -152q0 -164 -134.5 -275t-332.5 -111zM352 1501l195 277h96l193 -277h-172
l-71 106l-70 -106h-171z" />
    <glyph glyph-name="scircumflex" unicode="&#x15d;" horiz-adv-x="985" 
d="M507 -14q-84 0 -157 22.5t-132 68t-93.5 122t-35.5 175.5h143q12 -138 80 -193t198 -55q108 0 168.5 36.5t60.5 106.5q0 49 -21.5 77t-77 49t-170.5 45q-68 14 -122 34t-104 52.5t-77.5 84t-27.5 117.5q0 126 101.5 207.5t255.5 81.5q93 0 167 -30t120 -82.5t71 -117
t29 -139.5h-141q-24 127 -79 178t-169 51q-94 0 -150.5 -38t-56.5 -109q0 -64 51 -96t172 -57q93 -19 159 -43t116.5 -59.5t75.5 -86t25 -117.5q0 -129 -108 -207t-271 -78zM256 1211l180 309h103l182 -309h-167l-67 120l-68 -120h-163z" />
    <glyph glyph-name="Scedilla" unicode="&#x15e;" horiz-adv-x="1152" 
d="M514 -428q-96 0 -150 41v172q67 -53 86 -60q22 -10 64 -10q53 0 73 13.5t20 47.5q0 44 -40.5 54t-181.5 -6l87 161q-167 33 -274.5 148.5t-108.5 304.5h144q1 -156 101.5 -239t263.5 -83q143 0 230 66t87 175q0 59 -15.5 98.5t-57 71.5t-99.5 55t-159 52
q-91 25 -155.5 50.5t-119.5 59t-88 74.5t-51 95t-18 123q0 159 132.5 265t313.5 106q107 0 193 -38t139.5 -103t83 -145.5t31.5 -169.5h-144q-12 152 -92.5 232.5t-212.5 80.5q-122 0 -209 -59t-87 -165q0 -58 15 -95.5t57.5 -67.5t99 -51.5t159.5 -51.5
q110 -31 185.5 -65.5t133.5 -82.5t85.5 -114t27.5 -152q0 -156 -123.5 -266t-309.5 -120l-11 -20q63 -20 99 -64.5t36 -113.5q0 -52 -22 -93t-58 -64t-77 -35t-83 -12z" />
    <glyph glyph-name="scedilla" unicode="&#x15f;" horiz-adv-x="985" 
d="M440 -425q-96 0 -151 42v172q46 -36 60.5 -46t36 -17t54.5 -7q51 0 71 13t20 48q0 43 -39 53t-173 -5l76 169q-135 26 -220 121.5t-86 255.5h143q12 -138 80 -193t198 -55q108 0 168.5 36.5t60.5 106.5q0 49 -21.5 77t-77 49t-170.5 45q-68 14 -122 34t-104 52.5
t-77.5 84t-27.5 117.5q0 126 101.5 207.5t255.5 81.5q93 0 167 -30t120 -82.5t71 -117t29 -139.5h-141q-24 127 -79 178t-169 51q-94 0 -150.5 -38t-56.5 -109q0 -64 51 -96t172 -57q93 -19 159 -43t116.5 -59.5t75.5 -86t25 -117.5q0 -120 -93.5 -195.5t-240.5 -87.5
l-14 -28q140 -43 140 -180q0 -69 -38 -117t-90 -68t-110 -20z" />
    <glyph glyph-name="Scaron" unicode="&#x160;" horiz-adv-x="1152" 
d="M596 -26q-100 0 -189 28t-160.5 83t-114 146t-43.5 207h144q1 -156 101.5 -239t263.5 -83q143 0 230 66t87 175q0 59 -15.5 98.5t-57 71.5t-99.5 55t-159 52q-91 25 -155.5 50.5t-119.5 59t-88 74.5t-51 95t-18 123q0 159 132.5 265t313.5 106q107 0 193 -38t139.5 -103
t83 -145.5t31.5 -169.5h-144q-12 152 -92.5 232.5t-212.5 80.5q-122 0 -209 -59t-87 -165q0 -58 15 -95.5t57.5 -67.5t99 -51.5t159.5 -51.5q110 -31 185.5 -65.5t133.5 -82.5t85.5 -114t27.5 -152q0 -164 -134.5 -275t-332.5 -111zM349 1778h173l70 -105l71 105h170
l-193 -277h-96z" />
    <glyph glyph-name="scaron" unicode="&#x161;" horiz-adv-x="985" 
d="M507 -14q-84 0 -157 22.5t-132 68t-93.5 122t-35.5 175.5h143q12 -138 80 -193t198 -55q108 0 168.5 36.5t60.5 106.5q0 49 -21.5 77t-77 49t-170.5 45q-68 14 -122 34t-104 52.5t-77.5 84t-27.5 117.5q0 126 101.5 207.5t255.5 81.5q93 0 167 -30t120 -82.5t71 -117
t29 -139.5h-141q-24 127 -79 178t-169 51q-94 0 -150.5 -38t-56.5 -109q0 -64 51 -96t172 -57q93 -19 159 -43t116.5 -59.5t75.5 -86t25 -117.5q0 -129 -108 -207t-271 -78zM256 1520h165l68 -121l67 121h165l-182 -309h-103z" />
    <glyph glyph-name="uni0162" unicode="&#x162;" horiz-adv-x="1269" 
d="M559 -426q-96 0 -150 42v173q62 -49 83 -60t67 -11q52 0 72 13t20 48q0 44 -40.5 53.5t-181.5 -6.5l132 240v1189h-486v139h1117v-139h-488v-1215l-42 -81q136 -44 136 -180q0 -52 -22 -93t-57.5 -64.5t-76.5 -35.5t-83 -12z" />
    <glyph glyph-name="uni0163" unicode="&#x163;" horiz-adv-x="737" 
d="M384 -425q-96 0 -150 42v173q61 -49 82 -60t68 -11q52 0 73 13.5t21 47.5q0 43 -39.5 53t-173.5 -5l93 216q-88 77 -88 228v609h-225v136h225v375h142v-375h232v-136h-232v-609q0 -83 27 -114.5t94 -31.5q43 0 111 12v-136q-57 -14 -113 -14h-10q-8 0 -24 2l-13 -30
q65 -20 102.5 -65t37.5 -115q0 -69 -38.5 -117t-91 -68t-110.5 -20z" />
    <glyph glyph-name="Tcaron" unicode="&#x164;" horiz-adv-x="1186" 
d="M520 0v1255h-485v139h1116v-139h-487v-1255h-144zM352 1778h172l71 -105l71 105h170l-194 -277h-97z" />
    <glyph glyph-name="tcaron" unicode="&#x165;" horiz-adv-x="684" 
d="M270 272v609h-225v136h225v375h142v-375h232v-136h-232v-609q0 -107 48 -132t184 -2v-136q-171 -39 -272.5 31.5t-101.5 238.5zM429 1133l118 331h133v-73l-107 -258h-144z" />
    <glyph glyph-name="Tbar" unicode="&#x166;" horiz-adv-x="1186" 
d="M520 0v598h-267v144h267v513h-485v139h1116v-139h-487v-513h268v-144h-268v-598h-144z" />
    <glyph glyph-name="tbar" unicode="&#x167;" horiz-adv-x="689" 
d="M270 272v254h-117v136h117v219h-225v136h225v375h142v-375h232v-136h-232v-219h122v-136h-122v-254q0 -107 48 -132t184 -2v-136q-171 -39 -272.5 31.5t-101.5 238.5z" />
    <glyph glyph-name="Utilde" unicode="&#x168;" horiz-adv-x="1247" 
d="M149 507v887h140v-874q0 -114 37 -203.5t96 -134.5t130 -66t142 1.5t130 69.5t96 137.5t37 204.5v865h141v-867q0 -261 -155 -413q-122 -120 -294 -131q-170 -12 -304 87q-158 116 -189 336q-7 49 -7 101zM414 1555q-17 77 13.5 129t98.5 52q41 0 122 -27q29 -11 49 -16
q0 23 1 35h133q18 -77 -13 -129t-99 -52q-39 0 -123 26q-27 10 -46 16q-1 -10 -1 -34h-135z" />
    <glyph glyph-name="utilde" unicode="&#x169;" 
d="M535 -10q-200 0 -299 108.5t-99 315.5v603h142v-593q0 -164 56 -230t200 -66q151 0 220.5 90.5t69.5 299.5v499h142v-1017h-142v85q-101 -95 -290 -95zM339 1306q-18 75 13 127.5t99 52.5q32 0 123 -28q36 -12 47 -14q0 10 2 34h133q17 -77 -13.5 -128.5t-98.5 -51.5
q-42 0 -122 26q-36 11 -49 15q0 -21 -1 -33h-133z" />
    <glyph glyph-name="Umacron" unicode="&#x16a;" horiz-adv-x="1247" 
d="M149 507v887h140v-874q0 -114 37 -203.5t96 -134.5t130 -66t142 1.5t130 69.5t96 137.5t37 204.5v865h141v-867q0 -261 -155 -413q-122 -120 -294 -131q-170 -12 -304 87q-158 116 -189 336q-7 49 -7 101zM440 1568v143h363v-143h-363z" />
    <glyph glyph-name="umacron" unicode="&#x16b;" 
d="M535 -10q-200 0 -299 108.5t-99 315.5v603h142v-593q0 -164 56 -230t200 -66q151 0 220.5 90.5t69.5 299.5v499h142v-1017h-142v85q-101 -95 -290 -95zM370 1286v144h363v-144h-363z" />
    <glyph glyph-name="Ubreve" unicode="&#x16c;" horiz-adv-x="1247" 
d="M149 507v887h140v-874q0 -114 37 -203.5t96 -134.5t130 -66t142 1.5t130 69.5t96 137.5t37 204.5v865h141v-867q0 -261 -155 -413q-122 -120 -294 -131q-170 -12 -304 87q-158 116 -189 336q-7 49 -7 101zM394 1829h136q-9 -88 13 -124.5t79 -36.5t79 37t10 124h140
q17 -134 -49 -219t-180 -85q-115 0 -180 85t-48 219z" />
    <glyph glyph-name="ubreve" unicode="&#x16d;" 
d="M535 -10q-200 0 -299 108.5t-99 315.5v603h142v-593q0 -164 56 -230t200 -66q151 0 220.5 90.5t69.5 299.5v499h142v-1017h-142v85q-101 -95 -290 -95zM314 1508h140q-12 -87 10 -123.5t79 -36.5t79.5 36.5t12.5 123.5h136q19 -133 -47.5 -218t-180.5 -85
q-115 0 -180.5 85t-48.5 218z" />
    <glyph glyph-name="Uring" unicode="&#x16e;" horiz-adv-x="1247" 
d="M149 507v887h140v-874q0 -114 37 -203.5t96 -134.5t130 -66t142 1.5t130 69.5t96 137.5t37 204.5v865h141v-867q0 -261 -155 -413q-122 -120 -294 -131q-170 -12 -304 87q-158 116 -189 336q-7 49 -7 101zM452 1639q0 75 49.5 120t119.5 45q69 0 119 -45.5t50 -119.5
q0 -72 -50.5 -117.5t-118.5 -45.5q-69 0 -119 45t-50 118zM568 1639q0 -23 15 -36t38 -13q22 0 36.5 13t14.5 36q0 25 -14 38t-37 13t-38 -13.5t-15 -37.5z" />
    <glyph glyph-name="uring" unicode="&#x16f;" 
d="M535 -10q-200 0 -299 108.5t-99 315.5v603h142v-593q0 -164 56 -230t200 -66q151 0 220.5 90.5t69.5 299.5v499h142v-1017h-142v85q-101 -95 -290 -95zM385 1364q0 74 50 119.5t119 45.5q70 0 119.5 -45t49.5 -120q0 -73 -50 -118.5t-119 -45.5t-119 45.5t-50 118.5z
M503 1364q0 -23 14.5 -36t36.5 -13q23 0 38 13t15 36q0 24 -15 37.5t-38 13.5t-37 -13t-14 -38z" />
    <glyph glyph-name="Uhungarumlaut" unicode="&#x170;" horiz-adv-x="1247" 
d="M149 507v887h140v-874q0 -114 37 -203.5t96 -134.5t130 -66t142 1.5t130 69.5t96 137.5t37 204.5v865h141v-867q0 -261 -155 -413q-122 -120 -294 -131q-170 -12 -304 87q-158 116 -189 336q-7 49 -7 101zM385 1501l156 277h179l-183 -277h-152zM648 1501l157 277h179
l-185 -277h-151z" />
    <glyph glyph-name="uhungarumlaut" unicode="&#x171;" 
d="M535 -10q-200 0 -299 108.5t-99 315.5v603h142v-593q0 -164 56 -230t200 -66q151 0 220.5 90.5t69.5 299.5v499h142v-1017h-142v85q-101 -95 -290 -95zM315 1212l158 279h179l-184 -279h-153zM577 1212l158 279h180l-184 -279h-154z" />
    <glyph glyph-name="Uogonek" unicode="&#x172;" horiz-adv-x="1247" 
d="M601 -413q-31 0 -59.5 9t-54.5 29t-41.5 56.5t-15.5 86.5q0 125 85 224q-157 35 -261.5 169t-104.5 346v887h140v-874q0 -114 37 -203.5t96 -134.5t130 -66t142 1.5t130 69.5t96 137.5t37 204.5v865h141v-867q0 -201 -91 -335.5t-233 -184.5q-199 -81 -199 -233
q0 -33 4.5 -39t29.5 -6q36 0 68 28t105 123v-209q-73 -84 -181 -84z" />
    <glyph glyph-name="uogonek" unicode="&#x173;" 
d="M755 -407q-68 0 -119.5 43t-51.5 138q0 127 88 231q-62 -15 -137 -15q-200 0 -299 108.5t-99 315.5v603h142v-593q0 -164 56 -230t200 -66q151 0 220.5 90.5t69.5 299.5v499h142v-1017h-72q-78 -27 -121.5 -86.5t-43.5 -134.5q0 -33 4.5 -39t28.5 -6q36 0 66.5 26.5
t106.5 121.5v-207q-74 -82 -181 -82z" />
    <glyph glyph-name="Wcircumflex" unicode="&#x174;" horiz-adv-x="1749" 
d="M413 0l-388 1394h150l307 -1110l333 1047h118l335 -1047l307 1110h149l-388 -1394h-128l-333 1050l-336 -1050h-126zM632 1501l193 277h97l193 -277h-172l-71 107l-71 -107h-169z" />
    <glyph glyph-name="wcircumflex" unicode="&#x175;" horiz-adv-x="1463" 
d="M342 0l-283 1017h151l203 -740l262 740h117l261 -738l204 738h147l-281 -1017h-123l-267 763l-271 -763h-120zM499 1211l182 309h102l181 -309h-165l-68 120l-68 -120h-164z" />
    <glyph glyph-name="Ycircumflex" unicode="&#x176;" horiz-adv-x="1154" 
d="M508 0l-4 421l-489 973h161l398 -803l403 803h162l-495 -973l5 -421h-141zM336 1501l193 277h96l193 -277h-172l-71 106l-70 -106h-169z" />
    <glyph glyph-name="ycircumflex" unicode="&#x177;" horiz-adv-x="1035" 
d="M227 -213q50 -33 73.5 -25.5t50.5 75.5l91 219l-397 961h156l316 -779l319 779h154l-510 -1235q-50 -124 -130.5 -155t-178.5 36zM285 1211l184 309h102l182 -309h-167l-67 120l-68 -120h-166z" />
    <glyph glyph-name="Ydieresis" unicode="&#x178;" horiz-adv-x="1154" 
d="M508 0l-4 421l-489 973h161l398 -803l403 803h162l-495 -973l5 -421h-141zM373 1639q0 37 26 64t62 27q37 0 63 -26.5t26 -64.5q0 -36 -26 -62t-63 -26q-36 0 -62 26t-26 62zM606 1639q0 38 25.5 64.5t62.5 26.5q38 0 64 -26.5t26 -64.5q0 -36 -26.5 -62t-63.5 -26
q-36 0 -62 26t-26 62z" />
    <glyph glyph-name="Zacute" unicode="&#x179;" horiz-adv-x="1069" 
d="M61 0v113l759 1142h-759v139h947v-111l-760 -1143h760v-140h-947zM423 1501l157 277h179l-183 -277h-153z" />
    <glyph glyph-name="zacute" unicode="&#x17a;" horiz-adv-x="942" 
d="M61 0v111l624 768h-624v138h820v-117l-616 -762h616v-138h-820zM345 1211l168 309h177l-193 -309h-152z" />
    <glyph glyph-name="Zdotaccent" unicode="&#x17b;" horiz-adv-x="1069" 
d="M61 0v113l759 1142h-759v139h947v-111l-760 -1143h760v-140h-947zM446 1639q0 38 25.5 64.5t62.5 26.5q38 0 64 -26.5t26 -64.5q0 -36 -26.5 -62t-63.5 -26q-36 0 -62 26t-26 62z" />
    <glyph glyph-name="zdotaccent" unicode="&#x17c;" horiz-adv-x="942" 
d="M61 0v111l624 768h-624v138h820v-117l-616 -762h616v-138h-820zM367 1362q0 37 26.5 63.5t62.5 26.5t62.5 -26t26.5 -64q0 -36 -26.5 -62.5t-62.5 -26.5q-38 0 -63.5 26t-25.5 63z" />
    <glyph glyph-name="Zcaron" unicode="&#x17d;" horiz-adv-x="1069" 
d="M61 0v113l759 1142h-759v139h947v-111l-760 -1143h760v-140h-947zM293 1778h172l71 -105l70 105h171l-192 -277h-98z" />
    <glyph glyph-name="zcaron" unicode="&#x17e;" horiz-adv-x="942" 
d="M61 0v111l624 768h-624v138h820v-117l-616 -762h616v-138h-820zM224 1520h165l69 -121l67 121h165l-182 -309h-103z" />
    <glyph glyph-name="uni0218" unicode="&#x218;" horiz-adv-x="1182" 
d="M611 -26q-79 0 -152 17t-138 54.5t-113 91t-76 131t-29 170.5h146q0 -156 100.5 -239t263.5 -83q144 0 230 65.5t86 175.5q0 59 -15 98.5t-57 71.5t-100 55t-159 52q-113 32 -188.5 64.5t-133 79t-84 110t-26.5 148.5q0 159 132.5 265t314.5 106q107 0 193 -38
t139.5 -102.5t82.5 -145t31 -170.5h-143q-13 152 -93 232.5t-212 80.5q-122 0 -208.5 -58.5t-86.5 -165.5q0 -58 15 -95.5t57.5 -67.5t98.5 -51.5t159 -51.5q109 -31 185 -65.5t134 -82.5t86 -114t28 -152q0 -164 -135 -275t-333 -111zM430 -366l117 329h134v-71l-108 -258
h-143z" />
    <glyph glyph-name="uni0219" unicode="&#x219;" horiz-adv-x="1007" 
d="M521 -14q-83 0 -155.5 22.5t-131.5 68t-93.5 122t-35.5 175.5h143q11 -138 79.5 -193t197.5 -55q108 0 169 36.5t61 106.5q0 49 -21.5 77t-77 49t-170.5 45q-68 14 -121.5 34t-103.5 52.5t-77.5 84t-27.5 117.5q0 125 101.5 207t253.5 82q94 0 168 -30t120 -82t71 -117
t28 -140h-139q-27 128 -81.5 178.5t-167.5 50.5q-94 0 -151 -38t-57 -109q0 -64 51 -95.5t172 -57.5q190 -39 283.5 -108t93.5 -198t-108 -207t-273 -78zM346 -366l115 329h136v-71l-108 -258h-143z" />
    <glyph glyph-name="uni021A" unicode="&#x21a;" horiz-adv-x="1269" 
d="M561 0v1255h-486v139h1117v-139h-488v-1255h-143zM457 -366l116 329h135v-71l-108 -258h-143z" />
    <glyph glyph-name="uni021B" unicode="&#x21b;" horiz-adv-x="737" 
d="M531 -12q-12 0 -38 2q-36 3 -62 13q-161 56 -161 269v609h-225v136h225v375h142v-375h232v-136h-232v-609q0 -83 27 -114.5t94 -31.5q43 0 111 12v-136q-57 -14 -113 -14zM267 -366l117 329h134v-71l-106 -258h-145z" />
    <glyph glyph-name="uni0237" unicode="&#x237;" horiz-adv-x="534" 
d="M62 -386q-123 0 -199 66l54 116q36 -19 52 -26.5t38.5 -12.5t52.5 -5h14q67 0 94 31.5t27 113.5v1120h142v-1120q0 -138 -70 -210.5t-191 -72.5h-14z" />
    <glyph glyph-name="circumflex" unicode="&#x2c6;" horiz-adv-x="749" 
d="M141 1490l182 308h103l182 -308h-167l-67 120l-69 -120h-164z" />
    <glyph glyph-name="caron" unicode="&#x2c7;" horiz-adv-x="749" 
d="M323 1490l-182 308h166l69 -121l67 121h165l-182 -308h-103z" />
    <glyph glyph-name="breve" unicode="&#x2d8;" horiz-adv-x="790" 
d="M394 1482q-115 0 -180 85t-47 219h138q-11 -87 11 -123t78 -36q58 0 80 35.5t12 123.5h137q19 -133 -47.5 -218.5t-181.5 -85.5z" />
    <glyph glyph-name="dotaccent" unicode="&#x2d9;" horiz-adv-x="944" 
d="M472 1551q-36 0 -62.5 26t-26.5 62q0 38 25.5 64.5t63.5 26.5q36 0 62.5 -27t26.5 -64q0 -36 -26.5 -62t-62.5 -26z" />
    <glyph glyph-name="ring" unicode="&#x2da;" horiz-adv-x="880" 
d="M271 1642q0 75 49.5 120t119.5 45t119.5 -45t49.5 -120q0 -73 -50 -118t-119 -45t-119 45t-50 118zM387 1642q0 -23 15 -36t38 -13t38 13t15 36q0 24 -15 37.5t-38 13.5t-38 -13.5t-15 -37.5z" />
    <glyph glyph-name="ogonek" unicode="&#x2db;" horiz-adv-x="993" 
d="M342 -413q-31 0 -59.5 9t-54.5 29t-41.5 56.5t-15.5 86.5q0 126 87 231t223 137l111 -114q-135 -20 -205 -87.5t-70 -160.5q0 -34 4 -39.5t29 -5.5q37 0 67 26.5t104 120.5v-207q-71 -82 -179 -82z" />
    <glyph glyph-name="tilde" unicode="&#x2dc;" horiz-adv-x="703" 
d="M448 1575q-41 0 -122 27q-36 12 -48 15q0 -22 -1 -34h-134q-17 76 13.5 128.5t97.5 52.5q34 0 123 -28q20 -6 47 -14q0 5 0.5 16.5t0.5 17.5h135q18 -77 -13 -129t-99 -52z" />
    <glyph glyph-name="hungarumlaut" unicode="&#x2dd;" horiz-adv-x="902" 
d="M476 1490l158 280h179l-183 -280h-154zM213 1490l158 280h180l-185 -280h-153z" />
    <glyph glyph-name="uni0326" unicode="&#x326;" horiz-adv-x="0" 
d="M215 -320l114 330h137v-73l-109 -257h-142z" />
    <glyph glyph-name="Wgrave" unicode="&#x1e80;" horiz-adv-x="1749" 
d="M413 0l-388 1394h150l307 -1110l333 1047h118l335 -1047l307 1110h149l-388 -1394h-128l-333 1050l-336 -1050h-126zM645 1778h180l158 -277h-153z" />
    <glyph glyph-name="wgrave" unicode="&#x1e81;" horiz-adv-x="1463" 
d="M342 0l-283 1017h151l203 -740l262 740h117l261 -738l204 738h147l-281 -1017h-123l-267 763l-271 -763h-120zM500 1520h176l169 -309h-152z" />
    <glyph glyph-name="Wacute" unicode="&#x1e82;" horiz-adv-x="1749" 
d="M413 0l-388 1394h150l307 -1110l333 1047h118l335 -1047l307 1110h149l-388 -1394h-128l-333 1050l-336 -1050h-126zM746 1501l158 277h180l-185 -277h-153z" />
    <glyph glyph-name="wacute" unicode="&#x1e83;" horiz-adv-x="1463" 
d="M342 0l-283 1017h151l203 -740l262 740h117l261 -738l204 738h147l-281 -1017h-123l-267 763l-271 -763h-120zM620 1211l169 309h176l-193 -309h-152z" />
    <glyph glyph-name="Wdieresis" unicode="&#x1e84;" horiz-adv-x="1749" 
d="M413 0l-388 1394h150l307 -1110l333 1047h118l335 -1047l307 1110h149l-388 -1394h-128l-333 1050l-336 -1050h-126zM670 1639q0 38 26.5 64.5t63.5 26.5t63 -26.5t26 -64.5q0 -36 -26.5 -62t-62.5 -26q-37 0 -63.5 26t-26.5 62zM905 1639q0 38 25.5 64.5t62.5 26.5
q36 0 63.5 -27t27.5 -64q0 -36 -27.5 -62t-63.5 -26q-37 0 -62.5 26t-25.5 62z" />
    <glyph glyph-name="wdieresis" unicode="&#x1e85;" horiz-adv-x="1463" 
d="M342 0l-283 1017h151l203 -740l262 740h117l261 -738l204 738h147l-281 -1017h-123l-267 763l-271 -763h-120zM526 1364q0 37 26.5 63.5t64.5 26.5q36 0 62 -26.5t26 -63.5q0 -36 -26 -62.5t-62 -26.5q-38 0 -64.5 26.5t-26.5 62.5zM761 1364q0 37 26 63.5t62 26.5
t63 -26.5t27 -63.5q0 -36 -26 -62.5t-64 -26.5q-36 0 -62 26.5t-26 62.5z" />
    <glyph glyph-name="uni1E9E" unicode="&#x1e9e;" horiz-adv-x="1265" 
d="M723 -8q-137 0 -252 29v151q129 -36 252 -36q229 0 229 155q0 53 -27 96.5t-115 124.5t-119 137.5t-31 130.5q0 73 31 129.5t119 137.5t115 124.5t27 96.5q0 155 -229 155h-359v-1423h-145v1567h506q174 0 274.5 -81t100.5 -223q0 -87 -49 -166t-149 -166
q-57 -49 -74.5 -79t-17.5 -72q0 -43 17.5 -73t74.5 -79q101 -87 149.5 -166t48.5 -165q0 -143 -101 -224t-276 -81z" />
    <glyph glyph-name="Ygrave" unicode="&#x1ef2;" horiz-adv-x="1154" 
d="M508 0l-4 421l-489 973h161l398 -803l403 803h162l-495 -973l5 -421h-141zM344 1778h180l158 -277h-152z" />
    <glyph glyph-name="ygrave" unicode="&#x1ef3;" horiz-adv-x="1035" 
d="M227 -213q50 -33 73.5 -25.5t50.5 75.5l91 219l-397 961h156l316 -779l319 779h154l-510 -1235q-50 -124 -130.5 -155t-178.5 36zM287 1520h177l168 -309h-151z" />
    <glyph glyph-name="endash" unicode="&#x2013;" horiz-adv-x="1062" 
d="M145 517v144h772v-144h-772z" />
    <glyph glyph-name="emdash" unicode="&#x2014;" horiz-adv-x="1846" 
d="M75 517v144h1696v-144h-1696z" />
    <glyph glyph-name="quoteleft" unicode="&#x2018;" horiz-adv-x="500" 
d="M113 910l-14 62l154 494h144l-160 -556h-124z" />
    <glyph glyph-name="quoteright" unicode="&#x2019;" horiz-adv-x="499" 
d="M103 910l159 556h125l13 -65l-153 -491h-144z" />
    <glyph glyph-name="quotesinglbase" unicode="&#x201a;" horiz-adv-x="469" 
d="M99 -214l119 363h124l12 -66l-112 -297h-143z" />
    <glyph glyph-name="quotedblleft" unicode="&#x201c;" horiz-adv-x="707" 
d="M322 910l-14 62l153 494h143l-157 -556h-125zM99 972l154 494h144l-160 -556h-124z" />
    <glyph glyph-name="quotedblright" unicode="&#x201d;" horiz-adv-x="710" 
d="M313 910l160 556h124l14 -64l-152 -492h-146zM103 910l159 556h125l13 -65l-153 -491h-144z" />
    <glyph glyph-name="quotedblbase" unicode="&#x201e;" horiz-adv-x="664" 
d="M99 -214l118 363h124l13 -66l-114 -297h-141zM294 -214l120 363h124l11 -66l-111 -297h-144z" />
    <glyph glyph-name="dagger" unicode="&#x2020;" horiz-adv-x="1091" 
d="M474 -296l-2 1044l-347 -2v147l347 -1l-2 489h152l-1 -489l345 1v-147l-345 2l1 -1044h-148z" />
    <glyph glyph-name="daggerdbl" unicode="&#x2021;" horiz-adv-x="1091" 
d="M474 -296l-2 487l-347 -2v148l347 -2v413l-347 -2v147l347 -1l-2 489h152l-1 -489l345 1v-147l-346 2v-413l346 2v-148l-345 2l1 -487h-148z" />
    <glyph glyph-name="bullet" unicode="&#x2022;" horiz-adv-x="580" 
d="M289 482q-57 0 -95.5 39t-38.5 96t38.5 96t95.5 39q58 0 97 -39t39 -96t-39 -96t-97 -39z" />
    <glyph glyph-name="ellipsis" unicode="&#x2026;" horiz-adv-x="831" 
d="M115 64q0 36 26.5 62t63.5 26t62.5 -26t25.5 -62q0 -38 -25.5 -64t-62.5 -26t-63.5 26t-26.5 64zM326 64q0 36 26 62t63 26q36 0 63.5 -26t27.5 -62q0 -37 -27.5 -63.5t-63.5 -26.5q-37 0 -63 26.5t-26 63.5zM537 64q0 36 26 62t64 26q36 0 62.5 -26t26.5 -62
q0 -37 -26.5 -63.5t-62.5 -26.5q-38 0 -64 26t-26 64z" />
    <glyph glyph-name="perthousand" unicode="&#x2030;" horiz-adv-x="1853" 
d="M108 0l894 1381h174l-895 -1381h-173zM75 1062q0 147 78.5 246t210.5 99q131 0 209 -99t78 -246q0 -146 -77.5 -247t-209.5 -101q-131 0 -210 101t-79 247zM224 1062q0 -204 140 -204t140 204q0 202 -140 202t-140 -202zM632 321q0 148 78.5 247t210.5 99
q116 0 191.5 -78t92.5 -202q17 124 92.5 202t192.5 78q131 0 209.5 -99t78.5 -247q0 -145 -78.5 -246t-209.5 -101q-116 0 -191.5 79.5t-92.5 202.5q-17 -123 -92.5 -202.5t-192.5 -79.5q-132 0 -210.5 101t-78.5 246zM781 321q0 -205 140 -205q141 0 141 205
q0 202 -141 202q-140 0 -140 -202zM1349 321q0 -205 141 -205q139 0 139 205q0 202 -139 202q-141 0 -141 -202z" />
    <glyph glyph-name="guilsinglleft" unicode="&#x2039;" horiz-adv-x="646" 
d="M371 152l-296 359l296 360h190l-296 -360l296 -359h-190z" />
    <glyph glyph-name="guilsinglright" unicode="&#x203a;" horiz-adv-x="646" 
d="M85 152l296 359l-296 360h189l297 -360l-297 -359h-189z" />
    <glyph glyph-name="fraction" unicode="&#x2044;" horiz-adv-x="164" 
d="M-285 -70l509 1492l151 26l-509 -1493z" />
    <glyph glyph-name="Euro" unicode="&#x20ac;" horiz-adv-x="1188" 
d="M714 -26q-226 0 -362.5 136.5t-166.5 406.5h-197l70 144h119v24q0 13 2 37h-144l67 143h87q39 263 182 402.5t351 139.5q126 0 211 -37.5t162 -125.5l-99 -106q-66 75 -122.5 100.5t-155.5 25.5q-69 0 -127.5 -21t-110 -66t-88 -124.5t-52.5 -187.5h711l-76 -143h-648
v-30v-31h640l-61 -144h-569q27 -213 120.5 -307t266.5 -94q88 0 161 30t150 99v-179q-143 -92 -321 -92z" />
    <glyph glyph-name="trademark" unicode="&#x2122;" horiz-adv-x="1042" 
d="M452 855v348h-122v-348h-128v348h-157v122h443v-2h95l103 -269l104 269h127v-468h-124l2 154l-59 -150h-103l-58 150l1 -154h-124z" />
    <glyph glyph-name="partialdiff" unicode="&#x2202;" horiz-adv-x="1093" 
d="M520 -26q-183 0 -299 130t-116 332q0 233 130.5 373t331.5 140q144 0 255 -86q-42 501 -310 501q-80 0 -136.5 -25t-124.5 -91l-91 111q81 78 167 112.5t189 34.5q462 0 462 -857q0 -122 -16 -224t-51.5 -186.5t-88.5 -142.5t-129.5 -90t-172.5 -32zM254 439
q0 -156 72 -239.5t194 -83.5q156 0 230 117.5t79 397.5q-83 176 -260 176q-150 0 -232.5 -98t-82.5 -270z" />
    <glyph glyph-name="emptyset" unicode="&#x2205;" horiz-adv-x="1722" 
d="M861 -28q-129 0 -249 44t-216 124l-157 -154l-101 100l158 160q-161 202 -161 464q0 205 99 375t265.5 265.5t361.5 95.5q129 0 249.5 -44t216.5 -124l157 154l101 -100l-158 -160q160 -199 160 -462q0 -155 -58 -292.5t-156.5 -235t-232 -154t-279.5 -56.5zM285 710
q0 -205 116 -360l823 823q-156 131 -363 131q-159 0 -291 -76t-208.5 -212.5t-76.5 -305.5zM498 246q156 -130 363 -130q160 0 292 75.5t209 212t77 306.5q0 203 -117 359z" />
    <glyph glyph-name="product" unicode="&#x220f;" horiz-adv-x="1096" 
d="M189 -205v1443h-104v143h926v-143h-102v-1443h-145v1443h-429v-1443h-146z" />
    <glyph glyph-name="summation" unicode="&#x2211;" horiz-adv-x="1090" 
d="M45 -205v107l521 709l-467 664v106h907v-143h-703l441 -631l-492 -668h765v-144h-972z" />
    <glyph glyph-name="minus" unicode="&#x2212;" horiz-adv-x="1028" 
d="M91 568v144h846v-144h-846z" />
    <glyph glyph-name="radical" unicode="&#x221a;" horiz-adv-x="1116" 
d="M484 -296l-244 831h-137v143h243l201 -684l359 1554h149l-429 -1844h-142z" />
    <glyph glyph-name="infinity" unicode="&#x221e;" horiz-adv-x="2004" 
d="M567 -26q-214 0 -348 157.5t-134 409.5t134 410.5t348 158.5q148 0 258.5 -75t175.5 -220q61 143 174.5 219t261.5 76q215 0 348.5 -158.5t133.5 -410.5t-134 -409.5t-348 -157.5q-148 0 -258.5 76t-176.5 223q-62 -146 -174 -222.5t-261 -76.5zM233 541
q0 -109 27 -192.5t74.5 -133t106 -74.5t126.5 -25q51 0 97 12.5t90.5 43t78.5 78t58.5 122t32.5 169.5q-61 427 -357 427q-68 0 -126.5 -25t-106 -74.5t-74.5 -133.5t-27 -194zM1081 543q16 -119 50.5 -205t84 -133t103.5 -68t118 -21q67 0 125.5 25t106 74.5t74.5 133
t27 192.5q0 110 -27 194t-74.5 133.5t-106 74.5t-125.5 25q-65 0 -121 -21t-107 -67.5t-85 -132.5t-43 -204z" />
    <glyph glyph-name="integral" unicode="&#x222b;" horiz-adv-x="639" 
d="M242 -296q-52 0 -101.5 28t-75.5 81l98 107q27 -48 41.5 -60.5t39.5 -12.5q35 0 52 44.5t17 166.5q0 137 -67 530q-41 258 -54.5 368t-13.5 205q0 91 19 159.5t51.5 106t69 55t77.5 17.5q55 0 104.5 -28t74.5 -83l-97 -102q-29 47 -43 58.5t-41 11.5q-33 0 -49.5 -44
t-16.5 -166q0 -134 65 -531q40 -239 54.5 -356.5t14.5 -214.5q0 -92 -19 -160.5t-51.5 -106.5t-69.5 -55.5t-79 -17.5z" />
    <glyph glyph-name="approxequal" unicode="&#x2248;" horiz-adv-x="1180" 
d="M784 647q-53 0 -100 17t-127 58q-67 35 -94.5 45t-64.5 10q-58 0 -85 -23.5t-85 -115.5l-107 84q90 199 277 199q55 0 103 -17t124 -59q70 -35 97 -45t62 -10q57 0 84.5 23.5t86.5 117.5l106 -86q-91 -198 -277 -198zM121 390q89 197 277 197q55 0 104 -17t123 -57
q67 -35 95 -45t64 -10q58 0 85 23t86 116l106 -84q-89 -198 -277 -198q-54 0 -102.5 17t-124.5 58q-71 36 -97.5 45.5t-61.5 9.5q-58 0 -85 -23.5t-85 -117.5z" />
    <glyph glyph-name="notequal" unicode="&#x2260;" 
d="M206 191l123 210h-218v144h302l112 190h-414v143h497l123 212h167l-126 -212h221v-143h-304l-110 -190h414v-144h-499l-123 -210h-165z" />
    <glyph glyph-name="lessequal" unicode="&#x2264;" horiz-adv-x="1028" 
d="M937 230l-846 368v104l846 370v-158l-610 -264l610 -262v-158zM91 26v144h846v-144h-846z" />
    <glyph glyph-name="greaterequal" unicode="&#x2265;" horiz-adv-x="1028" 
d="M91 230v158l610 262l-610 264v158l846 -370v-103zM91 26v144h846v-144h-846z" />
    <glyph glyph-name="lozenge" unicode="&#x25ca;" horiz-adv-x="947" 
d="M420 0l-335 690l335 691h107l335 -691l-335 -690h-107zM246 690l228 -473l227 473l-227 472z" />
    <glyph glyph-name="uniF8FF" unicode="&#xf8ff;" horiz-adv-x="1592" 
d="M783 253q-151 0 -279.5 75.5t-203 204.5t-74.5 280q0 152 75 280.5t203.5 203t280.5 74.5q151 0 279.5 -75t203.5 -203.5t75 -279.5q0 -152 -74.5 -281t-203.5 -204t-282 -75zM225 29v146h59q26 0 44 -9q37 -17 37 -64q0 -23 -10 -39q-21 -34 -71 -34h-59zM260 56h22
q18 0 26 4q22 10 22 42q0 18 -5 27q-12 20 -43 20h-22v-93zM293 814q0 -205 144 -350t348 -145q203 0 347.5 144.5t144.5 347.5q0 100 -39 191.5t-104.5 157.5t-156 105t-190.5 40q-134 0 -248 -65.5t-180 -178.5t-66 -247zM377 84q0 16 8 29q16 27 52 27q26 0 42 -14
q18 -15 18 -42v-8h-85q0 -8 3 -13q7 -13 25 -13q7 0 10 1q9 3 14 12l31 -3q-2 -10 -10 -17q-14 -16 -45 -16q-17 0 -33 7q-30 14 -30 50zM412 95h52l-3 10q-6 12 -23 12q-10 0 -14 -3q-10 -6 -12 -19zM467 912q10 -2 12 -4q52 -21 98 -27q41 -3 72 2q43 11 47 12
q3 0 8.5 2.5t7.5 3.5q-5 2 -16.5 8t-17 9t-13 8.5t-13.5 12.5h19q39 0 75 19q65 40 136 61q24 8 58 11q4 0 19.5 1t23.5 0q54 -2 89 -33q10 -11 28 -33v-2l-6 2q-45 17 -83 3.5t-62 -53.5q-7 -13 -25 -55q-9 -21 -27 -63.5t-20 -48.5q-33 -64 -65 -101q-27 -33 -66 -58
q-45 -34 -116 -55h-5l24 22q12 11 25 44q41 116 45 127q24 73 57 131v3q-2 -4 -11 -13q-8 -10 -10 -12q-23 -36 -31 -57q-2 -6 -8 -6q-99 3 -177 67q-40 38 -59 55q-1 1 -5 7t-8 10zM506 61l33 2q5 -14 23 -14q20 0 20 11q0 8 -16 11l-21 4q-36 6 -36 31q0 10 6 18
q13 16 46 16q48 0 53 -32l-31 -3q-3 14 -21 14q-19 0 -19 -11q0 -8 16 -12l22 -3q36 -6 36 -30q0 -9 -7 -18q-14 -18 -48 -18q-51 0 -56 34zM630 168q0 15 19 15q18 0 18 -15t-18 -15q-19 0 -19 15zM632 29v109h34v-109h-34zM681 84q0 20 7 31q13 25 43 25q11 0 18 -3
q12 -5 18 -17h1v18h35v-110q0 -14 -9 -23q-15 -19 -52 -19q-50 0 -57 31l31 3l6 -6q4 -6 21 -6q25 0 25 21v19h-1q-2 -3 -7 -8q-11 -9 -29 -9q-13 0 -25 5q-25 13 -25 48zM716 84q0 -10 3 -16q6 -14 24 -14q25 0 25 30q0 10 -3 17q-6 15 -22 15q-7 0 -15 -4q-12 -7 -12 -28z
M823 29v109h34v-19q10 21 37 21q13 0 23 -5q20 -10 20 -36v-70h-35v64q0 22 -21 22q-7 0 -13 -3q-11 -6 -11 -19v-64h-34zM952 84q0 15 7 29q16 27 54 27q20 0 33 -7q28 -16 28 -49q0 -17 -7 -30q-16 -27 -54 -27q-15 0 -33 7q-28 16 -28 50zM987 84q0 -9 3 -18
q7 -15 23 -15q10 0 15 4q12 9 12 29q0 2 -3 17q-8 16 -24 16q-7 0 -14 -5q-12 -7 -12 -28zM1076 138h36l26 -78h1l26 78h36l-43 -109h-39zM1202 60q0 17 15 25q13 8 32 8l17 3q13 0 13 7v1q0 14 -19 14q-17 0 -22 -13l-32 3q4 10 10 17q15 15 45 15q21 0 37 -9q15 -8 15 -28
v-74h-33v16q-5 -7 -9 -9q-9 -9 -27 -9q-13 0 -21 4q-21 8 -21 29zM1235 60q0 -12 18 -12q8 0 14 3q12 5 12 18v11q-3 -2 -23 -5q-8 0 -12 -3q-9 -3 -9 -12zM1292 177q0 16 11 26.5t27 10.5t26.5 -10.5t10.5 -26.5t-10.5 -27t-26.5 -11t-27 11t-11 27zM1304 177
q0 -11 7.5 -19t18.5 -8t18.5 8t7.5 19t-7.5 18.5t-18.5 7.5t-18.5 -7.5t-7.5 -18.5zM1317 160v35h14q12 0 12 -11q0 -5 -5 -10l8 -14h-10l-6 11h-5v-11h-8zM1325 180h6q5 0 5 3t-5 3h-6v-6z" />
    <glyph glyph-name="_Designova" horiz-adv-x="1742" 
d="M869 41q-174 0 -322.5 87t-235 235.5t-86.5 323.5q1 131 52 250.5t137.5 205.5t206 137t250.5 51q175 0 323.5 -86t235.5 -234.5t87 -323.5q0 -176 -87 -324.5t-236 -235t-325 -86.5zM303 687q0 -116 45 -221.5t120.5 -181.5t181 -121t221.5 -45q154 0 285 76t207 207
t76 285q0 116 -45 221.5t-120.5 181.5t-180.5 121t-221 45t-221 -45t-181.5 -120.5t-121.5 -181t-45 -221.5zM505 800q7 0 13 -4q58 -22 115 -31q45 -5 81 3q29 4 53 14q5 0 11.5 3t8.5 4q-5 3 -22.5 11.5t-27.5 15.5t-19 17h21q39 0 86 20q85 53 158 73q37 10 66 10
q7 0 25 1.5t26 0.5q66 -4 102 -39q6 -5 33 -37v-2q-3 2 -7 2q-53 20 -95.5 4.5t-71.5 -59.5q-5 -9 -10 -20.5t-11 -25t-9 -21.5q-6 -14 -25 -59t-30 -68q-36 -74 -74 -119q-20 -27 -74 -66q-52 -38 -136 -63h-7l28 24q18 17 30 51q7 20 25 71t27 78q31 90 65 150v1
q-3 -3 -11 -13q-9 -7 -11 -16q-23 -27 -38 -65q-3 -5 -9 -5q-117 5 -204 78q-10 10 -32.5 31t-33.5 32q-12 14 -16 18z" />
    <glyph glyph-name="_Origin" horiz-adv-x="2245" 
d="M145 1055v50h1955v-50h-1955zM145 236v50h1955v-50h-1955zM223 437v177h42v-177h-42zM255 734v177h148v-32h-107v-39h97v-31h-97v-42h107v-33h-148zM293 437v177h34l89 -107v107h40v-177h-33l-88 109v-109h-42zM433 734v177h34l88 -107v107h40v-177h-33l-88 109v-109h-41
zM549 437v177h87q72 0 72 -45q0 -28 -26 -40q3 0 3 -2q28 -12 28 -42q0 -48 -71 -48h-93zM591 468h48q32 0 32 22t-32 22h-48v-44zM591 545h42q33 0 33 20q0 22 -33 22h-42v-42zM624 879v32h156v-32h-57v-145h-41v145h-58zM733 437v177h148v-33h-107v-38h96v-31h-96v-41h105
v-34h-146zM798 911h44l40 -124l42 124h38l40 -126l42 126h39l-57 -177h-45l-39 121l-41 -121h-43zM909 437v177h81q28 0 42 -6q36 -19 36 -57q0 -21 -10 -35q-15 -18 -29 -23l37 -56h-43l-35 50h-37v-50h-42zM951 520h37q38 0 38 31q0 30 -38 30h-37v-61zM1088 437v177h40
v-143h106v-34h-146zM1091 823q0 39 28 65q26 26 69 26t69 -26q28 -25 28 -65q0 -39 -28 -65q-25 -27 -68 -27q-45 0 -70 27q-28 28 -28 65zM1133 823q0 -25 15.5 -40.5t39.5 -15.5t39.5 15.5t15.5 40.5t-15.5 41.5t-39.5 16.5t-39.5 -16.5t-15.5 -41.5zM1263 437v177h41
v-177h-41zM1308 734v177h81q28 0 41 -6q36 -17 36 -57q0 -21 -10 -35q-9 -15 -29 -23l39 -56h-45l-33 50h-39v-50h-41zM1333 437v177h35l87 -107v107h42v-177h-34l-89 109v-109h-41zM1349 817h37q38 0 38 31t-38 31h-37v-62zM1486 734v177h148v-32h-107v-39h96v-31h-96v-75
h-41zM1523 461q0 24 25 24q10 0 17 -7t7 -17q0 -11 -7 -25l-14 -38h-26l12 41q-14 5 -14 22zM1650 734v177h147v-32h-106v-39h95v-31h-95v-42h106v-33h-147zM1673 437v177h80q30 0 52 -11q46 -21 46 -77q0 -28 -12 -47q-23 -42 -86 -42h-80zM1715 471h37q17 0 31 7
q26 14 26 48q0 21 -6 29q-14 26 -51 26h-37v-110zM1827 734v177h33l90 -107v107h40v-177h-34l-89 109v-109h-40zM1875 437v177h147v-33h-107v-38h97v-31h-97v-41h106v-34h-146z" />
    <glyph glyph-name="_VendorID" horiz-adv-x="1166" 
d="M98 154v1187h974v-1187h-974zM101 63q0 13 7.5 20.5t18.5 7.5q9 0 12 -3l4 -5v26h13v-72h-13v9l-4 -7q-7 -5 -15 -5q-23 0 -23 29zM115 63q0 -17 13 -17q15 0 15 17v1q0 18 -13 18q-15 0 -15 -19zM151 205h869v1084h-869v-1084zM166 63q0 13 7.5 20.5t19.5 7.5
q11 0 18.5 -7.5t7.5 -19.5q0 -2 -2 -5h-37q1 -13 13 -13q10 0 12 9h12q-5 -21 -24 -21q-27 0 -27 29zM180 67h25q-3 15 -12 15q-11 0 -13 -15zM223 52h14q3 -9 9 -9q9 0 9 7q0 3 -12 9q-18 5 -18 16q0 16 21 16t21 -16h-14q-1 7 -7 7q-7 0 -7 -6q0 -4 12 -9q17 -5 17 -15
q0 -18 -22 -18q-20 0 -23 18zM265 455q0 59 46 125l97 137h64l-84 -120q10 3 23 3q62 0 102.5 -41.5t40.5 -103.5q0 -61 -41.5 -103.5t-101.5 -42.5q-61 0 -103.5 42.5t-42.5 103.5zM265 926q0 56 46 123l97 142h64l-84 -122q7 2 23 2q63 0 103 -41t40 -104
q0 -61 -41 -102.5t-102 -41.5t-103.5 42t-42.5 102zM276 102q0 7 8 7t8 -7q0 -8 -8 -8t-8 8zM277 37v54h14v-54h-14zM301 63q0 28 26 28q9 0 12 -3l4 -5v8h14v-41q0 -8 -2 -11q0 -24 -27 -24q-26 0 -26 18v1h14v-1q0 -8 12 -8q11 0 15 13v8l-4 -7q-8 -2 -14 -2q-24 0 -24 26
zM316 64q0 -18 12 -18q15 0 15 17v1q0 18 -15 18q-12 0 -12 -18zM319 455q0 -42 25.5 -68t66.5 -26q39 0 64.5 26t25.5 68q0 40 -25.5 65t-64.5 25q-41 0 -66.5 -25t-25.5 -65zM319 926q0 -41 25.5 -67t66.5 -26q39 0 64.5 26.5t25.5 66.5t-25.5 66t-64.5 26
q-41 0 -66.5 -25t-25.5 -67zM368 37v54h14v-10l4 7q5 3 13 3q17 0 20 -15q1 -3 1 -9v-30h-15v34q0 11 -10 11q-13 0 -13 -21v-24h-14zM427 63q0 13 7.5 20.5t19.5 7.5q28 0 28 -28q0 -29 -28 -29q-12 0 -19.5 8t-7.5 21zM441 63q0 -17 13 -17q15 0 15 17q0 19 -15 19
q-13 0 -13 -19zM487 91h14l14 -45l13 45h14l-19 -54h-18zM547 52q0 16 30 16h3v7q0 7 -9 7q-11 0 -11 -9h-13q0 18 24 18q19 0 21 -15v-39h-12v6l-3 -5q-8 -4 -14 -4q-16 0 -16 18zM560 52q0 -6 8 -6q12 0 12 9v6q-20 2 -20 -9zM601 80v9h6v8q0 15 19 15h6v-11q-11 2 -11 -5
v-7h11v-9h-11v-43h-14v43h-6zM614 455q0 62 44 125l97 137h66l-86 -120q11 3 25 3q61 0 102 -41.5t41 -103.5q0 -61 -41.5 -103.5t-101.5 -42.5q-61 0 -103.5 42.5t-42.5 103.5zM614 926q0 57 44 123l97 142h66l-87 -122q8 2 26 2q61 0 102 -41.5t41 -103.5
q0 -61 -41.5 -102.5t-101.5 -41.5q-61 0 -103.5 41.5t-42.5 102.5zM636 63q0 28 28 28q27 0 27 -28q0 -29 -27 -29q-28 0 -28 29zM650 63q0 -17 14 -17q13 0 13 17q0 19 -13 19q-14 0 -14 -19zM667 455q0 -42 26 -68t67 -26q38 0 62.5 26t24.5 68q0 40 -24.5 65t-62.5 25
q-41 0 -67 -25t-26 -65zM667 926q0 -41 26 -67t67 -26q38 0 62.5 26t24.5 67q0 40 -24.5 66t-62.5 26q-41 0 -67 -25.5t-26 -66.5zM700 37v54h12v-10l6 7q4 3 13 3q16 0 19 -15v-39h-14v34q-4 11 -9 11q-15 0 -15 -21v-24h-12zM757 80v9h8v13h14v-13h10v-9h-10v-28
q2 -10 9 -6v-10h-8q-15 0 -15 10v34h-8zM793 52h15q2 -9 10 -9t8 7q0 3 -12 9q-17 5 -17 16q0 16 20 16q19 0 24 -16h-16q0 7 -9 7q-5 0 -5 -6q0 -5 11 -9q19 -6 19 -15q0 -18 -23 -18q-20 0 -25 18zM845 42q0 10 9 10t9 -10q0 -8 -9 -8t-9 8zM869 63q0 13 8 20.5t18 7.5
q25 0 25 -20h-13q-3 11 -12 11q-12 0 -12 -19q0 -17 12 -17q10 0 12 9h13q-2 -21 -25 -21q-26 0 -26 29zM925 63q0 28 29 28q26 0 26 -28q0 -29 -26 -29q-29 0 -29 29zM939 63q0 -17 15 -17q13 0 13 17q0 19 -13 19q-15 0 -15 -19zM990 37v54h14v-9l5 6q3 3 9 3q13 0 18 -10
l5 7q3 3 11 3q17 0 17 -12q1 -4 1 -12v-30h-13v27q0 2 -0.5 5t-0.5 4q0 9 -10 9q-9 0 -9 -18v-27h-13v36q-4 9 -10 9q-10 0 -10 -18v-27h-14z" />
    </font>
</defs>
</svg>
