<?xml version="1.0" standalone="no"?>
<!DOCTYPE svg PUBLIC "-//W3C//DTD SVG 1.1//EN" "http://www.w3.org/Graphics/SVG/1.1/DTD/svg11.dtd" >
<svg xmlns="http://www.w3.org/2000/svg" xmlns:xlink="http://www.w3.org/1999/xlink" version="1.1">
<metadata>
Created by FontForge 20201107 at Tue Feb 27 18:47:32 2024
 By 
Copyright (c) 2024 by Designova. All rights reserved.
</metadata>
<defs>
<font id="RovelleUno-BoldItalic" horiz-adv-x="1077" >
  <font-face 
    font-family="Rovelle Uno"
    font-weight="700"
    font-style="italic"
    font-stretch="normal"
    units-per-em="2048"
    panose-1="0 0 0 0 0 0 0 0 0 0"
    ascent="1638"
    descent="-410"
    x-height="986"
    cap-height="1394"
    bbox="-321 -538 2257 1937"
    underline-thickness="100"
    underline-position="-255"
    unicode-range="U+0020-F8FF"
  />
<missing-glyph horiz-adv-x="1190" 
d="M135 19l213 1342h926l-213 -1342h-926zM283 253l357 444l-216 443zM310 129h609l-229 469zM498 1252l223 -456l367 456h-590zM770 697l217 -444l141 887z" />
    <glyph glyph-name=".notdef" horiz-adv-x="1190" 
d="M135 19l213 1342h926l-213 -1342h-926zM283 253l357 444l-216 443zM310 129h609l-229 469zM498 1252l223 -456l367 456h-590zM770 697l217 -444l141 887z" />
    <glyph glyph-name=".null" horiz-adv-x="0" 
 />
    <glyph glyph-name="nonmarkingreturn" horiz-adv-x="682" 
 />
    <glyph glyph-name="space" unicode=" " horiz-adv-x="493" 
 />
    <glyph glyph-name="exclam" unicode="!" horiz-adv-x="634" 
d="M268 394l133 986h270l-181 -986h-222zM180 128q11 69 62 112.5t119 43.5q69 0 106.5 -43.5t26.5 -112.5q-10 -69 -61.5 -112.5t-120.5 -43.5q-68 0 -105 43.5t-27 112.5z" />
    <glyph glyph-name="quotedbl" unicode="&#x22;" horiz-adv-x="820" 
d="M626 920l61 550h246l-113 -550h-194zM292 920l61 550h246l-115 -550h-192z" />
    <glyph glyph-name="numbersign" unicode="#" horiz-adv-x="1088" 
d="M142 0l156 418h-172l25 156h204l87 232h-194l24 156h226l157 418h166l-157 -418h176l157 418h166l-157 -418h174l-24 -156h-206l-87 -232h196l-25 -156h-228l-156 -418h-166l156 418h-176l-156 -418h-166zM521 574h176l87 232h-176z" />
    <glyph glyph-name="dollar" unicode="$" horiz-adv-x="1057" 
d="M461 -20q-79 12 -142.5 47t-109.5 91.5t-63.5 142t-0.5 190.5h163q-40 -266 179 -308l76 481q-66 24 -115.5 54.5t-92 76.5t-59 113.5t-3.5 150.5q24 151 134 253t259 128l23 145h163l-23 -144q86 -13 148.5 -57.5t93 -107t43 -140.5t-1.5 -158h-163q15 132 -20.5 205
t-125.5 94l-77 -485q330 -119 283 -408q-21 -137 -130 -240t-275 -124l-23 -144h-163zM459 1019q-14 -87 19 -136t113 -83l69 436q-173 -42 -201 -217zM649 141q188 30 215 199q13 87 -21.5 140.5t-124.5 93.5z" />
    <glyph glyph-name="percent" unicode="%" horiz-adv-x="1238" 
d="M75 0l1113 1381h194l-1114 -1381h-193zM217 1056q24 149 119.5 249.5t230.5 100.5t199 -100.5t40 -249.5q-23 -148 -119 -250t-231 -102q-134 0 -198 102t-41 250zM383 1056q-15 -98 8.5 -144.5t89.5 -46.5q67 0 105.5 47t53.5 144q16 98 -7.5 144t-91.5 46
q-66 0 -104 -46t-54 -144zM651 326q23 149 118.5 250t230.5 101t199 -101t41 -250q-24 -147 -120 -249t-231 -102q-90 0 -150 49t-81.5 128t-6.5 174zM817 326q-16 -98 7.5 -145t89.5 -47q68 0 106.5 47t54.5 145q15 99 -8.5 144.5t-91.5 45.5q-66 0 -104.5 -46.5
t-53.5 -143.5z" />
    <glyph glyph-name="ampersand" unicode="&#x26;" horiz-adv-x="1224" 
d="M918 71q-172 -128 -404 -147q-139 -8 -239 30q-108 41 -162.5 128.5t-44.5 211.5q16 196 184 340q62 50 140 100q-2 4 -6 11t-7 11q-83 135 -72 274q14 169 141 285.5t309 129.5q180 14 273 -76.5t79 -235.5q-13 -136 -94 -237q-93 -113 -263 -210l200 -248
q75 134 102 333h237q-37 -270 -155 -463q-20 -32 -37 -54l169 -209l-197 -162zM310 311q-8 -88 43.5 -123t179.5 -27q146 10 247 81l-255 314q-9 -5 -26 -16t-25 -16q-85 -53 -122 -99t-42 -114zM548 1047q-4 -35 9 -74q15 -46 57 -113q27 15 113 69q75 50 106 88.5t35 96.5
q7 63 -18.5 84t-113.5 14q-93 -6 -137 -46t-51 -119z" />
    <glyph glyph-name="quotesingle" unicode="'" horiz-adv-x="486" 
d="M294 920l59 550h246l-113 -550h-192z" />
    <glyph glyph-name="parenleft" unicode="(" horiz-adv-x="572" 
d="M357 -160q-228 341 -146 860q81 517 418 860h150q-318 -392 -392 -860q-74 -469 120 -860h-150z" />
    <glyph glyph-name="parenright" unicode=")" horiz-adv-x="572" 
d="M15 -160q318 392 392 860q74 469 -120 860h150q228 -340 146 -860q-41 -258 -148 -476t-270 -384h-150z" />
    <glyph glyph-name="asterisk" unicode="*" horiz-adv-x="896" 
d="M301 146l-131 108l250 248l-280 68l84 176l258 -116l24 320h184l-74 -320l292 116l28 -176l-300 -68l172 -248l-165 -108l-128 276z" />
    <glyph glyph-name="plus" unicode="+" horiz-adv-x="985" 
d="M436 158l64 402h-345l25 161h345l64 401h162l-64 -401h346l-25 -161h-346l-64 -402h-162z" />
    <glyph glyph-name="comma" unicode="," horiz-adv-x="590" 
d="M35 -244l241 524h268l-3 -20l-282 -504h-224z" />
    <glyph glyph-name="hyphen" unicode="-" horiz-adv-x="604" 
d="M147 488l25 156h464l-25 -156h-464z" />
    <glyph glyph-name="period" unicode="." horiz-adv-x="514" 
d="M252 -28q-73 0 -112 47t-28 121q12 74 66 121t127 47q75 0 114 -47t27 -121q-11 -74 -65 -121t-129 -47z" />
    <glyph glyph-name="slash" unicode="/" horiz-adv-x="722" 
d="M0 -60l740 1500h172l-740 -1500h-172z" />
    <glyph glyph-name="zero" unicode="0" horiz-adv-x="1234" 
d="M614 -28q-538 0 -425 718q114 718 652 718q536 0 422 -718q-113 -718 -649 -718zM481 690q-37 -235 4.5 -347.5t168.5 -112.5q126 0 203 112.5t114 347.5q38 237 -3.5 348.5t-167.5 111.5q-127 0 -204 -111.5t-115 -348.5z" />
    <glyph glyph-name="one" unicode="1" horiz-adv-x="884" 
d="M524 0l173 1090l-438 -222l42 260l350 190q118 62 232 62h136l-219 -1380h-276z" />
    <glyph glyph-name="two" unicode="2" horiz-adv-x="1090" 
d="M47 -35l26 161l534 436q95 78 151.5 133.5t87.5 103t42.5 82t20.5 89.5q16 101 -26.5 151t-155.5 50q-225 0 -288 -243l-28 -101h-230l29 120q54 200 207.5 323.5t345.5 123.5q108 0 189.5 -34.5t127 -93t62.5 -134.5t4 -162q-23 -142 -112.5 -273t-282.5 -287l-272 -221
h601l-36 -224h-997z" />
    <glyph glyph-name="three" unicode="3" horiz-adv-x="1154" 
d="M572 -45q-130 0 -229 41.5t-153 114.5t-68.5 173t24.5 216l236 10q-63 -169 -7.5 -250.5t232.5 -81.5q287 0 323 223q17 110 -45 166.5t-207 56.5q-63 0 -184 -25l28 179l384 390h-637l36 226h997l-25 -156l-408 -410q157 -41 235.5 -155.5t53.5 -271.5
q-32 -195 -195 -320.5t-391 -125.5z" />
    <glyph glyph-name="four" unicode="4" horiz-adv-x="1206" 
d="M714 0l52 326h-664l23 148l790 906h294l-133 -836h170l-34 -218h-170l-52 -326h-276zM438 544h362l83 524q-55 -75 -115 -146z" />
    <glyph glyph-name="five" unicode="5" horiz-adv-x="1094" 
d="M522 -49q-64 0 -123.5 15t-113 48.5t-92 82.5t-59.5 122t-16 161l3 44h233l-1 -26q-6 -111 43.5 -165.5t163.5 -54.5q121 0 204 64t105 203q42 265 -197 265h-26q-103 0 -167 -49.5t-102 -157.5h-229l259 891h819l-36 -226h-615l-78 -264q88 30 181 30h33q142 0 240 -66
t136.5 -176t17.5 -245q-18 -113 -74 -207.5t-135.5 -157t-176 -97t-197.5 -34.5z" />
    <glyph glyph-name="six" unicode="6" horiz-adv-x="1142" 
d="M571 -20q-140 0 -247 62q-109 63 -160.5 173.5t-30.5 248.5q23 141 122 262l520 668h288l-380 -465q37 9 74 9q133 0 232 -63q99 -64 143.5 -170t23.5 -239q-22 -141 -109 -252t-211.5 -172.5t-264.5 -61.5zM390 466q-12 -75 13 -130q25 -56 79.5 -87t126.5 -31
q70 0 132 31q65 32 108 88.5t55 130.5q18 112 -43 181t-173 69t-196 -69t-102 -183z" />
    <glyph glyph-name="seven" unicode="7" horiz-adv-x="1056" 
d="M128 0l775 1162h-709l37 232h1006l-29 -182l-804 -1212h-276z" />
    <glyph glyph-name="eight" unicode="8" horiz-adv-x="1178" 
d="M581 -30q-118 0 -208 23.5t-153.5 72.5t-89.5 131t-8 193q20 125 110.5 214t211.5 126q-88 35 -132 109.5t-25 186.5q27 173 172 277.5t370 104.5q224 0 334.5 -104.5t83.5 -277.5q-18 -113 -93.5 -187t-181.5 -109q107 -37 167.5 -126t40.5 -214q-17 -110 -72.5 -192.5
t-138.5 -131t-180 -72.5t-208 -24zM413 396q-17 -102 37 -161t168 -59q119 0 187.5 58.5t84.5 159.5q17 101 -34.5 162.5t-169.5 61.5q-111 0 -184.5 -62t-88.5 -160zM571 1014q-14 -89 27 -140.5t132 -51.5q93 0 155 51.5t76 140.5q13 84 -31.5 136t-137.5 52
q-89 0 -148.5 -52t-72.5 -136z" />
    <glyph glyph-name="nine" unicode="9" horiz-adv-x="1142" 
d="M682 465q-38 -9 -74 -9q-133 0 -232 63q-99 64 -144.5 170.5t-24.5 238.5q23 144 110 252q87 110 213 172t264 62q142 0 248 -62q108 -63 158.5 -173.5t28.5 -248.5q-21 -138 -119 -262l-522 -668h-286zM461 926q-17 -109 43 -179.5t173 -70.5q112 0 196 69t102 183
q18 111 -44.5 179.5t-174.5 68.5q-71 0 -134 -31q-65 -32 -107 -87.5t-54 -131.5z" />
    <glyph glyph-name="colon" unicode=":" horiz-adv-x="554" 
d="M272 -28q-73 0 -112 47t-28 121q12 74 66 121t127 47q75 0 114 -47t27 -121q-11 -74 -65 -121t-129 -47zM256 924q12 75 65.5 121.5t127.5 46.5q75 0 114 -46.5t27 -121.5q-11 -74 -65 -120t-129 -46q-73 0 -112 46t-28 120z" />
    <glyph glyph-name="semicolon" unicode=";" horiz-adv-x="672" 
d="M55 -244l243 532h268l-5 -32l-280 -500h-226zM374 924q12 75 65.5 121.5t127.5 46.5q75 0 114 -46.5t27 -121.5q-11 -74 -65 -120t-129 -46q-73 0 -112 46t-28 120z" />
    <glyph glyph-name="less" unicode="&#x3c;" horiz-adv-x="986" 
d="M932 73l-789 415l18 113l920 415l-29 -182l-643 -289l551 -291z" />
    <glyph glyph-name="equal" unicode="=" horiz-adv-x="1060" 
d="M201 724l25 161h888l-25 -161h-888zM149 396l25 161h888l-25 -161h-888z" />
    <glyph glyph-name="greater" unicode="&#x3e;" horiz-adv-x="986" 
d="M78 73l28 181l644 291l-552 289l29 182l788 -415l-18 -113z" />
    <glyph glyph-name="question" unicode="?" horiz-adv-x="1092" 
d="M468 394q23 104 64.5 171.5t130.5 150.5q111 105 157 168t57 130q14 89 -25.5 138.5t-127.5 49.5q-89 0 -150 -59.5t-85 -176.5h-280q38 205 190.5 323.5t375.5 118.5q215 0 319.5 -101.5t76.5 -274.5q-17 -111 -80.5 -199t-190.5 -187q-97 -77 -136.5 -127t-57.5 -125
h-238zM390 128q11 69 62 112.5t119 43.5q69 0 106.5 -43.5t26.5 -112.5q-10 -69 -61.5 -112.5t-120.5 -43.5q-68 0 -105 43.5t-27 112.5z" />
    <glyph glyph-name="at" unicode="@" horiz-adv-x="1635" 
d="M724 -205q-102 0 -195.5 28t-173 84.5t-132.5 141.5t-74.5 199t1.5 258q24 153 93.5 289.5t167 236t214.5 172t240.5 109t241.5 36.5q195 0 335 -86t200.5 -239t29.5 -346q-32 -200 -128.5 -336.5t-226.5 -190.5l64 -138q-198 -129 -342.5 -173.5t-314.5 -44.5zM347 512
q-21 -131 1.5 -233t80.5 -165t140.5 -95.5t184.5 -32.5q136 0 238 29.5t232 110.5q-24 -4 -52 -4q-62 0 -120 20t-82 55q-112 -90 -238 -90q-40 0 -77 10t-75 34t-61 64t-34.5 100.5t3.5 143.5q21 132 89.5 252t167 197.5t218.5 103.5t242 -29v3h175l-189 -474
q-37 -96 -44 -145q-5 -36 4.5 -45.5t54.5 -9.5q95 0 168 92t101 265q38 237 -71 363t-340 126q-111 0 -226 -44t-216.5 -123.5t-176 -204.5t-98.5 -274zM684 467q-16 -100 3 -134.5t83 -34.5q70 0 131 63t123 226l28 73q65 168 -51 168q-107 0 -199.5 -101.5t-117.5 -259.5z
" />
    <glyph glyph-name="A" unicode="A" horiz-adv-x="1334" 
d="M10 0l781 1394h194l339 -1394h-282l-67 321h-512l-171 -321h-282zM587 553h340l-97 459z" />
    <glyph glyph-name="B" unicode="B" horiz-adv-x="1273" 
d="M140 0l221 1394h563q208 0 311 -93t77 -259q-15 -95 -67 -170.5t-131 -117.5q215 -87 174 -346q-31 -192 -169 -300t-352 -108h-627zM436 238h349q217 0 247 182q14 88 -31.5 136t-143.5 48h-363zM530 834h317q80 0 134 45t67 123q11 74 -30.5 114t-131.5 40h-305z" />
    <glyph glyph-name="C" unicode="C" horiz-adv-x="1404" 
d="M713 -32q-198 0 -335 91q-137 92 -194.5 256.5t-23.5 380.5q36 221 145 384q111 165 276.5 255.5t362.5 90.5h31q200 0 336 -91q163 -107 212 -316l-258 -92q-76 251 -331 251h-31q-122 0 -225 -58q-102 -58 -168 -166t-90 -258q-23 -151 9 -256q31 -108 115 -166
t206 -58h31q126 0 229 59q114 67 182 194l232 -89q-14 -28 -40 -66q-112 -165 -277.5 -255.5t-362.5 -90.5h-31z" />
    <glyph glyph-name="D" unicode="D" horiz-adv-x="1273" 
d="M140 0l221 1394h355q348 0 508.5 -184t107.5 -524q-53 -332 -269 -509t-570 -177h-353zM436 238h69q160 0 274 40q242 83 294 418q27 174 -14 273q-39 98 -135.5 142.5t-249.5 44.5h-93z" />
    <glyph glyph-name="E" unicode="E" horiz-adv-x="1081" 
d="M140 0l221 1394h881l-37 -232h-623l-53 -332h579l-36 -230h-579l-58 -368h623l-37 -232h-881z" />
    <glyph glyph-name="F" unicode="F" horiz-adv-x="1081" 
d="M140 0l221 1394h881l-37 -232h-623l-53 -332h579l-36 -230h-579l-95 -600h-258z" />
    <glyph glyph-name="G" unicode="G" horiz-adv-x="1406" 
d="M713 -32q-198 0 -335 91q-137 92 -194.5 256.5t-23.5 380.5q36 221 145 384q111 165 276.5 255.5t362.5 90.5h31q200 0 336 -91q163 -107 212 -316l-258 -92q-76 251 -331 251h-31q-122 0 -225 -58q-102 -58 -168 -166t-90 -258q-23 -151 9 -256q31 -108 115 -166
t206 -58h31q126 0 229 59q113 67 179 189l15 78h-423l37 232h671l-124 -778h-250l12 74q-175 -102 -383 -102h-31z" />
    <glyph glyph-name="H" unicode="H" horiz-adv-x="1349" 
d="M140 0l221 1394h258l-89 -558h553l89 558h258l-221 -1394h-258l95 598h-553l-95 -598h-258z" />
    <glyph glyph-name="I" unicode="I" horiz-adv-x="538" 
d="M140 0l221 1394h258l-221 -1394h-258z" />
    <glyph glyph-name="J" unicode="J" horiz-adv-x="1202" 
d="M553 -32q-517 9 -433 536l13 83h258l-8 -53q-17 -103 -6 -181q11 -71 63 -107.5t151 -39.5q149 4 218.5 83t94.5 243l137 862h258l-140 -880q-42 -267 -195 -404t-411 -142z" />
    <glyph glyph-name="K" unicode="K" horiz-adv-x="1330" 
d="M140 0l221 1394h258l-94 -591l654 591h348l-638 -562l421 -832h-306l-332 643l-199 -170l-75 -473h-258z" />
    <glyph glyph-name="L" unicode="L" horiz-adv-x="1122" 
d="M140 0l221 1394h258l-184 -1162h714l-37 -232h-972z" />
    <glyph glyph-name="M" unicode="M" horiz-adv-x="1724" 
d="M140 0l221 1394h378l194 -949l494 949h378l-221 -1394h-258l162 1024l-481 -902h-250l-196 907l-163 -1029h-258z" />
    <glyph glyph-name="N" unicode="N" horiz-adv-x="1390" 
d="M140 0l221 1394h266l435 -952l151 952h258l-221 -1394h-268l-433 954l-151 -954h-258z" />
    <glyph glyph-name="O" unicode="O" horiz-adv-x="1469" 
d="M713 -32q-198 0 -335 91q-137 92 -194.5 256.5t-23.5 380.5q36 221 145 384q111 165 276.5 255.5t362.5 90.5h31q200 0 336 -91q138 -92 195.5 -257t22.5 -382q-35 -220 -145 -382q-112 -165 -277.5 -255.5t-362.5 -90.5h-31zM420 696q-23 -151 9 -256q31 -108 115 -166
t206 -58h31q126 0 229 59q101 60 167.5 168t89.5 253t-9 256q-33 109 -115 167.5t-209 58.5h-31q-122 0 -225 -58q-102 -58 -168 -166t-90 -258z" />
    <glyph glyph-name="P" unicode="P" horiz-adv-x="1195" 
d="M140 0l221 1394h549q236 0 339.5 -101t72.5 -303q-32 -202 -171 -308t-371 -106h-293l-91 -576h-256zM524 806h267q121 0 189 42.5t83 139.5q15 94 -37.5 134t-178.5 40h-267z" />
    <glyph glyph-name="Q" unicode="Q" horiz-adv-x="1453" 
d="M1093 51q-161 -83 -349 -83h-31q-198 0 -335 91q-137 92 -194.5 256.5t-23.5 380.5q36 221 145 384q111 165 276.5 255.5t362.5 90.5h31q200 0 336 -91q138 -92 195.5 -257t22.5 -382q-35 -220 -145 -382q-38 -57 -86 -108l121 -142l-193 -168zM420 696q-23 -151 9 -256
q31 -108 115 -166t206 -58h31q81 0 151 24l-227 265l189 175l247 -290q98 127 126 306q23 145 -9 256q-33 109 -115 167.5t-209 58.5h-31q-122 0 -225 -58q-102 -58 -168 -166t-90 -258z" />
    <glyph glyph-name="R" unicode="R" horiz-adv-x="1330" 
d="M140 0l221 1394h554q171 0 266 -49q187 -94 146 -355q-47 -293 -309 -381l272 -609h-298l-242 574h-261l-91 -574h-258zM526 806h270q64 0 123 15q129 34 149 165q12 75 -16 112q-46 64 -200 64h-270z" />
    <glyph glyph-name="S" unicode="S" horiz-adv-x="1210" 
d="M632 -28q-252 0 -385 111t-118 325h282q8 -200 253 -200q103 0 170.5 34.5t79.5 109.5q14 89 -40.5 143t-199.5 89q-109 27 -182.5 59t-129.5 80.5t-76 118t-5 162.5q19 123 103 216.5t202.5 140.5t252.5 47q120 0 208.5 -32.5t139.5 -92.5t73.5 -137t19.5 -172h-282
q5 107 -37 153t-148 46q-215 0 -237 -135q-14 -87 43 -137t216 -89q218 -52 307.5 -158t63.5 -274q-15 -95 -68.5 -173t-132 -129t-174.5 -78.5t-199 -27.5z" />
    <glyph glyph-name="T" unicode="T" horiz-adv-x="1144" 
d="M442 0l184 1162h-432l37 232h1124l-37 -232h-430l-184 -1162h-262z" />
    <glyph glyph-name="U" unicode="U" horiz-adv-x="1286" 
d="M637 -32q-517 9 -433 536l141 890h258l-136 -860q-17 -103 -6 -181q11 -71 63 -107.5t151 -39.5q149 4 218.5 83t94.5 243l137 862h258l-140 -880q-42 -267 -195 -404t-411 -142z" />
    <glyph glyph-name="V" unicode="V" horiz-adv-x="1308" 
d="M558 0l-337 1394h284l219 -968l519 968h286l-777 -1394h-194z" />
    <glyph glyph-name="W" unicode="W" horiz-adv-x="1906" 
d="M420 0l-199 1394h272l130 -998l411 918h256l119 -918l448 998h270l-641 -1394h-250l-135 934l-429 -934h-252z" />
    <glyph glyph-name="X" unicode="X" horiz-adv-x="1326" 
d="M20 0l574 696l-353 698h310l250 -518l414 518h308l-573 -698l356 -696h-310l-256 508l-412 -508h-308z" />
    <glyph glyph-name="Y" unicode="Y" horiz-adv-x="1214" 
d="M480 0l66 415l-335 979h296l201 -723l443 723h294l-641 -979l-66 -415h-258z" />
    <glyph glyph-name="Z" unicode="Z" horiz-adv-x="1170" 
d="M36 0l34 212l896 950h-746l37 232h1098l-34 -212l-923 -950h773l-37 -232h-1098z" />
    <glyph glyph-name="bracketleft" unicode="[" horiz-adv-x="588" 
d="M115 -160l272 1720h448l-25 -156h-286l-223 -1408h286l-24 -156h-448z" />
    <glyph glyph-name="backslash" unicode="\" horiz-adv-x="722" 
d="M530 -60l-264 1500h172l264 -1500h-172z" />
    <glyph glyph-name="bracketright" unicode="]" horiz-adv-x="586" 
d="M-25 -160l24 156h284l223 1408h-284l25 156h446l-272 -1720h-446z" />
    <glyph glyph-name="asciicircum" unicode="^" horiz-adv-x="1098" 
d="M182 393l501 853h129l228 -853h-180l-153 596l-349 -596h-176z" />
    <glyph glyph-name="underscore" unicode="_" horiz-adv-x="840" 
d="M-8 -174l25 156h800l-25 -156h-800z" />
    <glyph glyph-name="grave" unicode="`" horiz-adv-x="942" 
d="M622 1469l-152 323h198l125 -323h-171z" />
    <glyph glyph-name="a" unicode="a" horiz-adv-x="1138" 
d="M453 -20q-168 0 -258 91t-67 233q13 84 57 145.5t109 94.5q82 45 251 54l331 18l1 6q14 88 -40.5 131t-180.5 43q-79 0 -165 -31t-156 -87l-99 170q221 158 473 158q234 0 339.5 -100.5t76.5 -283.5l-99 -622h-245l20 126q-12 -14 -19 -21q-60 -61 -152.5 -93t-176.5 -32
zM378 304q-9 -56 30 -90t113 -34q132 0 218.5 62.5t102.5 163.5l4 26l-294 -18q-3 0 -13 -1t-13.5 -1t-12.5 -1t-13 -1.5t-12.5 -1.5t-12.5 -2.5t-11 -3.5t-12 -4t-10.5 -5t-10.5 -7q-44 -28 -53 -82z" />
    <glyph glyph-name="b" unicode="b" horiz-adv-x="1168" 
d="M132 0l221 1394h248l-71 -444q110 56 236 56h30q137 0 236.5 -65.5t143.5 -181.5q44 -114 20 -265q-16 -104 -59.5 -193.5t-104.5 -153.5t-138 -105t-159.5 -53t-171.5 9t-171 75l-12 -73h-248zM449 494q-16 -121 37 -193.5t157 -72.5h23q114 0 192 70t98 196
q22 139 -29.5 216.5t-164.5 77.5h-30q-110 0 -185.5 -77.5t-97.5 -216.5z" />
    <glyph glyph-name="c" unicode="c" horiz-adv-x="1089" 
d="M545 -20q-144 0 -246 66q-102 67 -148 184.5t-23 263.5q24 150 106 265q83 116 206.5 181.5t266.5 65.5h31q142 0 244 -66q119 -78 160 -217l-240 -95q-14 77 -65 118.5t-133 41.5h-31q-117 0 -196 -77.5t-101 -216.5t33 -217.5t170 -78.5h31q89 0 157.5 50t106.5 142
l212 -94q-20 -39 -41 -66q-83 -117 -206 -183.5t-263 -66.5h-31z" />
    <glyph glyph-name="d" unicode="d" horiz-adv-x="1168" 
d="M800 73q-85 -47 -168.5 -69t-154 -19t-133.5 27t-107.5 68.5t-75.5 105.5t-38 139.5t5 168.5q24 151 104 265q80 116 200.5 181.5t257.5 65.5h30q126 0 218 -56l71 444h248l-221 -1394h-248zM368 494q-20 -126 36 -196t170 -70h23q104 0 180 73t98 193
q22 139 -28.5 216.5t-160.5 77.5h-30q-113 0 -189.5 -77t-98.5 -217z" />
    <glyph glyph-name="e" unicode="e" 
d="M1020 132q-80 -54 -146 -88q-128 -64 -292 -64h-28q-123 0 -215 41.5t-142 113t-68 161.5t-2 192q12 79 43.5 153.5t82.5 140.5t116 116t150.5 79t180.5 29h28q148 0 242.5 -67t127 -179t9.5 -258q-15 -73 -21 -92h-723q-6 -102 62 -158t177 -56h28q141 0 265 84z
M390 594h495v2q14 89 -38 145.5t-146 56.5h-28q-95 0 -149 -30q-100 -54 -134 -174z" />
    <glyph glyph-name="f" unicode="f" horiz-adv-x="761" 
d="M198 0l125 792h-178l31 194h180l17 104q19 126 73 198q96 126 286 126q108 0 187 -42l46 -22l-116 -190l-40 22q-46 24 -82 24q-87 0 -107 -118l-16 -102h210l-31 -194h-210l-125 -792h-250z" />
    <glyph glyph-name="g" unicode="g" horiz-adv-x="1212" 
d="M496 -413q-436 8 -445 383h269q24 -139 213 -145q122 4 189.5 58.5t101.5 168.5q-117 -57 -246 -57h-31q-143 0 -245 66q-103 67 -149 184.5t-22 263.5q23 150 106 265q83 116 206.5 181.5t266.5 65.5h31q137 0 234 -60l10 64h258l-139 -880q-86 -549 -608 -558zM379 509
q-22 -139 32.5 -217.5t170.5 -78.5h31q113 0 191 78.5t100 217.5t-31 216.5t-167 77.5h-31q-117 0 -195.5 -77.5t-100.5 -216.5z" />
    <glyph glyph-name="h" unicode="h" horiz-adv-x="1140" 
d="M132 0l221 1394h250l-78 -492q130 104 290 104h14q168 0 248 -95.5t53 -266.5l-102 -644h-250l87 552q20 123 -15 180.5t-129 57.5q-73 0 -124 -33q-106 -67 -140 -285l-75 -472h-250z" />
    <glyph glyph-name="i" unicode="i" horiz-adv-x="510" 
d="M125 0l156 986h246l-156 -986h-246zM310 1263q9 59 58.5 101.5t108.5 42.5q60 0 96.5 -41.5t26.5 -102.5t-59.5 -102.5t-109.5 -41.5q-59 0 -94.5 42.5t-26.5 101.5z" />
    <glyph glyph-name="j" unicode="j" horiz-adv-x="510" 
d="M-7 -423q-168 0 -241 107l124 197q49 -29 103.5 -38.5t96 7t48.5 58.5l171 1078h243l-171 -1078q-24 -158 -121.5 -244.5t-239.5 -86.5h-13zM321 1258q9 57 56 98t105 41q57 0 91.5 -41t25.5 -98t-56.5 -98t-104.5 -41q-58 0 -92 41t-25 98z" />
    <glyph glyph-name="k" unicode="k" horiz-adv-x="1116" 
d="M132 0l221 1394h250l-124 -783l415 375h316l-416 -368l302 -618h-296l-215 450l-155 -147l-48 -303h-250z" />
    <glyph glyph-name="l" unicode="l" horiz-adv-x="552" 
d="M363 -20q-107 0 -160.5 64.5t-32.5 193.5l183 1156h246l-176 -1108q-12 -76 60 -76q32 0 74 12l-33 -212q-86 -30 -161 -30z" />
    <glyph glyph-name="m" unicode="m" horiz-adv-x="1696" 
d="M132 0l156 986h250l-13 -83q131 103 290 103q77 0 144 -29q79 -35 116 -120q130 149 312 149q125 0 195 -56q67 -54 92 -140t9 -188l-99 -622h-248l89 562q12 72 1 125q-21 103 -133 103q-186 0 -232 -292l-79 -498h-248l90 566q35 224 -125 224q-192 0 -238 -292
l-79 -498h-250z" />
    <glyph glyph-name="n" unicode="n" horiz-adv-x="1140" 
d="M132 0l156 986h250l-13 -84q130 104 290 104h14q168 0 248 -95.5t53 -266.5l-102 -644h-250l87 552q20 123 -15 180.5t-129 57.5q-73 0 -124 -33q-106 -67 -140 -285l-75 -472h-250z" />
    <glyph glyph-name="o" unicode="o" horiz-adv-x="1123" 
d="M545 -20q-144 0 -246 66q-102 67 -148 184.5t-23 263.5q24 150 106 265q83 116 206.5 181.5t266.5 65.5h31q142 0 244 -66q103 -67 148 -182.5t21 -263.5q-23 -149 -106 -264q-83 -117 -206 -183.5t-263 -66.5h-31zM376 494q-22 -139 33 -217.5t170 -78.5h31
q113 0 191 78.5t100 217.5t-30.5 216.5t-166.5 77.5h-31q-117 0 -196 -77.5t-101 -216.5z" />
    <glyph glyph-name="p" unicode="p" horiz-adv-x="1168" 
d="M73 -374l221 1394h248l-12 -73q85 47 168 69t153.5 19t133.5 -27t107.5 -68.5t75.5 -105.5t38 -139.5t-5 -168.5q-25 -162 -112 -286.5t-201.5 -185.5t-248 -59.5t-248.5 77.5l-70 -446h-248zM451 506q-20 -127 32 -195.5t162 -68.5h23q112 0 187 68.5t95 195.5
q20 129 -32 207.5t-163 78.5h-23q-108 0 -184.5 -78.5t-96.5 -207.5z" />
    <glyph glyph-name="q" unicode="q" horiz-adv-x="1168" 
d="M799 72q-92 -51 -185 -69t-171 -3.5t-144.5 55.5t-107.5 109.5t-59 159t1 202.5q16 104 59.5 193.5t104.5 153.5t138.5 105t160 53t171.5 -9t171 -75l12 73h248l-221 -1394h-248zM378 506q-20 -128 33.5 -196t164.5 -68h23q110 0 184 68.5t94 195.5q20 129 -31.5 207.5
t-159.5 78.5h-23q-111 0 -188 -78.5t-97 -207.5z" />
    <glyph glyph-name="r" unicode="r" horiz-adv-x="827" 
d="M132 0l156 986h250l-16 -104q53 62 130 93t153 31t137 -30l-113 -250q-52 32 -119 32q-139 0 -212 -138q-13 -30 -24 -71t-25 -125l-67 -424h-250z" />
    <glyph glyph-name="s" unicode="s" horiz-adv-x="1050" 
d="M532 -28q-200 0 -311 83t-107 247h276q6 -132 177 -132q76 0 119 18t51 68q9 57 -42 91t-187 68q-155 37 -230.5 107.5t-56.5 192.5q22 142 150.5 224.5t320.5 82.5q185 0 280.5 -86.5t91.5 -228.5h-276q-4 61 -39.5 88t-106.5 27q-126 0 -139 -86q-9 -54 38.5 -84.5
t179.5 -62.5q168 -42 242.5 -115t53.5 -204q-23 -144 -158 -221t-327 -77z" />
    <glyph glyph-name="t" unicode="t" horiz-adv-x="730" 
d="M545 -13q-142 0 -212 86.5t-45 244.5l69 434h-218l37 234h218l65 408h243l-65 -408h229l-37 -234h-229l-69 -434q-6 -40 27.5 -57t86.5 -10t109 32l-43 -268q-70 -28 -153 -28h-13z" />
    <glyph glyph-name="u" unicode="u" horiz-adv-x="1120" 
d="M467 -20q-168 0 -248 95.5t-53 266.5l102 644h250l-87 -552q-19 -124 15.5 -181t128.5 -57q73 0 124 33q106 67 140 285l75 472h250l-156 -986h-250l13 84q-130 -104 -290 -104h-14z" />
    <glyph glyph-name="v" unicode="v" horiz-adv-x="1048" 
d="M424 0l-248 986h272l127 -662l341 662h268l-556 -986h-204z" />
    <glyph glyph-name="w" unicode="w" horiz-adv-x="1502" 
d="M338 0l-148 986h264l70 -606l274 606h214l83 -602l263 602h266l-462 -986h-222l-90 634l-286 -634h-226z" />
    <glyph glyph-name="x" unicode="x" horiz-adv-x="1024" 
d="M10 0l415 498l-259 488h294l157 -326l259 326h294l-417 -488l261 -498h-294l-155 332l-263 -332h-292z" />
    <glyph glyph-name="y" unicode="y" horiz-adv-x="1057" 
d="M76 -382q-22 10 -45 24l151 234q39 -24 77.5 -20.5t58.5 39.5l88 157l-230 936h262l151 -612l343 612h261l-664 -1184q-55 -97 -128.5 -153t-152 -64t-160.5 26z" />
    <glyph glyph-name="z" unicode="z" horiz-adv-x="868" 
d="M36 0l26 166l591 614h-493l32 206h796l-28 -178l-574 -602h477l-33 -206h-794z" />
    <glyph glyph-name="braceleft" unicode="{" horiz-adv-x="528" 
d="M437 -160q-143 0 -199.5 52t-37.5 172q10 64 60 228q42 137 52 198q8 57 -22.5 91t-120.5 41l24 156q92 7 134 41t51 91q11 69 11 198q3 163 13 230q19 119 91.5 170.5t215.5 51.5h66l-25 -156h-36q-79 0 -112.5 -19t-41.5 -69q-7 -50 -7 -188q-3 -164 -12 -224
q-26 -166 -199 -200q161 -36 135 -208q-11 -62 -60 -224q-45 -144 -52 -188q-8 -50 19.5 -69t106.5 -19h36l-24 -156h-66z" />
    <glyph glyph-name="bar" unicode="|" horiz-adv-x="522" 
d="M122 -365l308 1946h162l-308 -1946h-162z" />
    <glyph glyph-name="braceright" unicode="}" horiz-adv-x="528" 
d="M-25 -160l24 156h36q79 0 112.5 19t41.5 69q8 48 8 188q3 173 12 224q26 166 199 200q-161 37 -135 208q8 53 60 224q46 150 51 188q8 50 -19.5 69t-106.5 19h-36l25 156h66q143 0 199.5 -51.5t37.5 -170.5q-11 -68 -61 -230q-42 -140 -51 -198q-9 -56 22 -90.5
t121 -41.5l-24 -156q-93 -7 -135 -41.5t-50 -90.5q-11 -66 -12 -198q-1 -162 -12 -228q-19 -120 -91.5 -172t-215.5 -52h-66z" />
    <glyph glyph-name="asciitilde" unicode="~" horiz-adv-x="1076" 
d="M165 418q11 166 83.5 251t184.5 85q60 0 108.5 -18.5t143.5 -75.5q78 -48 109 -61t63 -13q42 0 56.5 31t25.5 143h161q-12 -166 -84.5 -250.5t-186.5 -84.5q-59 0 -106.5 18t-143.5 76q-78 47 -109 60.5t-64 13.5q-40 0 -55 -32t-27 -143h-159z" />
    <glyph glyph-name="uni00A0" unicode="&#xa0;" horiz-adv-x="466" 
 />
    <glyph glyph-name="exclamdown" unicode="&#xa1;" horiz-adv-x="634" 
d="M131 -320l181 988h222l-133 -988h-270zM308 932q10 69 61 112.5t119 43.5q69 0 106.5 -43.5t27.5 -112.5q-11 -69 -62.5 -112.5t-120.5 -43.5q-68 0 -105 43.5t-26 112.5z" />
    <glyph glyph-name="cent" unicode="&#xa2;" horiz-adv-x="1072" 
d="M463 -20q-173 31 -263 182.5t-54 382.5q35 221 174 372.5t321 187.5l23 148h163l-22 -142q166 -21 252 -143t61 -299h-162q21 246 -176 282l-129 -809q204 43 259 266h162q-38 -172 -160.5 -287t-285.5 -141l-23 -144h-163zM314 553q-28 -175 21.5 -276.5t153.5 -131.5
l126 796q-112 -34 -194 -131.5t-107 -256.5z" />
    <glyph glyph-name="sterling" unicode="&#xa3;" horiz-adv-x="986" 
d="M63 146q82 16 147.5 48t117.5 94t65 147q8 51 -0.5 98t-34.5 109h-200l25 161h110q-29 108 -12 214q18 113 85.5 202t166.5 138t211 49q85 0 150.5 -25t104 -69.5t61.5 -104.5t23.5 -131t-10.5 -149h-162q27 169 -18.5 244t-178.5 75q-103 0 -176 -59.5t-91 -167.5
q-16 -98 31 -216h455l-25 -161h-363q31 -108 15 -207q-25 -158 -151 -274h542l-25 -161h-886z" />
    <glyph glyph-name="currency" unicode="&#xa4;" horiz-adv-x="1193" 
d="M306 170l-96 116l127 110q-45 93 -25 214q18 121 93 216l-93 109l134 115l92 -109q105 59 217 59q113 0 199 -59l126 109l97 -115l-126 -110q43 -95 25 -215q-19 -118 -93 -214l91 -110l-133 -116l-92 110q-105 -59 -217 -59q-113 0 -199 59zM478 610
q-17 -106 30.5 -167.5t148.5 -61.5t168 61.5t84 167.5t-30.5 167.5t-148.5 61.5t-168 -61.5t-84 -167.5z" />
    <glyph glyph-name="yen" unicode="&#xa5;" horiz-adv-x="1169" 
d="M505 0l58 369h-335l26 160h335l9 56h-335l25 161h263l-302 635h200l266 -574l447 574h196l-502 -635h266l-25 -161h-336l-9 -56h336l-26 -160h-336l-58 -369h-163z" />
    <glyph glyph-name="brokenbar" unicode="&#xa6;" horiz-adv-x="522" 
d="M134 -292l117 743h162l-117 -743h-162zM281 639l118 742h162l-118 -742h-162z" />
    <glyph glyph-name="section" unicode="&#xa7;" horiz-adv-x="1104" 
d="M492 -317q-181 0 -274.5 105t-85.5 318h162q3 -145 55 -204t172 -59q103 0 166.5 37.5t74.5 109.5q10 61 -5.5 95.5t-75.5 63.5t-187 57q-65 14 -124 41.5t-110.5 70.5t-76.5 108t-13 143q17 105 79.5 180t153.5 118q-80 89 -60 220q23 144 138 231.5t272 87.5
q96 0 165.5 -33t107 -90.5t52.5 -128t8 -153.5h-158q-6 138 -50 191.5t-153 53.5q-191 0 -215 -153q-13 -83 47 -126t179 -64q90 -17 161 -46.5t124.5 -73t76.5 -107.5t11 -142q-17 -107 -82.5 -183t-161.5 -119q88 -90 64 -238q-22 -141 -146 -226t-291 -85zM337 574
q-13 -80 49.5 -132t173.5 -76q68 -14 107 -27q109 4 184 50.5t90 140.5q13 84 -49 131.5t-222 80.5q-39 6 -88 22q-102 -12 -166 -55t-79 -135z" />
    <glyph glyph-name="dieresis" unicode="&#xa8;" horiz-adv-x="714" 
d="M715 1529q-41 0 -65 28.5t-17 68.5q6 40 39 69t74 29q40 0 64.5 -29t18.5 -69q-7 -40 -40.5 -68.5t-73.5 -28.5zM403 1626q6 40 39 69t73 29q41 0 65 -29t18 -69q-7 -40 -40.5 -68.5t-73.5 -28.5t-64 28.5t-17 68.5z" />
    <glyph glyph-name="copyright" unicode="&#xa9;" horiz-adv-x="1607" 
d="M799 -29q-199 0 -350 98.5t-220 268.5t-37 372t155 371t305 267t381 98q198 0 349 -98t220 -267t37 -371t-155 -372t-305 -268.5t-380 -98.5zM355 710q-26 -163 26 -295t169 -206.5t275 -74.5q240 0 426 164t225 412q26 162 -26 293.5t-168 206.5t-274 75t-299 -75
t-234.5 -206.5t-119.5 -293.5zM533 710q21 131 90 233t165.5 155t202.5 53q157 0 244.5 -98t57.5 -276h-157q7 112 -31 163t-139 51q-107 0 -179 -78t-91 -201q-20 -129 27 -204t148 -75q100 0 155.5 47.5t87.5 163.5h162q-40 -180 -157.5 -276t-279.5 -96
q-101 0 -177.5 52.5t-112.5 154t-16 231.5z" />
    <glyph glyph-name="ordfeminine" unicode="&#xaa;" horiz-adv-x="750" 
d="M408 640q-123 0 -186.5 64.5t-46.5 173.5q19 118 115 182q46 30 99.5 40.5t127.5 13.5l176 9q4 68 -31.5 98t-114.5 30q-68 0 -111.5 -28t-107.5 -113l-98 92q75 101 156 147t184 46q139 0 214.5 -80.5t52.5 -223.5l-71 -446h-148l9 58q-103 -63 -219 -63zM322 878
q-8 -51 17 -73t95 -22q87 0 155 55t82 142l-168 -9q-105 -3 -141 -27q-20 -13 -28 -25.5t-12 -40.5z" />
    <glyph glyph-name="guillemotleft" unicode="&#xab;" horiz-adv-x="1168" 
d="M936 164l-221 332l326 332h208l-326 -332l221 -332h-208zM299 496l326 332h208l-326 -332l221 -332h-208z" />
    <glyph glyph-name="logicalnot" unicode="&#xac;" horiz-adv-x="959" 
d="M728 383l38 245h-601l26 159h763l-64 -404h-162z" />
    <glyph glyph-name="registered" unicode="&#xae;" horiz-adv-x="920" 
d="M569 688q-186 0 -284.5 117.5t-69.5 302.5t165 302.5t322 117.5t284 -117.5t69 -302.5t-164.5 -302.5t-321.5 -117.5zM325 1108q-22 -139 50.5 -227.5t209.5 -88.5t237.5 88.5t122.5 227.5q23 140 -50 229t-209 89t-237 -89t-124 -229zM448 908l66 418h148q36 0 54 -2
q64 -6 94.5 -36t22.5 -80q-12 -77 -98 -102q51 -13 46 -90q-4 -68 9 -108h-124q-3 31 -1 86q0 52 -49 52h-36l-22 -138h-110zM594 1134h28q26 0 40 2q41 9 48 52t-32 50q-14 2 -38 2h-30z" />
    <glyph glyph-name="macron" unicode="&#xaf;" horiz-adv-x="693" 
d="M402 1542l26 160h377l-26 -160h-377z" />
    <glyph glyph-name="degree" unicode="&#xb0;" horiz-adv-x="674" 
d="M482 916q-105 0 -164.5 70t-43.5 176q16 105 98.5 174.5t187.5 69.5q106 0 165.5 -69.5t42.5 -174.5q-16 -106 -97.5 -176t-188.5 -70zM438 1162q-7 -47 8.5 -66t61.5 -19t68 19t29 66q7 46 -9 65t-62 19q-45 0 -66.5 -19t-29.5 -65z" />
    <glyph glyph-name="plusminus" unicode="&#xb1;" horiz-adv-x="985" 
d="M445 213l60 382h-345l26 161h345l60 383h162l-60 -383h346l-26 -161h-346l-60 -382h-162zM64 -13l25 161h853l-25 -161h-853z" />
    <glyph glyph-name="uni00B2" unicode="&#xb2;" horiz-adv-x="869" 
d="M277 890l16 104l335 268q79 63 118 105t51.5 69t19.5 70q9 61 -17.5 90t-97.5 29q-141 0 -179 -140l-11 -71h-160l27 82q33 122 129.5 197.5t216.5 75.5q132 0 194.5 -75.5t45.5 -187.5q-14 -87 -70 -167.5t-178 -176.5l-159 -128h369l-23 -144h-627z" />
    <glyph glyph-name="uni00B3" unicode="&#xb3;" horiz-adv-x="860" 
d="M563 884q-160 0 -231 98.5t-22 245.5h142q-36 -102 -4 -151.5t138 -49.5q172 0 193 135q10 63 -26.5 94.5t-125.5 31.5q-43 0 -113 -10l19 117l223 228h-375l23 146h602l-16 -102l-240 -244q92 -26 137.5 -97t30.5 -164q-19 -123 -118.5 -200.5t-236.5 -77.5z" />
    <glyph glyph-name="acute" unicode="&#xb4;" horiz-adv-x="942" 
d="M615 1469l227 323h198l-252 -323h-173z" />
    <glyph glyph-name="paragraph" unicode="&#xb6;" 
d="M553 584q-33 0 -85 2q-107 6 -178 63.5t-95.5 144.5t-8.5 189q25 157 135 272t272 124q33 2 106 2h417l-251 -1582h-162l225 1422h-111l-225 -1422h-163z" />
    <glyph glyph-name="periodcentered" unicode="&#xb7;" horiz-adv-x="566" 
d="M351 438q-75 0 -115.5 48.5t-28.5 123.5q11 75 67.5 123.5t131.5 48.5t116.5 -48.5t30.5 -123.5q-12 -75 -69.5 -123.5t-132.5 -48.5z" />
    <glyph glyph-name="cedilla" unicode="&#xb8;" horiz-adv-x="947" 
d="M376 -427q-73 0 -127.5 45t-65.5 114l192 78q-7 -21 4.5 -38t33.5 -17q26 0 42.5 15t20.5 41q7 41 -28 65t-105 21q-6 2 -24 2h-75l181 230h201l-98 -101q-2 0 -5 0.5t-4 0.5q10 -1 36 -9q63 -24 91.5 -75.5t17.5 -123.5q-17 -104 -99.5 -176t-188.5 -72z" />
    <glyph glyph-name="uni00B9" unicode="&#xb9;" horiz-adv-x="554" 
d="M384 899l106 667l-215 -123l28 179l263 145h108l-138 -868h-152z" />
    <glyph glyph-name="ordmasculine" unicode="&#xba;" horiz-adv-x="775" 
d="M485 650q-152 0 -232 106.5t-54 271.5t139 271t267 106h11q153 0 232.5 -106t53.5 -271t-140 -271.5t-266 -106.5h-11zM347 1028q-18 -113 23.5 -172.5t137.5 -59.5h11q97 0 157 59.5t78 172.5q18 112 -24 171t-138 59h-11q-96 0 -156 -59t-78 -171z" />
    <glyph glyph-name="guillemotright" unicode="&#xbb;" horiz-adv-x="1132" 
d="M492 164l327 332l-222 332h208l222 -332l-327 -332h-208zM76 164l327 332l-222 332h208l222 -332l-327 -332h-208z" />
    <glyph glyph-name="questiondown" unicode="&#xbf;" horiz-adv-x="1092" 
d="M486 -344q-215 0 -319.5 102.5t-77.5 275.5q17 109 81.5 197t191.5 187q96 76 135 127.5t57 126.5h238q-20 -104 -62 -172t-131 -152q-111 -104 -157 -167t-56 -131q-14 -89 24 -138.5t126 -49.5t149.5 59.5t88.5 176.5h278q-39 -205 -191 -323.5t-375 -118.5zM558 936
q11 69 61.5 112.5t119.5 43.5t105.5 -43.5t25.5 -112.5q-11 -68 -61 -112t-119 -44t-106 44t-26 112z" />
    <glyph glyph-name="Agrave" unicode="&#xc0;" horiz-adv-x="1334" 
d="M10 0l781 1394h194l339 -1394h-282l-67 321h-512l-171 -321h-282zM587 553h340l-97 459zM707 1773h200l119 -293h-172z" />
    <glyph glyph-name="Aacute" unicode="&#xc1;" horiz-adv-x="1334" 
d="M10 0l781 1394h194l339 -1394h-282l-67 321h-512l-171 -321h-282zM587 553h340l-97 459zM785 1530l213 293h202l-241 -293h-174z" />
    <glyph glyph-name="Acircumflex" unicode="&#xc2;" horiz-adv-x="1334" 
d="M10 0l781 1394h194l339 -1394h-282l-67 321h-512l-171 -321h-282zM587 553h340l-97 459zM649 1480l250 293h106l158 -293h-193l-49 97l-80 -97h-192z" />
    <glyph glyph-name="Atilde" unicode="&#xc3;" horiz-adv-x="1334" 
d="M10 0l781 1394h194l339 -1394h-282l-67 321h-512l-171 -321h-282zM587 553h340l-97 459zM635 1553q18 111 61.5 160.5t117.5 49.5q67 0 141 -32q58 -26 86 -26q30 0 38 52h140q-18 -112 -61 -162t-118 -50q-60 0 -141 34q-65 26 -86 26q-30 0 -38 -52h-140z" />
    <glyph glyph-name="Adieresis" unicode="&#xc4;" horiz-adv-x="1334" 
d="M10 0l781 1394h194l339 -1394h-282l-67 321h-512l-171 -321h-282zM587 553h340l-97 459zM721 1626q6 40 39 69t73 29q41 0 65.5 -29t18.5 -69q-7 -40 -41 -68.5t-74 -28.5t-64 28.5t-17 68.5zM951 1626q6 40 39 69t73 29q41 0 65.5 -29t18.5 -69q-7 -40 -40.5 -68.5
t-74.5 -28.5q-40 0 -64 28.5t-17 68.5z" />
    <glyph glyph-name="Aring" unicode="&#xc5;" horiz-adv-x="1334" 
d="M10 0l781 1394h194l339 -1394h-282l-67 321h-512l-171 -321h-282zM587 553h340l-97 459zM736 1732q15 91 85.5 148t156.5 57t138.5 -57t37.5 -148q-14 -91 -84.5 -148t-156.5 -57t-138.5 57t-38.5 148zM878 1732q-4 -31 11.5 -47.5t45.5 -16.5t51.5 16.5t25.5 47.5
q10 64 -57 64t-77 -64z" />
    <glyph glyph-name="AE" unicode="&#xc6;" horiz-adv-x="1657" 
d="M-4 0l781 1394h1041l-37 -232h-623l-53 -332h579l-36 -230h-579l-58 -368h623l-37 -232h-881l51 321h-318l-171 -321h-282zM573 553h231l72 459h-60z" />
    <glyph glyph-name="Ccedilla" unicode="&#xc7;" horiz-adv-x="1404" 
d="M608 -538q-74 0 -129 45t-65 114l192 78q-6 -21 5.5 -38t33.5 -17q25 0 41.5 15t20.5 41q7 42 -28 65.5t-105 20.5q-6 2 -24 2h-75l147 185q-138 16 -244 86q-137 92 -194.5 256.5t-23.5 380.5q36 221 145 384q111 165 276.5 255.5t362.5 90.5h31q200 0 336 -91
q163 -107 212 -316l-258 -92q-76 251 -331 251h-31q-122 0 -225 -58q-102 -58 -168 -166t-90 -258q-23 -151 9 -256q31 -108 115 -166t206 -58h31q126 0 229 59q114 67 182 194l232 -89q-14 -28 -40 -66q-102 -151 -249 -239.5t-323 -103.5l-52 -54q-2 0 -5.5 0.5t-4.5 0.5
q8 -1 37 -9q63 -24 91 -75.5t17 -123.5q-17 -104 -99 -176t-188 -72z" />
    <glyph glyph-name="Egrave" unicode="&#xc8;" horiz-adv-x="1081" 
d="M140 0l221 1394h881l-37 -232h-623l-53 -332h579l-36 -230h-579l-58 -368h623l-37 -232h-881zM600 1773h201l119 -293h-171z" />
    <glyph glyph-name="Eacute" unicode="&#xc9;" horiz-adv-x="1081" 
d="M140 0l221 1394h881l-37 -232h-623l-53 -332h579l-36 -230h-579l-58 -368h623l-37 -232h-881zM680 1530l213 293h200l-240 -293h-173z" />
    <glyph glyph-name="Ecircumflex" unicode="&#xca;" horiz-adv-x="1081" 
d="M140 0l221 1394h881l-37 -232h-623l-53 -332h579l-36 -230h-579l-58 -368h623l-37 -232h-881zM544 1480l250 293h106l156 -293h-194l-47 96l-80 -96h-191z" />
    <glyph glyph-name="Edieresis" unicode="&#xcb;" horiz-adv-x="1081" 
d="M140 0l221 1394h881l-37 -232h-623l-53 -332h579l-36 -230h-579l-58 -368h623l-37 -232h-881zM612 1626q6 40 39 69t73 29t64 -29t18 -69q-7 -40 -40 -68.5t-73 -28.5t-64 28.5t-17 68.5zM841 1626q6 40 39.5 69t73.5 29t64 -29t18 -69q-7 -40 -40 -68.5t-73 -28.5
t-64.5 28.5t-17.5 68.5z" />
    <glyph glyph-name="Igrave" unicode="&#xcc;" horiz-adv-x="367" 
d="M-17 0l221 1394h258l-221 -1394h-258zM153 1773h200l119 -293h-172z" />
    <glyph glyph-name="Iacute" unicode="&#xcd;" horiz-adv-x="401" 
d="M126 0l221 1394h258l-221 -1394h-258zM405 1530l213 293h200l-242 -293h-171z" />
    <glyph glyph-name="Icircumflex" unicode="&#xce;" horiz-adv-x="247" 
d="M-15 0l221 1394h258l-221 -1394h-258zM102 1480l250 293h107l156 -293h-193l-49 96l-79 -96h-192z" />
    <glyph glyph-name="Idieresis" unicode="&#xcf;" horiz-adv-x="213" 
d="M-35 0l221 1394h258l-221 -1394h-258zM153 1626q6 40 38.5 69t73.5 29q40 0 64.5 -29t18.5 -69q-7 -40 -40.5 -68.5t-73.5 -28.5t-64 28.5t-17 68.5zM382 1626q6 40 39 69t73 29q41 0 65.5 -28.5t18.5 -69.5q-7 -40 -40.5 -68.5t-74.5 -28.5q-40 0 -64 28.5t-17 68.5z
" />
    <glyph glyph-name="Eth" unicode="&#xd0;" horiz-adv-x="1325" 
d="M192 0l89 564h-172l34 211h172l98 619h355q348 0 508.5 -184t107.5 -524q-53 -332 -269 -509t-570 -177h-353zM488 238h69q160 0 274 40q242 83 294 418q27 174 -14 273q-39 98 -135.5 142.5t-249.5 44.5h-93l-60 -381h229l-34 -211h-229z" />
    <glyph glyph-name="Ntilde" unicode="&#xd1;" horiz-adv-x="1390" 
d="M140 0l221 1394h266l435 -952l151 952h258l-221 -1394h-268l-433 954l-151 -954h-258zM674 1553q18 111 61.5 160.5t117.5 49.5q67 0 141 -32q59 -26 86 -26q30 0 38 52h140q-18 -112 -61 -162t-118 -50q-60 0 -141 34q-65 26 -86 26q-30 0 -38 -52h-140z" />
    <glyph glyph-name="Ograve" unicode="&#xd2;" horiz-adv-x="1469" 
d="M713 -32q-198 0 -335 91q-137 92 -194.5 256.5t-23.5 380.5q36 221 145 384q111 165 276.5 255.5t362.5 90.5h31q200 0 336 -91q138 -92 195.5 -257t22.5 -382q-35 -220 -145 -382q-112 -165 -277.5 -255.5t-362.5 -90.5h-31zM420 696q-23 -151 9 -256q31 -108 115 -166
t206 -58h31q126 0 229 59q101 60 167.5 168t89.5 253t-9 256q-33 109 -115 167.5t-209 58.5h-31q-122 0 -225 -58q-102 -58 -168 -166t-90 -258zM766 1773h200l119 -293h-172z" />
    <glyph glyph-name="Oacute" unicode="&#xd3;" horiz-adv-x="1469" 
d="M713 -32q-198 0 -335 91q-137 92 -194.5 256.5t-23.5 380.5q36 221 145 384q111 165 276.5 255.5t362.5 90.5h31q200 0 336 -91q138 -92 195.5 -257t22.5 -382q-35 -220 -145 -382q-112 -165 -277.5 -255.5t-362.5 -90.5h-31zM420 696q-23 -151 9 -256q31 -108 115 -166
t206 -58h31q126 0 229 59q101 60 167.5 168t89.5 253t-9 256q-33 109 -115 167.5t-209 58.5h-31q-122 0 -225 -58q-102 -58 -168 -166t-90 -258zM845 1530l213 293h201l-241 -293h-173z" />
    <glyph glyph-name="Ocircumflex" unicode="&#xd4;" horiz-adv-x="1469" 
d="M713 -32q-198 0 -335 91q-137 92 -194.5 256.5t-23.5 380.5q36 221 145 384q111 165 276.5 255.5t362.5 90.5h31q200 0 336 -91q138 -92 195.5 -257t22.5 -382q-35 -220 -145 -382q-112 -165 -277.5 -255.5t-362.5 -90.5h-31zM420 696q-23 -151 9 -256q31 -108 115 -166
t206 -58h31q126 0 229 59q101 60 167.5 168t89.5 253t-9 256q-33 109 -115 167.5t-209 58.5h-31q-122 0 -225 -58q-102 -58 -168 -166t-90 -258zM708 1480l250 293h106l157 -293h-193l-48 96l-80 -96h-192z" />
    <glyph glyph-name="Otilde" unicode="&#xd5;" horiz-adv-x="1469" 
d="M713 -32q-198 0 -335 91q-137 92 -194.5 256.5t-23.5 380.5q36 221 145 384q111 165 276.5 255.5t362.5 90.5h31q200 0 336 -91q138 -92 195.5 -257t22.5 -382q-35 -220 -145 -382q-112 -165 -277.5 -255.5t-362.5 -90.5h-31zM420 696q-23 -151 9 -256q31 -108 115 -166
t206 -58h31q126 0 229 59q101 60 167.5 168t89.5 253t-9 256q-33 109 -115 167.5t-209 58.5h-31q-122 0 -225 -58q-102 -58 -168 -166t-90 -258zM703 1553q18 111 61.5 160.5t117.5 49.5q67 0 141 -32q58 -26 86 -26q30 0 38 52h140q-18 -112 -61 -162t-118 -50
q-60 0 -141 34q-65 26 -86 26q-30 0 -38 -52h-140z" />
    <glyph glyph-name="Odieresis" unicode="&#xd6;" horiz-adv-x="1469" 
d="M713 -32q-198 0 -335 91q-137 92 -194.5 256.5t-23.5 380.5q36 221 145 384q111 165 276.5 255.5t362.5 90.5h31q200 0 336 -91q138 -92 195.5 -257t22.5 -382q-35 -220 -145 -382q-112 -165 -277.5 -255.5t-362.5 -90.5h-31zM420 696q-23 -151 9 -256q31 -108 115 -166
t206 -58h31q126 0 229 59q101 60 167.5 168t89.5 253t-9 256q-33 109 -115 167.5t-209 58.5h-31q-122 0 -225 -58q-102 -58 -168 -166t-90 -258zM775 1626q6 40 39 69t74 29q40 0 64.5 -29t18.5 -69q-7 -40 -40.5 -68.5t-73.5 -28.5t-64.5 28.5t-17.5 68.5zM1006 1626
q6 40 38.5 69t73.5 29q40 0 64 -29t18 -69q-7 -40 -40 -68.5t-73 -28.5t-64 28.5t-17 68.5z" />
    <glyph glyph-name="multiply" unicode="&#xd7;" horiz-adv-x="993" 
d="M811 243l-231 275l-318 -274l-98 112l320 276l-232 275l133 115l231 -275l321 275l93 -115l-318 -275l232 -275z" />
    <glyph glyph-name="Oslash" unicode="&#xd8;" horiz-adv-x="1494" 
d="M717 -32q-198 0 -335 91q-28 18 -57 44l-129 -112l-124 151l137 118q-85 183 -45 436q36 221 145 384q111 165 276.5 255.5t362.5 90.5h31q200 0 336 -91q38 -24 72 -58l129 111l124 -149l-143 -124q74 -178 36 -419q-35 -220 -145 -382q-112 -165 -277.5 -255.5
t-362.5 -90.5h-31zM424 696q-22 -140 5 -246l747 645q-88 83 -238 83h-31q-122 0 -225 -58q-102 -58 -168 -166t-90 -258zM535 284q85 -68 219 -68h31q126 0 229 59q101 60 167.5 168t89.5 253q20 122 0 223z" />
    <glyph glyph-name="Ugrave" unicode="&#xd9;" horiz-adv-x="1286" 
d="M637 -32q-517 9 -433 536l141 890h258l-136 -860q-17 -103 -6 -181q11 -71 63 -107.5t151 -39.5q149 4 218.5 83t94.5 243l137 862h258l-140 -880q-42 -267 -195 -404t-411 -142zM680 1773h201l119 -293h-173z" />
    <glyph glyph-name="Uacute" unicode="&#xda;" horiz-adv-x="1286" 
d="M637 -32q-517 9 -433 536l141 890h258l-136 -860q-17 -103 -6 -181q11 -71 63 -107.5t151 -39.5q149 4 218.5 83t94.5 243l137 862h258l-140 -880q-42 -267 -195 -404t-411 -142zM760 1530l213 293h200l-242 -293h-171z" />
    <glyph glyph-name="Ucircumflex" unicode="&#xdb;" horiz-adv-x="1286" 
d="M637 -32q-517 9 -433 536l141 890h258l-136 -860q-17 -103 -6 -181q11 -71 63 -107.5t151 -39.5q149 4 218.5 83t94.5 243l137 862h258l-140 -880q-42 -267 -195 -404t-411 -142zM623 1480l251 293h106l156 -293h-194l-48 96l-80 -96h-191z" />
    <glyph glyph-name="Udieresis" unicode="&#xdc;" horiz-adv-x="1286" 
d="M637 -32q-517 9 -433 536l141 890h258l-136 -860q-17 -103 -6 -181q11 -71 63 -107.5t151 -39.5q149 4 218.5 83t94.5 243l137 862h258l-140 -880q-42 -267 -195 -404t-411 -142zM693 1626q6 40 39 69t73 29q41 0 64.5 -29t17.5 -69q-7 -40 -39.5 -68.5t-73.5 -28.5
q-40 0 -64 28.5t-17 68.5zM922 1626q6 40 39.5 69t73.5 29t64.5 -29t18.5 -69q-7 -40 -40.5 -68.5t-73.5 -28.5t-64.5 28.5t-17.5 68.5z" />
    <glyph glyph-name="Yacute" unicode="&#xdd;" horiz-adv-x="1214" 
d="M480 0l66 415l-335 979h296l201 -723l443 723h294l-641 -979l-66 -415h-258zM719 1530l213 293h200l-241 -293h-172z" />
    <glyph glyph-name="Thorn" unicode="&#xde;" horiz-adv-x="1215" 
d="M140 0l221 1394h256l-32 -203h293q236 0 339.5 -101t72.5 -303q-32 -202 -171 -308t-371 -106h-293l-59 -373h-256zM492 603h267q121 0 189 42.5t83 139.5q15 94 -37.5 134t-178.5 40h-267z" />
    <glyph glyph-name="germandbls" unicode="&#xdf;" horiz-adv-x="1166" 
d="M687 -21q-127 0 -242 11l37 230q95 -2 265 -9q90 4 125.5 25t43.5 73q6 41 -10 71.5t-86 103.5q-82 82 -106.5 144t-11.5 143q13 82 57 144t152 144q93 73 119 103.5t32 71.5q9 55 -25 76.5t-136 21.5q-167 0 -242.5 -50.5t-105.5 -175.5q-16 -79 -19 -99l-161 -1020
h-243l161 1017q5 30 21 116q46 208 210.5 325t418.5 118q189 1 289.5 -89.5t76.5 -244.5q-15 -94 -82 -177t-188 -173q-56 -42 -70 -59.5t-19 -48.5t3.5 -47.5t51.5 -58.5q93 -89 133 -173t26 -177q-25 -156 -154 -246t-321 -90z" />
    <glyph glyph-name="agrave" unicode="&#xe0;" horiz-adv-x="1074" 
d="M453 -20q-168 0 -258 91t-67 233q13 84 57 145.5t109 94.5q82 45 251 54l331 18l1 6q14 88 -40.5 131t-180.5 43q-79 0 -165 -31t-156 -87l-99 170q221 158 473 158q234 0 339.5 -100.5t76.5 -283.5l-99 -622h-245l20 126q-12 -14 -19 -21q-60 -61 -152.5 -93t-176.5 -32
zM378 304q-9 -56 30 -90t113 -34q132 0 218.5 62.5t102.5 163.5l4 26l-294 -18q-3 0 -13 -1t-13.5 -1t-12.5 -1t-13 -1.5t-12.5 -1.5t-12.5 -2.5t-11 -3.5t-12 -4t-10.5 -5t-10.5 -7q-44 -28 -53 -82zM541 1518h199l124 -323h-171z" />
    <glyph glyph-name="aacute" unicode="&#xe1;" horiz-adv-x="1074" 
d="M453 -20q-168 0 -258 91t-67 233q13 84 57 145.5t109 94.5q82 45 251 54l331 18l1 6q14 88 -40.5 131t-180.5 43q-79 0 -165 -31t-156 -87l-99 170q221 158 473 158q234 0 339.5 -100.5t76.5 -283.5l-99 -622h-245l20 126q-12 -14 -19 -21q-60 -61 -152.5 -93t-176.5 -32
zM378 304q-9 -56 30 -90t113 -34q132 0 218.5 62.5t102.5 163.5l4 26l-294 -18q-3 0 -13 -1t-13.5 -1t-12.5 -1t-13 -1.5t-12.5 -1.5t-12.5 -2.5t-11 -3.5t-12 -4t-10.5 -5t-10.5 -7q-44 -28 -53 -82zM642 1195l226 323h199l-253 -323h-172z" />
    <glyph glyph-name="acircumflex" unicode="&#xe2;" horiz-adv-x="1074" 
d="M453 -20q-168 0 -258 91t-67 233q13 84 57 145.5t109 94.5q82 45 251 54l331 18l1 6q14 88 -40.5 131t-180.5 43q-79 0 -165 -31t-156 -87l-99 170q221 158 473 158q234 0 339.5 -100.5t76.5 -283.5l-99 -622h-245l20 126q-12 -14 -19 -21q-60 -61 -152.5 -93t-176.5 -32
zM378 304q-9 -56 30 -90t113 -34q132 0 218.5 62.5t102.5 163.5l4 26l-294 -18q-3 0 -13 -1t-13.5 -1t-12.5 -1t-13 -1.5t-12.5 -1.5t-12.5 -2.5t-11 -3.5t-12 -4t-10.5 -5t-10.5 -7q-44 -28 -53 -82zM522 1195l241 323h112l139 -323h-187l-43 108l-78 -108h-184z" />
    <glyph glyph-name="atilde" unicode="&#xe3;" horiz-adv-x="1074" 
d="M453 -20q-168 0 -258 91t-67 233q13 84 57 145.5t109 94.5q82 45 251 54l331 18l1 6q14 88 -40.5 131t-180.5 43q-79 0 -165 -31t-156 -87l-99 170q221 158 473 158q234 0 339.5 -100.5t76.5 -283.5l-99 -622h-245l20 126q-12 -14 -19 -21q-60 -61 -152.5 -93t-176.5 -32
zM378 304q-9 -56 30 -90t113 -34q132 0 218.5 62.5t102.5 163.5l4 26l-294 -18q-3 0 -13 -1t-13.5 -1t-12.5 -1t-13 -1.5t-12.5 -1.5t-12.5 -2.5t-11 -3.5t-12 -4t-10.5 -5t-10.5 -7q-44 -28 -53 -82zM529 1285q18 111 61.5 160.5t117.5 49.5q67 0 141 -32q58 -26 86 -26
q30 0 38 52h140q-18 -112 -61.5 -162t-118.5 -50q-59 0 -140 34q-66 26 -86 26q-30 0 -38 -52h-140z" />
    <glyph glyph-name="adieresis" unicode="&#xe4;" horiz-adv-x="1074" 
d="M453 -20q-168 0 -258 91t-67 233q13 84 57 145.5t109 94.5q82 45 251 54l331 18l1 6q14 88 -40.5 131t-180.5 43q-79 0 -165 -31t-156 -87l-99 170q221 158 473 158q234 0 339.5 -100.5t76.5 -283.5l-99 -622h-245l20 126q-12 -14 -19 -21q-60 -61 -152.5 -93t-176.5 -32
zM378 304q-9 -56 30 -90t113 -34q132 0 218.5 62.5t102.5 163.5l4 26l-294 -18q-3 0 -13 -1t-13.5 -1t-12.5 -1t-13 -1.5t-12.5 -1.5t-12.5 -2.5t-11 -3.5t-12 -4t-10.5 -5t-10.5 -7q-44 -28 -53 -82zM583 1355q6 40 39 68.5t73 28.5t64 -28.5t18 -68.5q-7 -40 -40 -69
t-73 -29q-41 0 -64.5 29t-16.5 69zM812 1355q6 40 39 68.5t73 28.5q41 0 65 -28.5t18 -68.5q-7 -40 -40 -69t-74 -29q-40 0 -64 29t-17 69z" />
    <glyph glyph-name="aring" unicode="&#xe5;" horiz-adv-x="1074" 
d="M453 -20q-168 0 -258 91t-67 233q13 84 57 145.5t109 94.5q82 45 251 54l331 18l1 6q14 88 -40.5 131t-180.5 43q-79 0 -165 -31t-156 -87l-99 170q221 158 473 158q234 0 339.5 -100.5t76.5 -283.5l-99 -622h-245l20 126q-12 -14 -19 -21q-60 -61 -152.5 -93t-176.5 -32
zM378 304q-9 -56 30 -90t113 -34q132 0 218.5 62.5t102.5 163.5l4 26l-294 -18q-3 0 -13 -1t-13.5 -1t-12.5 -1t-13 -1.5t-12.5 -1.5t-12.5 -2.5t-11 -3.5t-12 -4t-10.5 -5t-10.5 -7q-44 -28 -53 -82zM629 1355q12 77 71.5 124.5t130.5 47.5q72 0 116.5 -47.5t32.5 -124.5
q-12 -76 -72 -124t-132 -48t-115.5 48t-31.5 124zM763 1355q-7 -40 34 -40q42 0 49 40q6 40 -36 40q-41 0 -47 -40z" />
    <glyph glyph-name="ae" unicode="&#xe6;" horiz-adv-x="1806" 
d="M451 -20q-167 1 -256 92t-67 232q13 84 57 145.5t109 94.5q82 45 251 54l331 18l1 6q14 88 -40.5 131t-180.5 43q-79 0 -165 -31t-156 -87l-99 170q221 158 473 158q263 0 364 -128q153 128 356 128h28q148 0 242.5 -67t127 -179t9.5 -258q-15 -73 -21 -92h-723
q-6 -102 62 -158t177 -56h28q160 0 293 104l97 -168q-80 -54 -146 -88q-128 -64 -292 -64h-28q-142 0 -239 53.5t-146 147.5q-79 -93 -192.5 -146.5t-254.5 -54.5zM378 304q-9 -56 30 -90t113 -34q132 0 218.5 62.5t102.5 163.5l4 26l-294 -18q-3 0 -13 -1t-13.5 -1
t-12.5 -1t-13 -1.5t-12.5 -1.5t-12.5 -2.5t-11 -3.5t-12 -4t-10.5 -5t-10.5 -7q-44 -28 -53 -82zM1120 594h494v2q14 89 -38 145.5t-146 56.5h-28q-95 0 -149 -30q-99 -54 -132 -166z" />
    <glyph glyph-name="ccedilla" unicode="&#xe7;" horiz-adv-x="1089" 
d="M399 -417q-104 0 -151 47l22 136q57 -32 113 -37t91 14t40 51q4 21 -1.5 31.5t-29.5 15.5t-66.5 2t-120.5 -12l113 166q-57 15 -110 49q-102 67 -148 184.5t-23 263.5q24 150 106 265q83 116 206.5 181.5t266.5 65.5h31q142 0 244 -66q119 -78 160 -217l-240 -95
q-14 77 -65 118.5t-133 41.5h-31q-117 0 -196 -77.5t-101 -216.5t33 -217.5t170 -78.5h31q89 0 157.5 50t106.5 142l212 -94q-20 -39 -41 -66q-83 -117 -205 -183t-261 -67l-3 -3q124 -47 102 -183q-9 -54 -38 -96.5t-70 -66.5t-84.5 -36t-86.5 -12z" />
    <glyph glyph-name="egrave" unicode="&#xe8;" 
d="M540 1518h197l126 -323h-173zM127 488q12 79 43.5 153.5t82.5 140.5t116 116t150.5 79t180.5 29h28q148 0 242.5 -67t127 -179t9.5 -258q-15 -73 -21 -92h-723q-6 -102 62 -158t177 -56h28q141 0 265 84l125 -148q-80 -54 -146 -88q-128 -64 -292 -64h-28
q-123 0 -215 41.5t-142 113t-68 161.5t-2 192zM390 594h495v2q14 89 -38 145.5t-146 56.5h-28q-95 0 -149 -30q-100 -54 -134 -174z" />
    <glyph glyph-name="eacute" unicode="&#xe9;" 
d="M605 1195l228 323h197l-253 -323h-172zM127 488q12 79 43.5 153.5t82.5 140.5t116 116t150.5 79t180.5 29h28q148 0 242.5 -67t127 -179t9.5 -258q-15 -73 -21 -92h-723q-6 -102 62 -158t177 -56h28q141 0 265 84l125 -148q-80 -54 -146 -88q-128 -64 -292 -64h-28
q-123 0 -215 41.5t-142 113t-68 161.5t-2 192zM390 594h495v2q14 89 -38 145.5t-146 56.5h-28q-95 0 -149 -30q-100 -54 -134 -174z" />
    <glyph glyph-name="ecircumflex" unicode="&#xea;" 
d="M484 1195l241 323h113l140 -323h-187l-44 108l-78 -108h-185zM127 488q12 79 43.5 153.5t82.5 140.5t116 116t150.5 79t180.5 29h28q148 0 242.5 -67t127 -179t9.5 -258q-15 -73 -21 -92h-723q-6 -102 62 -158t177 -56h28q141 0 265 84l125 -148q-80 -54 -146 -88
q-128 -64 -292 -64h-28q-123 0 -215 41.5t-142 113t-68 161.5t-2 192zM390 594h495v2q14 89 -38 145.5t-146 56.5h-28q-95 0 -149 -30q-100 -54 -134 -174z" />
    <glyph glyph-name="edieresis" unicode="&#xeb;" 
d="M545 1355q6 40 39 68.5t73 28.5t65 -28t19 -69q-7 -40 -40.5 -69t-74.5 -29q-40 0 -64 29t-17 69zM127 488q12 79 43.5 153.5t82.5 140.5t116 116t150.5 79t180.5 29h28q148 0 242.5 -67t127 -179t9.5 -258q-15 -73 -21 -92h-723q-6 -102 62 -158t177 -56h28
q141 0 265 84l125 -148q-80 -54 -146 -88q-128 -64 -292 -64h-28q-123 0 -215 41.5t-142 113t-68 161.5t-2 192zM390 594h495v2q14 89 -38 145.5t-146 56.5h-28q-95 0 -149 -30q-100 -54 -134 -174zM776 1355q6 40 38.5 68.5t73.5 28.5q40 0 64.5 -28t18.5 -69
q-7 -40 -40.5 -69t-73.5 -29q-41 0 -64.5 29t-16.5 69z" />
    <glyph glyph-name="igrave" unicode="&#xec;" horiz-adv-x="465" 
d="M87 0l156 986h246l-156 -986h-246zM178 1518h198l125 -323h-170z" />
    <glyph glyph-name="iacute" unicode="&#xed;" horiz-adv-x="450" 
d="M132 0l156 986h246l-156 -986h-246zM327 1195l228 323h197l-253 -323h-172z" />
    <glyph glyph-name="icircumflex" unicode="&#xee;" horiz-adv-x="231" 
d="M-19 0l156 986h246l-156 -986h-246zM57 1195l243 323h111l141 -323h-187l-44 108l-78 -108h-186z" />
    <glyph glyph-name="idieresis" unicode="&#xef;" horiz-adv-x="216" 
d="M-27 0l156 986h246l-156 -986h-246zM112 1355q6 40 38.5 68.5t73.5 28.5q40 0 64.5 -28t18.5 -69q-7 -40 -40.5 -69t-73.5 -29q-41 0 -64.5 29t-16.5 69zM341 1355q6 40 39 68.5t73 28.5t64.5 -28t18.5 -69q-7 -40 -40 -69t-74 -29q-40 0 -64 29t-17 69z" />
    <glyph glyph-name="eth" unicode="&#xf0;" horiz-adv-x="1155" 
d="M556 -50q-148 0 -254 72.5t-151 200.5t-20 289q39 245 207 402t396 157h17q15 0 45 -2l-28 88l-139 -36l-15 177l100 26l-41 127h265l22 -65l158 41l20 -175l-123 -32l167 -499q15 -157 -26.5 -300t-124.5 -246t-203 -164t-255 -61h-17zM370 512q-25 -160 31.5 -243
t191.5 -83h17q135 0 218.5 83t108.5 243t-32 242t-192 82h-17q-135 0 -218 -82t-108 -242z" />
    <glyph glyph-name="ntilde" unicode="&#xf1;" horiz-adv-x="1140" 
d="M132 0l156 986h250l-13 -84q130 104 290 104h14q168 0 248 -95.5t53 -266.5l-102 -644h-250l87 552q20 123 -15 180.5t-129 57.5q-73 0 -124 -33q-106 -67 -140 -285l-75 -472h-250zM493 1285q18 111 61.5 160.5t117.5 49.5q67 0 141 -32q58 -26 86 -26q30 0 38 52h140
q-18 -112 -61.5 -162t-118.5 -50q-59 0 -140 34q-66 26 -86 26q-30 0 -38 -52h-140z" />
    <glyph glyph-name="ograve" unicode="&#xf2;" horiz-adv-x="1123" 
d="M545 -20q-144 0 -246 66q-102 67 -148 184.5t-23 263.5q24 150 106 265q83 116 206.5 181.5t266.5 65.5h31q142 0 244 -66q103 -67 148 -182.5t21 -263.5q-23 -149 -106 -264q-83 -117 -206 -183.5t-263 -66.5h-31zM376 494q-22 -139 33 -217.5t170 -78.5h31
q113 0 191 78.5t100 217.5t-30.5 216.5t-166.5 77.5h-31q-117 0 -196 -77.5t-101 -216.5zM559 1518h198l126 -323h-171z" />
    <glyph glyph-name="oacute" unicode="&#xf3;" horiz-adv-x="1123" 
d="M545 -20q-144 0 -246 66q-102 67 -148 184.5t-23 263.5q24 150 106 265q83 116 206.5 181.5t266.5 65.5h31q142 0 244 -66q103 -67 148 -182.5t21 -263.5q-23 -149 -106 -264q-83 -117 -206 -183.5t-263 -66.5h-31zM376 494q-22 -139 33 -217.5t170 -78.5h31
q113 0 191 78.5t100 217.5t-30.5 216.5t-166.5 77.5h-31q-117 0 -196 -77.5t-101 -216.5zM626 1195l226 323h199l-254 -323h-171z" />
    <glyph glyph-name="ocircumflex" unicode="&#xf4;" horiz-adv-x="1123" 
d="M545 -20q-144 0 -246 66q-102 67 -148 184.5t-23 263.5q24 150 106 265q83 116 206.5 181.5t266.5 65.5h31q142 0 244 -66q103 -67 148 -182.5t21 -263.5q-23 -149 -106 -264q-83 -117 -206 -183.5t-263 -66.5h-31zM376 494q-22 -139 33 -217.5t170 -78.5h31
q113 0 191 78.5t100 217.5t-30.5 216.5t-166.5 77.5h-31q-117 0 -196 -77.5t-101 -216.5zM504 1195l243 323h111l139 -323h-186l-43 108l-78 -108h-186z" />
    <glyph glyph-name="otilde" unicode="&#xf5;" horiz-adv-x="1123" 
d="M545 -20q-144 0 -246 66q-102 67 -148 184.5t-23 263.5q24 150 106 265q83 116 206.5 181.5t266.5 65.5h31q142 0 244 -66q103 -67 148 -182.5t21 -263.5q-23 -149 -106 -264q-83 -117 -206 -183.5t-263 -66.5h-31zM376 494q-22 -139 33 -217.5t170 -78.5h31
q113 0 191 78.5t100 217.5t-30.5 216.5t-166.5 77.5h-31q-117 0 -196 -77.5t-101 -216.5zM493 1285q18 111 61.5 160.5t117.5 49.5q67 0 141 -32q58 -26 86 -26q30 0 38 52h140q-18 -112 -61.5 -162t-118.5 -50q-59 0 -140 34q-66 26 -86 26q-30 0 -38 -52h-140z" />
    <glyph glyph-name="odieresis" unicode="&#xf6;" horiz-adv-x="1123" 
d="M545 -20q-144 0 -246 66q-102 67 -148 184.5t-23 263.5q24 150 106 265q83 116 206.5 181.5t266.5 65.5h31q142 0 244 -66q103 -67 148 -182.5t21 -263.5q-23 -149 -106 -264q-83 -117 -206 -183.5t-263 -66.5h-31zM376 494q-22 -139 33 -217.5t170 -78.5h31
q113 0 191 78.5t100 217.5t-30.5 216.5t-166.5 77.5h-31q-117 0 -196 -77.5t-101 -216.5zM565 1355q6 41 39.5 69t73.5 28t64 -28.5t18 -68.5q-7 -40 -40 -69t-73 -29q-41 0 -65 29t-17 69zM794 1355q6 41 39.5 69t73.5 28q41 0 65 -28.5t18 -68.5q-7 -40 -40 -69t-74 -29
q-40 0 -64.5 29t-17.5 69z" />
    <glyph glyph-name="divide" unicode="&#xf7;" horiz-adv-x="985" 
d="M155 560l25 161h853l-25 -161h-853zM441 357q7 46 43.5 77t82.5 31q45 0 72 -31t20 -77t-44.5 -77.5t-82.5 -31.5q-46 0 -72.5 32t-18.5 77zM530 922q7 46 43.5 77.5t82.5 31.5q45 0 72 -31.5t20 -77.5t-44 -77t-82 -31q-46 0 -72.5 31t-19.5 77z" />
    <glyph glyph-name="oslash" unicode="&#xf8;" horiz-adv-x="1330" 
d="M185 -76l-123 150l204 166q-42 115 -20 254q24 150 106 265q83 116 206.5 181.5t266.5 65.5h31q142 0 244 -66l15 -10l189 153l124 -149l-189 -154q56 -126 30 -286q-23 -149 -106 -264q-83 -117 -206 -183.5t-263 -66.5h-31q-144 0 -246 66q-15 10 -43 32zM489 421
l429 349q-40 18 -96 18h-31q-117 0 -196 -77.5t-101 -216.5q-6 -42 -5 -73zM568 235q51 -37 129 -37h31q113 0 191 78.5t100 217.5q10 57 5 112z" />
    <glyph glyph-name="ugrave" unicode="&#xf9;" horiz-adv-x="1120" 
d="M467 -20q-168 0 -248 95.5t-53 266.5l102 644h250l-87 -552q-19 -124 15.5 -181t128.5 -57q73 0 124 33q106 67 140 285l75 472h250l-156 -986h-250l13 84q-130 -104 -290 -104h-14zM528 1518h199l124 -323h-170z" />
    <glyph glyph-name="uacute" unicode="&#xfa;" horiz-adv-x="1120" 
d="M467 -20q-168 0 -248 95.5t-53 266.5l102 644h250l-87 -552q-19 -124 15.5 -181t128.5 -57q73 0 124 33q106 67 140 285l75 472h250l-156 -986h-250l13 84q-130 -104 -290 -104h-14zM665 1195l226 323h199l-253 -323h-172z" />
    <glyph glyph-name="ucircumflex" unicode="&#xfb;" horiz-adv-x="1120" 
d="M467 -20q-168 0 -248 95.5t-53 266.5l102 644h250l-87 -552q-19 -124 15.5 -181t128.5 -57q73 0 124 33q106 67 140 285l75 472h250l-156 -986h-250l13 84q-130 -104 -290 -104h-14zM488 1195l241 323h112l140 -323h-188l-43 108l-78 -108h-184z" />
    <glyph glyph-name="udieresis" unicode="&#xfc;" horiz-adv-x="1120" 
d="M467 -20q-168 0 -248 95.5t-53 266.5l102 644h250l-87 -552q-19 -124 15.5 -181t128.5 -57q73 0 124 33q106 67 140 285l75 472h250l-156 -986h-250l13 84q-130 -104 -290 -104h-14zM560 1355q6 40 39 68.5t73 28.5t64 -28.5t18 -68.5q-7 -40 -40 -69t-73 -29
q-41 0 -64.5 29t-16.5 69zM789 1355q6 40 39.5 68.5t73.5 28.5t64.5 -28.5t18.5 -68.5q-7 -40 -40.5 -69t-73.5 -29t-64.5 29t-17.5 69z" />
    <glyph glyph-name="yacute" unicode="&#xfd;" horiz-adv-x="1057" 
d="M76 -382q-22 10 -45 24l151 234q39 -24 77.5 -20.5t58.5 39.5l88 157l-230 936h262l151 -612l343 612h261l-664 -1184q-55 -97 -128.5 -153t-152 -64t-160.5 26zM594 1195l227 323h198l-254 -323h-171z" />
    <glyph glyph-name="thorn" unicode="&#xfe;" horiz-adv-x="1168" 
d="M73 -374l280 1768h248l-71 -447q85 47 168 69t153.5 19t133.5 -27t107.5 -68.5t75.5 -105.5t38 -139.5t-5 -168.5q-25 -162 -112 -286.5t-201.5 -185.5t-248 -59.5t-248.5 77.5l-70 -446h-248zM451 506q-20 -127 32 -195.5t162 -68.5h23q112 0 187 68.5t95 195.5
q20 129 -32 207.5t-163 78.5h-23q-108 0 -184.5 -78.5t-96.5 -207.5z" />
    <glyph glyph-name="ydieresis" unicode="&#xff;" horiz-adv-x="1057" 
d="M76 -382q-22 10 -45 24l151 234q39 -24 77.5 -20.5t58.5 39.5l88 157l-230 936h262l151 -612l343 612h261l-664 -1184q-55 -97 -128.5 -153t-152 -64t-160.5 26zM533 1355q6 41 39.5 69t73.5 28q41 0 65.5 -28.5t18.5 -68.5q-7 -40 -40.5 -69t-74.5 -29q-40 0 -64.5 29
t-17.5 69zM764 1355q6 41 39 69t73 28t64.5 -28t18.5 -69q-7 -40 -40.5 -69t-73.5 -29t-64 29t-17 69z" />
    <glyph glyph-name="Amacron" unicode="&#x100;" horiz-adv-x="1334" 
d="M10 0l781 1394h194l339 -1394h-282l-67 321h-512l-171 -321h-282zM587 553h340l-97 459zM727 1545l25 161h378l-25 -161h-378z" />
    <glyph glyph-name="amacron" unicode="&#x101;" horiz-adv-x="1074" 
d="M453 -20q-168 0 -258 91t-67 233q13 84 57 145.5t109 94.5q82 45 251 54l331 18l1 6q14 88 -40.5 131t-180.5 43q-79 0 -165 -31t-156 -87l-99 170q221 158 473 158q234 0 339.5 -100.5t76.5 -283.5l-99 -622h-245l20 126q-12 -14 -19 -21q-60 -61 -152.5 -93t-176.5 -32
zM378 304q-9 -56 30 -90t113 -34q132 0 218.5 62.5t102.5 163.5l4 26l-294 -18q-3 0 -13 -1t-13.5 -1t-12.5 -1t-13 -1.5t-12.5 -1.5t-12.5 -2.5t-11 -3.5t-12 -4t-10.5 -5t-10.5 -7q-44 -28 -53 -82zM590 1267l25 162h377l-25 -162h-377z" />
    <glyph glyph-name="Abreve" unicode="&#x102;" horiz-adv-x="1334" 
d="M10 0l781 1394h194l339 -1394h-282l-67 321h-512l-171 -321h-282zM587 553h340l-97 459zM718 1773h155q-26 -92 -13.5 -125.5t67.5 -33.5q54 0 77.5 34.5t25.5 124.5h155q0 -139 -82.5 -229t-201.5 -90q-121 0 -173.5 89.5t-9.5 229.5z" />
    <glyph glyph-name="abreve" unicode="&#x103;" horiz-adv-x="1074" 
d="M453 -20q-168 0 -258 91t-67 233q13 84 57 145.5t109 94.5q82 45 251 54l331 18l1 6q14 88 -40.5 131t-180.5 43q-79 0 -165 -31t-156 -87l-99 170q221 158 473 158q234 0 339.5 -100.5t76.5 -283.5l-99 -622h-245l20 126q-12 -14 -19 -21q-60 -61 -152.5 -93t-176.5 -32
zM378 304q-9 -56 30 -90t113 -34q132 0 218.5 62.5t102.5 163.5l4 26l-294 -18q-3 0 -13 -1t-13.5 -1t-12.5 -1t-13 -1.5t-12.5 -1.5t-12.5 -2.5t-11 -3.5t-12 -4t-10.5 -5t-10.5 -7q-44 -28 -53 -82zM584 1507h155q-26 -92 -13.5 -125.5t66.5 -33.5t77.5 34.5t25.5 124.5
h156q-1 -139 -84 -229t-201 -90q-120 0 -172.5 89.5t-9.5 229.5z" />
    <glyph glyph-name="Aogonek" unicode="&#x104;" horiz-adv-x="1365" 
d="M1048 -437q-104 0 -163 54.5t-44 146.5q9 64 46 112q62 80 159 124h-4l-67 321h-512l-171 -321h-282l781 1394h194l339 -1394q-285 -108 -302 -214q-4 -28 11.5 -44.5t45.5 -16.5q67 0 137 73l89 -111q-117 -124 -257 -124zM587 553h340l-97 459z" />
    <glyph glyph-name="aogonek" unicode="&#x105;" horiz-adv-x="1181" 
d="M788 -423q-104 0 -163 54.5t-44 146.5q9 63 47 112q59 77 155 123l18 113q-12 -14 -19 -21q-60 -61 -152.5 -93t-176.5 -32q-168 0 -258 91t-67 233q13 84 57 145.5t109 94.5q82 45 251 54l331 18l1 6q14 88 -40.5 131t-180.5 43q-79 0 -165 -31t-156 -87l-99 170
q221 158 473 158q234 0 339.5 -100.5t76.5 -283.5l-97 -608q-46 -18 -101 -49t-107 -78t-58 -87q-4 -28 12 -44.5t46 -16.5q66 0 136 73l90 -111q-119 -124 -258 -124zM378 304q-9 -56 30 -90t113 -34q132 0 218.5 62.5t102.5 163.5l4 26l-294 -18q-3 0 -13 -1t-13.5 -1
t-12.5 -1t-13 -1.5t-12.5 -1.5t-12.5 -2.5t-11 -3.5t-12 -4t-10.5 -5t-10.5 -7q-44 -28 -53 -82z" />
    <glyph glyph-name="Cacute" unicode="&#x106;" horiz-adv-x="1404" 
d="M713 -32q-198 0 -335 91q-137 92 -194.5 256.5t-23.5 380.5q36 221 145 384q111 165 276.5 255.5t362.5 90.5h31q200 0 336 -91q163 -107 212 -316l-258 -92q-76 251 -331 251h-31q-122 0 -225 -58q-102 -58 -168 -166t-90 -258q-23 -151 9 -256q31 -108 115 -166
t206 -58h31q126 0 229 59q114 67 182 194l232 -89q-14 -28 -40 -66q-112 -165 -277.5 -255.5t-362.5 -90.5h-31zM820 1530l213 293h201l-241 -293h-173z" />
    <glyph glyph-name="cacute" unicode="&#x107;" horiz-adv-x="1089" 
d="M545 -20q-144 0 -246 66q-102 67 -148 184.5t-23 263.5q24 150 106 265q83 116 206.5 181.5t266.5 65.5h31q142 0 244 -66q119 -78 160 -217l-240 -95q-14 77 -65 118.5t-133 41.5h-31q-117 0 -196 -77.5t-101 -216.5t33 -217.5t170 -78.5h31q89 0 157.5 50t106.5 142
l212 -94q-20 -39 -41 -66q-83 -117 -206 -183.5t-263 -66.5h-31zM602 1195l228 323h197l-253 -323h-172z" />
    <glyph glyph-name="Ccircumflex" unicode="&#x108;" horiz-adv-x="1404" 
d="M713 -32q-198 0 -335 91q-137 92 -194.5 256.5t-23.5 380.5q36 221 145 384q111 165 276.5 255.5t362.5 90.5h31q200 0 336 -91q163 -107 212 -316l-258 -92q-76 251 -331 251h-31q-122 0 -225 -58q-102 -58 -168 -166t-90 -258q-23 -151 9 -256q31 -108 115 -166
t206 -58h31q126 0 229 59q114 67 182 194l232 -89q-14 -28 -40 -66q-112 -165 -277.5 -255.5t-362.5 -90.5h-31zM708 1480l249 293h106l158 -293h-194l-48 96l-80 -96h-191z" />
    <glyph glyph-name="ccircumflex" unicode="&#x109;" horiz-adv-x="1089" 
d="M545 -20q-144 0 -246 66q-102 67 -148 184.5t-23 263.5q24 150 106 265q83 116 206.5 181.5t266.5 65.5h31q142 0 244 -66q119 -78 160 -217l-240 -95q-14 77 -65 118.5t-133 41.5h-31q-117 0 -196 -77.5t-101 -216.5t33 -217.5t170 -78.5h31q89 0 157.5 50t106.5 142
l212 -94q-20 -39 -41 -66q-83 -117 -206 -183.5t-263 -66.5h-31zM489 1195l243 323h111l139 -323h-186l-43 108l-78 -108h-186z" />
    <glyph glyph-name="Cdotaccent" unicode="&#x10a;" horiz-adv-x="1404" 
d="M713 -32q-198 0 -335 91q-137 92 -194.5 256.5t-23.5 380.5q36 221 145 384q111 165 276.5 255.5t362.5 90.5h31q200 0 336 -91q163 -107 212 -316l-258 -92q-76 251 -331 251h-31q-122 0 -225 -58q-102 -58 -168 -166t-90 -258q-23 -151 9 -256q31 -108 115 -166
t206 -58h31q126 0 229 59q114 67 182 194l232 -89q-14 -28 -40 -66q-112 -165 -277.5 -255.5t-362.5 -90.5h-31zM871 1626q6 40 38.5 69t73.5 29q40 0 64.5 -29t18.5 -69q-7 -40 -40.5 -68.5t-73.5 -28.5q-41 0 -64.5 28.5t-16.5 68.5z" />
    <glyph glyph-name="cdotaccent" unicode="&#x10b;" horiz-adv-x="1089" 
d="M545 -20q-144 0 -246 66q-102 67 -148 184.5t-23 263.5q24 150 106 265q83 116 206.5 181.5t266.5 65.5h31q142 0 244 -66q119 -78 160 -217l-240 -95q-14 77 -65 118.5t-133 41.5h-31q-117 0 -196 -77.5t-101 -216.5t33 -217.5t170 -78.5h31q89 0 157.5 50t106.5 142
l212 -94q-20 -39 -41 -66q-83 -117 -206 -183.5t-263 -66.5h-31zM655 1353q7 41 40.5 69t73.5 28t64 -28.5t17 -68.5q-6 -40 -39 -69t-73 -29q-41 0 -65 29t-18 69z" />
    <glyph glyph-name="Ccaron" unicode="&#x10c;" horiz-adv-x="1404" 
d="M713 -32q-198 0 -335 91q-137 92 -194.5 256.5t-23.5 380.5q36 221 145 384q111 165 276.5 255.5t362.5 90.5h31q200 0 336 -91q163 -107 212 -316l-258 -92q-76 251 -331 251h-31q-122 0 -225 -58q-102 -58 -168 -166t-90 -258q-23 -151 9 -256q31 -108 115 -166
t206 -58h31q126 0 229 59q114 67 182 194l232 -89q-14 -28 -40 -66q-112 -165 -277.5 -255.5t-362.5 -90.5h-31zM746 1823h193l49 -96l78 96h192l-250 -293h-106z" />
    <glyph glyph-name="ccaron" unicode="&#x10d;" horiz-adv-x="1089" 
d="M545 -20q-144 0 -246 66q-102 67 -148 184.5t-23 263.5q24 150 106 265q83 116 206.5 181.5t266.5 65.5h31q142 0 244 -66q119 -78 160 -217l-240 -95q-14 77 -65 118.5t-133 41.5h-31q-117 0 -196 -77.5t-101 -216.5t33 -217.5t170 -78.5h31q89 0 157.5 50t106.5 142
l212 -94q-20 -39 -41 -66q-83 -117 -206 -183.5t-263 -66.5h-31zM533 1518h186l44 -108l77 108h186l-242 -323h-112z" />
    <glyph glyph-name="Dcaron" unicode="&#x10e;" horiz-adv-x="1273" 
d="M140 0l221 1394h355q348 0 508.5 -184t107.5 -524q-53 -332 -269 -509t-570 -177h-353zM436 238h69q160 0 274 40q242 83 294 418q27 174 -14 273q-39 98 -135.5 142.5t-249.5 44.5h-93zM665 1823h192l50 -96l78 96h192l-250 -293h-106z" />
    <glyph glyph-name="dcaron" unicode="&#x10f;" horiz-adv-x="1321" 
d="M799 71q-85 -47 -168 -69t-153.5 -19t-133.5 27t-107.5 68.5t-75.5 105.5t-38 139.5t5 168.5q24 151 104 265q80 116 200.5 181.5t257.5 65.5h30q126 0 218 -56l70 444h248l-220 -1394h-248zM368 492q-20 -126 36 -196t170 -70h23q104 0 180 72.5t98 193.5
q22 139 -29 216.5t-161 77.5h-30q-113 0 -189 -77t-98 -217zM1272 1117l177 345h150l-14 -83l-151 -262h-162z" />
    <glyph glyph-name="Dcroat" unicode="&#x110;" horiz-adv-x="1325" 
d="M192 0l89 564h-172l34 211h172l98 619h355q348 0 508.5 -184t107.5 -524q-53 -332 -269 -509t-570 -177h-353zM488 238h69q160 0 274 40q242 83 294 418q27 174 -14 273q-39 98 -135.5 142.5t-249.5 44.5h-93l-60 -381h229l-34 -211h-229z" />
    <glyph glyph-name="dcroat" unicode="&#x111;" horiz-adv-x="1157" 
d="M800 73q-85 -47 -168.5 -69t-154 -19t-133.5 27t-107.5 68.5t-75.5 105.5t-38 139.5t5 168.5q24 151 104 265q80 116 200.5 181.5t257.5 65.5h30q126 0 218 -56l22 133h-138l35 221h138l14 90h248l-14 -90h129l-35 -221h-129l-172 -1083h-248zM368 494q-20 -126 36 -196
t170 -70h23q104 0 180 73t98 193q22 139 -28.5 216.5t-160.5 77.5h-30q-113 0 -189.5 -77t-98.5 -217z" />
    <glyph glyph-name="Emacron" unicode="&#x112;" horiz-adv-x="1081" 
d="M140 0l221 1394h881l-37 -232h-623l-53 -332h579l-36 -230h-579l-58 -368h623l-37 -232h-881zM621 1545l25 161h377l-25 -161h-377z" />
    <glyph glyph-name="emacron" unicode="&#x113;" 
d="M553 1267l25 162h378l-25 -162h-378zM127 488q12 79 43.5 153.5t82.5 140.5t116 116t150.5 79t180.5 29h28q148 0 242.5 -67t127 -179t9.5 -258q-15 -73 -21 -92h-723q-6 -102 62 -158t177 -56h28q141 0 265 84l125 -148q-80 -54 -146 -88q-128 -64 -292 -64h-28
q-123 0 -215 41.5t-142 113t-68 161.5t-2 192zM390 594h495v2q14 89 -38 145.5t-146 56.5h-28q-95 0 -149 -30q-100 -54 -134 -174z" />
    <glyph glyph-name="Ebreve" unicode="&#x114;" horiz-adv-x="1081" 
d="M140 0l221 1394h881l-37 -232h-623l-53 -332h579l-36 -230h-579l-58 -368h623l-37 -232h-881zM684 1822h156q-26 -93 -14 -125.5t67 -32.5q54 0 77.5 34t25.5 124h155q-1 -139 -83 -228.5t-201 -89.5q-121 0 -173.5 89t-9.5 229z" />
    <glyph glyph-name="ebreve" unicode="&#x115;" 
d="M700 1507q-26 -92 -13.5 -125.5t66.5 -33.5q55 0 78.5 34.5t24.5 124.5h155q0 -139 -82.5 -229t-201.5 -90q-120 0 -173 90t-10 229h156zM127 488q12 79 43.5 153.5t82.5 140.5t116 116t150.5 79t180.5 29h28q148 0 242.5 -67t127 -179t9.5 -258q-15 -73 -21 -92h-723
q-6 -102 62 -158t177 -56h28q141 0 265 84l125 -148q-80 -54 -146 -88q-128 -64 -292 -64h-28q-123 0 -215 41.5t-142 113t-68 161.5t-2 192zM390 594h495v2q14 89 -38 145.5t-146 56.5h-28q-95 0 -149 -30q-100 -54 -134 -174z" />
    <glyph glyph-name="Edotaccent" unicode="&#x116;" horiz-adv-x="1081" 
d="M140 0l221 1394h881l-37 -232h-623l-53 -332h579l-36 -230h-579l-58 -368h623l-37 -232h-881zM725 1626q6 40 39.5 69t73.5 29t64.5 -29t18.5 -69q-7 -40 -40.5 -68.5t-73.5 -28.5t-64.5 28.5t-17.5 68.5z" />
    <glyph glyph-name="edotaccent" unicode="&#x117;" 
d="M658 1353q7 40 40 68.5t73 28.5t64 -28.5t17 -68.5q-6 -40 -38.5 -69t-73.5 -29q-40 0 -64 29t-18 69zM127 488q12 79 43.5 153.5t82.5 140.5t116 116t150.5 79t180.5 29h28q148 0 242.5 -67t127 -179t9.5 -258q-15 -73 -21 -92h-723q-6 -102 62 -158t177 -56h28
q141 0 265 84l125 -148q-80 -54 -146 -88q-128 -64 -292 -64h-28q-123 0 -215 41.5t-142 113t-68 161.5t-2 192zM390 594h495v2q14 89 -38 145.5t-146 56.5h-28q-95 0 -149 -30q-100 -54 -134 -174z" />
    <glyph glyph-name="Eogonek" unicode="&#x118;" horiz-adv-x="1108" 
d="M741 -435q-104 0 -163 54.5t-44 146.5q11 65 47 112q61 78 154 122h-595l221 1394h881l-37 -232h-623l-53 -332h579l-36 -230h-579l-58 -368h623l-37 -232h-9q-280 -108 -297 -212q-4 -28 12 -44.5t46 -16.5q66 0 136 73l90 -111q-119 -124 -258 -124z" />
    <glyph glyph-name="eogonek" unicode="&#x119;" 
d="M471 -423q-104 0 -163 54.5t-44 146.5q9 63 47 112q46 59 117 103q-119 25 -194.5 100t-100 176t-6.5 219q12 79 43.5 153.5t82.5 140.5t116 116t150.5 79t180.5 29h28q148 0 242.5 -67t127 -179t9.5 -258q-15 -73 -21 -92h-723q-6 -102 62 -158t177 -56h28q141 0 265 84
l125 -148q-80 -54 -146 -88q-95 -47 -199 -59q-215 -92 -230 -185q-4 -28 12 -44.5t46 -16.5q66 0 136 73l90 -111q-119 -124 -258 -124zM390 594h495v2q14 89 -38 145.5t-146 56.5h-28q-95 0 -149 -30q-100 -54 -134 -174z" />
    <glyph glyph-name="Ecaron" unicode="&#x11a;" horiz-adv-x="1081" 
d="M140 0l221 1394h881l-37 -232h-623l-53 -332h579l-36 -230h-579l-58 -368h623l-37 -232h-881zM599 1823h193l49 -96l78 96h192l-250 -293h-106z" />
    <glyph glyph-name="ecaron" unicode="&#x11b;" 
d="M535 1518h187l44 -109l78 109h185l-242 -323h-113zM127 488q12 79 43.5 153.5t82.5 140.5t116 116t150.5 79t180.5 29h28q148 0 242.5 -67t127 -179t9.5 -258q-15 -73 -21 -92h-723q-6 -102 62 -158t177 -56h28q141 0 265 84l125 -148q-80 -54 -146 -88
q-128 -64 -292 -64h-28q-123 0 -215 41.5t-142 113t-68 161.5t-2 192zM390 594h495v2q14 89 -38 145.5t-146 56.5h-28q-95 0 -149 -30q-100 -54 -134 -174z" />
    <glyph glyph-name="Gcircumflex" unicode="&#x11c;" horiz-adv-x="1406" 
d="M713 -32q-198 0 -335 91q-137 92 -194.5 256.5t-23.5 380.5q36 221 145 384q111 165 276.5 255.5t362.5 90.5h31q200 0 336 -91q163 -107 212 -316l-258 -92q-76 251 -331 251h-31q-122 0 -225 -58q-102 -58 -168 -166t-90 -258q-23 -151 9 -256q31 -108 115 -166
t206 -58h31q126 0 229 59q113 67 179 189l15 78h-423l37 232h671l-124 -778h-250l12 74q-175 -102 -383 -102h-31zM703 1480l251 293h106l156 -293h-193l-48 96l-80 -96h-192z" />
    <glyph glyph-name="gcircumflex" unicode="&#x11d;" horiz-adv-x="1212" 
d="M496 -413q-436 8 -445 383h269q24 -139 213 -145q122 4 189.5 58.5t101.5 168.5q-117 -57 -246 -57h-31q-143 0 -245 66q-103 67 -149 184.5t-22 263.5q23 150 106 265q83 116 206.5 181.5t266.5 65.5h31q137 0 234 -60l10 64h258l-139 -880q-86 -549 -608 -558zM379 509
q-22 -139 32.5 -217.5t170.5 -78.5h31q113 0 191 78.5t100 217.5t-31 216.5t-167 77.5h-31q-117 0 -195.5 -77.5t-100.5 -216.5zM513 1195l241 323h112l139 -323h-186l-44 108l-78 -108h-184z" />
    <glyph glyph-name="Gbreve" unicode="&#x11e;" horiz-adv-x="1406" 
d="M713 -32q-198 0 -335 91q-137 92 -194.5 256.5t-23.5 380.5q36 221 145 384q111 165 276.5 255.5t362.5 90.5h31q200 0 336 -91q163 -107 212 -316l-258 -92q-76 251 -331 251h-31q-122 0 -225 -58q-102 -58 -168 -166t-90 -258q-23 -151 9 -256q31 -108 115 -166
t206 -58h31q126 0 229 59q113 67 179 189l15 78h-423l37 232h671l-124 -778h-250l12 74q-175 -102 -383 -102h-31zM787 1822h154q-25 -92 -12.5 -125t66.5 -33t77.5 34t26.5 124h154q0 -139 -82.5 -228.5t-201.5 -89.5q-120 0 -173 89.5t-9 228.5z" />
    <glyph glyph-name="gbreve" unicode="&#x11f;" horiz-adv-x="1212" 
d="M496 -413q-436 8 -445 383h269q24 -139 213 -145q122 4 189.5 58.5t101.5 168.5q-117 -57 -246 -57h-31q-143 0 -245 66q-103 67 -149 184.5t-22 263.5q23 150 106 265q83 116 206.5 181.5t266.5 65.5h31q137 0 234 -60l10 64h258l-139 -880q-86 -549 -608 -558zM379 509
q-22 -139 32.5 -217.5t170.5 -78.5h31q113 0 191 78.5t100 217.5t-31 216.5t-167 77.5h-31q-117 0 -195.5 -77.5t-100.5 -216.5zM562 1507h154q-26 -92 -13.5 -125.5t66.5 -33.5q55 0 78.5 34.5t24.5 124.5h155q0 -139 -82.5 -229t-201.5 -90t-172 90t-9 229z" />
    <glyph glyph-name="Gdotaccent" unicode="&#x120;" horiz-adv-x="1406" 
d="M713 -32q-198 0 -335 91q-137 92 -194.5 256.5t-23.5 380.5q36 221 145 384q111 165 276.5 255.5t362.5 90.5h31q200 0 336 -91q163 -107 212 -316l-258 -92q-76 251 -331 251h-31q-122 0 -225 -58q-102 -58 -168 -166t-90 -258q-23 -151 9 -256q31 -108 115 -166
t206 -58h31q126 0 229 59q113 67 179 189l15 78h-423l37 232h671l-124 -778h-250l12 74q-175 -102 -383 -102h-31zM892 1626q6 40 39 69t73 29t64.5 -29t18.5 -69q-7 -40 -40.5 -68.5t-73.5 -28.5t-64 28.5t-17 68.5z" />
    <glyph glyph-name="gdotaccent" unicode="&#x121;" horiz-adv-x="1212" 
d="M496 -413q-436 8 -445 383h269q24 -139 213 -145q122 4 189.5 58.5t101.5 168.5q-117 -57 -246 -57h-31q-143 0 -245 66q-103 67 -149 184.5t-22 263.5q23 150 106 265q83 116 206.5 181.5t266.5 65.5h31q137 0 234 -60l10 64h258l-139 -880q-86 -549 -608 -558zM379 509
q-22 -139 32.5 -217.5t170.5 -78.5h31q113 0 191 78.5t100 217.5t-31 216.5t-167 77.5h-31q-117 0 -195.5 -77.5t-100.5 -216.5zM693 1353q7 40 40 68.5t73 28.5t64.5 -28t17.5 -69q-6 -40 -39.5 -69t-73.5 -29t-64 29t-18 69z" />
    <glyph glyph-name="uni0122" unicode="&#x122;" horiz-adv-x="1614" 
d="M799 -32q-198 0 -335 91q-137 92 -194.5 256.5t-23.5 380.5q36 221 145 384q111 165 276.5 255.5t362.5 90.5h31q200 0 336 -91q163 -107 212 -316l-258 -92q-76 251 -331 251h-31q-122 0 -225 -58q-102 -58 -168 -166t-90 -258q-23 -151 9 -256q31 -108 115 -166
t206 -58h31q126 0 229 59q113 67 179 189l15 78h-423l37 232h671l-124 -778h-250l12 74q-175 -102 -383 -102h-31zM645 -417l178 345h149l-13 -82l-152 -263h-162z" />
    <glyph glyph-name="uni0123" unicode="&#x123;" horiz-adv-x="1239" 
d="M550 -413q-436 8 -445 383h269q24 -139 213 -145q122 4 189.5 58.5t101.5 168.5q-117 -57 -246 -57h-31q-143 0 -245 66q-103 67 -149 184.5t-22 263.5q23 150 106 265q83 116 206.5 181.5t266.5 65.5h31q137 0 234 -60l10 64h258l-139 -880q-86 -549 -608 -558zM433 509
q-22 -139 32.5 -217.5t170.5 -78.5h31q113 0 191 78.5t100 217.5t-31 216.5t-167 77.5h-31q-117 0 -195.5 -77.5t-100.5 -216.5zM787 1197l13 82l150 263h162l-175 -345h-150z" />
    <glyph glyph-name="Hcircumflex" unicode="&#x124;" horiz-adv-x="1349" 
d="M140 0l221 1394h258l-89 -558h553l89 558h258l-221 -1394h-258l95 598h-553l-95 -598h-258zM657 1480l250 293h106l157 -293h-194l-48 96l-80 -96h-191z" />
    <glyph glyph-name="hcircumflex" unicode="&#x125;" horiz-adv-x="992" 
d="M-16 0l221 1394h250l-78 -492q130 104 290 104h14q168 0 248 -95.5t53 -266.5l-102 -644h-250l87 552q20 123 -15 180.5t-129 57.5q-73 0 -124 -33q-106 -67 -140 -285l-75 -472h-250zM94 1480l251 293h106l156 -293h-192l-48 96l-80 -96h-193z" />
    <glyph glyph-name="Hbar" unicode="&#x126;" horiz-adv-x="1381" 
d="M157 0l152 960h-135l33 211h135l36 223h258l-36 -223h553l36 223h258l-36 -223h135l-34 -215h-135l-151 -956h-258l95 598h-553l-95 -598h-258zM547 836h553l20 124h-553z" />
    <glyph glyph-name="hbar" unicode="&#x127;" horiz-adv-x="1128" 
d="M120 0l167 1055h-128l34 211h128l20 128h250l-20 -128h127l-34 -211h-127l-24 -153q130 104 290 104h14q168 0 248 -95.5t53 -266.5l-102 -644h-250l87 552q20 123 -15 180.5t-129 57.5q-73 0 -124 -33q-106 -67 -140 -285l-75 -472h-250z" />
    <glyph glyph-name="Itilde" unicode="&#x128;" horiz-adv-x="187" 
d="M-31 0l221 1394h258l-221 -1394h-258zM69 1553q18 111 61.5 160.5t117.5 49.5q67 0 141 -32q59 -26 86 -26q30 0 38 52h140q-18 -112 -61 -162t-118 -50q-60 0 -141 34q-65 26 -86 26q-30 0 -38 -52h-140z" />
    <glyph glyph-name="itilde" unicode="&#x129;" horiz-adv-x="172" 
d="M-53 0l156 986h246l-156 -986h-246zM19 1285q18 111 61.5 160.5t117.5 49.5q67 0 141 -32q59 -26 86 -26q30 0 38 52h140q-18 -112 -61.5 -162t-118.5 -50q-59 0 -140 34q-66 26 -86 26q-30 0 -38 -52h-140z" />
    <glyph glyph-name="Imacron" unicode="&#x12a;" horiz-adv-x="214" 
d="M-22 0l221 1394h258l-221 -1394h-258zM163 1545l25 161h378l-25 -161h-378z" />
    <glyph glyph-name="imacron" unicode="&#x12b;" horiz-adv-x="198" 
d="M-26 0l156 986h246l-156 -986h-246zM111 1267l25 162h378l-25 -162h-378z" />
    <glyph glyph-name="Ibreve" unicode="&#x12c;" horiz-adv-x="243" 
d="M-4 0l221 1394h258l-221 -1394h-258zM178 1822h156q-26 -93 -14 -125.5t66 -32.5q55 0 78.5 34t24.5 124h156q-1 -139 -83.5 -228.5t-201.5 -89.5q-120 0 -172.5 89.5t-9.5 228.5z" />
    <glyph glyph-name="ibreve" unicode="&#x12d;" horiz-adv-x="256" 
d="M1 0l156 986h246l-156 -986h-246zM134 1507h154q-25 -92 -12.5 -125.5t66.5 -33.5t77.5 34.5t25.5 124.5h156q-1 -140 -83.5 -229.5t-201.5 -89.5q-120 0 -172.5 89.5t-9.5 229.5z" />
    <glyph glyph-name="Iogonek" unicode="&#x12e;" horiz-adv-x="407" 
d="M80 -407q-32 0 -60.5 9.5t-52.5 29.5t-34 58.5t-2 89.5q19 124 118 224l220 1390h258l-221 -1394h-12q-177 -80 -199 -214q-4 -26 -1.5 -30t18.5 -4q36 0 69.5 27.5t136.5 136.5l-38 -235q-90 -88 -200 -88z" />
    <glyph glyph-name="iogonek" unicode="&#x12f;" horiz-adv-x="466" 
d="M72 -403q-32 0 -59.5 9.5t-52 29.5t-34.5 58t-2 90q15 95 82 182.5t163 141.5l139 878h246l-156 -986h-119q-80 -26 -130.5 -82t-61.5 -129q-5 -25 -2.5 -29.5t19.5 -4.5q35 0 68.5 27t137.5 137l-37 -234q-88 -88 -201 -88zM374 1220q7 40 40 68.5t74 28.5
q40 0 64 -28.5t17 -68.5q-6 -40 -39 -68.5t-73 -28.5q-41 0 -65 28.5t-18 68.5z" />
    <glyph glyph-name="Idotaccent" unicode="&#x130;" horiz-adv-x="494" 
d="M118 0l221 1394h258l-221 -1394h-258zM414 1626q6 40 39 69t73 29q41 0 64.5 -29t17.5 -69q-7 -40 -40 -68.5t-73 -28.5t-64 28.5t-17 68.5z" />
    <glyph glyph-name="dotlessi" unicode="&#x131;" horiz-adv-x="606" 
d="M180 0l156 986h246l-156 -986h-246z" />
    <glyph glyph-name="IJ" unicode="&#x132;" horiz-adv-x="1690" 
d="M1041 -32q-517 9 -433 536l13 83h258l-8 -53q-17 -103 -6 -181q11 -71 63 -107.5t151 -39.5q149 4 218.5 83t94.5 243l137 862h258l-140 -880q-42 -267 -195 -404t-411 -142zM124 0l221 1394h258l-221 -1394h-258z" />
    <glyph glyph-name="ij" unicode="&#x133;" horiz-adv-x="905" 
d="M388 -423q-168 0 -241 107l124 197q49 -29 103.5 -38.5t96 7t48.5 58.5l171 1078h243l-171 -1078q-24 -158 -121.5 -244.5t-239.5 -86.5h-13zM125 0l156 986h246l-156 -986h-246zM310 1263q9 59 58.5 101.5t108.5 42.5q60 0 96.5 -41.5t26.5 -102.5t-59.5 -102.5
t-109.5 -41.5q-59 0 -94.5 42.5t-26.5 101.5zM716 1258q9 57 56 98t105 41q57 0 91.5 -41t25.5 -98t-56.5 -98t-104.5 -41q-58 0 -92 41t-25 98z" />
    <glyph glyph-name="Jcircumflex" unicode="&#x134;" horiz-adv-x="1050" 
d="M553 -32q-517 9 -433 536l13 83h258l-8 -53q-17 -103 -6 -181q11 -71 63 -107.5t151 -39.5q149 4 218.5 83t94.5 243l137 862h258l-140 -880q-42 -267 -195 -404t-411 -142zM924 1480l250 293h106l156 -293h-194l-47 96l-80 -96h-191z" />
    <glyph glyph-name="jcircumflex" unicode="&#x135;" horiz-adv-x="373" 
d="M-7 -423q-168 0 -241 107l124 197q49 -29 103.5 -38.5t96 7t48.5 58.5l171 1078h243l-171 -1078q-24 -158 -121.5 -244.5t-239.5 -86.5h-13zM200 1195l243 323h111l140 -323h-187l-44 108l-79 -108h-184z" />
    <glyph glyph-name="uni0136" unicode="&#x136;" horiz-adv-x="1442" 
d="M194 0l221 1394h258l-94 -591l654 591h348l-638 -562l421 -832h-306l-332 643l-199 -170l-75 -473h-258zM445 -409l177 345h150l-13 -82l-152 -263h-162z" />
    <glyph glyph-name="uni0137" unicode="&#x137;" horiz-adv-x="1218" 
d="M176 0l221 1394h250l-124 -783l415 375h316l-416 -368l302 -618h-296l-215 450l-155 -147l-48 -303h-250zM297 -417l176 345h150l-13 -82l-151 -263h-162z" />
    <glyph glyph-name="kgreenlandic" unicode="&#x138;" horiz-adv-x="1116" 
d="M132 0l156 986h250l-59 -375l415 375h316l-416 -368l302 -618h-296l-215 450l-155 -147l-48 -303h-250z" />
    <glyph glyph-name="Lacute" unicode="&#x139;" horiz-adv-x="1108" 
d="M126 0l221 1394h258l-184 -1162h714l-37 -232h-972zM371 1530l213 293h200l-242 -293h-171z" />
    <glyph glyph-name="lacute" unicode="&#x13a;" horiz-adv-x="522" 
d="M349 -20q-107 0 -160.5 64.5t-32.5 193.5l183 1156h246l-176 -1108q-12 -76 60 -76q32 0 74 12l-33 -212q-86 -30 -161 -30zM372 1569l226 323h199l-254 -323h-171z" />
    <glyph glyph-name="uni013B" unicode="&#x13b;" horiz-adv-x="1254" 
d="M194 0l221 1394h258l-184 -1162h714l-37 -232h-972zM408 -412l174 345h151l-13 -82l-151 -263h-161z" />
    <glyph glyph-name="uni013C" unicode="&#x13c;" horiz-adv-x="530" 
d="M341 -20q-107 0 -160.5 64.5t-32.5 193.5l183 1156h246l-176 -1108q-12 -76 60 -76q32 0 74 12l-33 -212q-86 -30 -161 -30zM52 -416l177 345h150l-13 -82l-152 -263h-162z" />
    <glyph glyph-name="Lcaron" unicode="&#x13d;" horiz-adv-x="1122" 
d="M140 0l221 1394h258l-184 -1162h714l-37 -232h-972zM794 1048l175 345l166 1l-180 -346h-161z" />
    <glyph glyph-name="lcaron" unicode="&#x13e;" horiz-adv-x="552" 
d="M363 -20q-107 0 -160.5 64.5t-32.5 193.5l183 1156h246l-176 -1108q-12 -76 60 -76q32 0 74 12l-33 -212q-86 -30 -161 -30zM599 1045l3 20l167 325h149l-13 -83l-150 -262h-156z" />
    <glyph glyph-name="Ldot" unicode="&#x13f;" horiz-adv-x="1122" 
d="M140 0l221 1394h258l-184 -1162h714l-37 -232h-972zM726 791q7 40 40.5 68.5t73.5 28.5t64 -28.5t17 -68.5q-6 -40 -39 -68.5t-73 -28.5t-64.5 28.5t-18.5 68.5z" />
    <glyph glyph-name="ldot" unicode="&#x140;" horiz-adv-x="633" 
d="M363 -20q-107 0 -160.5 64.5t-32.5 193.5l183 1156h246l-176 -1108q-12 -76 60 -76q32 0 74 12l-33 -212q-86 -30 -161 -30zM592 791q7 40 40.5 68.5t73.5 28.5q41 0 65 -28.5t17 -68.5q-6 -40 -39 -68.5t-74 -28.5q-40 0 -64.5 28.5t-18.5 68.5z" />
    <glyph glyph-name="Lslash" unicode="&#x141;" horiz-adv-x="1111" 
d="M129 0l77 485l-154 -84l29 185l154 84l115 724h258l-91 -571l336 183l-29 -186l-336 -182l-64 -406h714l-37 -232h-972z" />
    <glyph glyph-name="lslash" unicode="&#x142;" horiz-adv-x="487" 
d="M346 -20q-107 0 -160.5 64.5t-32.5 193.5l37 234l-148 -95l39 246l148 96l107 675h246l-79 -498l137 89l-39 -248l-137 -88l-58 -363q-12 -76 60 -76q32 0 74 12l-33 -212q-86 -30 -161 -30z" />
    <glyph glyph-name="Nacute" unicode="&#x143;" horiz-adv-x="1390" 
d="M140 0l221 1394h266l435 -952l151 952h258l-221 -1394h-268l-433 954l-151 -954h-258zM804 1530l213 293h200l-240 -293h-173z" />
    <glyph glyph-name="nacute" unicode="&#x144;" horiz-adv-x="1140" 
d="M132 0l156 986h250l-13 -84q130 104 290 104h14q168 0 248 -95.5t53 -266.5l-102 -644h-250l87 552q20 123 -15 180.5t-129 57.5q-73 0 -124 -33q-106 -67 -140 -285l-75 -472h-250zM609 1195l226 323h199l-254 -323h-171z" />
    <glyph glyph-name="uni0145" unicode="&#x145;" horiz-adv-x="1498" 
d="M194 0l221 1394h266l435 -952l151 952h258l-221 -1394h-268l-433 954l-151 -954h-258zM540 -415l177 345h149l-13 -82l-151 -263h-162z" />
    <glyph glyph-name="uni0146" unicode="&#x146;" horiz-adv-x="1238" 
d="M176 0l156 986h250l-13 -84q130 104 290 104h14q168 0 248 -95.5t53 -266.5l-102 -644h-250l87 552q20 123 -15 180.5t-129 57.5q-73 0 -124 -33q-106 -67 -140 -285l-75 -472h-250zM377 -416l176 345h150l-13 -82l-152 -263h-161z" />
    <glyph glyph-name="Ncaron" unicode="&#x147;" horiz-adv-x="1390" 
d="M140 0l221 1394h266l435 -952l151 952h258l-221 -1394h-268l-433 954l-151 -954h-258zM722 1823h194l48 -96l79 96h192l-251 -293h-106z" />
    <glyph glyph-name="ncaron" unicode="&#x148;" horiz-adv-x="1140" 
d="M132 0l156 986h250l-13 -84q130 104 290 104h14q168 0 248 -95.5t53 -266.5l-102 -644h-250l87 552q20 123 -15 180.5t-129 57.5q-73 0 -124 -33q-106 -67 -140 -285l-75 -472h-250zM539 1518h187l43 -108l78 108h184l-241 -323h-111z" />
    <glyph glyph-name="napostrophe" unicode="&#x149;" horiz-adv-x="1379" 
d="M371 0l156 986h250l-13 -84q130 104 290 104h14q168 0 248 -95.5t53 -266.5l-102 -644h-250l87 552q20 123 -15 180.5t-129 57.5q-73 0 -124 -33q-106 -67 -140 -285l-75 -472h-250zM231 969l233 495h162l-253 -568h-138z" />
    <glyph glyph-name="Eng" unicode="&#x14a;" horiz-adv-x="1390" 
d="M785 -245q65 -1 106.5 -0.5t67.5 17.5t39.5 48t23.5 90l15 90h-55l-433 954l-151 -954h-258l221 1394h266l435 -952l151 952h258l-221 -1394h-50l-10 -61q-7 -47 -14 -79q-35 -149 -139 -211t-277 -56z" />
    <glyph glyph-name="eng" unicode="&#x14b;" horiz-adv-x="1141" 
d="M635 -423q-172 0 -246 107l126 197q50 -29 105 -38.5t96.5 7t46.5 58.5l102 644q20 123 -15 180.5t-129 57.5q-73 0 -124 -33q-106 -67 -140 -285l-75 -472h-250l156 986h250l-13 -84q130 104 290 104h14q168 0 248 -95.5t53 -266.5l-31 -189h2l-87 -547
q-24 -158 -123 -244.5t-243 -86.5h-13z" />
    <glyph glyph-name="Omacron" unicode="&#x14c;" horiz-adv-x="1469" 
d="M713 -32q-198 0 -335 91q-137 92 -194.5 256.5t-23.5 380.5q36 221 145 384q111 165 276.5 255.5t362.5 90.5h31q200 0 336 -91q138 -92 195.5 -257t22.5 -382q-35 -220 -145 -382q-112 -165 -277.5 -255.5t-362.5 -90.5h-31zM420 696q-23 -151 9 -256q31 -108 115 -166
t206 -58h31q126 0 229 59q101 60 167.5 168t89.5 253t-9 256q-33 109 -115 167.5t-209 58.5h-31q-122 0 -225 -58q-102 -58 -168 -166t-90 -258zM786 1545l25 161h378l-25 -161h-378z" />
    <glyph glyph-name="omacron" unicode="&#x14d;" horiz-adv-x="1123" 
d="M545 -20q-144 0 -246 66q-102 67 -148 184.5t-23 263.5q24 150 106 265q83 116 206.5 181.5t266.5 65.5h31q142 0 244 -66q103 -67 148 -182.5t21 -263.5q-23 -149 -106 -264q-83 -117 -206 -183.5t-263 -66.5h-31zM376 494q-22 -139 33 -217.5t170 -78.5h31
q113 0 191 78.5t100 217.5t-30.5 216.5t-166.5 77.5h-31q-117 0 -196 -77.5t-101 -216.5zM574 1267l25 162h377l-25 -162h-377z" />
    <glyph glyph-name="Obreve" unicode="&#x14e;" horiz-adv-x="1469" 
d="M713 -32q-198 0 -335 91q-137 92 -194.5 256.5t-23.5 380.5q36 221 145 384q111 165 276.5 255.5t362.5 90.5h31q200 0 336 -91q138 -92 195.5 -257t22.5 -382q-35 -220 -145 -382q-112 -165 -277.5 -255.5t-362.5 -90.5h-31zM420 696q-23 -151 9 -256q31 -108 115 -166
t206 -58h31q126 0 229 59q101 60 167.5 168t89.5 253t-9 256q-33 109 -115 167.5t-209 58.5h-31q-122 0 -225 -58q-102 -58 -168 -166t-90 -258zM778 1822h155q-25 -93 -13 -125.5t67 -32.5q54 0 77.5 34t26.5 124h153q0 -139 -82.5 -228.5t-200.5 -89.5q-120 0 -173.5 89.5
t-9.5 228.5z" />
    <glyph glyph-name="obreve" unicode="&#x14f;" horiz-adv-x="1123" 
d="M545 -20q-144 0 -246 66q-102 67 -148 184.5t-23 263.5q24 150 106 265q83 116 206.5 181.5t266.5 65.5h31q142 0 244 -66q103 -67 148 -182.5t21 -263.5q-23 -149 -106 -264q-83 -117 -206 -183.5t-263 -66.5h-31zM376 494q-22 -139 33 -217.5t170 -78.5h31
q113 0 191 78.5t100 217.5t-30.5 216.5t-166.5 77.5h-31q-117 0 -196 -77.5t-101 -216.5zM568 1507h154q-25 -92 -12 -125.5t66 -33.5q54 0 77.5 34t26.5 125h154q0 -139 -82.5 -229t-201.5 -90q-120 0 -173 90t-9 229z" />
    <glyph glyph-name="Ohungarumlaut" unicode="&#x150;" horiz-adv-x="1469" 
d="M713 -32q-198 0 -335 91q-137 92 -194.5 256.5t-23.5 380.5q36 221 145 384q111 165 276.5 255.5t362.5 90.5h31q200 0 336 -91q138 -92 195.5 -257t22.5 -382q-35 -220 -145 -382q-112 -165 -277.5 -255.5t-362.5 -90.5h-31zM420 696q-23 -151 9 -256q31 -108 115 -166
t206 -58h31q126 0 229 59q101 60 167.5 168t89.5 253t-9 256q-33 109 -115 167.5t-209 58.5h-31q-122 0 -225 -58q-102 -58 -168 -166t-90 -258zM703 1480l213 293h202l-241 -293h-174zM963 1480l213 293h200l-241 -293h-172z" />
    <glyph glyph-name="ohungarumlaut" unicode="&#x151;" horiz-adv-x="1123" 
d="M545 -20q-144 0 -246 66q-102 67 -148 184.5t-23 263.5q24 150 106 265q83 116 206.5 181.5t266.5 65.5h31q142 0 244 -66q103 -67 148 -182.5t21 -263.5q-23 -149 -106 -264q-83 -117 -206 -183.5t-263 -66.5h-31zM376 494q-22 -139 33 -217.5t170 -78.5h31
q113 0 191 78.5t100 217.5t-30.5 216.5t-166.5 77.5h-31q-117 0 -196 -77.5t-101 -216.5zM494 1196l213 294h200l-242 -294h-171zM752 1196l213 294h201l-242 -294h-172z" />
    <glyph glyph-name="OE" unicode="&#x152;" horiz-adv-x="2096" 
d="M713 -32q-198 0 -335 91q-137 92 -194.5 256.5t-23.5 380.5q36 221 145 384q111 165 276.5 255.5t362.5 90.5h31q200 0 336 -91q18 -11 50 -37l15 96h881l-37 -232h-623l-53 -332h579l-36 -230h-577q-1 -3 -2.5 -8.5t-2.5 -7.5l-55 -352h623l-37 -232h-881l15 97
q-191 -129 -426 -129h-31zM420 696q-23 -151 9 -256q31 -108 115 -166t206 -58h31q126 0 229 59q91 54 154.5 147.5t91.5 217.5l18 113q10 110 -16 199q-33 109 -115 167.5t-209 58.5h-31q-122 0 -225 -58q-102 -58 -168 -166t-90 -258z" />
    <glyph glyph-name="oe" unicode="&#x153;" horiz-adv-x="1852" 
d="M545 -20q-144 0 -246 66q-102 67 -148 184.5t-23 263.5q24 150 106 265q83 116 206.5 181.5t266.5 65.5h31q142 0 244 -66q61 -40 101 -96q162 162 392 162h28q148 0 242.5 -67t127 -179t9.5 -258q-15 -73 -21 -92h-723q-6 -102 62 -158t177 -56h28q160 0 293 104
l97 -168q-80 -54 -146 -88q-128 -64 -292 -64h-28q-247 0 -361 160q-80 -77 -180.5 -118.5t-211.5 -41.5h-31zM376 494q-22 -139 33 -217.5t170 -78.5h31q113 0 191 78.5t100 217.5t-30.5 216.5t-166.5 77.5h-31q-117 0 -196 -77.5t-101 -216.5zM1165 594h495v2
q14 89 -38 145.5t-146 56.5h-28q-95 0 -149 -30q-100 -54 -134 -174z" />
    <glyph glyph-name="Racute" unicode="&#x154;" horiz-adv-x="1330" 
d="M140 0l221 1394h554q171 0 266 -49q187 -94 146 -355q-47 -293 -309 -381l272 -609h-298l-242 574h-261l-91 -574h-258zM526 806h270q64 0 123 15q129 34 149 165q12 75 -16 112q-46 64 -200 64h-270zM752 1530l212 293h202l-241 -293h-173z" />
    <glyph glyph-name="racute" unicode="&#x155;" horiz-adv-x="827" 
d="M132 0l156 986h250l-16 -104q53 62 130 93t153 31t137 -30l-113 -250q-52 32 -119 32q-139 0 -212 -138q-13 -30 -24 -71t-25 -125l-67 -424h-250zM467 1195l225 323h200l-255 -323h-170z" />
    <glyph glyph-name="uni0156" unicode="&#x156;" horiz-adv-x="1410" 
d="M194 0l221 1394h554q171 0 266 -49q187 -94 146 -355q-47 -293 -309 -381l272 -609h-298l-242 574h-261l-91 -574h-258zM469 -418l177 345h150l-13 -82l-152 -263h-162zM580 806h270q64 0 123 15q129 34 149 165q12 75 -16 112q-46 64 -200 64h-270z" />
    <glyph glyph-name="uni0157" unicode="&#x157;" horiz-adv-x="893" 
d="M172 0l156 986h250l-16 -104q53 62 130 93t153 31t137 -30l-113 -250q-52 32 -119 32q-139 0 -212 -138q-13 -30 -24 -71t-25 -125l-67 -424h-250zM21 -414l176 345h150l-13 -82l-151 -263h-162z" />
    <glyph glyph-name="Rcaron" unicode="&#x158;" horiz-adv-x="1330" 
d="M140 0l221 1394h554q171 0 266 -49q187 -94 146 -355q-47 -293 -309 -381l272 -609h-298l-242 574h-261l-91 -574h-258zM526 806h270q64 0 123 15q129 34 149 165q12 75 -16 112q-46 64 -200 64h-270zM670 1823h194l48 -96l79 96h192l-251 -293h-106z" />
    <glyph glyph-name="rcaron" unicode="&#x159;" horiz-adv-x="705" 
d="M54 0l156 986h250l-16 -104q53 62 130 93t153 31t137 -30l-113 -250q-52 32 -119 32q-139 0 -212 -138q-13 -30 -24 -71t-25 -125l-67 -424h-250zM318 1518h187l44 -108l77 108h186l-242 -323h-112z" />
    <glyph glyph-name="Sacute" unicode="&#x15a;" horiz-adv-x="1210" 
d="M632 -28q-252 0 -385 111t-118 325h282q8 -200 253 -200q103 0 170.5 34.5t79.5 109.5q14 89 -40.5 143t-199.5 89q-109 27 -182.5 59t-129.5 80.5t-76 118t-5 162.5q19 123 103 216.5t202.5 140.5t252.5 47q120 0 208.5 -32.5t139.5 -92.5t73.5 -137t19.5 -172h-282
q5 107 -37 153t-148 46q-215 0 -237 -135q-14 -87 43 -137t216 -89q218 -52 307.5 -158t63.5 -274q-15 -95 -68.5 -173t-132 -129t-174.5 -78.5t-199 -27.5zM740 1530l213 293h200l-242 -293h-171z" />
    <glyph glyph-name="sacute" unicode="&#x15b;" horiz-adv-x="1046" 
d="M530 -28q-200 0 -311 83t-107 247h276q6 -132 177 -132q76 0 119 18t51 68q9 57 -42 91t-187 68q-155 37 -230.5 107.5t-56.5 192.5q22 142 150.5 224.5t320.5 82.5q185 0 280.5 -86.5t91.5 -228.5h-276q-4 61 -39.5 88t-106.5 27q-126 0 -139 -86q-9 -54 38.5 -84.5
t179.5 -62.5q168 -42 242.5 -115t53.5 -204q-23 -144 -158 -221t-327 -77zM555 1195l227 323h198l-254 -323h-171z" />
    <glyph glyph-name="Scircumflex" unicode="&#x15c;" horiz-adv-x="1210" 
d="M632 -28q-252 0 -385 111t-118 325h282q8 -200 253 -200q103 0 170.5 34.5t79.5 109.5q14 89 -40.5 143t-199.5 89q-109 27 -182.5 59t-129.5 80.5t-76 118t-5 162.5q19 123 103 216.5t202.5 140.5t252.5 47q120 0 208.5 -32.5t139.5 -92.5t73.5 -137t19.5 -172h-282
q5 107 -37 153t-148 46q-215 0 -237 -135q-14 -87 43 -137t216 -89q218 -52 307.5 -158t63.5 -274q-15 -95 -68.5 -173t-132 -129t-174.5 -78.5t-199 -27.5zM605 1480l252 293h106l155 -293h-193l-48 96l-80 -96h-192z" />
    <glyph glyph-name="scircumflex" unicode="&#x15d;" horiz-adv-x="1046" 
d="M530 -28q-200 0 -311 83t-107 247h276q6 -132 177 -132q76 0 119 18t51 68q9 57 -42 91t-187 68q-155 37 -230.5 107.5t-56.5 192.5q22 142 150.5 224.5t320.5 82.5q185 0 280.5 -86.5t91.5 -228.5h-276q-4 61 -39.5 88t-106.5 27q-126 0 -139 -86q-9 -54 38.5 -84.5
t179.5 -62.5q168 -42 242.5 -115t53.5 -204q-23 -144 -158 -221t-327 -77zM447 1195l241 323h112l139 -323h-186l-44 108l-78 -108h-184z" />
    <glyph glyph-name="Scedilla" unicode="&#x15e;" horiz-adv-x="1210" 
d="M483 -411q-104 0 -151 47l22 136q57 -32 113 -37t91 14t40 51l1 -1q3 21 -2 31.5t-29 15.5t-67.5 2t-121.5 -12l102 148q-180 30 -272.5 137.5t-79.5 286.5h282q8 -200 253 -200q103 0 170.5 34.5t79.5 109.5q14 89 -40.5 143t-199.5 89q-109 27 -182.5 59t-129.5 80.5
t-76 118t-5 162.5q19 123 103 216.5t202.5 140.5t252.5 47q120 0 208.5 -32.5t139.5 -92.5t73.5 -137t19.5 -172h-282q5 107 -37 153t-148 46q-215 0 -237 -135q-14 -87 43 -137t216 -89q218 -52 307.5 -158t63.5 -274q-18 -118 -96 -209t-188.5 -139.5t-239.5 -57.5
q101 -52 81 -175q-9 -54 -38.5 -96t-70.5 -66t-84.5 -36t-86.5 -12z" />
    <glyph glyph-name="scedilla" unicode="&#x15f;" horiz-adv-x="1046" 
d="M390 -419q-104 0 -151 47l22 136q57 -32 113 -37t91 14t40 51q3 21 -2 31t-28 15t-65 2.5t-116 -11.5l95 155q-135 26 -208 106t-69 212h276q6 -132 177 -132q76 0 119 18t51 68q9 57 -42 91t-187 68q-155 37 -230.5 107.5t-56.5 192.5q22 142 150.5 224.5t320.5 82.5
q185 0 280.5 -86.5t91.5 -228.5h-276q-4 61 -39.5 88t-106.5 27q-126 0 -139 -86q-9 -54 38.5 -84.5t179.5 -62.5q168 -42 242.5 -115t53.5 -204q-22 -136 -144 -212t-300 -85q119 -48 98 -181q-9 -54 -38 -96.5t-70 -66.5t-84.5 -36t-86.5 -12z" />
    <glyph glyph-name="Scaron" unicode="&#x160;" horiz-adv-x="1210" 
d="M632 -28q-252 0 -385 111t-118 325h282q8 -200 253 -200q103 0 170.5 34.5t79.5 109.5q14 89 -40.5 143t-199.5 89q-109 27 -182.5 59t-129.5 80.5t-76 118t-5 162.5q19 123 103 216.5t202.5 140.5t252.5 47q120 0 208.5 -32.5t139.5 -92.5t73.5 -137t19.5 -172h-282
q5 107 -37 153t-148 46q-215 0 -237 -135q-14 -87 43 -137t216 -89q218 -52 307.5 -158t63.5 -274q-15 -95 -68.5 -173t-132 -129t-174.5 -78.5t-199 -27.5zM657 1823h194l49 -96l79 96h191l-249 -293h-106z" />
    <glyph glyph-name="scaron" unicode="&#x161;" horiz-adv-x="1046" 
d="M530 -28q-200 0 -311 83t-107 247h276q6 -132 177 -132q76 0 119 18t51 68q9 57 -42 91t-187 68q-155 37 -230.5 107.5t-56.5 192.5q22 142 150.5 224.5t320.5 82.5q185 0 280.5 -86.5t91.5 -228.5h-276q-4 61 -39.5 88t-106.5 27q-126 0 -139 -86q-9 -54 38.5 -84.5
t179.5 -62.5q168 -42 242.5 -115t53.5 -204q-23 -144 -158 -221t-327 -77zM498 1518h186l44 -109l78 109h184l-241 -323h-112z" />
    <glyph glyph-name="uni0162" unicode="&#x162;" horiz-adv-x="1226" 
d="M499 -420q-103 0 -150 47l21 136q58 -32 114 -37t91 14t40 51q3 21 -2 31.5t-29.5 15t-68.5 1.5t-123 -13l124 174h-34l184 1162h-432l37 232h1124l-37 -232h-430l-184 -1162h-50l-17 -25q123 -47 102 -184q-11 -71 -59 -121t-105 -70t-116 -20z" />
    <glyph glyph-name="uni0163" unicode="&#x163;" horiz-adv-x="778" 
d="M339 -419q-104 0 -151 47l22 136q57 -32 113 -37t91 14t40 51q3 21 -2 31t-27.5 15t-64 2.5t-115.5 -11.5l123 210q-110 86 -80 279l69 434h-218l37 234h218l65 408h243l-65 -408h229l-37 -234h-229l-69 -434q-6 -40 27.5 -57t86.5 -10t109 32l-43 -268q-70 -28 -153 -28
h-13q-18 0 -26 1l-7 -12q127 -46 106 -184q-9 -54 -38 -96.5t-70 -66.5t-84.5 -36t-86.5 -12z" />
    <glyph glyph-name="Tcaron" unicode="&#x164;" horiz-adv-x="1144" 
d="M442 0l184 1162h-432l37 232h1124l-37 -232h-430l-184 -1162h-262zM595 1823h193l49 -96l80 96h191l-251 -293h-106z" />
    <glyph glyph-name="tcaron" unicode="&#x165;" horiz-adv-x="767" 
d="M545 -13q-142 0 -212 86.5t-45 244.5l69 434h-218l37 234h218l65 408h243l-65 -408h229l-37 -234h-229l-69 -434q-6 -40 27.5 -57t86.5 -10t109 32l-43 -268q-70 -28 -153 -28h-13zM727 1117l3 20l168 325h149l-14 -83l-150 -262h-156z" />
    <glyph glyph-name="Tbar" unicode="&#x166;" horiz-adv-x="1144" 
d="M442 0l89 564h-241l34 211h241l61 387h-432l37 232h1124l-37 -232h-430l-61 -387h236l-34 -211h-236l-89 -564h-262z" />
    <glyph glyph-name="tbar" unicode="&#x167;" horiz-adv-x="730" 
d="M545 -13q-142 0 -212 86.5t-45 244.5l17 102h-118l37 234h118l15 98h-218l37 234h218l65 408h243l-65 -408h229l-37 -234h-229l-15 -98h115l-37 -234h-115l-17 -102q-6 -40 27.5 -57t86.5 -10t109 32l-43 -268q-70 -28 -153 -28h-13z" />
    <glyph glyph-name="Utilde" unicode="&#x168;" horiz-adv-x="1286" 
d="M637 -32q-517 9 -433 536l141 890h258l-136 -860q-17 -103 -6 -181q11 -71 63 -107.5t151 -39.5q149 4 218.5 83t94.5 243l137 862h258l-140 -880q-42 -267 -195 -404t-411 -142zM626 1553q18 111 61.5 160.5t117.5 49.5q67 0 141 -32q58 -26 86 -26q30 0 38 52h140
q-18 -112 -61 -162t-118 -50q-60 0 -141 34q-65 26 -86 26q-30 0 -38 -52h-140z" />
    <glyph glyph-name="utilde" unicode="&#x169;" horiz-adv-x="1120" 
d="M467 -20q-168 0 -248 95.5t-53 266.5l102 644h250l-87 -552q-19 -124 15.5 -181t128.5 -57q73 0 124 33q106 67 140 285l75 472h250l-156 -986h-250l13 84q-130 -104 -290 -104h-14zM493 1285q18 111 61.5 160.5t117.5 49.5q67 0 141 -32q58 -26 86 -26q30 0 38 52h140
q-18 -112 -61.5 -162t-118.5 -50q-59 0 -140 34q-66 26 -86 26q-30 0 -38 -52h-140z" />
    <glyph glyph-name="Umacron" unicode="&#x16a;" horiz-adv-x="1286" 
d="M637 -32q-517 9 -433 536l141 890h258l-136 -860q-17 -103 -6 -181q11 -71 63 -107.5t151 -39.5q149 4 218.5 83t94.5 243l137 862h258l-140 -880q-42 -267 -195 -404t-411 -142zM700 1545l25 161h378l-25 -161h-378z" />
    <glyph glyph-name="umacron" unicode="&#x16b;" horiz-adv-x="1120" 
d="M467 -20q-168 0 -248 95.5t-53 266.5l102 644h250l-87 -552q-19 -124 15.5 -181t128.5 -57q73 0 124 33q106 67 140 285l75 472h250l-156 -986h-250l13 84q-130 -104 -290 -104h-14zM570 1267l25 162h377l-25 -162h-377z" />
    <glyph glyph-name="Ubreve" unicode="&#x16c;" horiz-adv-x="1286" 
d="M637 -32q-517 9 -433 536l141 890h258l-136 -860q-17 -103 -6 -181q11 -71 63 -107.5t151 -39.5q149 4 218.5 83t94.5 243l137 862h258l-140 -880q-42 -267 -195 -404t-411 -142zM700 1822h153q-24 -92 -11.5 -125t66.5 -33q55 0 78.5 34t24.5 124h156
q-1 -139 -84 -228.5t-201 -89.5q-120 0 -172.5 89.5t-9.5 228.5z" />
    <glyph glyph-name="ubreve" unicode="&#x16d;" horiz-adv-x="1120" 
d="M467 -20q-168 0 -248 95.5t-53 266.5l102 644h250l-87 -552q-19 -124 15.5 -181t128.5 -57q73 0 124 33q106 67 140 285l75 472h250l-156 -986h-250l13 84q-130 -104 -290 -104h-14zM598 1507h156q-27 -92 -14.5 -125.5t67.5 -33.5q53 0 77 34.5t27 124.5h154
q-1 -140 -83 -229.5t-201 -89.5q-120 0 -173 89.5t-10 229.5z" />
    <glyph glyph-name="Uring" unicode="&#x16e;" horiz-adv-x="1286" 
d="M637 -32q-517 9 -433 536l141 890h258l-136 -860q-17 -103 -6 -181q11 -71 63 -107.5t151 -39.5q149 4 218.5 83t94.5 243l137 862h258l-140 -880q-42 -267 -195 -404t-411 -142zM725 1626q12 77 71.5 124.5t131.5 47.5t116.5 -47.5t32.5 -124.5q-12 -76 -72 -124
t-132 -48t-116 48t-32 124zM859 1626q-4 -19 6 -29.5t29 -10.5q41 0 49 40q6 40 -36 40t-48 -40z" />
    <glyph glyph-name="uring" unicode="&#x16f;" horiz-adv-x="1120" 
d="M467 -20q-168 0 -248 95.5t-53 266.5l102 644h250l-87 -552q-19 -124 15.5 -181t128.5 -57q73 0 124 33q106 67 140 285l75 472h250l-156 -986h-250l13 84q-130 -104 -290 -104h-14zM600 1355q12 77 71.5 124.5t131.5 47.5t116.5 -47.5t32.5 -124.5q-12 -76 -72 -124
t-132 -48t-116 48t-32 124zM734 1355q-7 -40 35 -40t49 40q6 40 -36 40t-48 -40z" />
    <glyph glyph-name="Uhungarumlaut" unicode="&#x170;" horiz-adv-x="1286" 
d="M637 -32q-517 9 -433 536l141 890h258l-136 -860q-17 -103 -6 -181q11 -71 63 -107.5t151 -39.5q149 4 218.5 83t94.5 243l137 862h258l-140 -880q-42 -267 -195 -404t-411 -142zM628 1480l213 293h200l-241 -293h-172zM887 1480l213 293h199l-241 -293h-171z" />
    <glyph glyph-name="uhungarumlaut" unicode="&#x171;" horiz-adv-x="1120" 
d="M467 -20q-168 0 -248 95.5t-53 266.5l102 644h250l-87 -552q-19 -124 15.5 -181t128.5 -57q73 0 124 33q106 67 140 285l75 472h250l-156 -986h-250l13 84q-130 -104 -290 -104h-14zM498 1196l213 294h200l-242 -294h-171zM756 1196l213 294h201l-242 -294h-172z" />
    <glyph glyph-name="Uogonek" unicode="&#x172;" horiz-adv-x="1286" 
d="M579 -422q-104 0 -163 54.5t-44 146.5q11 65 47 112q37 48 93 87q-189 31 -267 164t-41 362l141 890h258l-136 -860q-17 -103 -6 -181q11 -71 63 -107.5t151 -39.5q149 4 218.5 83t94.5 243l137 862h258l-140 -880q-37 -233 -158 -369t-320 -167q-198 -89 -212 -177
q-4 -28 12 -44.5t46 -16.5q66 0 136 73l90 -111q-119 -124 -258 -124z" />
    <glyph glyph-name="uogonek" unicode="&#x173;" horiz-adv-x="1170" 
d="M753 -423q-104 0 -163 54.5t-44 146.5q9 63 47 112q66 84 165 127h3l10 67q-130 -104 -290 -104h-14q-168 0 -248 95.5t-53 266.5l102 644h250l-87 -552q-19 -124 15.5 -181t128.5 -57q73 0 124 33q106 67 140 285l75 472h250l-156 -986h-15q-250 -101 -266 -200
q-4 -28 12 -44.5t46 -16.5q66 0 136 73l90 -111q-119 -124 -258 -124z" />
    <glyph glyph-name="Wcircumflex" unicode="&#x174;" horiz-adv-x="1906" 
d="M420 0l-199 1394h272l130 -998l411 918h256l119 -918l448 998h270l-641 -1394h-250l-135 934l-429 -934h-252zM928 1480l250 293h107l156 -293h-194l-48 97l-81 -97h-190z" />
    <glyph glyph-name="wcircumflex" unicode="&#x175;" horiz-adv-x="1502" 
d="M338 0l-148 986h264l70 -606l274 606h214l83 -602l263 602h266l-462 -986h-222l-90 634l-286 -634h-226zM694 1195l242 323h112l139 -323h-187l-43 108l-78 -108h-185z" />
    <glyph glyph-name="Ycircumflex" unicode="&#x176;" horiz-adv-x="1214" 
d="M480 0l66 415l-335 979h296l201 -723l443 723h294l-641 -979l-66 -415h-258zM583 1480l250 293h105l156 -293h-193l-48 96l-80 -96h-190z" />
    <glyph glyph-name="ycircumflex" unicode="&#x177;" horiz-adv-x="1057" 
d="M76 -382q-22 10 -45 24l151 234q39 -24 77.5 -20.5t58.5 39.5l88 157l-230 936h262l151 -612l343 612h261l-664 -1184q-55 -97 -128.5 -153t-152 -64t-160.5 26zM472 1195l243 323h112l139 -323h-186l-45 108l-77 -108h-186z" />
    <glyph glyph-name="Ydieresis" unicode="&#x178;" horiz-adv-x="1214" 
d="M480 0l66 415l-335 979h296l201 -723l443 723h294l-641 -979l-66 -415h-258zM651 1626q6 40 39 69t73 29t64.5 -29t18.5 -69q-7 -40 -40.5 -68.5t-73.5 -28.5t-64 28.5t-17 68.5zM881 1626q6 40 39 69t73 29q41 0 64.5 -29t17.5 -69q-7 -40 -40 -68.5t-73 -28.5t-64 28.5
t-17 68.5z" />
    <glyph glyph-name="Zacute" unicode="&#x179;" horiz-adv-x="1170" 
d="M36 0l34 212l896 950h-746l37 232h1098l-34 -212l-923 -950h773l-37 -232h-1098zM697 1530l213 293h201l-241 -293h-173z" />
    <glyph glyph-name="zacute" unicode="&#x17a;" horiz-adv-x="868" 
d="M36 0l26 166l591 614h-493l32 206h796l-28 -178l-574 -602h477l-33 -206h-794zM486 1195l228 323h197l-253 -323h-172z" />
    <glyph glyph-name="Zdotaccent" unicode="&#x17b;" horiz-adv-x="1170" 
d="M36 0l34 212l896 950h-746l37 232h1098l-34 -212l-923 -950h773l-37 -232h-1098zM743 1626q6 40 39 69t73 29q41 0 64.5 -29t17.5 -69q-7 -40 -40 -68.5t-73 -28.5t-64 28.5t-17 68.5z" />
    <glyph glyph-name="zdotaccent" unicode="&#x17c;" horiz-adv-x="868" 
d="M36 0l26 166l591 614h-493l32 206h796l-28 -178l-574 -602h477l-33 -206h-794zM539 1353q7 40 40 68.5t73 28.5t65 -28t18 -69q-6 -40 -40 -69t-74 -29t-64 29t-18 69z" />
    <glyph glyph-name="Zcaron" unicode="&#x17d;" horiz-adv-x="1170" 
d="M36 0l34 212l896 950h-746l37 232h1098l-34 -212l-923 -950h773l-37 -232h-1098zM615 1823h194l49 -96l79 96h192l-251 -293h-106z" />
    <glyph glyph-name="zcaron" unicode="&#x17e;" horiz-adv-x="868" 
d="M36 0l26 166l591 614h-493l32 206h796l-28 -178l-574 -602h477l-33 -206h-794zM416 1518h187l44 -109l79 109h184l-241 -323h-112z" />
    <glyph glyph-name="uni0218" unicode="&#x218;" horiz-adv-x="1238" 
d="M646 -28q-252 0 -385 111t-118 325h282q8 -200 253 -200q103 0 170.5 34.5t79.5 109.5q14 89 -40.5 143t-199.5 89q-109 27 -182.5 59t-129.5 80.5t-76 118t-5 162.5q19 123 103 216.5t202.5 140.5t252.5 47q120 0 208.5 -32.5t139.5 -92.5t73.5 -137t19.5 -172h-282
q5 107 -37 153t-148 46q-215 0 -237 -135q-14 -87 43 -137t216 -89q218 -52 307.5 -158t63.5 -274q-15 -95 -68.5 -173t-132 -129t-174.5 -78.5t-199 -27.5zM399 -418l176 345h150l-13 -82l-151 -263h-162z" />
    <glyph glyph-name="uni0219" unicode="&#x219;" horiz-adv-x="1068" 
d="M546 -28q-200 0 -311 83t-107 247h276q6 -132 177 -132q76 0 119 18t51 68q9 57 -42 91t-187 68q-155 37 -230.5 107.5t-56.5 192.5q22 142 150.5 224.5t320.5 82.5q185 0 280.5 -86.5t91.5 -228.5h-276q-4 61 -39.5 88t-106.5 27q-126 0 -139 -86q-9 -54 38.5 -84.5
t179.5 -62.5q168 -42 242.5 -115t53.5 -204q-23 -144 -158 -221t-327 -77zM299 -414l176 345h150l-13 -82l-151 -263h-162z" />
    <glyph glyph-name="uni021A" unicode="&#x21a;" horiz-adv-x="1226" 
d="M482 0l184 1162h-432l37 232h1124l-37 -232h-430l-184 -1162h-262zM357 -414l176 345h150l-13 -82l-152 -263h-161z" />
    <glyph glyph-name="uni021B" unicode="&#x21b;" horiz-adv-x="778" 
d="M545 -13q-142 0 -212 86.5t-45 244.5l69 434h-218l37 234h218l65 408h243l-65 -408h229l-37 -234h-229l-69 -434q-6 -40 27.5 -57t86.5 -10t109 32l-43 -268q-70 -28 -153 -28h-13zM210 -415l176 345h150l-13 -82l-151 -263h-162z" />
    <glyph glyph-name="uni0237" unicode="&#x237;" horiz-adv-x="590" 
d="M29 -423q-168 0 -241 107l124 197q49 -29 103.5 -38.5t96 7t48.5 58.5l171 1078h243l-171 -1078q-24 -158 -121.5 -244.5t-239.5 -86.5h-13z" />
    <glyph glyph-name="circumflex" unicode="&#x2c6;" horiz-adv-x="725" 
d="M349 1469l242 323h112l139 -323h-186l-44 108l-79 -108h-184z" />
    <glyph glyph-name="caron" unicode="&#x2c7;" horiz-adv-x="725" 
d="M540 1469l-140 323h186l45 -109l78 109h184l-241 -323h-112z" />
    <glyph glyph-name="breve" unicode="&#x2d8;" horiz-adv-x="753" 
d="M607 1461q-120 0 -172.5 90t-9.5 230h155q-25 -93 -12.5 -126t65.5 -33q55 0 78.5 34t26.5 125h154q0 -140 -82.5 -230t-202.5 -90z" />
    <glyph glyph-name="dotaccent" unicode="&#x2d9;" horiz-adv-x="912" 
d="M697 1529q-40 0 -64 28.5t-17 68.5q6 40 39 69t73 29q41 0 65.5 -29t18.5 -69q-7 -40 -41 -68.5t-74 -28.5z" />
    <glyph glyph-name="ring" unicode="&#x2da;" horiz-adv-x="910" 
d="M697 1527q-86 0 -138.5 57t-38.5 148q15 91 85.5 148t156.5 57t138.5 -57t37.5 -148q-14 -91 -84.5 -148t-156.5 -57zM662 1732q-4 -31 11.5 -47.5t45.5 -16.5t51.5 16.5t25.5 47.5q10 64 -57 64t-77 -64z" />
    <glyph glyph-name="ogonek" unicode="&#x2db;" horiz-adv-x="999" 
d="M318 -423q-104 0 -163 54.5t-44 146.5q9 63 47 112q66 84 165 127l271 -3q-285 -109 -302 -214q-4 -28 12 -44.5t46 -16.5q66 0 136 73l90 -111q-119 -124 -258 -124z" />
    <glyph glyph-name="tilde" unicode="&#x2dc;" horiz-adv-x="672" 
d="M485 1763q67 0 141 -32q58 -26 86 -26q30 0 38 52h140q-18 -112 -61 -162t-118 -50q-60 0 -141 34q-65 26 -86 26q-30 0 -38 -52h-140q18 111 61.5 160.5t117.5 49.5z" />
    <glyph glyph-name="hungarumlaut" unicode="&#x2dd;" horiz-adv-x="878" 
d="M421 1469l212 294h201l-240 -294h-173zM681 1469l212 294h200l-240 -294h-172z" />
    <glyph glyph-name="uni0326" unicode="&#x326;" horiz-adv-x="0" 
d="M140 -315l176 344h150l-14 -83l-151 -261h-161z" />
    <glyph glyph-name="Wgrave" unicode="&#x1e80;" horiz-adv-x="1906" 
d="M420 0l-199 1394h272l130 -998l411 918h256l119 -918l448 998h270l-641 -1394h-250l-135 934l-429 -934h-252zM989 1773h201l119 -293h-174z" />
    <glyph glyph-name="wgrave" unicode="&#x1e81;" horiz-adv-x="1502" 
d="M338 0l-148 986h264l70 -606l274 606h214l83 -602l263 602h266l-462 -986h-222l-90 634l-286 -634h-226zM745 1518h198l125 -323h-171z" />
    <glyph glyph-name="Wacute" unicode="&#x1e82;" horiz-adv-x="1906" 
d="M420 0l-199 1394h272l130 -998l411 918h256l119 -918l448 998h270l-641 -1394h-250l-135 934l-429 -934h-252zM1051 1530l212 293h202l-241 -293h-173z" />
    <glyph glyph-name="wacute" unicode="&#x1e83;" horiz-adv-x="1502" 
d="M338 0l-148 986h264l70 -606l274 606h214l83 -602l263 602h266l-462 -986h-222l-90 634l-286 -634h-226zM815 1195l227 323h198l-253 -323h-172z" />
    <glyph glyph-name="Wdieresis" unicode="&#x1e84;" horiz-adv-x="1906" 
d="M420 0l-199 1394h272l130 -998l411 918h256l119 -918l448 998h270l-641 -1394h-250l-135 934l-429 -934h-252zM999 1626q6 40 39 69t73 29q41 0 65 -29t18 -69q-7 -40 -40.5 -68.5t-73.5 -28.5t-64 28.5t-17 68.5zM1229 1626q6 40 39 69t73 29q41 0 65.5 -29t18.5 -69
q-7 -40 -41 -68.5t-74 -28.5t-64 28.5t-17 68.5z" />
    <glyph glyph-name="wdieresis" unicode="&#x1e85;" horiz-adv-x="1502" 
d="M338 0l-148 986h264l70 -606l274 606h214l83 -602l263 602h266l-462 -986h-222l-90 634l-286 -634h-226zM755 1355q6 40 39.5 68.5t73.5 28.5t64 -28.5t18 -68.5q-7 -40 -40 -69t-73 -29t-64.5 29t-17.5 69zM985 1355q6 40 39.5 68.5t73.5 28.5t64 -28.5t18 -68.5
q-7 -40 -40 -69t-73 -29q-41 0 -65 29t-17 69z" />
    <glyph glyph-name="uni1E9E" unicode="&#x1e9e;" horiz-adv-x="1323" 
d="M193 -5l249 1569h559q195 0 298 -91t78 -247q-15 -94 -83 -179t-190 -174q-55 -40 -67 -54t-17 -43q-5 -30 3 -44.5t51 -52.5q94 -89 135 -173.5t26 -178.5q-21 -132 -120.5 -220t-248.5 -111t-334 18l36 229q66 -4 108.5 -6t86 -3t69 0.5t50.5 5.5t38 10.5t24.5 16.5
t16.5 23t8 31q6 37 -10 64.5t-86 100.5q-82 83 -107.5 146t-12.5 144q13 82 58.5 144t153.5 145q94 74 118 101t30 65q8 50 -23 68.5t-130 18.5h-295l-210 -1323h-262z" />
    <glyph glyph-name="Ygrave" unicode="&#x1ef2;" horiz-adv-x="1214" 
d="M480 0l66 415l-335 979h296l201 -723l443 723h294l-641 -979l-66 -415h-258zM638 1773h201l119 -293h-172z" />
    <glyph glyph-name="ygrave" unicode="&#x1ef3;" horiz-adv-x="1057" 
d="M76 -382q-22 10 -45 24l151 234q39 -24 77.5 -20.5t58.5 39.5l88 157l-230 936h262l151 -612l343 612h261l-664 -1184q-55 -97 -128.5 -153t-152 -64t-160.5 26zM524 1518h197l126 -323h-171z" />
    <glyph glyph-name="endash" unicode="&#x2013;" horiz-adv-x="916" 
d="M200 504l25 156h676l-25 -156h-676z" />
    <glyph glyph-name="emdash" unicode="&#x2014;" horiz-adv-x="1776" 
d="M130 504l25 156h1676l-25 -156h-1676z" />
    <glyph glyph-name="quoteleft" unicode="&#x2018;" horiz-adv-x="578" 
d="M220 920l3 20l288 530h222l-245 -550h-268z" />
    <glyph glyph-name="quoteright" unicode="&#x2019;" horiz-adv-x="578" 
d="M224 920l245 550h268l-3 -20l-288 -530h-222z" />
    <glyph glyph-name="quotesinglbase" unicode="&#x201a;" horiz-adv-x="590" 
d="M35 -244l241 524h268l-3 -20l-282 -504h-224z" />
    <glyph glyph-name="quotedblleft" unicode="&#x201c;" horiz-adv-x="996" 
d="M638 920l3 20l288 530h222l-245 -550h-268zM220 920l3 20l288 530h222l-245 -550h-268z" />
    <glyph glyph-name="quotedblright" unicode="&#x201d;" horiz-adv-x="996" 
d="M642 920l245 550h268l-3 -20l-290 -530h-220zM224 920l245 550h268l-3 -20l-288 -530h-222z" />
    <glyph glyph-name="quotedblbase" unicode="&#x201e;" horiz-adv-x="1006" 
d="M451 -244l241 524h268l-3 -20l-280 -504h-226zM35 -244l241 524h268l-3 -20l-282 -504h-224z" />
    <glyph glyph-name="dagger" unicode="&#x2020;" horiz-adv-x="1049" 
d="M397 -292l161 1029l-342 -2l26 164l341 -1l75 483h170l-78 -483l341 1l-26 -164l-340 2l-162 -1029h-166z" />
    <glyph glyph-name="daggerdbl" unicode="&#x2021;" horiz-adv-x="1049" 
d="M397 -292l74 479l-342 -1l27 165l340 -2l62 388l-342 -2l26 164l341 -1l75 483h170l-78 -483l341 1l-26 -164l-341 2l-62 -388l343 2l-27 -165l-340 1l-75 -479h-166z" />
    <glyph glyph-name="bullet" unicode="&#x2022;" horiz-adv-x="734" 
d="M427 374q-105 0 -161 66t-39 170q16 104 93 170t182 66q103 0 159 -66t40 -170q-16 -103 -93 -169.5t-181 -66.5z" />
    <glyph glyph-name="ellipsis" unicode="&#x2026;" horiz-adv-x="1490" 
d="M1228 -28q-73 0 -112 47t-28 121q12 74 66 121t127 47q75 0 114 -47t27 -121q-11 -74 -65 -121t-129 -47zM112 140q12 74 66 121t127 47q75 0 114 -47t27 -121q-11 -74 -65 -121t-129 -47q-73 0 -112 47t-28 121zM600 140q12 74 66 121t127 47q75 0 114 -47t27 -121
q-11 -74 -65 -121t-129 -47q-73 0 -112 47t-28 121z" />
    <glyph glyph-name="perthousand" unicode="&#x2030;" horiz-adv-x="1798" 
d="M75 0l1113 1381h194l-1114 -1381h-193zM217 1056q24 149 119.5 249.5t230.5 100.5t199 -100.5t40 -249.5q-23 -148 -119 -250t-231 -102q-134 0 -198 102t-41 250zM383 1056q-15 -98 8.5 -144.5t89.5 -46.5q67 0 105.5 47t53.5 144q16 98 -7.5 144t-91.5 46
q-66 0 -104 -46t-54 -144zM651 326q23 149 118.5 250t230.5 101q106 0 170 -65t74 -171q44 107 127 171.5t190 64.5q135 0 198.5 -101t40.5 -250q-23 -147 -119.5 -249t-230.5 -102q-106 0 -169 65.5t-73 171.5q-45 -106 -128.5 -171.5t-190.5 -65.5q-90 0 -150 49
t-81.5 128t-6.5 174zM817 326q-16 -98 7.5 -145t89.5 -47q68 0 106.5 47t54.5 145q15 99 -8.5 144.5t-91.5 45.5q-66 0 -104.5 -46.5t-53.5 -143.5zM1377 326q-16 -98 7.5 -145t90.5 -47q66 0 104.5 47t54.5 145q15 98 -8 144t-90 46t-105.5 -46.5t-53.5 -143.5z" />
    <glyph glyph-name="guilsinglleft" unicode="&#x2039;" horiz-adv-x="592" 
d="M350 164l-221 332l326 332h208l-326 -332l221 -332h-208z" />
    <glyph glyph-name="guilsinglright" unicode="&#x203a;" horiz-adv-x="592" 
d="M86 164l327 332l-222 332h208l222 -332l-327 -332h-208z" />
    <glyph glyph-name="fraction" unicode="&#x2044;" horiz-adv-x="134" 
d="M-321 -71l745 1492l176 29l-746 -1494z" />
    <glyph glyph-name="Euro" unicode="&#x20ac;" horiz-adv-x="1150" 
d="M690 -25q-226 0 -340.5 134t-104.5 401h-201l102 162h114l2 13q1 3 2 8.5t2 10t2 8.5h-146l100 160h83q80 259 245.5 396.5t373.5 137.5q128 0 209 -39t145 -131l-130 -119q-55 78 -105 103.5t-149 25.5q-137 0 -247 -88t-174 -286h707l-110 -160h-636l-3 -20l-4 -20h636
l-93 -162h-557q-4 -202 71 -289t240 -87q90 0 168 32t170 108l-32 -205q-155 -94 -340 -94z" />
    <glyph glyph-name="trademark" unicode="&#x2122;" horiz-adv-x="1050" 
d="M614 912l65 406h168l29 -294l121 294h162l-65 -406h-112l49 284l-117 -276h-114l-31 274l-43 -282h-112zM215 1234l14 86h402l-14 -86h-144l-51 -322h-112l51 322h-146z" />
    <glyph glyph-name="partialdiff" unicode="&#x2202;" horiz-adv-x="1049" 
d="M495 -25q-185 0 -281 130.5t-64 333.5q37 234 190.5 375t354.5 141q137 0 230 -74q28 464 -222 464q-80 0 -138.5 -25.5t-138.5 -94.5l-82 125q97 83 190 119t199 36q465 0 329 -855q-24 -153 -69.5 -274.5t-114.5 -212.5t-166 -139.5t-217 -48.5zM316 442
q-23 -151 31.5 -229.5t172.5 -78.5q99 0 168.5 46t120.5 156t84 295q-53 165 -221 165q-144 0 -237 -94t-119 -260z" />
    <glyph glyph-name="emptyset" unicode="&#x2205;" horiz-adv-x="1673" 
d="M832 -27q-127 0 -239 42.5t-195 119.5l-177 -153l-96 113l182 157q-124 202 -84 458q33 205 159 374.5t307 264.5t376 95q259 0 434 -162l177 153l96 -113l-181 -157q123 -200 82 -455q-24 -154 -104 -291.5t-193.5 -235t-255.5 -154t-288 -56.5zM390 710
q-30 -194 52 -340l923 796q-130 119 -325 119q-155 0 -294 -73t-234.5 -205.5t-121.5 -296.5zM533 252q130 -118 324 -118q156 0 295.5 73t234.5 205t121 298q30 190 -52 338z" />
    <glyph glyph-name="product" unicode="&#x220f;" horiz-adv-x="1052" 
d="M130 -201l225 1422h-102l26 160h932l-26 -160h-101l-225 -1422h-162l225 1422h-403l-225 -1422h-164z" />
    <glyph glyph-name="summation" unicode="&#x2211;" horiz-adv-x="1046" 
d="M-12 -201l19 118l622 695l-354 652l19 117h912l-26 -160h-684l331 -614l-579 -647h744l-26 -161h-978z" />
    <glyph glyph-name="minus" unicode="&#x2212;" horiz-adv-x="985" 
d="M155 560l25 161h853l-25 -161h-853z" />
    <glyph glyph-name="radical" unicode="&#x221a;" horiz-adv-x="1073" 
d="M409 -292l-111 820h-136l25 160h256l87 -646l585 1503h167l-719 -1837h-154z" />
    <glyph glyph-name="infinity" unicode="&#x221e;" horiz-adv-x="1947" 
d="M541 -25q-215 0 -325 158.5t-70 409.5q40 252 200 411.5t375 159.5q144 0 241.5 -70.5t142.5 -207.5q85 135 207.5 206.5t266.5 71.5q215 0 324.5 -159t69.5 -412q-40 -252 -199.5 -410t-374.5 -158q-144 0 -241.5 71t-142.5 210q-86 -138 -207.5 -209.5t-266.5 -71.5z
M312 543q-32 -206 42 -307.5t212 -101.5q63 0 120 20t112.5 65t101 127.5t73.5 196.5q8 412 -277 412q-65 0 -125 -24t-112.5 -71.5t-91 -129t-55.5 -187.5zM1148 546q-12 -412 276 -412q65 0 124.5 23.5t112 71t91 128.5t55.5 186q32 207 -42 309.5t-211 102.5
q-63 0 -120 -20t-112.5 -64.5t-101 -127.5t-72.5 -197z" />
    <glyph glyph-name="integral" unicode="&#x222b;" horiz-adv-x="606" 
d="M182 -292q-57 0 -104 30.5t-65 88.5l130 120q22 -54 32 -66t34 -12q29 0 49.5 40.5t38.5 156.5q21 135 18 522q-1 248 3 359.5t19 206.5q15 93 45.5 162t69.5 107.5t80 56.5t83 18q58 0 105.5 -31t63.5 -91l-128 -115q-24 55 -33.5 65.5t-34.5 10.5q-19 0 -32.5 -13.5
t-28 -58.5t-27.5 -126q-20 -138 -17 -521q2 -238 -3 -353.5t-20 -212.5q-15 -93 -45 -162t-69 -107.5t-80 -56.5t-84 -18z" />
    <glyph glyph-name="approxequal" unicode="&#x2248;" horiz-adv-x="1140" 
d="M210 719q123 207 318 207q55 0 101 -17t115 -57q62 -34 86 -43.5t57 -9.5q56 0 84 22.5t106 120.5l103 -96q-124 -207 -319 -207q-54 0 -99 17t-116 58q-61 34 -85.5 43t-58.5 9q-55 0 -83.5 -22.5t-104.5 -119.5zM158 391q123 207 318 207q55 0 101 -17t115 -57
q62 -35 85.5 -44.5t56.5 -9.5q55 0 84 22.5t107 120.5l103 -95q-123 -208 -319 -208q-54 0 -99 17t-116 58q-61 35 -85.5 44t-58.5 9q-55 0 -83 -22t-105 -120z" />
    <glyph glyph-name="notequal" unicode="&#x2260;" horiz-adv-x="1060" 
d="M201 188l155 208h-207l25 161h301l125 167h-399l25 161h493l154 209h186l-155 -209h210l-25 -161h-304l-125 -167h402l-25 -161h-495l-155 -208h-186z" />
    <glyph glyph-name="lessequal" unicode="&#x2264;" horiz-adv-x="985" 
d="M954 221l-794 372l18 116l912 372l-28 -176l-626 -254l546 -253zM70 25l26 162h853l-26 -162h-853z" />
    <glyph glyph-name="greaterequal" unicode="&#x2265;" horiz-adv-x="985" 
d="M101 221l28 177l626 253l-546 254l28 176l794 -372l-18 -115zM70 25l26 162h853l-26 -162h-853z" />
    <glyph glyph-name="lozenge" unicode="&#x25ca;" horiz-adv-x="907" 
d="M395 0l-226 690l445 691h117l225 -691l-444 -690h-117zM349 690l144 -444l283 444l-143 443z" />
    <glyph glyph-name="uniF8FF" unicode="&#xf8ff;" horiz-adv-x="1542" 
d="M758 253q-151 0 -279.5 75.5t-203 204.5t-74.5 280q0 152 75 280.5t203.5 203t280.5 74.5q151 0 279.5 -75t203.5 -203.5t75 -279.5q0 -152 -74.5 -281t-203.5 -204t-282 -75zM200 29v146h59q26 0 44 -9q37 -17 37 -64q0 -23 -10 -39q-21 -34 -71 -34h-59zM235 56h22
q18 0 26 4q22 10 22 42q0 18 -5 27q-12 20 -43 20h-22v-93zM268 814q0 -205 144 -350t348 -145q203 0 347.5 144.5t144.5 347.5q0 100 -39 191.5t-104.5 157.5t-156 105t-190.5 40q-134 0 -248 -65.5t-180 -178.5t-66 -247zM352 84q0 16 8 29q16 27 52 27q26 0 42 -14
q18 -15 18 -42v-8h-85q0 -8 3 -13q7 -13 25 -13q7 0 10 1q9 3 14 12l31 -3q-2 -10 -10 -17q-14 -16 -45 -16q-17 0 -33 7q-30 14 -30 50zM387 95h52l-3 10q-6 12 -23 12q-10 0 -14 -3q-10 -6 -12 -19zM442 912q10 -2 12 -4q52 -21 98 -27q41 -3 72 2q43 11 47 12
q3 0 8.5 2.5t7.5 3.5q-5 2 -16.5 8t-17 9t-13 8.5t-13.5 12.5h19q39 0 75 19q65 40 136 61q24 8 58 11q4 0 19.5 1t23.5 0q54 -2 89 -33q10 -11 28 -33v-2l-6 2q-45 17 -83 3.5t-62 -53.5q-7 -13 -25 -55q-9 -21 -27 -63.5t-20 -48.5q-33 -64 -65 -101q-27 -33 -66 -58
q-45 -34 -116 -55h-5l24 22q12 11 25 44q41 116 45 127q24 73 57 131v3q-2 -4 -11 -13q-8 -10 -10 -12q-23 -36 -31 -57q-2 -6 -8 -6q-99 3 -177 67q-40 38 -59 55q-1 1 -5 7t-8 10zM481 61l33 2q5 -14 23 -14q20 0 20 11q0 8 -16 11l-21 4q-36 6 -36 31q0 10 6 18
q13 16 46 16q48 0 53 -32l-31 -3q-4 14 -21 14q-19 0 -19 -11q0 -8 16 -12l22 -3q36 -6 36 -30q0 -9 -7 -18q-13 -18 -48 -18q-51 0 -56 34zM605 168q0 15 19 15q18 0 18 -15t-18 -15q-19 0 -19 15zM607 29v109h34v-109h-34zM656 84q0 20 7 31q13 25 43 25q10 0 18 -3
q12 -5 18 -17h1v18h35v-110q0 -14 -9 -23q-15 -19 -52 -19q-50 0 -57 31l31 3l2 -2q2 -3 4 -4q5 -6 21 -6q25 0 25 21v19h-1q-2 -3 -7 -8q-11 -9 -29 -9q-13 0 -25 5q-25 13 -25 48zM691 84q0 -10 3 -16q6 -14 24 -14q25 0 25 30q0 10 -3 17q-6 15 -22 15q-7 0 -15 -4
q-12 -7 -12 -28zM798 29v109h34v-19q10 21 37 21q13 0 23 -5q20 -10 20 -36v-70h-35v64q0 22 -21 22q-7 0 -13 -3q-11 -6 -11 -19v-64h-34zM927 84q0 15 7 29q16 27 54 27q20 0 33 -7q28 -16 28 -49q0 -17 -7 -30q-16 -27 -54 -27q-16 0 -33 7q-28 16 -28 50zM962 84
q0 -9 3 -18q7 -15 23 -15q10 0 15 4q12 9 12 29q0 2 -3 17q-8 16 -24 16q-7 0 -14 -5q-12 -7 -12 -28zM1051 138h36l26 -78h1l26 78h36l-43 -109h-39zM1177 60q0 17 15 25q13 8 32 8l17 3q13 0 13 7v1q0 14 -19 14q-17 0 -22 -13l-32 3q3 10 10 17q15 15 45 15q20 0 37 -9
q15 -8 15 -28v-74h-33v16q-5 -7 -9 -9q-9 -9 -27 -9q-13 0 -21 4q-21 8 -21 29zM1210 60q0 -12 18 -12q8 0 14 3q12 5 12 18v11q-4 -2 -23 -5q-7 0 -12 -3q-9 -3 -9 -12zM1267 177q0 16 11 26.5t27 10.5t26.5 -10.5t10.5 -26.5t-10.5 -27t-26.5 -11t-27 11t-11 27zM1279 177
q0 -11 7.5 -19t18.5 -8t18.5 8t7.5 19t-7.5 18.5t-18.5 7.5t-18.5 -7.5t-7.5 -18.5zM1292 160v35h14q12 0 12 -11q0 -5 -5 -10l8 -14h-10l-6 11h-5v-11h-8zM1300 180h6q5 0 5 3t-5 3h-6v-6z" />
    <glyph glyph-name="_Designova" horiz-adv-x="1692" 
d="M844 41q-174 0 -322.5 87t-235 235.5t-86.5 323.5q1 131 52 250.5t137.5 205.5t206 137t250.5 51q175 0 323.5 -86t235.5 -234.5t87 -323.5q0 -176 -87 -324.5t-236 -235t-325 -86.5zM278 687q0 -116 45 -221.5t120.5 -181.5t181 -121t221.5 -45q154 0 285 76t207 207
t76 285q0 116 -45 221.5t-120.5 181.5t-180.5 121t-221 45t-221 -45t-181.5 -120.5t-121.5 -181t-45 -221.5zM480 800q7 0 13 -4q58 -22 115 -31q45 -5 81 3q29 4 53 14q5 0 11.5 3t8.5 4q-5 3 -22.5 11.5t-27.5 15.5t-19 17h21q39 0 86 20q85 53 158 73q37 10 66 10
q6 0 24.5 1.5t26.5 0.5q67 -4 102 -39q6 -5 33 -37v-2q-3 2 -7 2q-53 20 -95.5 4.5t-71.5 -59.5q-5 -9 -10 -20.5t-11 -25t-9 -21.5q-6 -14 -25 -59t-30 -68q-36 -74 -74 -119q-20 -27 -74 -66q-52 -38 -136 -63h-7l28 24q18 17 30 51q7 20 25 71t27 78q31 90 65 150v1
q-3 -3 -11 -13q-9 -7 -11 -16q-23 -27 -38 -65q-3 -5 -9 -5q-117 5 -204 78q-10 10 -32.5 31t-33.5 32q-12 14 -16 18z" />
    <glyph glyph-name="_Origin" horiz-adv-x="2195" 
d="M120 1055v50h1955v-50h-1955zM120 236v50h1955v-50h-1955zM198 437v177h42v-177h-42zM230 734v177h148v-32h-107v-39h97v-31h-97v-42h107v-33h-148zM268 437v177h34l89 -107v107h40v-177h-33l-88 109v-109h-42zM408 734v177h34l88 -107v107h40v-177h-33l-88 109v-109h-41
zM524 437v177h87q72 0 72 -45q0 -28 -26 -40q3 0 3 -2q28 -12 28 -42q0 -48 -71 -48h-93zM566 468h48q32 0 32 22t-32 22h-48v-44zM566 545h42q33 0 33 20q0 22 -33 22h-42v-42zM599 879v32h156v-32h-57v-145h-41v145h-58zM708 437v177h148v-33h-107v-38h96v-31h-96v-41h105
v-34h-146zM773 911h44l40 -124l42 124h38l40 -126l42 126h39l-57 -177h-45l-39 121l-41 -121h-43zM884 437v177h81q28 0 42 -6q36 -19 36 -57q0 -21 -10 -35q-15 -18 -29 -23l37 -56h-43l-35 50h-37v-50h-42zM926 520h37q38 0 38 31q0 30 -38 30h-37v-61zM1063 437v177h40
v-143h106v-34h-146zM1066 823q0 39 28 65q26 26 69 26t69 -26q28 -25 28 -65q0 -39 -28 -65q-26 -27 -68 -27q-44 0 -70 27q-28 28 -28 65zM1108 823q0 -25 15.5 -40.5t39.5 -15.5t39.5 15.5t15.5 40.5t-15.5 41.5t-39.5 16.5t-39.5 -16.5t-15.5 -41.5zM1238 437v177h41
v-177h-41zM1283 734v177h81q28 0 41 -6q36 -17 36 -57q0 -21 -10 -35q-9 -15 -29 -23l39 -56h-45l-33 50h-39v-50h-41zM1308 437v177h35l87 -107v107h42v-177h-34l-89 109v-109h-41zM1324 817h37q38 0 38 31t-38 31h-37v-62zM1461 734v177h148v-32h-107v-39h96v-31h-96v-75
h-41zM1498 461q0 24 25 24q10 0 17 -7t7 -17q0 -11 -7 -25l-14 -38h-26l12 41q-14 5 -14 22zM1625 734v177h147v-32h-106v-39h95v-31h-95v-42h106v-33h-147zM1648 437v177h80q30 0 52 -11q46 -21 46 -77q0 -28 -12 -47q-23 -42 -86 -42h-80zM1690 471h37q17 0 31 7
q26 14 26 48q0 21 -6 29q-14 26 -51 26h-37v-110zM1802 734v177h33l90 -107v107h40v-177h-34l-89 109v-109h-40zM1850 437v177h147v-33h-107v-38h97v-31h-97v-41h106v-34h-146z" />
    <glyph glyph-name="_VendorID" horiz-adv-x="1116" 
d="M73 154v1187h974v-1187h-974zM76 63q0 13 7.5 20.5t18.5 7.5q9 0 12 -3l4 -5v26h13v-72h-13v9l-4 -7q-8 -5 -15 -5q-23 0 -23 29zM90 63q0 -17 13 -17q15 0 15 17v1q0 18 -13 18q-15 0 -15 -19zM126 205h869v1084h-869v-1084zM141 63q0 13 7.5 20.5t19.5 7.5
q11 0 18.5 -7.5t7.5 -19.5q0 -2 -2 -5h-37q1 -13 13 -13q10 0 12 9h12q-4 -21 -24 -21q-27 0 -27 29zM155 67h25q-3 15 -12 15q-12 0 -13 -15zM198 52h14q3 -9 9 -9q9 0 9 7q0 3 -12 9q-18 5 -18 16q0 16 21 16t21 -16h-14q-1 7 -7 7q-7 0 -7 -6q0 -4 12 -9q17 -5 17 -15
q0 -18 -22 -18q-20 0 -23 18zM240 455q0 59 46 125l97 137h64l-84 -120q11 3 23 3q62 0 102.5 -41.5t40.5 -103.5q0 -61 -41.5 -103.5t-101.5 -42.5q-61 0 -103.5 42.5t-42.5 103.5zM240 926q0 56 46 123l97 142h64l-84 -122q7 2 23 2q63 0 103 -41t40 -104
q0 -61 -41 -102.5t-102 -41.5t-103.5 42t-42.5 102zM251 102q0 7 8 7t8 -7q0 -8 -8 -8t-8 8zM252 37v54h14v-54h-14zM276 63q0 28 26 28q9 0 12 -3l4 -5v8h14v-41q0 -8 -2 -11q0 -24 -27 -24q-26 0 -26 18v1h14v-1q0 -8 12 -8q11 0 15 13v8l-4 -7q-8 -2 -14 -2q-24 0 -24 26
zM291 64q0 -18 12 -18q15 0 15 17v1q0 18 -15 18q-12 0 -12 -18zM294 455q0 -42 25.5 -68t66.5 -26q39 0 64.5 26t25.5 68q0 40 -25.5 65t-64.5 25q-41 0 -66.5 -25t-25.5 -65zM294 926q0 -41 25.5 -67t66.5 -26q39 0 64.5 26.5t25.5 66.5t-25.5 66t-64.5 26
q-41 0 -66.5 -25t-25.5 -67zM343 37v54h14v-10l4 7q5 3 13 3q17 0 20 -15q1 -3 1 -9v-30h-15v34q0 11 -10 11q-13 0 -13 -21v-24h-14zM402 63q0 13 7.5 20.5t19.5 7.5q28 0 28 -28q0 -29 -28 -29q-12 0 -19.5 8t-7.5 21zM416 63q0 -17 13 -17q15 0 15 17q0 19 -15 19
q-13 0 -13 -19zM462 91h14l14 -45l13 45h14l-19 -54h-18zM522 52q0 16 30 16h3v7q0 7 -9 7q-11 0 -11 -9h-13q0 18 24 18q19 0 21 -15v-39h-12v6l-3 -5q-8 -4 -14 -4q-16 0 -16 18zM535 52q0 -6 8 -6q12 0 12 9v6q-20 2 -20 -9zM576 80v9h6v8q0 15 19 15h6v-11q-11 2 -11 -5
v-7h11v-9h-11v-43h-14v43h-6zM589 455q0 62 44 125l97 137h66l-86 -120q10 3 25 3q61 0 102 -41.5t41 -103.5q0 -61 -41.5 -103.5t-101.5 -42.5q-61 0 -103.5 42.5t-42.5 103.5zM589 926q0 57 44 123l97 142h66l-87 -122q8 2 26 2q61 0 102 -41.5t41 -103.5
q0 -61 -41.5 -102.5t-101.5 -41.5q-61 0 -103.5 41.5t-42.5 102.5zM611 63q0 28 28 28q27 0 27 -28q0 -29 -27 -29q-28 0 -28 29zM625 63q0 -17 14 -17q13 0 13 17q0 19 -13 19q-14 0 -14 -19zM642 455q0 -42 26 -68t67 -26q38 0 62.5 26t24.5 68q0 40 -24.5 65t-62.5 25
q-41 0 -67 -25t-26 -65zM642 926q0 -41 26 -67t67 -26q38 0 62.5 26t24.5 67q0 40 -24.5 66t-62.5 26q-41 0 -67 -25.5t-26 -66.5zM675 37v54h12v-10l6 7q4 3 13 3q16 0 19 -15v-39h-14v34q-4 11 -9 11q-15 0 -15 -21v-24h-12zM732 80v9h8v13h14v-13h10v-9h-10v-28
q2 -10 9 -6v-10h-8q-15 0 -15 10v34h-8zM768 52h15q1 -9 10 -9q8 0 8 7q0 3 -12 9q-17 5 -17 16q0 16 20 16q19 0 24 -16h-16q0 7 -9 7q-5 0 -5 -6q0 -5 11 -9q19 -6 19 -15q0 -18 -23 -18q-21 0 -25 18zM820 42q0 10 9 10t9 -10q0 -8 -9 -8t-9 8zM844 63q0 13 8 20.5
t18 7.5q25 0 25 -20h-13q-3 11 -12 11q-12 0 -12 -19q0 -17 12 -17q10 0 12 9h13q-1 -21 -25 -21q-26 0 -26 29zM900 63q0 28 29 28q26 0 26 -28q0 -29 -26 -29q-29 0 -29 29zM914 63q0 -17 15 -17q13 0 13 17q0 19 -13 19q-15 0 -15 -19zM965 37v54h14v-9l5 6q3 3 9 3
q13 0 18 -10l5 7q3 3 11 3q17 0 17 -12q1 -4 1 -12v-30h-13v27q0 2 -0.5 5t-0.5 4q0 9 -10 9q-9 0 -9 -18v-27h-13v36q-5 9 -10 9q-10 0 -10 -18v-27h-14z" />
    </font>
</defs>
</svg>
