<?xml version="1.0" standalone="no"?>
<!DOCTYPE svg PUBLIC "-//W3C//DTD SVG 1.1//EN" "http://www.w3.org/Graphics/SVG/1.1/DTD/svg11.dtd" >
<svg xmlns="http://www.w3.org/2000/svg" xmlns:xlink="http://www.w3.org/1999/xlink" version="1.1">
<metadata>
Created by FontForge 20201107 at Tue Feb 27 18:47:51 2024
 By 
Copyright (c) 2024 by Designova. All rights reserved.
</metadata>
<defs>
<font id="RovelleUno-Bold" horiz-adv-x="1077" >
  <font-face 
    font-family="Rovelle Uno"
    font-weight="700"
    font-stretch="normal"
    units-per-em="2048"
    panose-1="0 0 0 0 0 0 0 0 0 0"
    ascent="1638"
    descent="-410"
    x-height="986"
    cap-height="1394"
    bbox="-310 -538 2075 1937"
    underline-thickness="100"
    underline-position="-255"
    unicode-range="U+0020-F8FF"
  />
<missing-glyph horiz-adv-x="1190" 
d="M132 19v1342h926v-1342h-926zM243 253l287 444l-287 443v-887zM290 129h609l-304 469zM300 1252l295 -456l295 456h-590zM660 697l287 -444v887z" />
    <glyph glyph-name=".notdef" horiz-adv-x="1190" 
d="M132 19v1342h926v-1342h-926zM243 253l287 444l-287 443v-887zM290 129h609l-304 469zM300 1252l295 -456l295 456h-590zM660 697l287 -444v887z" />
    <glyph glyph-name=".null" horiz-adv-x="0" 
 />
    <glyph glyph-name="nonmarkingreturn" horiz-adv-x="682" 
 />
    <glyph glyph-name="space" unicode=" " horiz-adv-x="493" 
 />
    <glyph glyph-name="exclam" unicode="!" horiz-adv-x="634" 
d="M206 394l-24 986h270l-24 -986h-222zM160 128q0 69 44 112.5t112 43.5q69 0 113.5 -43.5t44.5 -112.5t-44.5 -112.5t-113.5 -43.5q-68 0 -112 43.5t-44 112.5z" />
    <glyph glyph-name="quotedbl" unicode="&#x22;" horiz-adv-x="820" 
d="M480 920l-26 550h246l-26 -550h-194zM120 1470h246l-28 -550h-192z" />
    <glyph glyph-name="numbersign" unicode="#" horiz-adv-x="1088" 
d="M142 0l90 418h-172v156h204l50 232h-194v156h226l90 418h166l-90 -418h176l90 418h166l-90 -418h174v-156h-206l-50 -232h196v-156h-228l-90 -418h-166l90 418h-176l-90 -418h-166zM430 574h176l50 232h-176z" />
    <glyph glyph-name="dollar" unicode="$" horiz-adv-x="1057" 
d="M464 -20q-81 12 -150 47t-123.5 91.5t-85.5 142t-31 190.5h163q1 -266 227 -308v481q-55 19 -100 41t-89.5 56t-75 75t-49 98.5t-18.5 124.5q0 151 93.5 253t238.5 128v145h163v-144q88 -13 157 -57t111 -108t64 -139.5t24 -158.5h-163q-5 132 -52 205t-141 94v-485
q348 -119 348 -408q0 -137 -92.5 -240t-255.5 -124v-144h-163v144zM298 1019q0 -87 40 -136t126 -83v436q-166 -42 -166 -217zM627 141q183 31 183 199q0 86 -43 140t-140 94v-433z" />
    <glyph glyph-name="percent" unicode="%" horiz-adv-x="1238" 
d="M75 0l894 1381h194l-895 -1381h-193zM50 1056q0 149 79.5 249.5t214.5 100.5t215 -100.5t80 -249.5q0 -148 -80 -250t-215 -102q-134 0 -214 102t-80 250zM216 1056q0 -97 31 -144t97 -47q67 0 98 46.5t31 144.5t-30.5 144t-98.5 46q-66 0 -97 -46t-31 -144zM599 326
q0 149 79.5 250t214.5 101t215 -101t80 -250q0 -147 -80 -249t-215 -102t-214.5 102t-79.5 249zM765 326q0 -98 31 -145t97 -47q68 0 99 47t31 145t-31 144t-99 46q-66 0 -97 -46.5t-31 -143.5z" />
    <glyph glyph-name="ampersand" unicode="&#x26;" horiz-adv-x="1224" 
d="M907 71q-152 -128 -381 -147q-138 -8 -244 30q-114 41 -182.5 128.5t-78.5 211.5q-14 197 131 340q52 49 124 100q-3 4 -8.5 11.5t-8.5 10.5q-104 135 -115 274q-13 169 95.5 285.5t288.5 129.5q178 14 285.5 -76.5t116.5 -235.5q8 -136 -57 -237q-77 -115 -230 -210
l240 -248q53 134 49 333h237q5 -272 -82 -463q-16 -33 -28 -54l202 -209l-171 -162zM261 311q6 -88 63 -123t184 -27q143 10 234 81l-305 314q-8 -6 -24 -17t-22 -15q-76 -53 -106 -99t-24 -114zM382 1047q3 -37 21 -74q23 -48 75 -113q36 23 102 69q67 50 91.5 88.5
t20.5 96.5q-3 63 -32 84t-116 14q-92 -6 -129.5 -45.5t-32.5 -119.5z" />
    <glyph glyph-name="quotesingle" unicode="'" horiz-adv-x="486" 
d="M148 920l-28 550h246l-26 -550h-192z" />
    <glyph glyph-name="parenleft" unicode="(" horiz-adv-x="572" 
d="M382 -160q-282 342 -282 860t282 860h150q-256 -392 -256 -860t256 -860h-150z" />
    <glyph glyph-name="parenright" unicode=")" horiz-adv-x="572" 
d="M40 -160q256 392 256 860t-256 860h150q282 -342 282 -860t-282 -860h-150z" />
    <glyph glyph-name="asterisk" unicode="*" horiz-adv-x="896" 
d="M278 146l-148 108l210 248l-290 68l56 176l276 -116l-26 320h184l-24 -320l274 116l56 -176l-290 -68l212 -248l-148 -108l-172 276z" />
    <glyph glyph-name="plus" unicode="+" horiz-adv-x="985" 
d="M411 158v402h-345v161h345v401h162v-401h346v-161h-346v-402h-162z" />
    <glyph glyph-name="comma" unicode="," horiz-adv-x="590" 
d="M74 -244l158 524h268v-20l-202 -504h-224z" />
    <glyph glyph-name="hyphen" unicode="-" horiz-adv-x="604" 
d="M70 488v156h464v-156h-464z" />
    <glyph glyph-name="period" unicode="." horiz-adv-x="514" 
d="M256 -28q-73 0 -119.5 47t-46.5 121t46.5 121t119.5 47q75 0 121.5 -47t46.5 -121t-46.5 -121t-121.5 -47z" />
    <glyph glyph-name="slash" unicode="/" horiz-adv-x="722" 
d="M10 -60l502 1500h172l-502 -1500h-172z" />
    <glyph glyph-name="zero" unicode="0" horiz-adv-x="1234" 
d="M618 -28q-538 0 -538 718t538 718q536 0 536 -718t-536 -718zM372 690q0 -235 59.5 -347.5t186.5 -112.5q126 0 185 112.5t59 347.5q0 237 -59 348.5t-185 111.5q-127 0 -186.5 -111.5t-59.5 -348.5z" />
    <glyph glyph-name="one" unicode="1" horiz-adv-x="884" 
d="M524 0v1090l-402 -222v260l320 190q109 62 222 62h136v-1380h-276z" />
    <glyph glyph-name="two" unicode="2" horiz-adv-x="1090" 
d="M53 -35v161l465 436q82 78 130.5 133.5t71.5 103t29 82t6 89.5q0 102 -50 151.5t-163 49.5q-225 0 -250 -243l-12 -101h-230l10 120q22 200 156 323.5t326 123.5q212 0 331 -122.5t119 -301.5q0 -142 -68.5 -273t-237.5 -287l-237 -221h601v-224h-997z" />
    <glyph glyph-name="three" unicode="3" horiz-adv-x="1154" 
d="M579 -45q-173 0 -299 71.5t-181.5 195.5t-31.5 278l234 10q-36 -169 32.5 -250.5t245.5 -81.5q287 0 287 223t-287 223q-63 0 -180 -25v179l322 390h-637v226h997v-156l-343 -410q163 -41 259.5 -155.5t96.5 -271.5q0 -195 -143.5 -320.5t-371.5 -125.5z" />
    <glyph glyph-name="four" unicode="4" horiz-adv-x="1206" 
d="M714 0v326h-664v148l646 906h294v-836h170v-218h-170v-326h-276zM352 544h362v524q-46 -81 -92 -146z" />
    <glyph glyph-name="five" unicode="5" horiz-adv-x="1094" 
d="M530 -49q-64 0 -126 15t-121 48.5t-105 82.5t-78.5 122t-41.5 161l-4 44h233l3 -26q11 -111 69.5 -165.5t172.5 -54.5q121 0 194 64t73 203q0 265 -239 265h-26q-103 0 -159 -49.5t-78 -157.5h-229l118 891h819v-226h-615l-36 -264q84 30 176 30h33q142 0 250.5 -66
t164.5 -176t56 -245q0 -113 -41 -207.5t-110.5 -157t-160.5 -97t-192 -34.5z" />
    <glyph glyph-name="six" unicode="6" horiz-adv-x="1142" 
d="M574 -20q-139 0 -257 62q-119 63 -188 173.5t-69 248.5q0 141 80 262l414 668h288l-306 -465q36 9 72 9q134 0 242 -63q109 -64 170.5 -170t61.5 -239q0 -142 -69 -252q-69 -111 -184 -172.5t-255 -61.5zM316 466q0 -75 34 -130q34 -56 93 -87t131 -31q70 0 128 31
q59 32 93.5 88.5t34.5 130.5q0 112 -72 181t-184 69t-185 -69t-73 -183z" />
    <glyph glyph-name="seven" unicode="7" horiz-adv-x="1056" 
d="M128 0l591 1162h-709v232h1006v-182l-612 -1212h-276z" />
    <glyph glyph-name="eight" unicode="8" horiz-adv-x="1178" 
d="M586 -30q-94 0 -172.5 14.5t-144.5 46.5t-112 80.5t-71.5 119t-25.5 159.5q0 125 76.5 214t191.5 126q-93 35 -148.5 109t-55.5 187q0 173 128.5 277.5t353.5 104.5q224 0 351 -104.5t127 -277.5q0 -113 -63.5 -187t-164.5 -109q113 -37 187.5 -126t74.5 -214
q0 -110 -42.5 -192.5t-117 -131t-168 -72.5t-204.5 -24zM350 396q0 -102 63 -161t177 -59q119 0 178.5 58.5t59.5 159.5t-61 162.5t-179 61.5q-111 0 -174.5 -61.5t-63.5 -160.5zM410 1014q0 -89 49.5 -140.5t140.5 -51.5q93 0 146.5 51.5t53.5 140.5q0 84 -52.5 136
t-145.5 52q-89 0 -140.5 -52t-51.5 -136z" />
    <glyph glyph-name="nine" unicode="9" horiz-adv-x="1142" 
d="M608 465q-36 -9 -72 -9q-134 0 -242 63q-110 64 -172 170.5t-62 238.5q0 143 70 252q70 110 186 172t254 62q142 0 258 -62q118 -63 186 -173.5t68 -248.5q0 -140 -78 -262l-416 -668h-286zM314 926q0 -109 71.5 -179.5t184.5 -70.5q112 0 185 69t73 183q0 111 -73 179.5
t-185 68.5q-71 0 -129 -31q-127 -66 -127 -219z" />
    <glyph glyph-name="colon" unicode=":" horiz-adv-x="554" 
d="M276 -28q-73 0 -119.5 47t-46.5 121t46.5 121t119.5 47q75 0 121.5 -47t46.5 -121t-46.5 -121t-121.5 -47zM110 924q0 75 46 121.5t120 46.5q75 0 121.5 -46.5t46.5 -121.5q0 -74 -46.5 -120t-121.5 -46q-74 0 -120 46t-46 120z" />
    <glyph glyph-name="semicolon" unicode=";" horiz-adv-x="672" 
d="M94 -244l158 532h268v-32l-200 -500h-226zM228 924q0 75 46 121.5t120 46.5q75 0 121.5 -46.5t46.5 -121.5q0 -74 -46.5 -120t-121.5 -46q-74 0 -120 46t-46 120z" />
    <glyph glyph-name="less" unicode="&#x3c;" horiz-adv-x="986" 
d="M920 73l-854 415v113l854 415v-182l-597 -289l597 -291v-181z" />
    <glyph glyph-name="equal" unicode="=" horiz-adv-x="1060" 
d="M86 724v161h888v-161h-888zM86 396v161h888v-161h-888z" />
    <glyph glyph-name="greater" unicode="&#x3e;" horiz-adv-x="986" 
d="M66 73v181l598 291l-598 289v182l854 -415v-113z" />
    <glyph glyph-name="question" unicode="?" horiz-adv-x="1092" 
d="M406 394q6 104 37 171t107 151q94 105 130 168t36 130q0 89 -47 138.5t-135 49.5q-89 0 -140.5 -59.5t-57.5 -176.5h-280q6 205 139.5 323.5t356.5 118.5q215 0 335.5 -101.5t120.5 -274.5q0 -110 -49.5 -198t-160.5 -188q-85 -77 -116.5 -127.5t-37.5 -124.5h-238z
M370 128q0 69 44 112.5t112 43.5q69 0 113.5 -43.5t44.5 -112.5t-44.5 -112.5t-113.5 -43.5q-68 0 -112 43.5t-44 112.5z" />
    <glyph glyph-name="at" unicode="@" horiz-adv-x="1635" 
d="M756 -205q-102 0 -200 27.5t-186 85.5t-155 140.5t-106 200.5t-39 257q0 153 48 289.5t129 236t186.5 172t223.5 109t236 36.5q195 0 348.5 -86t238.5 -239t85 -346q0 -200 -75.5 -336.5t-196.5 -190.5l86 -138q-177 -129 -315 -173.5t-308 -44.5zM266 512
q0 -131 38.5 -233t106.5 -165t155.5 -95.5t189.5 -32.5q136 0 233.5 29.5t214.5 110.5q-23 -4 -51 -4q-62 0 -123 20t-91 55q-99 -90 -224 -90q-40 0 -79 9.5t-79.5 34.5t-71.5 63.5t-50.5 101.5t-19.5 143q0 132 50 252t136 197.5t201.5 103.5t246.5 -29v3h175l-114 -474
q-21 -93 -21 -145q0 -36 11.5 -45.5t56.5 -9.5q95 0 153.5 92t58.5 265q0 237 -128.5 363t-359.5 126q-88 0 -175.5 -27t-166.5 -82t-140 -130.5t-97 -181t-36 -225.5zM610 467q0 -100 24.5 -134.5t88.5 -34.5q70 0 121 63t87 226l16 73q39 168 -77 168
q-107 0 -183.5 -101.5t-76.5 -259.5z" />
    <glyph glyph-name="A" unicode="A" horiz-adv-x="1334" 
d="M10 0l560 1394h194l560 -1394h-282l-118 321h-512l-120 -321h-282zM499 553h340l-169 459z" />
    <glyph glyph-name="B" unicode="B" horiz-adv-x="1273" 
d="M140 0v1394h563q208 0 326 -93.5t118 -258.5q0 -96 -40 -171t-112 -117q228 -87 228 -346q0 -192 -121 -300t-335 -108h-627zM398 238h349q218 0 218 182q0 88 -53 136t-151 48h-363v-366zM398 834h317q80 0 127 45t47 123q0 74 -48 114t-138 40h-305v-322z" />
    <glyph glyph-name="C" unicode="C" horiz-adv-x="1404" 
d="M718 -32q-198 0 -349 91q-152 92 -235.5 256.5t-83.5 380.5q0 220 84 384q85 165 236 255.5t348 90.5h31q200 0 351 -91q180 -107 262 -316l-244 -92q-116 251 -371 251h-31q-123 0 -215 -58q-191 -119 -191 -424q0 -149 49 -256q49 -108 141.5 -166t215.5 -58h31
q127 0 219 59q104 67 152 194l246 -89q-14 -34 -30 -66q-85 -165 -236.5 -255.5t-348.5 -90.5h-31z" />
    <glyph glyph-name="D" unicode="D" horiz-adv-x="1273" 
d="M140 0v1394h355q348 0 538 -184.5t190 -523.5q0 -332 -188 -509t-542 -177h-353zM398 238h69q160 0 268 40q228 82 228 418q0 172 -57 273q-105 187 -415 187h-93v-918z" />
    <glyph glyph-name="E" unicode="E" horiz-adv-x="1081" 
d="M140 0v1394h881v-232h-623v-332h579v-230h-579v-368h623v-232h-881z" />
    <glyph glyph-name="F" unicode="F" horiz-adv-x="1081" 
d="M140 0v1394h881v-232h-623v-332h579v-230h-579v-600h-258z" />
    <glyph glyph-name="G" unicode="G" horiz-adv-x="1406" 
d="M718 -32q-198 0 -349 91q-152 92 -235.5 256.5t-83.5 380.5q0 220 84 384q85 165 236 255.5t348 90.5h31q200 0 351 -91q180 -107 262 -316l-244 -92q-116 251 -371 251h-31q-123 0 -215 -58q-191 -119 -191 -424q0 -149 49 -256q49 -108 141.5 -166t215.5 -58h31
q127 0 219 59q102 65 150 189l2 78h-423v232h671v-778h-250v74q-159 -102 -367 -102h-31z" />
    <glyph glyph-name="H" unicode="H" horiz-adv-x="1349" 
d="M140 0v1394h258v-558h553v558h258v-1394h-258v598h-553v-598h-258z" />
    <glyph glyph-name="I" unicode="I" horiz-adv-x="538" 
d="M140 0v1394h258v-1394h-258z" />
    <glyph glyph-name="J" unicode="J" horiz-adv-x="1202" 
d="M558 -32q-518 9 -518 536v83h258v-53q0 -106 23 -181q46 -141 237 -147q148 4 205 83t57 243v862h258v-880q0 -267 -131.5 -404t-388.5 -142z" />
    <glyph glyph-name="K" unicode="K" horiz-adv-x="1330" 
d="M140 0v1394h258v-591l560 591h348l-549 -562l553 -832h-306l-434 643l-172 -170v-473h-258z" />
    <glyph glyph-name="L" unicode="L" horiz-adv-x="1122" 
d="M140 0v1394h258v-1162h714v-232h-972z" />
    <glyph glyph-name="M" unicode="M" horiz-adv-x="1724" 
d="M140 0v1394h378l345 -949l343 949h378v-1394h-258v1024l-338 -902h-250l-340 907v-1029h-258z" />
    <glyph glyph-name="N" unicode="N" horiz-adv-x="1390" 
d="M140 0v1394h266l586 -952v952h258v-1394h-268l-584 954v-954h-258z" />
    <glyph glyph-name="O" unicode="O" horiz-adv-x="1469" 
d="M718 -32q-198 0 -349 91q-152 92 -235.5 256.5t-83.5 380.5q0 220 84 384q85 165 236 255.5t348 90.5h31q200 0 351 -91q152 -92 235.5 -256.5t83.5 -382.5q0 -219 -85 -382q-85 -165 -236.5 -255.5t-348.5 -90.5h-31zM310 696q0 -149 49 -256q49 -108 141.5 -166
t215.5 -58h31q127 0 219 59q92 60 141.5 168t49.5 253q0 147 -50 256q-51 109 -142 167.5t-218 58.5h-31q-123 0 -215 -58q-191 -119 -191 -424z" />
    <glyph glyph-name="P" unicode="P" horiz-adv-x="1195" 
d="M140 0v1394h549q476 0 476 -404q0 -202 -122 -308t-354 -106h-293v-576h-256zM396 806h267q121 0 182.5 42.5t61.5 139.5q0 94 -59 134t-185 40h-267v-356z" />
    <glyph glyph-name="Q" unicode="Q" horiz-adv-x="1453" 
d="M1085 51q-149 -83 -336 -83h-31q-198 0 -349 91q-152 92 -235.5 256.5t-83.5 380.5q0 220 84 384q85 165 236 255.5t348 90.5h31q200 0 351 -91q152 -92 235.5 -256.5t83.5 -382.5q0 -219 -85 -382q-30 -58 -69 -108l144 -142l-167 -168zM310 696q0 -149 49 -256
q49 -108 141.5 -166t215.5 -58h31q81 0 147 24l-269 265l161 175l293 -290q78 125 78 306q0 147 -50 256q-51 109 -142 167.5t-218 58.5h-31q-123 0 -215 -58q-191 -119 -191 -424z" />
    <glyph glyph-name="R" unicode="R" horiz-adv-x="1330" 
d="M140 0v1394h554q172 0 274 -49q202 -94 202 -355q0 -293 -248 -381l368 -609h-298l-333 574h-261v-574h-258zM398 806h270q66 0 121 15q123 34 123 165q0 75 -34 112q-56 64 -210 64h-270v-356z" />
    <glyph glyph-name="S" unicode="S" horiz-adv-x="1210" 
d="M636 -28q-252 0 -402.5 111t-169.5 325h282q39 -200 285 -200q103 0 165 34.5t62 109.5q0 88 -62.5 142.5t-213.5 89.5q-113 27 -192 59t-142.5 80.5t-94.5 118t-31 162.5q0 123 69 216.5t180 140.5t245 47q120 0 214 -32.5t154 -92.5t95 -137t47 -172h-282
q-12 106 -61 152.5t-156 46.5q-215 0 -215 -135q0 -87 64.5 -137t229.5 -89q226 -52 333 -158t107 -274q0 -126 -71.5 -220.5t-186 -141t-252.5 -46.5z" />
    <glyph glyph-name="T" unicode="T" horiz-adv-x="1144" 
d="M442 0v1162h-432v232h1124v-232h-430v-1162h-262z" />
    <glyph glyph-name="U" unicode="U" horiz-adv-x="1286" 
d="M642 -32q-518 9 -518 536v890h258v-860q0 -106 23 -181q46 -141 237 -147q148 4 205 83t57 243v862h258v-880q0 -267 -131.5 -404t-388.5 -142z" />
    <glyph glyph-name="V" unicode="V" horiz-adv-x="1308" 
d="M558 0l-558 1394h284l373 -968l365 968h286l-556 -1394h-194z" />
    <glyph glyph-name="W" unicode="W" horiz-adv-x="1906" 
d="M420 0l-420 1394h272l288 -998l266 918h256l264 -918l290 998h270l-420 -1394h-250l-283 934l-281 -934h-252z" />
    <glyph glyph-name="X" unicode="X" horiz-adv-x="1326" 
d="M20 0l464 696l-464 698h310l332 -518l332 518h308l-462 -698l466 -696h-310l-336 508l-332 -508h-308z" />
    <glyph glyph-name="Y" unicode="Y" horiz-adv-x="1214" 
d="M480 0v415l-490 979h296l316 -723l328 723h294l-486 -979v-415h-258z" />
    <glyph glyph-name="Z" unicode="Z" horiz-adv-x="1170" 
d="M36 0v212l746 950h-746v232h1098v-212l-773 -950h773v-232h-1098z" />
    <glyph glyph-name="bracketleft" unicode="[" horiz-adv-x="588" 
d="M140 -160v1720h448v-156h-286v-1408h286v-156h-448z" />
    <glyph glyph-name="backslash" unicode="\" horiz-adv-x="722" 
d="M540 -60l-502 1500h172l502 -1500h-172z" />
    <glyph glyph-name="bracketright" unicode="]" horiz-adv-x="586" 
d="M0 -160v156h284v1408h-284v156h446v-1720h-446z" />
    <glyph glyph-name="asciicircum" unicode="^" horiz-adv-x="1098" 
d="M120 393l366 853h129l363 -853h-180l-248 596l-254 -596h-176z" />
    <glyph glyph-name="underscore" unicode="_" horiz-adv-x="840" 
d="M20 -174v156h800v-156h-800z" />
    <glyph glyph-name="grave" unicode="`" horiz-adv-x="942" 
d="M389 1469l-203 323h198l176 -323h-171z" />
    <glyph glyph-name="a" unicode="a" horiz-adv-x="1138" 
d="M456 -20q-168 0 -272 91t-104 233q0 84 34 145.5t94 94.5q75 45 242 54l328 18v6q0 88 -61 131t-187 43q-79 0 -159.5 -31t-142.5 -87l-126 170q196 158 448 158q234 0 355 -100.5t121 -283.5v-622h-245v126q-10 -14 -16 -21q-50 -61 -137.5 -93t-171.5 -32zM330 304
q0 -56 44 -90t118 -34q132 0 209 62.5t77 163.5v26l-292 -18q-2 0 -14 -1t-15 -1t-13.5 -1t-14.5 -2t-12.5 -2.5t-13 -3.5t-11.5 -4.5t-12 -5.5t-10 -7q-40 -28 -40 -82z" />
    <glyph glyph-name="b" unicode="b" horiz-adv-x="1168" 
d="M132 0v1394h248v-444q101 56 227 56h30q137 0 247 -65.5t172 -181.5q62 -114 62 -265q0 -104 -29 -193.5t-79.5 -153.5t-121.5 -105t-152 -53t-173 9t-183 75v-73h-248zM371 494q3 -121 67.5 -193.5t168.5 -72.5h23q114 0 181 70t67 196q0 140 -64 217t-177 77h-30
q-110 0 -173 -77.5t-63 -216.5z" />
    <glyph glyph-name="c" unicode="c" horiz-adv-x="1089" 
d="M548 -20q-144 0 -256 66q-113 67 -177.5 184.5t-64.5 263.5q0 150 64 265q64 116 177.5 181.5t256.5 65.5h31q141 0 254 -66q132 -78 194 -217l-224 -95q-26 77 -84 118.5t-140 41.5h-31q-117 0 -183.5 -77.5t-66.5 -216.5t67.5 -217.5t182.5 -78.5h31q89 0 149.5 50
t83.5 142l227 -94q-12 -34 -30 -66q-64 -117 -177 -183.5t-253 -66.5h-31z" />
    <glyph glyph-name="d" unicode="d" horiz-adv-x="1168" 
d="M788 73q-91 -54 -183 -75t-173 -9t-152 53t-121.5 105t-79.5 153.5t-29 193.5q0 151 62 265q62 116 172 181.5t247 65.5h30q126 0 227 -56v444h248v-1394h-248v73zM290 494q0 -126 67 -196t181 -70h23q104 0 168.5 72.5t67.5 193.5q0 139 -63 216.5t-173 77.5h-30
q-113 0 -177 -77t-64 -217z" />
    <glyph glyph-name="e" unicode="e" 
d="M999 132q-68 -52 -132 -88q-118 -64 -282 -64h-28q-99 0 -183 27.5t-143 75t-100 112t-61 138.5t-20 155q0 79 19.5 153.5t60 140.5t98 116t138 79t175.5 29h28q148 0 253 -67t155 -179t50 -258q0 -48 -6 -92h-723q9 -102 86.5 -158t186.5 -56h28q140 0 252 84zM296 594
h495v2q0 89 -61 145.5t-155 56.5h-28q-96 0 -145 -30q-92 -55 -106 -174z" />
    <glyph glyph-name="f" unicode="f" horiz-adv-x="761" 
d="M198 0v792h-178v194h180v104q0 128 42 198q76 126 266 126q107 0 194 -42l49 -22l-86 -190l-43 22q-50 24 -86 24q-88 0 -88 -118v-102h210v-194h-210v-792h-250z" />
    <glyph glyph-name="g" unicode="g" horiz-adv-x="1212" 
d="M561 -413q-436 8 -505 383h269q45 -139 236 -145q121 4 180 58.5t75 168.5q-108 -57 -237 -57h-31q-144 0 -256 66q-113 67 -177.5 184.5t-64.5 263.5q0 150 64 265q64 116 177.5 181.5t256.5 65.5h31q136 0 244 -60v64h258v-880q0 -549 -520 -558zM298 509
q0 -139 67.5 -217.5t182.5 -78.5h31q113 0 178.5 78.5t65.5 217.5t-65 216.5t-179 77.5h-31q-117 0 -183.5 -77.5t-66.5 -216.5z" />
    <glyph glyph-name="h" unicode="h" horiz-adv-x="1140" 
d="M132 0v1394h250v-492q115 104 274 104h14q168 0 263 -95.5t95 -266.5v-644h-250v552q0 123 -44 180.5t-138 57.5q-72 0 -119 -33q-95 -66 -95 -285v-472h-250z" />
    <glyph glyph-name="i" unicode="i" horiz-adv-x="510" 
d="M125 0v986h246v-986h-246zM110 1263q0 59 42.5 101.5t101.5 42.5q60 0 103 -41.5t43 -102.5t-43 -102.5t-103 -41.5q-59 0 -101.5 42.5t-42.5 101.5z" />
    <glyph glyph-name="j" unicode="j" horiz-adv-x="510" 
d="M60 -423q-167 0 -258 107l93 197q53 -29 109 -38.5t95.5 7t39.5 58.5v1078h243v-1078q0 -158 -84 -244.5t-225 -86.5h-13zM122 1258q0 57 40.5 98t98.5 41q57 0 98 -41t41 -98t-41 -98t-98 -41q-58 0 -98.5 41t-40.5 98z" />
    <glyph glyph-name="k" unicode="k" horiz-adv-x="1116" 
d="M132 0v1394h250v-783l356 375h316l-358 -368l400 -618h-296l-286 450l-132 -147v-303h-250z" />
    <glyph glyph-name="l" unicode="l" horiz-adv-x="552" 
d="M366 -20q-107 0 -170.5 64.5t-63.5 193.5v1156h246v-1108q0 -76 72 -76q32 0 72 12v-212q-80 -30 -156 -30z" />
    <glyph glyph-name="m" unicode="m" horiz-adv-x="1696" 
d="M132 0v986h250v-83q115 103 274 103q76 0 148 -29q85 -35 135 -120q106 149 289 149q125 0 204 -56q76 -55 114 -140.5t38 -187.5v-622h-248v562q0 75 -19 125q-38 103 -149 103q-186 0 -186 -292v-498h-248v566q0 224 -160 224q-192 0 -192 -292v-498h-250z" />
    <glyph glyph-name="n" unicode="n" horiz-adv-x="1140" 
d="M132 0v986h250v-84q115 104 274 104h14q168 0 263 -95.5t95 -266.5v-644h-250v552q0 123 -44 180.5t-138 57.5q-72 0 -119 -33q-95 -66 -95 -285v-472h-250z" />
    <glyph glyph-name="o" unicode="o" horiz-adv-x="1123" 
d="M548 -20q-144 0 -256 66q-113 67 -177.5 184.5t-64.5 263.5q0 150 64 265q64 116 177.5 181.5t256.5 65.5h31q141 0 254 -66q113 -67 176.5 -182.5t63.5 -263.5q0 -149 -64 -264q-64 -117 -177 -183.5t-253 -66.5h-31zM298 494q0 -139 67.5 -217.5t182.5 -78.5h31
q113 0 178.5 78.5t65.5 217.5t-65 216.5t-179 77.5h-31q-117 0 -183.5 -77.5t-66.5 -216.5z" />
    <glyph glyph-name="p" unicode="p" horiz-adv-x="1168" 
d="M132 -374v1394h248v-73q91 54 183 75t173 9t152 -53t121.5 -105t79.5 -153.5t29 -193.5q0 -109 -31 -202.5t-83.5 -159.5t-125 -109t-153.5 -56t-170.5 4.5t-174.5 68.5v-446h-248zM371 506q0 -127 63 -195.5t173 -68.5h23q112 0 176 68t64 196q0 129 -64.5 207.5
t-175.5 78.5h-23q-108 0 -172 -78.5t-64 -207.5z" />
    <glyph glyph-name="q" unicode="q" horiz-adv-x="1168" 
d="M788 72q-85 -51 -174.5 -68.5t-170.5 -4.5t-153.5 56t-125 109t-83.5 159.5t-31 202.5q0 104 29 193.5t79.5 153.5t121.5 105t152 53t173 -9t183 -75v73h248v-1394h-248v446zM298 506q0 -128 64 -196t176 -68h23q110 0 173 68.5t63 195.5q0 129 -64 207.5t-172 78.5h-23
q-111 0 -175.5 -78.5t-64.5 -207.5z" />
    <glyph glyph-name="r" unicode="r" horiz-adv-x="827" 
d="M132 0v986h250v-104q43 62 115.5 93t148.5 31q75 0 141 -30l-73 -250q-58 32 -124 32q-140 0 -190 -138q-9 -35 -13 -71q-5 -48 -5 -125v-424h-250z" />
    <glyph glyph-name="s" unicode="s" horiz-adv-x="1050" 
d="M536 -28q-200 0 -324 83t-146 247h276q28 -132 198 -132q76 0 116 18t40 68q0 57 -56.5 91t-197.5 68q-161 37 -247.5 107.5t-86.5 192.5q0 142 115 224.5t307 82.5q184 0 293.5 -86.5t128.5 -228.5h-276q-13 61 -53 88t-111 27q-126 0 -126 -86q0 -54 52.5 -84.5
t189.5 -62.5q174 -42 260 -115t86 -204q0 -144 -123 -221t-315 -77z" />
    <glyph glyph-name="t" unicode="t" horiz-adv-x="730" 
d="M547 -13q-141 0 -225 86.5t-84 244.5v434h-218v234h218v408h243v-408h229v-234h-229v-434q0 -60 75.5 -67.5t152.5 32.5v-268q-66 -28 -149 -28h-13z" />
    <glyph glyph-name="u" unicode="u" horiz-adv-x="1120" 
d="M470 -20q-168 0 -263 95.5t-95 266.5v644h250v-552q0 -123 44 -180.5t138 -57.5q72 0 119 33q95 66 95 285v472h250v-986h-250v84q-115 -104 -274 -104h-14z" />
    <glyph glyph-name="v" unicode="v" horiz-adv-x="1048" 
d="M424 0l-404 986h272l232 -662l236 662h268l-400 -986h-204z" />
    <glyph glyph-name="w" unicode="w" horiz-adv-x="1502" 
d="M338 0l-304 986h264l166 -606l178 606h214l178 -602l168 602h266l-306 -986h-222l-190 634l-186 -634h-226z" />
    <glyph glyph-name="x" unicode="x" horiz-adv-x="1024" 
d="M10 0l336 498l-336 488h294l208 -326l208 326h294l-340 -488l340 -498h-294l-208 332l-210 -332h-292z" />
    <glyph glyph-name="y" unicode="y" horiz-adv-x="1057" 
d="M137 -382q-24 10 -49 24l114 234q43 -24 81 -20.5t52 39.5l63 157l-378 936h262l247 -612l247 612h261l-477 -1184q-39 -97 -104 -153t-142.5 -64t-164.5 26z" />
    <glyph glyph-name="z" unicode="z" horiz-adv-x="868" 
d="M36 0v166l493 614h-493v206h796v-178l-479 -602h477v-206h-794z" />
    <glyph glyph-name="braceleft" unicode="{" horiz-adv-x="528" 
d="M462 -160q-143 0 -207.5 52t-64.5 172q0 65 24 228q20 134 20 198q0 57 -36.5 91t-127.5 41v156q91 7 127.5 41t36.5 91q0 64 -20 198q-24 163 -24 230q0 119 64.5 170.5t207.5 51.5h66v-156h-36q-79 0 -109.5 -19t-30.5 -69q0 -44 22 -188q24 -168 24 -224
q0 -166 -168 -200q168 -37 168 -208q0 -56 -24 -224q-22 -142 -22 -188q0 -50 30.5 -69t109.5 -19h36v-156h-66z" />
    <glyph glyph-name="bar" unicode="|" horiz-adv-x="522" 
d="M180 -365v1946h162v-1946h-162z" />
    <glyph glyph-name="braceright" unicode="}" horiz-adv-x="528" 
d="M0 -160v156h36q79 0 109.5 19t30.5 69q0 46 -22 188q-24 168 -24 224q0 166 168 200q-82 18 -125 71.5t-43 136.5q0 56 24 224q22 144 22 188q0 50 -30.5 69t-109.5 19h-36v156h66q143 0 207.5 -51.5t64.5 -170.5q0 -67 -24 -230q-20 -134 -20 -198q0 -57 36.5 -91
t127.5 -41v-156q-91 -7 -127.5 -41t-36.5 -91q0 -64 20 -198q24 -163 24 -228q0 -120 -64.5 -172t-207.5 -52h-66z" />
    <glyph glyph-name="asciitilde" unicode="~" horiz-adv-x="1076" 
d="M99 418q-15 166 44 251t171 85q60 0 111.5 -18.5t154.5 -75.5q87 -48 119.5 -61t64.5 -13q42 0 51.5 31t3.5 143h161q14 -166 -45 -250.5t-173 -84.5q-59 0 -109.5 18t-155.5 76q-85 47 -118.5 60.5t-66.5 13.5q-28 0 -39.5 -12.5t-16 -51.5t1.5 -111h-159z" />
    <glyph glyph-name="uni00A0" unicode="&#xa0;" horiz-adv-x="466" 
 />
    <glyph glyph-name="exclamdown" unicode="&#xa1;" horiz-adv-x="634" 
d="M182 -320l24 988h222l24 -988h-270zM160 932q0 69 44 112.5t112 43.5q69 0 113.5 -43.5t44.5 -112.5t-44.5 -112.5t-113.5 -43.5q-68 0 -112 43.5t-44 112.5z" />
    <glyph glyph-name="cent" unicode="&#xa2;" horiz-adv-x="1072" 
d="M466 -20q-178 31 -292 182.5t-114 382.5q0 221 114.5 372.5t291.5 187.5v148h163v-142q169 -21 274.5 -143t108.5 -299h-162q-18 246 -221 282v-809q197 44 216 266h162q-10 -172 -114.5 -287t-263.5 -141v-144h-163v144zM226 553q0 -175 65.5 -276.5t174.5 -131.5v796
q-106 -34 -173 -131.5t-67 -256.5z" />
    <glyph glyph-name="sterling" unicode="&#xa3;" horiz-adv-x="986" 
d="M40 146q58 12 106.5 33t89.5 55t64.5 85.5t23.5 115.5q0 91 -68 207h-200v161h110q-46 107 -46 214q0 170 115 279.5t286 109.5q106 0 186 -38t127 -105t70 -151.5t22 -184.5h-162q1 169 -56.5 244t-190.5 75q-103 0 -167 -59.5t-64 -167.5q0 -99 65 -216h455v-161h-363
q48 -107 48 -207q0 -158 -107 -274h542v-161h-886v146z" />
    <glyph glyph-name="currency" unicode="&#xa4;" horiz-adv-x="1193" 
d="M279 170l-114 116l109 110q-59 93 -59 214t59 216l-110 109l116 115l109 -109q96 59 208 59t208 -59l109 109l115 -115l-109 -110q59 -96 59 -215q0 -118 -59 -214l109 -110l-115 -116l-109 110q-96 -59 -208 -59t-208 59zM381 610q0 -106 57.5 -167.5t158.5 -61.5
t158 61.5t57 167.5t-57 167.5t-158 61.5t-158.5 -61.5t-57.5 -167.5z" />
    <glyph glyph-name="yen" unicode="&#xa5;" horiz-adv-x="1169" 
d="M505 0v369h-335v160h335v56h-335v161h263l-403 635h200l357 -574l356 574h196l-401 -635h266v-161h-336v-56h336v-160h-336v-369h-163z" />
    <glyph glyph-name="brokenbar" unicode="&#xa6;" horiz-adv-x="522" 
d="M180 -292v743h162v-743h-162zM180 639v742h162v-742h-162z" />
    <glyph glyph-name="section" unicode="&#xa7;" horiz-adv-x="1104" 
d="M542 -317q-181 0 -291 105t-136 318h162q26 -145 87.5 -204t181.5 -59q103 0 160.5 37.5t57.5 109.5q0 61 -21 95.5t-86 63.5t-196 57q-67 14 -130 41.5t-121.5 70.5t-94 108t-35.5 143q0 105 50.5 180t135.5 118q-95 88 -95 220q0 144 101 231.5t258 87.5q96 0 171 -33
t121.5 -90.5t72.5 -128t32 -153.5h-158q-27 138 -79.5 191.5t-161.5 53.5q-90 0 -140.5 -37.5t-50.5 -115.5q0 -83 66.5 -126t189.5 -64q74 -14 136.5 -34.5t118 -52t94 -71.5t60.5 -94t22 -117q0 -107 -53.5 -183t-142.5 -119q102 -89 102 -238q0 -141 -110.5 -226
t-277.5 -85zM246 574q0 -80 70.5 -132t185.5 -76q72 -14 111 -27q109 4 176.5 50t67.5 141q0 84 -70 131.5t-235 80.5q-42 7 -91 22q-100 -12 -157.5 -55t-57.5 -135z" />
    <glyph glyph-name="dieresis" unicode="&#xa8;" horiz-adv-x="714" 
d="M473 1529q-41 0 -69.5 28.5t-28.5 68.5t28.5 69t69.5 29q40 0 69 -29t29 -69t-29 -68.5t-69 -28.5zM145 1626q0 40 28.5 69t68.5 29q41 0 69.5 -29t28.5 -69t-29 -68.5t-69 -28.5t-68.5 28.5t-28.5 68.5z" />
    <glyph glyph-name="copyright" unicode="&#xa9;" horiz-adv-x="1607" 
d="M804 -29q-199 0 -365.5 98.5t-262.5 268.5t-96 372t96 371t262.5 267t365.5 98q198 0 364.5 -98t262.5 -267t96 -371t-96 -372t-262.5 -268.5t-364.5 -98.5zM243 710q0 -163 73 -295t201.5 -206.5t286.5 -74.5q240 0 400 164t160 412q0 162 -73 293.5t-201 206.5t-286 75
t-286.5 -75t-201.5 -206.5t-73 -293.5zM421 710q0 131 53 233t141 155t194 53q157 0 260 -98t101 -276h-157q-11 112 -57 163t-147 51q-106 0 -166 -78t-60 -201q0 -129 59 -204t160 -75q100 0 148.5 47.5t61.5 163.5h162q-12 -180 -114 -276t-264 -96q-156 0 -265.5 121
t-109.5 317z" />
    <glyph glyph-name="ordfeminine" unicode="&#xaa;" horiz-adv-x="750" 
d="M307 640q-123 0 -197 64.5t-74 173.5q0 118 86 182q41 30 93.5 40.5t125.5 13.5l174 9q-7 69 -47 98.5t-119 29.5q-68 0 -107.5 -28.5t-89.5 -112.5l-112 92q58 101 132 147t177 46q139 0 227 -80.5t88 -223.5v-446h-148v58q-94 -63 -209 -63zM183 878q0 -51 28.5 -73
t98.5 -22q86 0 145.5 55t60.5 142l-167 -9q-105 -3 -137 -27q-18 -13 -23.5 -25.5t-5.5 -40.5z" />
    <glyph glyph-name="guillemotleft" unicode="&#xab;" horiz-adv-x="1168" 
d="M910 164l-274 332l274 332h208l-274 -332l274 -332h-208zM220 496l274 332h208l-274 -332l274 -332h-208z" />
    <glyph glyph-name="logicalnot" unicode="&#xac;" horiz-adv-x="959" 
d="M667 383v245h-601v159h763v-404h-162z" />
    <glyph glyph-name="registered" unicode="&#xae;" horiz-adv-x="920" 
d="M460 688q-186 0 -303 117.5t-117 302.5t117 302.5t303 117.5t303 -117.5t117 -302.5t-117 -302.5t-303 -117.5zM150 1108q0 -139 86.5 -227.5t223.5 -88.5t223.5 88.5t86.5 227.5q0 140 -87 229t-223 89t-223 -89t-87 -229zM304 908v418h148q36 0 54 -2q66 -6 101 -36
t35 -80q0 -77 -82 -102q53 -13 60 -90q7 -67 26 -108h-124q-7 29 -14 86q-9 52 -58 52h-36v-138h-110zM414 1134h28q26 0 40 2q40 9 40 52t-40 50q-14 2 -38 2h-30v-106z" />
    <glyph glyph-name="macron" unicode="&#xaf;" horiz-adv-x="693" 
d="M158 1542v160h377v-160h-377z" />
    <glyph glyph-name="degree" unicode="&#xb0;" horiz-adv-x="674" 
d="M337 916q-105 0 -176 70t-71 176q0 105 71 174.5t176 69.5q106 0 176.5 -69.5t70.5 -174.5q0 -106 -70 -176t-177 -70zM254 1162q0 -47 18.5 -66t64.5 -19t65 19t19 66q0 46 -19 65t-65 19q-45 0 -64 -19t-19 -65z" />
    <glyph glyph-name="plusminus" unicode="&#xb1;" horiz-adv-x="985" 
d="M411 213v382h-345v161h345v383h162v-383h346v-161h-346v-382h-162zM66 -13v161h853v-161h-853z" />
    <glyph glyph-name="uni00B2" unicode="&#xb2;" horiz-adv-x="869" 
d="M136 890v104l292 268q99 91 124.5 136t25.5 108q0 61 -31 90t-102 29q-141 0 -157 -140v-71h-160l14 82q13 122 97.5 197.5t205.5 75.5q132 0 206.5 -75.5t74.5 -187.5q0 -87 -43 -167.5t-150 -176.5l-139 -128h369v-144h-627z" />
    <glyph glyph-name="uni00B3" unicode="&#xb3;" horiz-adv-x="860" 
d="M423 884q-160 0 -246.5 98.5t-60.5 245.5h142q-20 -103 19.5 -152t145.5 -49q172 0 172 135q0 126 -172 126q-43 0 -111 -10v117l187 228h-375v146h602v-102l-201 -244q95 -26 152 -97t57 -164q0 -123 -87 -200.5t-224 -77.5z" />
    <glyph glyph-name="acute" unicode="&#xb4;" horiz-adv-x="942" 
d="M382 1469l176 323h198l-201 -323h-173z" />
    <glyph glyph-name="paragraph" unicode="&#xb6;" 
d="M461 584q-34 0 -86 2q-161 9 -253 124t-92 273q0 101 38.5 187.5t118.5 144.5t188 64q32 2 105 2h417v-1582h-162v1422h-111v-1422h-163v785z" />
    <glyph glyph-name="periodcentered" unicode="&#xb7;" horiz-adv-x="566" 
d="M282 438q-75 0 -123.5 48.5t-48.5 123.5t48.5 123.5t123.5 48.5t124.5 -48.5t49.5 -123.5t-49.5 -123.5t-124.5 -48.5z" />
    <glyph glyph-name="cedilla" unicode="&#xb8;" horiz-adv-x="947" 
d="M444 -427q-73 0 -135 45t-84 114l180 78q-3 -21 11 -38t36 -17q25 0 39.5 15t14.5 41q0 42 -38.5 65.5t-108.5 20.5q-6 2 -24 2h-75l145 230h201l-82 -101q-2 0 -5.5 0.5t-4.5 0.5q10 -1 38 -9q67 -24 103.5 -75.5t36.5 -123.5q0 -104 -71 -176t-177 -72z" />
    <glyph glyph-name="uni00B9" unicode="&#xb9;" horiz-adv-x="554" 
d="M242 899v667l-196 -123v179l240 145h108v-868h-152z" />
    <glyph glyph-name="ordmasculine" unicode="&#xba;" horiz-adv-x="775" 
d="M382 650q-152 0 -249 106.5t-97 271.5t96.5 271t249.5 106h11q153 0 249.5 -106.5t96.5 -270.5q0 -165 -97 -271.5t-249 -106.5h-11zM184 1028q0 -113 51 -172.5t147 -59.5h11q97 0 147.5 59.5t50.5 172.5q0 112 -51 171t-147 59h-11q-96 0 -147 -59t-51 -171z" />
    <glyph glyph-name="guillemotright" unicode="&#xbb;" horiz-adv-x="1132" 
d="M466 164l274 332l-274 332h208l274 -332l-274 -332h-208zM50 164l274 332l-274 332h208l274 -332l-274 -332h-208z" />
    <glyph glyph-name="questiondown" unicode="&#xbf;" horiz-adv-x="1092" 
d="M540 -344q-215 0 -335.5 102.5t-120.5 275.5q0 109 50 197t162 187q84 76 115 127.5t37 126.5h238q-4 -104 -35 -172.5t-107 -151.5q-95 -104 -130.5 -167t-35.5 -131q0 -89 46 -138.5t134 -49.5t140.5 59.5t59.5 176.5h278q-6 -205 -139.5 -323.5t-356.5 -118.5z
M410 936q0 69 43.5 112.5t112.5 43.5t112.5 -43.5t43.5 -112.5q0 -68 -43.5 -112t-112.5 -44t-112.5 44t-43.5 112z" />
    <glyph glyph-name="Agrave" unicode="&#xc0;" horiz-adv-x="1334" 
d="M10 0l560 1394h194l560 -1394h-282l-118 321h-512l-120 -321h-282zM426 1773h200l166 -293h-172zM499 553h340l-169 459z" />
    <glyph glyph-name="Aacute" unicode="&#xc1;" horiz-adv-x="1334" 
d="M10 0l560 1394h194l560 -1394h-282l-118 321h-512l-120 -321h-282zM499 553h340l-169 459zM543 1530l166 293h202l-194 -293h-174z" />
    <glyph glyph-name="Acircumflex" unicode="&#xc2;" horiz-adv-x="1334" 
d="M10 0l560 1394h194l560 -1394h-282l-118 321h-512l-120 -321h-282zM415 1480l203 293h106l205 -293h-193l-65 97l-64 -97h-192zM499 553h340l-169 459z" />
    <glyph glyph-name="Atilde" unicode="&#xc3;" horiz-adv-x="1334" 
d="M10 0l560 1394h194l560 -1394h-282l-118 321h-512l-120 -321h-282zM389 1553q0 111 36 160.5t110 49.5q67 0 146 -32q62 -26 90 -26q30 0 30 52h140q0 -112 -35.5 -162t-110.5 -50q-60 0 -146 34q-69 26 -90 26q-30 0 -30 -52h-140zM499 553h340l-169 459z" />
    <glyph glyph-name="Adieresis" unicode="&#xc4;" horiz-adv-x="1334" 
d="M10 0l560 1394h194l560 -1394h-282l-118 321h-512l-120 -321h-282zM463 1626q0 40 28.5 69t68.5 29q41 0 70 -29t29 -69t-29.5 -68.5t-69.5 -28.5t-68.5 28.5t-28.5 68.5zM499 553h340l-169 459zM693 1626q0 40 28.5 69t68.5 29q41 0 70 -29t29 -69t-29 -68.5t-70 -28.5
q-40 0 -68.5 28.5t-28.5 68.5z" />
    <glyph glyph-name="Aring" unicode="&#xc5;" horiz-adv-x="1334" 
d="M10 0l560 1394h194l560 -1394h-282l-118 321h-512l-120 -321h-282zM462 1732q0 91 61.5 148t147.5 57t147.5 -57t61.5 -148t-61.5 -148t-147.5 -57t-147.5 57t-61.5 148zM499 553h340l-169 459zM604 1732q0 -31 18.5 -47.5t48.5 -16.5t48.5 16.5t18.5 47.5q0 64 -67 64
t-67 -64z" />
    <glyph glyph-name="AE" unicode="&#xc6;" horiz-adv-x="1657" 
d="M-4 0l560 1394h1041v-232h-623v-332h579v-230h-579v-368h623v-232h-881v321h-318l-120 -321h-282zM485 553h231v459h-60z" />
    <glyph glyph-name="Ccedilla" unicode="&#xc7;" horiz-adv-x="1404" 
d="M693 -538q-73 0 -135 45t-84 114l180 78q-3 -21 11 -38t36 -17q25 0 39.5 15t14.5 41q0 42 -38.5 65.5t-108.5 20.5q-6 2 -24 2h-75l117 185q-140 16 -257 86q-152 92 -235.5 256.5t-83.5 380.5q0 220 84 384q85 165 236 255.5t348 90.5h31q200 0 351 -91
q180 -107 262 -316l-244 -92q-116 251 -371 251h-31q-123 0 -215 -58q-191 -119 -191 -424q0 -149 49 -256q49 -108 141.5 -166t215.5 -58h31q127 0 219 59q104 67 152 194l246 -89q-14 -34 -30 -66q-78 -151 -211 -239.5t-306 -103.5l-44 -54q-2 0 -5.5 0.5t-4.5 0.5
q10 -1 38 -9q67 -24 103.5 -75.5t36.5 -123.5q0 -104 -71 -176t-177 -72z" />
    <glyph glyph-name="Egrave" unicode="&#xc8;" horiz-adv-x="1081" 
d="M140 0v1394h881v-232h-623v-332h579v-230h-579v-368h623v-232h-881zM319 1773h201l166 -293h-171z" />
    <glyph glyph-name="Eacute" unicode="&#xc9;" horiz-adv-x="1081" 
d="M140 0v1394h881v-232h-623v-332h579v-230h-579v-368h623v-232h-881zM438 1530l166 293h200l-193 -293h-173z" />
    <glyph glyph-name="Ecircumflex" unicode="&#xca;" horiz-adv-x="1081" 
d="M140 0v1394h881v-232h-623v-332h579v-230h-579v-368h623v-232h-881zM310 1480l203 293h106l203 -293h-194l-63 96l-64 -96h-191z" />
    <glyph glyph-name="Edieresis" unicode="&#xcb;" horiz-adv-x="1081" 
d="M140 0v1394h881v-232h-623v-332h579v-230h-579v-368h623v-232h-881zM354 1626q0 40 28.5 69t68.5 29t68.5 -29t28.5 -69t-28.5 -68.5t-68.5 -28.5t-68.5 28.5t-28.5 68.5zM583 1626q0 40 29 69t69 29t68.5 -29t28.5 -69t-28.5 -68.5t-68.5 -28.5t-69 28.5t-29 68.5z" />
    <glyph glyph-name="Igrave" unicode="&#xcc;" horiz-adv-x="367" 
d="M-17 0v1394h258v-1394h-258zM-128 1773h200l166 -293h-172z" />
    <glyph glyph-name="Iacute" unicode="&#xcd;" horiz-adv-x="401" 
d="M126 0v1394h258v-1394h-258zM163 1530l166 293h200l-195 -293h-171z" />
    <glyph glyph-name="Icircumflex" unicode="&#xce;" horiz-adv-x="247" 
d="M-15 0v1394h258v-1394h-258zM-132 1480l203 293h107l203 -293h-193l-65 96l-63 -96h-192z" />
    <glyph glyph-name="Idieresis" unicode="&#xcf;" horiz-adv-x="213" 
d="M-35 0v1394h258v-1394h-258zM-105 1626q0 40 28 69t69 29q40 0 69 -29t29 -69t-29 -68.5t-69 -28.5t-68.5 28.5t-28.5 68.5zM124 1626q0 40 28.5 69t68.5 29q41 0 70 -28.5t29 -69.5q0 -40 -29 -68.5t-70 -28.5q-40 0 -68.5 28.5t-28.5 68.5z" />
    <glyph glyph-name="Eth" unicode="&#xd0;" horiz-adv-x="1325" 
d="M192 0v564h-172v211h172v619h355q348 0 538 -184.5t190 -523.5q0 -332 -188 -509t-542 -177h-353zM450 238h69q160 0 268 40q228 82 228 418q0 172 -57 273q-105 187 -415 187h-93v-381h229v-211h-229v-326z" />
    <glyph glyph-name="Ntilde" unicode="&#xd1;" horiz-adv-x="1390" 
d="M140 0v1394h266l586 -952v952h258v-1394h-268l-584 954v-954h-258zM428 1553q0 111 36 160.5t110 49.5q67 0 146 -32q62 -26 90 -26q30 0 30 52h140q0 -112 -35.5 -162t-110.5 -50q-60 0 -146 34q-69 26 -90 26q-30 0 -30 -52h-140z" />
    <glyph glyph-name="Ograve" unicode="&#xd2;" horiz-adv-x="1469" 
d="M718 -32q-198 0 -349 91q-152 92 -235.5 256.5t-83.5 380.5q0 220 84 384q85 165 236 255.5t348 90.5h31q200 0 351 -91q152 -92 235.5 -256.5t83.5 -382.5q0 -219 -85 -382q-85 -165 -236.5 -255.5t-348.5 -90.5h-31zM310 696q0 -149 49 -256q49 -108 141.5 -166
t215.5 -58h31q127 0 219 59q92 60 141.5 168t49.5 253q0 147 -50 256q-51 109 -142 167.5t-218 58.5h-31q-123 0 -215 -58q-191 -119 -191 -424zM485 1773h200l166 -293h-172z" />
    <glyph glyph-name="Oacute" unicode="&#xd3;" horiz-adv-x="1469" 
d="M718 -32q-198 0 -349 91q-152 92 -235.5 256.5t-83.5 380.5q0 220 84 384q85 165 236 255.5t348 90.5h31q200 0 351 -91q152 -92 235.5 -256.5t83.5 -382.5q0 -219 -85 -382q-85 -165 -236.5 -255.5t-348.5 -90.5h-31zM310 696q0 -149 49 -256q49 -108 141.5 -166
t215.5 -58h31q127 0 219 59q92 60 141.5 168t49.5 253q0 147 -50 256q-51 109 -142 167.5t-218 58.5h-31q-123 0 -215 -58q-191 -119 -191 -424zM603 1530l166 293h201l-194 -293h-173z" />
    <glyph glyph-name="Ocircumflex" unicode="&#xd4;" horiz-adv-x="1469" 
d="M718 -32q-198 0 -349 91q-152 92 -235.5 256.5t-83.5 380.5q0 220 84 384q85 165 236 255.5t348 90.5h31q200 0 351 -91q152 -92 235.5 -256.5t83.5 -382.5q0 -219 -85 -382q-85 -165 -236.5 -255.5t-348.5 -90.5h-31zM310 696q0 -149 49 -256q49 -108 141.5 -166
t215.5 -58h31q127 0 219 59q92 60 141.5 168t49.5 253q0 147 -50 256q-51 109 -142 167.5t-218 58.5h-31q-123 0 -215 -58q-191 -119 -191 -424zM474 1480l203 293h106l204 -293h-193l-64 96l-64 -96h-192z" />
    <glyph glyph-name="Otilde" unicode="&#xd5;" horiz-adv-x="1469" 
d="M718 -32q-198 0 -349 91q-152 92 -235.5 256.5t-83.5 380.5q0 220 84 384q85 165 236 255.5t348 90.5h31q200 0 351 -91q152 -92 235.5 -256.5t83.5 -382.5q0 -219 -85 -382q-85 -165 -236.5 -255.5t-348.5 -90.5h-31zM310 696q0 -149 49 -256q49 -108 141.5 -166
t215.5 -58h31q127 0 219 59q92 60 141.5 168t49.5 253q0 147 -50 256q-51 109 -142 167.5t-218 58.5h-31q-123 0 -215 -58q-191 -119 -191 -424zM457 1553q0 111 36 160.5t110 49.5q67 0 146 -32q62 -26 90 -26q30 0 30 52h140q0 -112 -35.5 -162t-110.5 -50q-60 0 -146 34
q-69 26 -90 26q-30 0 -30 -52h-140z" />
    <glyph glyph-name="Odieresis" unicode="&#xd6;" horiz-adv-x="1469" 
d="M718 -32q-198 0 -349 91q-152 92 -235.5 256.5t-83.5 380.5q0 220 84 384q85 165 236 255.5t348 90.5h31q200 0 351 -91q152 -92 235.5 -256.5t83.5 -382.5q0 -219 -85 -382q-85 -165 -236.5 -255.5t-348.5 -90.5h-31zM310 696q0 -149 49 -256q49 -108 141.5 -166
t215.5 -58h31q127 0 219 59q92 60 141.5 168t49.5 253q0 147 -50 256q-51 109 -142 167.5t-218 58.5h-31q-123 0 -215 -58q-191 -119 -191 -424zM517 1626q0 40 28.5 69t69.5 29q40 0 69 -29t29 -69t-29 -68.5t-69 -28.5t-69 28.5t-29 68.5zM748 1626q0 40 28 69t69 29
q40 0 68.5 -29t28.5 -69t-28.5 -68.5t-68.5 -28.5t-68.5 28.5t-28.5 68.5z" />
    <glyph glyph-name="multiply" unicode="&#xd7;" horiz-adv-x="993" 
d="M773 243l-275 275l-275 -274l-115 112l276 276l-276 275l115 115l275 -275l277 275l111 -115l-274 -275l275 -275z" />
    <glyph glyph-name="Oslash" unicode="&#xd8;" horiz-adv-x="1494" 
d="M722 -32q-198 0 -349 91q-34 20 -64 44l-112 -112l-147 151l118 118q-114 182 -114 436q0 220 84 384q85 165 236 255.5t348 90.5h31q200 0 351 -91q40 -23 81 -58l111 111l148 -149l-124 -124q103 -177 103 -419q0 -219 -85 -382q-85 -165 -236.5 -255.5t-348.5 -90.5
h-31zM314 696q0 -140 44 -246l645 645q-101 83 -252 83h-31q-123 0 -215 -58q-191 -119 -191 -424zM490 284q95 -68 230 -68h31q127 0 219 59q92 60 141.5 168t49.5 253q0 127 -36 223z" />
    <glyph glyph-name="Ugrave" unicode="&#xd9;" horiz-adv-x="1286" 
d="M642 -32q-518 9 -518 536v890h258v-860q0 -106 23 -181q46 -141 237 -147q148 4 205 83t57 243v862h258v-880q0 -267 -131.5 -404t-388.5 -142zM399 1773h201l166 -293h-173z" />
    <glyph glyph-name="Uacute" unicode="&#xda;" horiz-adv-x="1286" 
d="M642 -32q-518 9 -518 536v890h258v-860q0 -106 23 -181q46 -141 237 -147q148 4 205 83t57 243v862h258v-880q0 -267 -131.5 -404t-388.5 -142zM518 1530l166 293h200l-195 -293h-171z" />
    <glyph glyph-name="Ucircumflex" unicode="&#xdb;" horiz-adv-x="1286" 
d="M642 -32q-518 9 -518 536v890h258v-860q0 -106 23 -181q46 -141 237 -147q148 4 205 83t57 243v862h258v-880q0 -267 -131.5 -404t-388.5 -142zM389 1480l204 293h106l203 -293h-194l-64 96l-64 -96h-191z" />
    <glyph glyph-name="Udieresis" unicode="&#xdc;" horiz-adv-x="1286" 
d="M642 -32q-518 9 -518 536v890h258v-860q0 -106 23 -181q46 -141 237 -147q148 4 205 83t57 243v862h258v-880q0 -267 -131.5 -404t-388.5 -142zM435 1626q0 40 28.5 69t68.5 29q41 0 69 -29t28 -69t-28 -68.5t-69 -28.5q-40 0 -68.5 28.5t-28.5 68.5zM664 1626
q0 40 29 69t69 29t69 -29t29 -69t-29 -68.5t-69 -28.5t-69 28.5t-29 68.5z" />
    <glyph glyph-name="Yacute" unicode="&#xdd;" horiz-adv-x="1214" 
d="M480 0v415l-490 979h296l316 -723l328 723h294l-486 -979v-415h-258zM477 1530l166 293h200l-194 -293h-172z" />
    <glyph glyph-name="Thorn" unicode="&#xde;" horiz-adv-x="1215" 
d="M140 0v1394h256v-203h293q476 0 476 -404q0 -202 -122 -308t-354 -106h-293v-373h-256zM396 603h267q121 0 182.5 42.5t61.5 139.5q0 94 -59 134t-185 40h-267v-356z" />
    <glyph glyph-name="germandbls" unicode="&#xdf;" horiz-adv-x="1166" 
d="M690 -21q-126 0 -243 11v230q94 -2 267 -9q89 4 121 25t32 73q0 41 -21 71t-103 104q-95 82 -129 144t-34 143q0 82 34 144t129 144q81 73 102.5 103.5t21.5 71.5q0 55 -37.5 76.5t-139.5 21.5q-167 0 -234.5 -50.5t-77.5 -175.5q-3 -75 -3 -99v-1020h-243v1017
q0 20 3 116q13 208 158.5 325t399.5 118q190 1 304.5 -89.5t114.5 -244.5q0 -94 -53.5 -177t-160.5 -173q-49 -42 -60.5 -59.5t-11.5 -48.5q0 -30 11 -47t61 -59q107 -89 160.5 -173t53.5 -177q0 -156 -115 -246t-307 -90z" />
    <glyph glyph-name="agrave" unicode="&#xe0;" horiz-adv-x="1074" 
d="M456 -20q-168 0 -272 91t-104 233q0 84 34 145.5t94 94.5q75 45 242 54l328 18v6q0 88 -61 131t-187 43q-79 0 -159.5 -31t-142.5 -87l-126 170q196 158 448 158q234 0 355 -100.5t121 -283.5v-622h-245v126q-10 -14 -16 -21q-50 -61 -137.5 -93t-171.5 -32zM301 1518
h199l175 -323h-171zM330 304q0 -56 44 -90t118 -34q132 0 209 62.5t77 163.5v26l-292 -18q-2 0 -14 -1t-15 -1t-13.5 -1t-14.5 -2t-12.5 -2.5t-13 -3.5t-11.5 -4.5t-12 -5.5t-10 -7q-40 -28 -40 -82z" />
    <glyph glyph-name="aacute" unicode="&#xe1;" horiz-adv-x="1074" 
d="M456 -20q-168 0 -272 91t-104 233q0 84 34 145.5t94 94.5q75 45 242 54l328 18v6q0 88 -61 131t-187 43q-79 0 -159.5 -31t-142.5 -87l-126 170q196 158 448 158q234 0 355 -100.5t121 -283.5v-622h-245v126q-10 -14 -16 -21q-50 -61 -137.5 -93t-171.5 -32zM330 304
q0 -56 44 -90t118 -34q132 0 209 62.5t77 163.5v26l-292 -18q-2 0 -14 -1t-15 -1t-13.5 -1t-14.5 -2t-12.5 -2.5t-13 -3.5t-11.5 -4.5t-12 -5.5t-10 -7q-40 -28 -40 -82zM453 1195l175 323h199l-202 -323h-172z" />
    <glyph glyph-name="acircumflex" unicode="&#xe2;" horiz-adv-x="1074" 
d="M456 -20q-168 0 -272 91t-104 233q0 84 34 145.5t94 94.5q75 45 242 54l328 18v6q0 88 -61 131t-187 43q-79 0 -159.5 -31t-142.5 -87l-126 170q196 158 448 158q234 0 355 -100.5t121 -283.5v-622h-245v126q-10 -14 -16 -21q-50 -61 -137.5 -93t-171.5 -32zM330 304
q0 -56 44 -90t118 -34q132 0 209 62.5t77 163.5v26l-292 -18q-2 0 -14 -1t-15 -1t-13.5 -1t-14.5 -2t-12.5 -2.5t-13 -3.5t-11.5 -4.5t-12 -5.5t-10 -7q-40 -28 -40 -82zM333 1195l190 323h112l190 -323h-187l-60 108l-61 -108h-184z" />
    <glyph glyph-name="atilde" unicode="&#xe3;" horiz-adv-x="1074" 
d="M456 -20q-168 0 -272 91t-104 233q0 84 34 145.5t94 94.5q75 45 242 54l328 18v6q0 88 -61 131t-187 43q-79 0 -159.5 -31t-142.5 -87l-126 170q196 158 448 158q234 0 355 -100.5t121 -283.5v-622h-245v126q-10 -14 -16 -21q-50 -61 -137.5 -93t-171.5 -32zM325 1285
q0 111 36 160.5t110 49.5q67 0 146 -32q62 -26 90 -26q30 0 30 52h140q0 -112 -35.5 -162t-110.5 -50q-60 0 -146 34q-69 26 -90 26q-30 0 -30 -52h-140zM330 304q0 -56 44 -90t118 -34q132 0 209 62.5t77 163.5v26l-292 -18q-2 0 -14 -1t-15 -1t-13.5 -1t-14.5 -2
t-12.5 -2.5t-13 -3.5t-11.5 -4.5t-12 -5.5t-10 -7q-40 -28 -40 -82z" />
    <glyph glyph-name="adieresis" unicode="&#xe4;" horiz-adv-x="1074" 
d="M456 -20q-168 0 -272 91t-104 233q0 84 34 145.5t94 94.5q75 45 242 54l328 18v6q0 88 -61 131t-187 43q-79 0 -159.5 -31t-142.5 -87l-126 170q196 158 448 158q234 0 355 -100.5t121 -283.5v-622h-245v126q-10 -14 -16 -21q-50 -61 -137.5 -93t-171.5 -32zM330 304
q0 -56 44 -90t118 -34q132 0 209 62.5t77 163.5v26l-292 -18q-2 0 -14 -1t-15 -1t-13.5 -1t-14.5 -2t-12.5 -2.5t-13 -3.5t-11.5 -4.5t-12 -5.5t-10 -7q-40 -28 -40 -82zM368 1355q0 40 28.5 68.5t68.5 28.5t68.5 -28.5t28.5 -68.5t-28.5 -69t-68.5 -29q-41 0 -69 29t-28 69
zM597 1355q0 40 28.5 68.5t68.5 28.5q41 0 69.5 -28.5t28.5 -68.5t-28.5 -69t-69.5 -29q-40 0 -68.5 29t-28.5 69z" />
    <glyph glyph-name="aring" unicode="&#xe5;" horiz-adv-x="1074" 
d="M456 -20q-168 0 -272 91t-104 233q0 84 34 145.5t94 94.5q75 45 242 54l328 18v6q0 88 -61 131t-187 43q-79 0 -159.5 -31t-142.5 -87l-126 170q196 158 448 158q234 0 355 -100.5t121 -283.5v-622h-245v126q-10 -14 -16 -21q-50 -61 -137.5 -93t-171.5 -32zM330 304
q0 -56 44 -90t118 -34q132 0 209 62.5t77 163.5v26l-292 -18q-2 0 -14 -1t-15 -1t-13.5 -1t-14.5 -2t-12.5 -2.5t-13 -3.5t-11.5 -4.5t-12 -5.5t-10 -7q-40 -28 -40 -82zM414 1355q0 77 52 124.5t123 47.5q72 0 124 -47.5t52 -124.5q0 -76 -52 -124t-124 -48t-123.5 48
t-51.5 124zM548 1355q0 -40 41 -40q42 0 42 40t-42 40q-41 0 -41 -40z" />
    <glyph glyph-name="ae" unicode="&#xe6;" horiz-adv-x="1806" 
d="M454 -20q-167 1 -270.5 92t-103.5 232q0 84 34 145.5t94 94.5q75 45 242 54l328 18v6q0 88 -61 131t-187 43q-79 0 -159.5 -31t-142.5 -87l-126 170q196 158 448 158q262 0 384 -128q133 128 336 128h28q148 0 253 -67t155 -179t50 -258q0 -48 -6 -92h-723
q9 -102 86.5 -158t186.5 -56h28q160 0 276 104l124 -168q-68 -52 -132 -88q-118 -64 -282 -64h-28q-142 0 -247.5 53.5t-169.5 147.5q-64 -93 -169 -146.5t-246 -54.5zM330 304q0 -56 44 -90t118 -34q132 0 209 62.5t77 163.5v26l-292 -18q-2 0 -14 -1t-15 -1t-13.5 -1
t-14.5 -2t-12.5 -2.5t-13 -3.5t-11.5 -4.5t-12 -5.5t-10 -7q-40 -28 -40 -82zM1026 594h494v2q0 89 -61 145.5t-155 56.5h-28q-96 0 -145 -30q-89 -53 -105 -166v-8z" />
    <glyph glyph-name="ccedilla" unicode="&#xe7;" horiz-adv-x="1089" 
d="M465 -417q-104 0 -158 47v136q62 -32 119 -37t89 14t32 51q0 21 -7 31.5t-31.5 15.5t-67 2t-118.5 -12l86 166q-60 16 -117 49q-113 67 -177.5 184.5t-64.5 263.5q0 150 64 265q64 116 177.5 181.5t256.5 65.5h31q141 0 254 -66q132 -78 194 -217l-224 -95
q-26 77 -84 118.5t-140 41.5h-31q-117 0 -183.5 -77.5t-66.5 -216.5t67.5 -217.5t182.5 -78.5h31q89 0 149.5 50t83.5 142l227 -94q-12 -34 -30 -66q-64 -117 -176 -183t-251 -67l-2 -3q131 -47 131 -183q0 -54 -22.5 -96.5t-60 -66.5t-79 -36t-84.5 -12z" />
    <glyph glyph-name="egrave" unicode="&#xe8;" 
d="M300 1518h197l177 -323h-173zM50 488q0 79 19.5 153.5t60 140.5t98 116t138 79t175.5 29h28q148 0 253 -67t155 -179t50 -258q0 -48 -6 -92h-723q9 -102 86.5 -158t186.5 -56h28q140 0 252 84l148 -148q-68 -52 -132 -88q-118 -64 -282 -64h-28q-99 0 -183 27.5t-143 75
t-100 112t-61 138.5t-20 155zM296 594h495v2q0 89 -61 145.5t-155 56.5h-28q-96 0 -145 -30q-92 -55 -106 -174z" />
    <glyph glyph-name="eacute" unicode="&#xe9;" 
d="M416 1195l177 323h197l-202 -323h-172zM50 488q0 79 19.5 153.5t60 140.5t98 116t138 79t175.5 29h28q148 0 253 -67t155 -179t50 -258q0 -48 -6 -92h-723q9 -102 86.5 -158t186.5 -56h28q140 0 252 84l148 -148q-68 -52 -132 -88q-118 -64 -282 -64h-28q-99 0 -183 27.5
t-143 75t-100 112t-61 138.5t-20 155zM296 594h495v2q0 89 -61 145.5t-155 56.5h-28q-96 0 -145 -30q-92 -55 -106 -174z" />
    <glyph glyph-name="ecircumflex" unicode="&#xea;" 
d="M295 1195l190 323h113l191 -323h-187l-61 108l-61 -108h-185zM50 488q0 79 19.5 153.5t60 140.5t98 116t138 79t175.5 29h28q148 0 253 -67t155 -179t50 -258q0 -48 -6 -92h-723q9 -102 86.5 -158t186.5 -56h28q140 0 252 84l148 -148q-68 -52 -132 -88
q-118 -64 -282 -64h-28q-99 0 -183 27.5t-143 75t-100 112t-61 138.5t-20 155zM296 594h495v2q0 89 -61 145.5t-155 56.5h-28q-96 0 -145 -30q-92 -55 -106 -174z" />
    <glyph glyph-name="edieresis" unicode="&#xeb;" 
d="M330 1355q0 40 28.5 68.5t68.5 28.5t69.5 -28t29.5 -69q0 -40 -29 -69t-70 -29q-40 0 -68.5 29t-28.5 69zM50 488q0 79 19.5 153.5t60 140.5t98 116t138 79t175.5 29h28q148 0 253 -67t155 -179t50 -258q0 -48 -6 -92h-723q9 -102 86.5 -158t186.5 -56h28q140 0 252 84
l148 -148q-68 -52 -132 -88q-118 -64 -282 -64h-28q-99 0 -183 27.5t-143 75t-100 112t-61 138.5t-20 155zM296 594h495v2q0 89 -61 145.5t-155 56.5h-28q-96 0 -145 -30q-92 -55 -106 -174zM561 1355q0 40 28 68.5t69 28.5q40 0 69 -28t29 -69q0 -40 -29 -69t-69 -29
q-41 0 -69 29t-28 69z" />
    <glyph glyph-name="igrave" unicode="&#xec;" horiz-adv-x="465" 
d="M87 0v986h246v-986h-246zM-62 1518h198l176 -323h-170z" />
    <glyph glyph-name="iacute" unicode="&#xed;" horiz-adv-x="450" 
d="M132 0v986h246v-986h-246zM138 1195l177 323h197l-202 -323h-172z" />
    <glyph glyph-name="icircumflex" unicode="&#xee;" horiz-adv-x="231" 
d="M-19 0v986h246v-986h-246zM-132 1195l192 323h111l192 -323h-187l-61 108l-61 -108h-186z" />
    <glyph glyph-name="idieresis" unicode="&#xef;" horiz-adv-x="216" 
d="M-27 0v986h246v-986h-246zM-103 1355q0 40 28 68.5t69 28.5q40 0 69 -28t29 -69q0 -40 -29 -69t-69 -29q-41 0 -69 29t-28 69zM126 1355q0 40 28.5 68.5t68.5 28.5t69 -28t29 -69q0 -40 -28.5 -69t-69.5 -29q-40 0 -68.5 29t-28.5 69z" />
    <glyph glyph-name="eth" unicode="&#xf0;" horiz-adv-x="1155" 
d="M564 -50q-225 0 -369.5 159t-144.5 403q0 245 143 402t371 157h17q16 0 46 -2l-42 88l-134 -36l-43 177l96 26l-61 127h265l32 -65l152 41l48 -175l-118 -32l246 -499q30 -129 26 -244t-45 -212t-107 -167t-159.5 -109t-201.5 -39h-17zM289 512q0 -160 70 -243t205 -83
h17q135 0 205 83t70 243t-70 242t-205 82h-17q-135 0 -205 -82t-70 -242z" />
    <glyph glyph-name="ntilde" unicode="&#xf1;" horiz-adv-x="1140" 
d="M132 0v986h250v-84q115 104 274 104h14q168 0 263 -95.5t95 -266.5v-644h-250v552q0 123 -44 180.5t-138 57.5q-72 0 -119 -33q-95 -66 -95 -285v-472h-250zM289 1285q0 111 36 160.5t110 49.5q67 0 146 -32q62 -26 90 -26q30 0 30 52h140q0 -112 -35.5 -162t-110.5 -50
q-60 0 -146 34q-69 26 -90 26q-30 0 -30 -52h-140z" />
    <glyph glyph-name="ograve" unicode="&#xf2;" horiz-adv-x="1123" 
d="M548 -20q-144 0 -256 66q-113 67 -177.5 184.5t-64.5 263.5q0 150 64 265q64 116 177.5 181.5t256.5 65.5h31q141 0 254 -66q113 -67 176.5 -182.5t63.5 -263.5q0 -149 -64 -264q-64 -117 -177 -183.5t-253 -66.5h-31zM298 494q0 -139 67.5 -217.5t182.5 -78.5h31
q113 0 178.5 78.5t65.5 217.5t-65 216.5t-179 77.5h-31q-117 0 -183.5 -77.5t-66.5 -216.5zM319 1518h198l177 -323h-171z" />
    <glyph glyph-name="oacute" unicode="&#xf3;" horiz-adv-x="1123" 
d="M548 -20q-144 0 -256 66q-113 67 -177.5 184.5t-64.5 263.5q0 150 64 265q64 116 177.5 181.5t256.5 65.5h31q141 0 254 -66q113 -67 176.5 -182.5t63.5 -263.5q0 -149 -64 -264q-64 -117 -177 -183.5t-253 -66.5h-31zM298 494q0 -139 67.5 -217.5t182.5 -78.5h31
q113 0 178.5 78.5t65.5 217.5t-65 216.5t-179 77.5h-31q-117 0 -183.5 -77.5t-66.5 -216.5zM437 1195l175 323h199l-203 -323h-171z" />
    <glyph glyph-name="ocircumflex" unicode="&#xf4;" horiz-adv-x="1123" 
d="M548 -20q-144 0 -256 66q-113 67 -177.5 184.5t-64.5 263.5q0 150 64 265q64 116 177.5 181.5t256.5 65.5h31q141 0 254 -66q113 -67 176.5 -182.5t63.5 -263.5q0 -149 -64 -264q-64 -117 -177 -183.5t-253 -66.5h-31zM298 494q0 -139 67.5 -217.5t182.5 -78.5h31
q113 0 178.5 78.5t65.5 217.5t-65 216.5t-179 77.5h-31q-117 0 -183.5 -77.5t-66.5 -216.5zM315 1195l192 323h111l190 -323h-186l-60 108l-61 -108h-186z" />
    <glyph glyph-name="otilde" unicode="&#xf5;" horiz-adv-x="1123" 
d="M548 -20q-144 0 -256 66q-113 67 -177.5 184.5t-64.5 263.5q0 150 64 265q64 116 177.5 181.5t256.5 65.5h31q141 0 254 -66q113 -67 176.5 -182.5t63.5 -263.5q0 -149 -64 -264q-64 -117 -177 -183.5t-253 -66.5h-31zM289 1285q0 111 36 160.5t110 49.5q67 0 146 -32
q62 -26 90 -26q30 0 30 52h140q0 -112 -35.5 -162t-110.5 -50q-60 0 -146 34q-69 26 -90 26q-30 0 -30 -52h-140zM298 494q0 -139 67.5 -217.5t182.5 -78.5h31q113 0 178.5 78.5t65.5 217.5t-65 216.5t-179 77.5h-31q-117 0 -183.5 -77.5t-66.5 -216.5z" />
    <glyph glyph-name="odieresis" unicode="&#xf6;" horiz-adv-x="1123" 
d="M548 -20q-144 0 -256 66q-113 67 -177.5 184.5t-64.5 263.5q0 150 64 265q64 116 177.5 181.5t256.5 65.5h31q141 0 254 -66q113 -67 176.5 -182.5t63.5 -263.5q0 -149 -64 -264q-64 -117 -177 -183.5t-253 -66.5h-31zM298 494q0 -139 67.5 -217.5t182.5 -78.5h31
q113 0 178.5 78.5t65.5 217.5t-65 216.5t-179 77.5h-31q-117 0 -183.5 -77.5t-66.5 -216.5zM350 1355q0 41 29 69t69 28t68.5 -28.5t28.5 -68.5t-28.5 -69t-68.5 -29q-41 0 -69.5 29t-28.5 69zM579 1355q0 41 29 69t69 28q41 0 69.5 -28.5t28.5 -68.5t-28.5 -69t-69.5 -29
q-40 0 -69 29t-29 69z" />
    <glyph glyph-name="divide" unicode="&#xf7;" horiz-adv-x="985" 
d="M66 560v161h853v-161h-853zM384 357q0 46 31.5 77t77.5 31q45 0 77 -31.5t32 -76.5q0 -46 -32 -77.5t-77 -31.5q-46 0 -77.5 32t-31.5 77zM384 922q0 46 31.5 77.5t77.5 31.5q45 0 77 -31.5t32 -77.5t-32 -77t-77 -31q-46 0 -77.5 31t-31.5 77z" />
    <glyph glyph-name="oslash" unicode="&#xf8;" horiz-adv-x="1330" 
d="M197 -76l-147 150l178 166q-60 114 -60 254q0 150 64 265q64 116 177.5 181.5t256.5 65.5h31q141 0 254 -66q3 -1 8.5 -4.5t8.5 -5.5l164 153l148 -149l-165 -154q76 -124 76 -286q0 -149 -64 -264q-64 -117 -177 -183.5t-253 -66.5h-31q-144 0 -256 66q-22 13 -48 32z
M416 494q0 -40 6 -73l374 349q-44 18 -99 18h-31q-117 0 -183.5 -77.5t-66.5 -216.5zM531 235q57 -37 135 -37h31q113 0 178.5 78.5t65.5 217.5q0 57 -13 112z" />
    <glyph glyph-name="ugrave" unicode="&#xf9;" horiz-adv-x="1120" 
d="M470 -20q-168 0 -263 95.5t-95 266.5v644h250v-552q0 -123 44 -180.5t138 -57.5q72 0 119 33q95 66 95 285v472h250v-986h-250v84q-115 -104 -274 -104h-14zM288 1518h199l175 -323h-170z" />
    <glyph glyph-name="uacute" unicode="&#xfa;" horiz-adv-x="1120" 
d="M470 -20q-168 0 -263 95.5t-95 266.5v644h250v-552q0 -123 44 -180.5t138 -57.5q72 0 119 33q95 66 95 285v472h250v-986h-250v84q-115 -104 -274 -104h-14zM476 1195l175 323h199l-202 -323h-172z" />
    <glyph glyph-name="ucircumflex" unicode="&#xfb;" horiz-adv-x="1120" 
d="M470 -20q-168 0 -263 95.5t-95 266.5v644h250v-552q0 -123 44 -180.5t138 -57.5q72 0 119 33q95 66 95 285v472h250v-986h-250v84q-115 -104 -274 -104h-14zM299 1195l190 323h112l191 -323h-188l-60 108l-61 -108h-184z" />
    <glyph glyph-name="udieresis" unicode="&#xfc;" horiz-adv-x="1120" 
d="M470 -20q-168 0 -263 95.5t-95 266.5v644h250v-552q0 -123 44 -180.5t138 -57.5q72 0 119 33q95 66 95 285v472h250v-986h-250v84q-115 -104 -274 -104h-14zM345 1355q0 40 28.5 68.5t68.5 28.5t68.5 -28.5t28.5 -68.5t-28.5 -69t-68.5 -29q-41 0 -69 29t-28 69z
M574 1355q0 40 29 68.5t69 28.5t69 -28.5t29 -68.5t-29 -69t-69 -29t-69 29t-29 69z" />
    <glyph glyph-name="yacute" unicode="&#xfd;" horiz-adv-x="1057" 
d="M137 -382q-24 10 -49 24l114 234q43 -24 81 -20.5t52 39.5l63 157l-378 936h262l247 -612l247 612h261l-477 -1184q-39 -97 -104 -153t-142.5 -64t-164.5 26zM405 1195l176 323h198l-203 -323h-171z" />
    <glyph glyph-name="thorn" unicode="&#xfe;" horiz-adv-x="1168" 
d="M132 -374v1768h248v-447q91 54 183 75t173 9t152 -53t121.5 -105t79.5 -153.5t29 -193.5q0 -109 -31 -202.5t-83.5 -159.5t-125 -109t-153.5 -56t-170.5 4.5t-174.5 68.5v-446h-248zM371 506q0 -127 63 -195.5t173 -68.5h23q112 0 176 68t64 196q0 129 -64.5 207.5
t-175.5 78.5h-23q-108 0 -172 -78.5t-64 -207.5z" />
    <glyph glyph-name="ydieresis" unicode="&#xff;" horiz-adv-x="1057" 
d="M137 -382q-24 10 -49 24l114 234q43 -24 81 -20.5t52 39.5l63 157l-378 936h262l247 -612l247 612h261l-477 -1184q-39 -97 -104 -153t-142.5 -64t-164.5 26zM318 1355q0 41 29 69t69 28q41 0 70 -28.5t29 -68.5t-29 -69t-70 -29q-40 0 -69 29t-29 69zM549 1355
q0 41 28.5 69t68.5 28t69 -28t29 -69q0 -40 -29 -69t-69 -29t-68.5 29t-28.5 69z" />
    <glyph glyph-name="Amacron" unicode="&#x100;" horiz-adv-x="1334" 
d="M10 0l560 1394h194l560 -1394h-282l-118 321h-512l-120 -321h-282zM482 1545v161h378v-161h-378zM499 553h340l-169 459z" />
    <glyph glyph-name="amacron" unicode="&#x101;" horiz-adv-x="1074" 
d="M456 -20q-168 0 -272 91t-104 233q0 84 34 145.5t94 94.5q75 45 242 54l328 18v6q0 88 -61 131t-187 43q-79 0 -159.5 -31t-142.5 -87l-126 170q196 158 448 158q234 0 355 -100.5t121 -283.5v-622h-245v126q-10 -14 -16 -21q-50 -61 -137.5 -93t-171.5 -32zM330 304
q0 -56 44 -90t118 -34q132 0 209 62.5t77 163.5v26l-292 -18q-2 0 -14 -1t-15 -1t-13.5 -1t-14.5 -2t-12.5 -2.5t-13 -3.5t-11.5 -4.5t-12 -5.5t-10 -7q-40 -28 -40 -82zM389 1267v162h377v-162h-377z" />
    <glyph glyph-name="Abreve" unicode="&#x102;" horiz-adv-x="1334" 
d="M10 0l560 1394h194l560 -1394h-282l-118 321h-512l-120 -321h-282zM437 1773h155q-12 -90 6 -124.5t73 -34.5q54 0 72 34.5t6 124.5h155q22 -139 -46 -229t-187 -90q-121 0 -188 89.5t-46 229.5zM499 553h340l-169 459z" />
    <glyph glyph-name="abreve" unicode="&#x103;" horiz-adv-x="1074" 
d="M456 -20q-168 0 -272 91t-104 233q0 84 34 145.5t94 94.5q75 45 242 54l328 18v6q0 88 -61 131t-187 43q-79 0 -159.5 -31t-142.5 -87l-126 170q196 158 448 158q234 0 355 -100.5t121 -283.5v-622h-245v126q-10 -14 -16 -21q-50 -61 -137.5 -93t-171.5 -32zM330 304
q0 -56 44 -90t118 -34q132 0 209 62.5t77 163.5v26l-292 -18q-2 0 -14 -1t-15 -1t-13.5 -1t-14.5 -2t-12.5 -2.5t-13 -3.5t-11.5 -4.5t-12 -5.5t-10 -7q-40 -28 -40 -82zM345 1507h155q-12 -90 6 -124.5t72 -34.5t72 34.5t6 124.5h156q21 -139 -47.5 -229t-186.5 -90
q-120 0 -187 89.5t-46 229.5z" />
    <glyph glyph-name="Aogonek" unicode="&#x104;" horiz-adv-x="1365" 
d="M1117 -437q-104 0 -171.5 54.5t-67.5 146.5q0 65 29 112q49 80 139 124h-4l-118 321h-512l-120 -321h-282l560 1394h194l560 -1394q-268 -108 -268 -214q0 -28 18.5 -44.5t48.5 -16.5q66 0 125 73l107 -111q-98 -124 -238 -124zM499 553h340l-169 459z" />
    <glyph glyph-name="aogonek" unicode="&#x105;" horiz-adv-x="1181" 
d="M855 -423q-104 0 -171.5 54.5t-67.5 146.5q0 65 29 112q47 76 136 123v113q-10 -14 -16 -21q-50 -61 -137.5 -93t-171.5 -32q-168 0 -272 91t-104 233q0 84 34 145.5t94 94.5q75 45 242 54l328 18v6q0 88 -61 131t-187 43q-79 0 -159.5 -31t-142.5 -87l-126 170
q196 158 448 158q234 0 355 -100.5t121 -283.5v-608q-74 -31 -153 -93.5t-79 -120.5q0 -28 18.5 -44.5t48.5 -16.5q66 0 125 73l107 -111q-98 -124 -238 -124zM330 304q0 -56 44 -90t118 -34q132 0 209 62.5t77 163.5v26l-292 -18q-2 0 -14 -1t-15 -1t-13.5 -1t-14.5 -2
t-12.5 -2.5t-13 -3.5t-11.5 -4.5t-12 -5.5t-10 -7q-40 -28 -40 -82z" />
    <glyph glyph-name="Cacute" unicode="&#x106;" horiz-adv-x="1404" 
d="M718 -32q-198 0 -349 91q-152 92 -235.5 256.5t-83.5 380.5q0 220 84 384q85 165 236 255.5t348 90.5h31q200 0 351 -91q180 -107 262 -316l-244 -92q-116 251 -371 251h-31q-123 0 -215 -58q-191 -119 -191 -424q0 -149 49 -256q49 -108 141.5 -166t215.5 -58h31
q127 0 219 59q104 67 152 194l246 -89q-14 -34 -30 -66q-85 -165 -236.5 -255.5t-348.5 -90.5h-31zM578 1530l166 293h201l-194 -293h-173z" />
    <glyph glyph-name="cacute" unicode="&#x107;" horiz-adv-x="1089" 
d="M548 -20q-144 0 -256 66q-113 67 -177.5 184.5t-64.5 263.5q0 150 64 265q64 116 177.5 181.5t256.5 65.5h31q141 0 254 -66q132 -78 194 -217l-224 -95q-26 77 -84 118.5t-140 41.5h-31q-117 0 -183.5 -77.5t-66.5 -216.5t67.5 -217.5t182.5 -78.5h31q89 0 149.5 50
t83.5 142l227 -94q-12 -34 -30 -66q-64 -117 -177 -183.5t-253 -66.5h-31zM413 1195l177 323h197l-202 -323h-172z" />
    <glyph glyph-name="Ccircumflex" unicode="&#x108;" horiz-adv-x="1404" 
d="M718 -32q-198 0 -349 91q-152 92 -235.5 256.5t-83.5 380.5q0 220 84 384q85 165 236 255.5t348 90.5h31q200 0 351 -91q180 -107 262 -316l-244 -92q-116 251 -371 251h-31q-123 0 -215 -58q-191 -119 -191 -424q0 -149 49 -256q49 -108 141.5 -166t215.5 -58h31
q127 0 219 59q104 67 152 194l246 -89q-14 -34 -30 -66q-85 -165 -236.5 -255.5t-348.5 -90.5h-31zM474 1480l202 293h106l205 -293h-194l-64 96l-64 -96h-191z" />
    <glyph glyph-name="ccircumflex" unicode="&#x109;" horiz-adv-x="1089" 
d="M548 -20q-144 0 -256 66q-113 67 -177.5 184.5t-64.5 263.5q0 150 64 265q64 116 177.5 181.5t256.5 65.5h31q141 0 254 -66q132 -78 194 -217l-224 -95q-26 77 -84 118.5t-140 41.5h-31q-117 0 -183.5 -77.5t-66.5 -216.5t67.5 -217.5t182.5 -78.5h31q89 0 149.5 50
t83.5 142l227 -94q-12 -34 -30 -66q-64 -117 -177 -183.5t-253 -66.5h-31zM300 1195l192 323h111l190 -323h-186l-60 108l-61 -108h-186z" />
    <glyph glyph-name="Cdotaccent" unicode="&#x10a;" horiz-adv-x="1404" 
d="M718 -32q-198 0 -349 91q-152 92 -235.5 256.5t-83.5 380.5q0 220 84 384q85 165 236 255.5t348 90.5h31q200 0 351 -91q180 -107 262 -316l-244 -92q-116 251 -371 251h-31q-123 0 -215 -58q-191 -119 -191 -424q0 -149 49 -256q49 -108 141.5 -166t215.5 -58h31
q127 0 219 59q104 67 152 194l246 -89q-14 -34 -30 -66q-85 -165 -236.5 -255.5t-348.5 -90.5h-31zM613 1626q0 40 28 69t69 29q40 0 69 -29t29 -69t-29 -68.5t-69 -28.5q-41 0 -69 28.5t-28 68.5z" />
    <glyph glyph-name="cdotaccent" unicode="&#x10b;" horiz-adv-x="1089" 
d="M548 -20q-144 0 -256 66q-113 67 -177.5 184.5t-64.5 263.5q0 150 64 265q64 116 177.5 181.5t256.5 65.5h31q141 0 254 -66q132 -78 194 -217l-224 -95q-26 77 -84 118.5t-140 41.5h-31q-117 0 -183.5 -77.5t-66.5 -216.5t67.5 -217.5t182.5 -78.5h31q89 0 149.5 50
t83.5 142l227 -94q-12 -34 -30 -66q-64 -117 -177 -183.5t-253 -66.5h-31zM441 1353q0 41 29 69t69 28t68.5 -28.5t28.5 -68.5t-28.5 -69t-68.5 -29q-41 0 -69.5 29t-28.5 69z" />
    <glyph glyph-name="Ccaron" unicode="&#x10c;" horiz-adv-x="1404" 
d="M718 -32q-198 0 -349 91q-152 92 -235.5 256.5t-83.5 380.5q0 220 84 384q85 165 236 255.5t348 90.5h31q200 0 351 -91q180 -107 262 -316l-244 -92q-116 251 -371 251h-31q-123 0 -215 -58q-191 -119 -191 -424q0 -149 49 -256q49 -108 141.5 -166t215.5 -58h31
q127 0 219 59q104 67 152 194l246 -89q-14 -34 -30 -66q-85 -165 -236.5 -255.5t-348.5 -90.5h-31zM457 1823h193l64 -96l63 96h192l-203 -293h-106z" />
    <glyph glyph-name="ccaron" unicode="&#x10d;" horiz-adv-x="1089" 
d="M548 -20q-144 0 -256 66q-113 67 -177.5 184.5t-64.5 263.5q0 150 64 265q64 116 177.5 181.5t256.5 65.5h31q141 0 254 -66q132 -78 194 -217l-224 -95q-26 77 -84 118.5t-140 41.5h-31q-117 0 -183.5 -77.5t-66.5 -216.5t67.5 -217.5t182.5 -78.5h31q89 0 149.5 50
t83.5 142l227 -94q-12 -34 -30 -66q-64 -117 -177 -183.5t-253 -66.5h-31zM293 1518h186l61 -108l60 108h186l-191 -323h-112z" />
    <glyph glyph-name="Dcaron" unicode="&#x10e;" horiz-adv-x="1273" 
d="M140 0v1394h355q348 0 538 -184.5t190 -523.5q0 -332 -188 -509t-542 -177h-353zM376 1823h192l65 -96l63 96h192l-203 -293h-106zM398 238h69q160 0 268 40q228 82 228 418q0 172 -57 273q-105 187 -415 187h-93v-918z" />
    <glyph glyph-name="dcaron" unicode="&#x10f;" horiz-adv-x="1321" 
d="M788 71q-91 -54 -183 -75t-173 -9t-152 53t-121.5 105t-79.5 153.5t-29 193.5q0 151 62 265q62 116 172 181.5t247 65.5h30q126 0 227 -56v444h248v-1394h-248v73zM290 492q0 -126 67 -196t181 -70h23q104 0 168.5 72.5t67.5 193.5q0 139 -63 216.5t-173 77.5h-30
q-113 0 -177 -77t-64 -217zM1095 1117l122 345h150v-83l-110 -262h-162z" />
    <glyph glyph-name="Dcroat" unicode="&#x110;" horiz-adv-x="1325" 
d="M192 0v564h-172v211h172v619h355q348 0 538 -184.5t190 -523.5q0 -332 -188 -509t-542 -177h-353zM450 238h69q160 0 268 40q228 82 228 418q0 172 -57 273q-105 187 -415 187h-93v-381h229v-211h-229v-326z" />
    <glyph glyph-name="dcroat" unicode="&#x111;" horiz-adv-x="1157" 
d="M788 73q-91 -54 -183 -75t-173 -9t-152 53t-121.5 105t-79.5 153.5t-29 193.5q0 151 62 265q62 116 172 181.5t247 65.5h30q126 0 227 -56v133h-138v221h138v90h248v-90h129v-221h-129v-1083h-248v73zM290 494q0 -126 67 -196t181 -70h23q104 0 168.5 72.5t67.5 193.5
q0 139 -63 216.5t-173 77.5h-30q-113 0 -177 -77t-64 -217z" />
    <glyph glyph-name="Emacron" unicode="&#x112;" horiz-adv-x="1081" 
d="M140 0v1394h881v-232h-623v-332h579v-230h-579v-368h623v-232h-881zM376 1545v161h377v-161h-377z" />
    <glyph glyph-name="emacron" unicode="&#x113;" 
d="M352 1267v162h378v-162h-378zM50 488q0 79 19.5 153.5t60 140.5t98 116t138 79t175.5 29h28q148 0 253 -67t155 -179t50 -258q0 -48 -6 -92h-723q9 -102 86.5 -158t186.5 -56h28q140 0 252 84l148 -148q-68 -52 -132 -88q-118 -64 -282 -64h-28q-99 0 -183 27.5t-143 75
t-100 112t-61 138.5t-20 155zM296 594h495v2q0 89 -61 145.5t-155 56.5h-28q-96 0 -145 -30q-92 -55 -106 -174z" />
    <glyph glyph-name="Ebreve" unicode="&#x114;" horiz-adv-x="1081" 
d="M140 0v1394h881v-232h-623v-332h579v-230h-579v-368h623v-232h-881zM395 1822h156q-12 -91 5.5 -124.5t72.5 -33.5q54 0 72 34t6 124h155q21 -139 -46.5 -228.5t-186.5 -89.5q-121 0 -188 89t-46 229z" />
    <glyph glyph-name="ebreve" unicode="&#x115;" 
d="M461 1507q-12 -91 6 -125t72 -34q55 0 73 34.5t5 124.5h155q22 -139 -46 -229t-187 -90q-120 0 -187.5 90t-46.5 229h156zM50 488q0 79 19.5 153.5t60 140.5t98 116t138 79t175.5 29h28q148 0 253 -67t155 -179t50 -258q0 -48 -6 -92h-723q9 -102 86.5 -158t186.5 -56h28
q140 0 252 84l148 -148q-68 -52 -132 -88q-118 -64 -282 -64h-28q-99 0 -183 27.5t-143 75t-100 112t-61 138.5t-20 155zM296 594h495v2q0 89 -61 145.5t-155 56.5h-28q-96 0 -145 -30q-92 -55 -106 -174z" />
    <glyph glyph-name="Edotaccent" unicode="&#x116;" horiz-adv-x="1081" 
d="M140 0v1394h881v-232h-623v-332h579v-230h-579v-368h623v-232h-881zM467 1626q0 40 29 69t69 29t69 -29t29 -69t-29 -68.5t-69 -28.5t-69 28.5t-29 68.5z" />
    <glyph glyph-name="edotaccent" unicode="&#x117;" 
d="M444 1353q0 40 28.5 68.5t68.5 28.5t68.5 -28.5t28.5 -68.5t-28 -69t-69 -29q-40 0 -68.5 29t-28.5 69zM50 488q0 79 19.5 153.5t60 140.5t98 116t138 79t175.5 29h28q148 0 253 -67t155 -179t50 -258q0 -48 -6 -92h-723q9 -102 86.5 -158t186.5 -56h28q140 0 252 84
l148 -148q-68 -52 -132 -88q-118 -64 -282 -64h-28q-99 0 -183 27.5t-143 75t-100 112t-61 138.5t-20 155zM296 594h495v2q0 89 -61 145.5t-155 56.5h-28q-96 0 -145 -30q-92 -55 -106 -174z" />
    <glyph glyph-name="Eogonek" unicode="&#x118;" horiz-adv-x="1108" 
d="M810 -435q-104 0 -171.5 54.5t-67.5 146.5q0 65 29 112q49 79 135 122h-595v1394h881v-232h-623v-332h579v-230h-579v-368h623v-232h-9q-263 -108 -263 -212q0 -28 18.5 -44.5t48.5 -16.5q66 0 125 73l107 -111q-98 -124 -238 -124z" />
    <glyph glyph-name="eogonek" unicode="&#x119;" 
d="M538 -423q-104 0 -171.5 54.5t-67.5 146.5q0 65 29 112q36 58 101 103q-123 25 -210 100t-128 176t-41 219q0 79 19.5 153.5t60 140.5t98 116t138 79t175.5 29h28q148 0 253 -67t155 -179t50 -258q0 -48 -6 -92h-723q9 -102 86.5 -158t186.5 -56h28q140 0 252 84
l148 -148q-68 -52 -132 -88q-87 -47 -190 -59q-200 -92 -200 -185q0 -28 18.5 -44.5t48.5 -16.5q66 0 125 73l107 -111q-98 -124 -238 -124zM296 594h495v2q0 89 -61 145.5t-155 56.5h-28q-96 0 -145 -30q-92 -55 -106 -174z" />
    <glyph glyph-name="Ecaron" unicode="&#x11a;" horiz-adv-x="1081" 
d="M140 0v1394h881v-232h-623v-332h579v-230h-579v-368h623v-232h-881zM310 1823h193l64 -96l63 96h192l-203 -293h-106z" />
    <glyph glyph-name="ecaron" unicode="&#x11b;" 
d="M295 1518h187l61 -109l61 109h185l-191 -323h-113zM50 488q0 79 19.5 153.5t60 140.5t98 116t138 79t175.5 29h28q148 0 253 -67t155 -179t50 -258q0 -48 -6 -92h-723q9 -102 86.5 -158t186.5 -56h28q140 0 252 84l148 -148q-68 -52 -132 -88q-118 -64 -282 -64h-28
q-99 0 -183 27.5t-143 75t-100 112t-61 138.5t-20 155zM296 594h495v2q0 89 -61 145.5t-155 56.5h-28q-96 0 -145 -30q-92 -55 -106 -174z" />
    <glyph glyph-name="Gcircumflex" unicode="&#x11c;" horiz-adv-x="1406" 
d="M718 -32q-198 0 -349 91q-152 92 -235.5 256.5t-83.5 380.5q0 220 84 384q85 165 236 255.5t348 90.5h31q200 0 351 -91q180 -107 262 -316l-244 -92q-116 251 -371 251h-31q-123 0 -215 -58q-191 -119 -191 -424q0 -149 49 -256q49 -108 141.5 -166t215.5 -58h31
q127 0 219 59q102 65 150 189l2 78h-423v232h671v-778h-250v74q-159 -102 -367 -102h-31zM469 1480l204 293h106l203 -293h-193l-64 96l-64 -96h-192z" />
    <glyph glyph-name="gcircumflex" unicode="&#x11d;" horiz-adv-x="1212" 
d="M561 -413q-436 8 -505 383h269q45 -139 236 -145q121 4 180 58.5t75 168.5q-108 -57 -237 -57h-31q-144 0 -256 66q-113 67 -177.5 184.5t-64.5 263.5q0 150 64 265q64 116 177.5 181.5t256.5 65.5h31q136 0 244 -60v64h258v-880q0 -549 -520 -558zM298 509
q0 -139 67.5 -217.5t182.5 -78.5h31q113 0 178.5 78.5t65.5 217.5t-65 216.5t-179 77.5h-31q-117 0 -183.5 -77.5t-66.5 -216.5zM324 1195l190 323h112l190 -323h-186l-61 108l-61 -108h-184z" />
    <glyph glyph-name="Gbreve" unicode="&#x11e;" horiz-adv-x="1406" 
d="M718 -32q-198 0 -349 91q-152 92 -235.5 256.5t-83.5 380.5q0 220 84 384q85 165 236 255.5t348 90.5h31q200 0 351 -91q180 -107 262 -316l-244 -92q-116 251 -371 251h-31q-123 0 -215 -58q-191 -119 -191 -424q0 -149 49 -256q49 -108 141.5 -166t215.5 -58h31
q127 0 219 59q102 65 150 189l2 78h-423v232h671v-778h-250v74q-159 -102 -367 -102h-31zM498 1822h154q-12 -90 6.5 -124t72.5 -34q55 0 73 34t6 124h154q22 -139 -46 -228.5t-187 -89.5q-120 0 -187 89.5t-46 228.5z" />
    <glyph glyph-name="gbreve" unicode="&#x11f;" horiz-adv-x="1212" 
d="M561 -413q-436 8 -505 383h269q45 -139 236 -145q121 4 180 58.5t75 168.5q-108 -57 -237 -57h-31q-144 0 -256 66q-113 67 -177.5 184.5t-64.5 263.5q0 150 64 265q64 116 177.5 181.5t256.5 65.5h31q136 0 244 -60v64h258v-880q0 -549 -520 -558zM298 509
q0 -139 67.5 -217.5t182.5 -78.5h31q113 0 178.5 78.5t65.5 217.5t-65 216.5t-179 77.5h-31q-117 0 -183.5 -77.5t-66.5 -216.5zM323 1507h154q-12 -90 6 -124.5t72 -34.5q55 0 73 34.5t5 124.5h155q22 -139 -46 -229t-187 -90t-186.5 90t-45.5 229z" />
    <glyph glyph-name="Gdotaccent" unicode="&#x120;" horiz-adv-x="1406" 
d="M718 -32q-198 0 -349 91q-152 92 -235.5 256.5t-83.5 380.5q0 220 84 384q85 165 236 255.5t348 90.5h31q200 0 351 -91q180 -107 262 -316l-244 -92q-116 251 -371 251h-31q-123 0 -215 -58q-191 -119 -191 -424q0 -149 49 -256q49 -108 141.5 -166t215.5 -58h31
q127 0 219 59q102 65 150 189l2 78h-423v232h671v-778h-250v74q-159 -102 -367 -102h-31zM634 1626q0 40 28.5 69t68.5 29t69 -29t29 -69t-29 -68.5t-69 -28.5t-68.5 28.5t-28.5 68.5z" />
    <glyph glyph-name="gdotaccent" unicode="&#x121;" horiz-adv-x="1212" 
d="M561 -413q-436 8 -505 383h269q45 -139 236 -145q121 4 180 58.5t75 168.5q-108 -57 -237 -57h-31q-144 0 -256 66q-113 67 -177.5 184.5t-64.5 263.5q0 150 64 265q64 116 177.5 181.5t256.5 65.5h31q136 0 244 -60v64h258v-880q0 -549 -520 -558zM298 509
q0 -139 67.5 -217.5t182.5 -78.5h31q113 0 178.5 78.5t65.5 217.5t-65 216.5t-179 77.5h-31q-117 0 -183.5 -77.5t-66.5 -216.5zM479 1353q0 40 28.5 68.5t68.5 28.5t69 -28t29 -69q0 -40 -29 -69t-69 -29t-68.5 29t-28.5 69z" />
    <glyph glyph-name="uni0122" unicode="&#x122;" horiz-adv-x="1614" 
d="M804 -32q-198 0 -349 91q-152 92 -235.5 256.5t-83.5 380.5q0 220 84 384q85 165 236 255.5t348 90.5h31q200 0 351 -91q180 -107 262 -316l-244 -92q-116 251 -371 251h-31q-123 0 -215 -58q-191 -119 -191 -424q0 -149 49 -256q49 -108 141.5 -166t215.5 -58h31
q127 0 219 59q102 65 150 189l2 78h-423v232h671v-778h-250v74q-159 -102 -367 -102h-31zM711 -417l123 345h149v-82l-110 -263h-162z" />
    <glyph glyph-name="uni0123" unicode="&#x123;" horiz-adv-x="1239" 
d="M615 -413q-436 8 -505 383h269q45 -139 236 -145q121 4 180 58.5t75 168.5q-108 -57 -237 -57h-31q-144 0 -256 66q-113 67 -177.5 184.5t-64.5 263.5q0 150 64 265q64 116 177.5 181.5t256.5 65.5h31q136 0 244 -60v64h258v-880q0 -549 -520 -558zM352 509
q0 -139 67.5 -217.5t182.5 -78.5h31q113 0 178.5 78.5t65.5 217.5t-65 216.5t-179 77.5h-31q-117 0 -183.5 -77.5t-66.5 -216.5zM597 1197v82l109 263h162l-121 -345h-150z" />
    <glyph glyph-name="Hcircumflex" unicode="&#x124;" horiz-adv-x="1349" 
d="M140 0v1394h258v-558h553v558h258v-1394h-258v598h-553v-598h-258zM423 1480l203 293h106l204 -293h-194l-64 96l-64 -96h-191z" />
    <glyph glyph-name="hcircumflex" unicode="&#x125;" horiz-adv-x="992" 
d="M-16 0v1394h250v-492q115 104 274 104h14q168 0 263 -95.5t95 -266.5v-644h-250v552q0 123 -44 180.5t-138 57.5q-72 0 -119 -33q-95 -66 -95 -285v-472h-250zM-140 1480l204 293h106l203 -293h-192l-64 96l-64 -96h-193z" />
    <glyph glyph-name="Hbar" unicode="&#x126;" horiz-adv-x="1381" 
d="M157 0v960h-135v211h135v223h258v-223h553v223h258v-223h135v-215h-135v-956h-258v598h-553v-598h-258zM415 836h553v124h-553v-124z" />
    <glyph glyph-name="hbar" unicode="&#x127;" horiz-adv-x="1128" 
d="M120 0v1055h-128v211h128v128h250v-128h127v-211h-127v-153q115 104 274 104h14q168 0 263 -95.5t95 -266.5v-644h-250v552q0 123 -44 180.5t-138 57.5q-72 0 -119 -33q-95 -66 -95 -285v-472h-250z" />
    <glyph glyph-name="Itilde" unicode="&#x128;" horiz-adv-x="187" 
d="M-31 0v1394h258v-1394h-258zM-177 1553q0 111 36 160.5t110 49.5q67 0 146 -32q62 -26 90 -26q30 0 30 52h140q0 -112 -35.5 -162t-110.5 -50q-60 0 -146 34q-69 26 -90 26q-30 0 -30 -52h-140z" />
    <glyph glyph-name="itilde" unicode="&#x129;" horiz-adv-x="172" 
d="M-53 0v986h246v-986h-246zM-185 1285q0 111 36 160.5t110 49.5q67 0 146 -32q62 -26 90 -26q30 0 30 52h140q0 -112 -35.5 -162t-110.5 -50q-60 0 -146 34q-69 26 -90 26q-30 0 -30 -52h-140z" />
    <glyph glyph-name="Imacron" unicode="&#x12a;" horiz-adv-x="214" 
d="M-22 0v1394h258v-1394h-258zM-82 1545v161h378v-161h-378z" />
    <glyph glyph-name="imacron" unicode="&#x12b;" horiz-adv-x="198" 
d="M-26 0v986h246v-986h-246zM-90 1267v162h378v-162h-378z" />
    <glyph glyph-name="Ibreve" unicode="&#x12c;" horiz-adv-x="243" 
d="M-4 0v1394h258v-1394h-258zM-111 1822h156q-12 -91 5.5 -124.5t71.5 -33.5q55 0 73 34t5 124h156q21 -139 -47 -228.5t-187 -89.5q-120 0 -187 89.5t-46 228.5z" />
    <glyph glyph-name="ibreve" unicode="&#x12d;" horiz-adv-x="256" 
d="M1 0v986h246v-986h-246zM-105 1507h154q-12 -90 6.5 -124.5t72.5 -34.5q55 0 72.5 34.5t5.5 124.5h156q21 -140 -47 -229.5t-187 -89.5q-120 0 -187 89.5t-46 229.5z" />
    <glyph glyph-name="Iogonek" unicode="&#x12e;" horiz-adv-x="407" 
d="M144 -407q-72 0 -125 44.5t-53 142.5q0 125 82 224v1390h258v-1394h-12q-165 -80 -165 -214q0 -25 2.5 -29.5t19.5 -4.5q36 0 65 27.5t115 136.5v-235q-76 -88 -187 -88z" />
    <glyph glyph-name="iogonek" unicode="&#x12f;" horiz-adv-x="466" 
d="M136 -403q-32 0 -61.5 9.5t-56.5 29.5t-43.5 58t-16.5 90q0 95 53 182.5t141 141.5v878h246v-986h-119q-75 -26 -117 -82t-42 -129q0 -25 3 -29.5t20 -4.5q35 0 64 27t116 137v-234q-74 -88 -187 -88zM181 1220q0 40 28.5 68.5t69.5 28.5q40 0 68.5 -28.5t28.5 -68.5
t-28.5 -68.5t-68.5 -28.5q-41 0 -69.5 28.5t-28.5 68.5z" />
    <glyph glyph-name="Idotaccent" unicode="&#x130;" horiz-adv-x="494" 
d="M118 0v1394h258v-1394h-258zM156 1626q0 40 28.5 69t68.5 29q41 0 69 -29t28 -69t-28.5 -68.5t-68.5 -28.5t-68.5 28.5t-28.5 68.5z" />
    <glyph glyph-name="dotlessi" unicode="&#x131;" horiz-adv-x="606" 
d="M180 0v986h246v-986h-246z" />
    <glyph glyph-name="IJ" unicode="&#x132;" horiz-adv-x="1690" 
d="M1046 -32q-518 9 -518 536v83h258v-53q0 -106 23 -181q46 -141 237 -147q148 4 205 83t57 243v862h258v-880q0 -267 -131.5 -404t-388.5 -142zM124 0v1394h258v-1394h-258z" />
    <glyph glyph-name="ij" unicode="&#x133;" horiz-adv-x="905" 
d="M455 -423q-167 0 -258 107l93 197q53 -29 109 -38.5t95.5 7t39.5 58.5v1078h243v-1078q0 -158 -84 -244.5t-225 -86.5h-13zM110 1263q0 59 42.5 101.5t101.5 42.5q60 0 103 -41.5t43 -102.5t-43 -102.5t-103 -41.5q-59 0 -101.5 42.5t-42.5 101.5zM125 0v986h246v-986
h-246zM517 1258q0 57 40.5 98t98.5 41q57 0 98 -41t41 -98t-41 -98t-98 -41q-58 0 -98.5 41t-40.5 98z" />
    <glyph glyph-name="Jcircumflex" unicode="&#x134;" horiz-adv-x="1050" 
d="M558 -32q-518 9 -518 536v83h258v-53q0 -106 23 -181q46 -141 237 -147q148 4 205 83t57 243v862h258v-880q0 -267 -131.5 -404t-388.5 -142zM690 1480l203 293h106l203 -293h-194l-63 96l-64 -96h-191z" />
    <glyph glyph-name="jcircumflex" unicode="&#x135;" horiz-adv-x="373" 
d="M60 -423q-167 0 -258 107l93 197q53 -29 109 -38.5t95.5 7t39.5 58.5v1078h243v-1078q0 -158 -84 -244.5t-225 -86.5h-13zM11 1195l192 323h111l191 -323h-187l-61 108l-62 -108h-184z" />
    <glyph glyph-name="uni0136" unicode="&#x136;" horiz-adv-x="1442" 
d="M194 0v1394h258v-591l560 591h348l-549 -562l553 -832h-306l-434 643l-172 -170v-473h-258zM510 -409l122 345h150v-82l-110 -263h-162z" />
    <glyph glyph-name="uni0137" unicode="&#x137;" horiz-adv-x="1218" 
d="M176 0v1394h250v-783l356 375h316l-358 -368l400 -618h-296l-286 450l-132 -147v-303h-250zM363 -417l121 345h150v-82l-109 -263h-162z" />
    <glyph glyph-name="kgreenlandic" unicode="&#x138;" horiz-adv-x="1116" 
d="M132 0v986h250v-375l356 375h316l-358 -368l400 -618h-296l-286 450l-132 -147v-303h-250z" />
    <glyph glyph-name="Lacute" unicode="&#x139;" horiz-adv-x="1108" 
d="M126 0v1394h258v-1162h714v-232h-972zM129 1530l166 293h200l-195 -293h-171z" />
    <glyph glyph-name="lacute" unicode="&#x13a;" horiz-adv-x="522" 
d="M352 -20q-107 0 -170.5 64.5t-63.5 193.5v1156h246v-1108q0 -76 72 -76q32 0 72 12v-212q-80 -30 -156 -30zM123 1569l175 323h199l-203 -323h-171z" />
    <glyph glyph-name="uni013B" unicode="&#x13b;" horiz-adv-x="1254" 
d="M194 0v1394h258v-1162h714v-232h-972zM473 -412l120 345h151v-82l-110 -263h-161z" />
    <glyph glyph-name="uni013C" unicode="&#x13c;" horiz-adv-x="530" 
d="M344 -20q-107 0 -170.5 64.5t-63.5 193.5v1156h246v-1108q0 -76 72 -76q32 0 72 12v-212q-80 -30 -156 -30zM118 -416l122 345h150v-82l-110 -263h-162z" />
    <glyph glyph-name="Lcaron" unicode="&#x13d;" horiz-adv-x="1122" 
d="M140 0v1394h258v-1162h714v-232h-972zM628 1048l120 345l166 1l-125 -346h-161z" />
    <glyph glyph-name="lcaron" unicode="&#x13e;" horiz-adv-x="552" 
d="M366 -20q-107 0 -170.5 64.5t-63.5 193.5v1156h246v-1108q0 -76 72 -76q32 0 72 12v-212q-80 -30 -156 -30zM433 1045v20l116 325h149v-83l-109 -262h-156z" />
    <glyph glyph-name="Ldot" unicode="&#x13f;" horiz-adv-x="1122" 
d="M140 0v1394h258v-1162h714v-232h-972zM601 791q0 40 29 68.5t69 28.5t68.5 -28.5t28.5 -68.5t-28.5 -68.5t-68.5 -28.5t-69 28.5t-29 68.5z" />
    <glyph glyph-name="ldot" unicode="&#x140;" horiz-adv-x="633" 
d="M366 -20q-107 0 -170.5 64.5t-63.5 193.5v1156h246v-1108q0 -76 72 -76q32 0 72 12v-212q-80 -30 -156 -30zM467 791q0 40 29 68.5t69 28.5q41 0 69.5 -28.5t28.5 -68.5t-28.5 -68.5t-69.5 -28.5q-40 0 -69 28.5t-29 68.5z" />
    <glyph glyph-name="Lslash" unicode="&#x141;" horiz-adv-x="1111" 
d="M129 0v485l-141 -84v185l141 84v724h258v-571l307 183v-186l-307 -182v-406h714v-232h-972z" />
    <glyph glyph-name="lslash" unicode="&#x142;" horiz-adv-x="487" 
d="M349 -20q-107 0 -170.5 64.5t-63.5 193.5v234l-133 -95v246l133 96v675h246v-498l123 89v-248l-123 -88v-363q0 -76 72 -76q31 0 72 12v-212q-80 -30 -156 -30z" />
    <glyph glyph-name="Nacute" unicode="&#x143;" horiz-adv-x="1390" 
d="M140 0v1394h266l586 -952v952h258v-1394h-268l-584 954v-954h-258zM562 1530l166 293h200l-193 -293h-173z" />
    <glyph glyph-name="nacute" unicode="&#x144;" horiz-adv-x="1140" 
d="M132 0v986h250v-84q115 104 274 104h14q168 0 263 -95.5t95 -266.5v-644h-250v552q0 123 -44 180.5t-138 57.5q-72 0 -119 -33q-95 -66 -95 -285v-472h-250zM420 1195l175 323h199l-203 -323h-171z" />
    <glyph glyph-name="uni0145" unicode="&#x145;" horiz-adv-x="1498" 
d="M194 0v1394h266l586 -952v952h258v-1394h-268l-584 954v-954h-258zM606 -415l122 345h149v-82l-109 -263h-162z" />
    <glyph glyph-name="uni0146" unicode="&#x146;" horiz-adv-x="1238" 
d="M176 0v986h250v-84q115 104 274 104h14q168 0 263 -95.5t95 -266.5v-644h-250v552q0 123 -44 180.5t-138 57.5q-72 0 -119 -33q-95 -66 -95 -285v-472h-250zM443 -416l121 345h150v-82l-110 -263h-161z" />
    <glyph glyph-name="Ncaron" unicode="&#x147;" horiz-adv-x="1390" 
d="M140 0v1394h266l586 -952v952h258v-1394h-268l-584 954v-954h-258zM433 1823h194l63 -96l64 96h192l-204 -293h-106z" />
    <glyph glyph-name="ncaron" unicode="&#x148;" horiz-adv-x="1140" 
d="M132 0v986h250v-84q115 104 274 104h14q168 0 263 -95.5t95 -266.5v-644h-250v552q0 123 -44 180.5t-138 57.5q-72 0 -119 -33q-95 -66 -95 -285v-472h-250zM299 1518h187l60 -108l61 108h184l-190 -323h-111z" />
    <glyph glyph-name="napostrophe" unicode="&#x149;" horiz-adv-x="1379" 
d="M371 0v986h250v-84q115 104 274 104h14q168 0 263 -95.5t95 -266.5v-644h-250v552q0 123 -44 180.5t-138 57.5q-72 0 -119 -33q-95 -66 -95 -285v-472h-250zM78 969l154 495h162l-163 -568h-138z" />
    <glyph glyph-name="Eng" unicode="&#x14a;" horiz-adv-x="1390" 
d="M824 -245q65 -1 106.5 -0.5t64.5 17.5t32 48t9 90l1 90h-55l-584 954v-954h-258v1394h266l586 -952v952h258v-1394h-50v-61q0 -51 -2 -79q-12 -149 -106 -211t-268 -56v162z" />
    <glyph glyph-name="eng" unicode="&#x14b;" horiz-adv-x="1141" 
d="M702 -423q-171 0 -263 107l95 197q54 -29 111 -38.5t96 7t37 58.5v644q0 123 -44 180.5t-138 57.5q-72 0 -119 -33q-95 -66 -95 -285v-472h-250v986h250v-84q115 104 274 104h14q168 0 263 -95.5t95 -266.5l-1 -189h2v-547q0 -158 -85 -244.5t-229 -86.5h-13z" />
    <glyph glyph-name="Omacron" unicode="&#x14c;" horiz-adv-x="1469" 
d="M718 -32q-198 0 -349 91q-152 92 -235.5 256.5t-83.5 380.5q0 220 84 384q85 165 236 255.5t348 90.5h31q200 0 351 -91q152 -92 235.5 -256.5t83.5 -382.5q0 -219 -85 -382q-85 -165 -236.5 -255.5t-348.5 -90.5h-31zM310 696q0 -149 49 -256q49 -108 141.5 -166
t215.5 -58h31q127 0 219 59q92 60 141.5 168t49.5 253q0 147 -50 256q-51 109 -142 167.5t-218 58.5h-31q-123 0 -215 -58q-191 -119 -191 -424zM541 1545v161h378v-161h-378z" />
    <glyph glyph-name="omacron" unicode="&#x14d;" horiz-adv-x="1123" 
d="M548 -20q-144 0 -256 66q-113 67 -177.5 184.5t-64.5 263.5q0 150 64 265q64 116 177.5 181.5t256.5 65.5h31q141 0 254 -66q113 -67 176.5 -182.5t63.5 -263.5q0 -149 -64 -264q-64 -117 -177 -183.5t-253 -66.5h-31zM298 494q0 -139 67.5 -217.5t182.5 -78.5h31
q113 0 178.5 78.5t65.5 217.5t-65 216.5t-179 77.5h-31q-117 0 -183.5 -77.5t-66.5 -216.5zM373 1267v162h377v-162h-377z" />
    <glyph glyph-name="Obreve" unicode="&#x14e;" horiz-adv-x="1469" 
d="M718 -32q-198 0 -349 91q-152 92 -235.5 256.5t-83.5 380.5q0 220 84 384q85 165 236 255.5t348 90.5h31q200 0 351 -91q152 -92 235.5 -256.5t83.5 -382.5q0 -219 -85 -382q-85 -165 -236.5 -255.5t-348.5 -90.5h-31zM310 696q0 -149 49 -256q49 -108 141.5 -166
t215.5 -58h31q127 0 219 59q92 60 141.5 168t49.5 253q0 147 -50 256q-51 109 -142 167.5t-218 58.5h-31q-123 0 -215 -58q-191 -119 -191 -424zM489 1822h155q-12 -91 6 -124.5t73 -33.5t73 34t6 124h153q22 -139 -46 -228.5t-186 -89.5q-120 0 -187.5 89.5t-46.5 228.5z
" />
    <glyph glyph-name="obreve" unicode="&#x14f;" horiz-adv-x="1123" 
d="M548 -20q-144 0 -256 66q-113 67 -177.5 184.5t-64.5 263.5q0 150 64 265q64 116 177.5 181.5t256.5 65.5h31q141 0 254 -66q113 -67 176.5 -182.5t63.5 -263.5q0 -149 -64 -264q-64 -117 -177 -183.5t-253 -66.5h-31zM298 494q0 -139 67.5 -217.5t182.5 -78.5h31
q113 0 178.5 78.5t65.5 217.5t-65 216.5t-179 77.5h-31q-117 0 -183.5 -77.5t-66.5 -216.5zM329 1507h154q-11 -90 7.5 -124.5t71.5 -34.5q54 0 72.5 34.5t6.5 124.5h154q22 -139 -46 -229t-187 -90q-120 0 -187 90t-46 229z" />
    <glyph glyph-name="Ohungarumlaut" unicode="&#x150;" horiz-adv-x="1469" 
d="M718 -32q-198 0 -349 91q-152 92 -235.5 256.5t-83.5 380.5q0 220 84 384q85 165 236 255.5t348 90.5h31q200 0 351 -91q152 -92 235.5 -256.5t83.5 -382.5q0 -219 -85 -382q-85 -165 -236.5 -255.5t-348.5 -90.5h-31zM310 696q0 -149 49 -256q49 -108 141.5 -166
t215.5 -58h31q127 0 219 59q92 60 141.5 168t49.5 253q0 147 -50 256q-51 109 -142 167.5t-218 58.5h-31q-123 0 -215 -58q-191 -119 -191 -424zM469 1480l166 293h202l-194 -293h-174zM729 1480l166 293h200l-194 -293h-172z" />
    <glyph glyph-name="ohungarumlaut" unicode="&#x151;" horiz-adv-x="1123" 
d="M548 -20q-144 0 -256 66q-113 67 -177.5 184.5t-64.5 263.5q0 150 64 265q64 116 177.5 181.5t256.5 65.5h31q141 0 254 -66q113 -67 176.5 -182.5t63.5 -263.5q0 -149 -64 -264q-64 -117 -177 -183.5t-253 -66.5h-31zM298 494q0 -139 67.5 -217.5t182.5 -78.5h31
q113 0 178.5 78.5t65.5 217.5t-65 216.5t-179 77.5h-31q-117 0 -183.5 -77.5t-66.5 -216.5zM305 1196l166 294h200l-195 -294h-171zM563 1196l166 294h201l-195 -294h-172z" />
    <glyph glyph-name="OE" unicode="&#x152;" horiz-adv-x="2096" 
d="M718 -32q-198 0 -349 91q-152 92 -235.5 256.5t-83.5 380.5q0 220 84 384q85 165 236 255.5t348 90.5h31q200 0 351 -91q19 -11 55 -37v96h881v-232h-623v-332h579v-230h-577q-1 -2 -1 -8t-1 -8v-352h623v-232h-881v97q-171 -129 -406 -129h-31zM310 696q0 -149 49 -256
q49 -108 141.5 -166t215.5 -58h31q127 0 219 59q82 54 131 147.5t58 217.5v113q-7 108 -48 199q-51 109 -142 167.5t-218 58.5h-31q-123 0 -215 -58q-191 -119 -191 -424z" />
    <glyph glyph-name="oe" unicode="&#x153;" horiz-adv-x="1852" 
d="M548 -20q-144 0 -256 66q-113 67 -177.5 184.5t-64.5 263.5q0 150 64 265q64 116 177.5 181.5t256.5 65.5h31q141 0 254 -66q67 -40 116 -96q137 162 367 162h28q148 0 253 -67t155 -179t50 -258q0 -48 -6 -92h-723q9 -102 86.5 -158t186.5 -56h28q160 0 276 104
l124 -168q-68 -52 -132 -88q-118 -64 -282 -64h-28q-247 0 -386 160q-67 -77 -161.5 -118.5t-205.5 -41.5h-31zM298 494q0 -139 67.5 -217.5t182.5 -78.5h31q113 0 178.5 78.5t65.5 217.5t-65 216.5t-179 77.5h-31q-117 0 -183.5 -77.5t-66.5 -216.5zM1071 594h495v2
q0 89 -61 145.5t-155 56.5h-28q-96 0 -145 -30q-92 -55 -106 -174z" />
    <glyph glyph-name="Racute" unicode="&#x154;" horiz-adv-x="1330" 
d="M140 0v1394h554q172 0 274 -49q202 -94 202 -355q0 -293 -248 -381l368 -609h-298l-333 574h-261v-574h-258zM398 806h270q66 0 121 15q123 34 123 165q0 75 -34 112q-56 64 -210 64h-270v-356zM510 1530l165 293h202l-194 -293h-173z" />
    <glyph glyph-name="racute" unicode="&#x155;" horiz-adv-x="827" 
d="M132 0v986h250v-104q43 62 115.5 93t148.5 31q75 0 141 -30l-73 -250q-58 32 -124 32q-140 0 -190 -138q-9 -35 -13 -71q-5 -48 -5 -125v-424h-250zM278 1195l174 323h200l-204 -323h-170z" />
    <glyph glyph-name="uni0156" unicode="&#x156;" horiz-adv-x="1410" 
d="M194 0v1394h554q172 0 274 -49q202 -94 202 -355q0 -293 -248 -381l368 -609h-298l-333 574h-261v-574h-258zM452 806h270q66 0 121 15q123 34 123 165q0 75 -34 112q-56 64 -210 64h-270v-356zM535 -418l123 345h150v-82l-111 -263h-162z" />
    <glyph glyph-name="uni0157" unicode="&#x157;" horiz-adv-x="893" 
d="M172 0v986h250v-104q43 62 115.5 93t148.5 31q75 0 141 -30l-73 -250q-58 32 -124 32q-140 0 -190 -138q-9 -35 -13 -71q-5 -48 -5 -125v-424h-250zM87 -414l121 345h150v-82l-109 -263h-162z" />
    <glyph glyph-name="Rcaron" unicode="&#x158;" horiz-adv-x="1330" 
d="M140 0v1394h554q172 0 274 -49q202 -94 202 -355q0 -293 -248 -381l368 -609h-298l-333 574h-261v-574h-258zM381 1823h194l63 -96l64 96h192l-204 -293h-106zM398 806h270q66 0 121 15q123 34 123 165q0 75 -34 112q-56 64 -210 64h-270v-356z" />
    <glyph glyph-name="rcaron" unicode="&#x159;" horiz-adv-x="705" 
d="M54 0v986h250v-104q43 62 115.5 93t148.5 31q75 0 141 -30l-73 -250q-58 32 -124 32q-140 0 -190 -138q-9 -35 -13 -71q-5 -48 -5 -125v-424h-250zM78 1518h187l61 -108l60 108h186l-191 -323h-112z" />
    <glyph glyph-name="Sacute" unicode="&#x15a;" horiz-adv-x="1210" 
d="M636 -28q-252 0 -402.5 111t-169.5 325h282q39 -200 285 -200q103 0 165 34.5t62 109.5q0 88 -62.5 142.5t-213.5 89.5q-113 27 -192 59t-142.5 80.5t-94.5 118t-31 162.5q0 123 69 216.5t180 140.5t245 47q120 0 214 -32.5t154 -92.5t95 -137t47 -172h-282
q-12 106 -61 152.5t-156 46.5q-215 0 -215 -135q0 -87 64.5 -137t229.5 -89q226 -52 333 -158t107 -274q0 -126 -71.5 -220.5t-186 -141t-252.5 -46.5zM498 1530l166 293h200l-195 -293h-171z" />
    <glyph glyph-name="sacute" unicode="&#x15b;" horiz-adv-x="1046" 
d="M534 -28q-200 0 -324 83t-146 247h276q28 -132 198 -132q76 0 116 18t40 68q0 57 -56.5 91t-197.5 68q-161 37 -247.5 107.5t-86.5 192.5q0 142 115 224.5t307 82.5q184 0 293.5 -86.5t128.5 -228.5h-276q-13 61 -53 88t-111 27q-126 0 -126 -86q0 -54 52.5 -84.5
t189.5 -62.5q174 -42 260 -115t86 -204q0 -144 -123 -221t-315 -77zM366 1195l176 323h198l-203 -323h-171z" />
    <glyph glyph-name="Scircumflex" unicode="&#x15c;" horiz-adv-x="1210" 
d="M636 -28q-252 0 -402.5 111t-169.5 325h282q39 -200 285 -200q103 0 165 34.5t62 109.5q0 88 -62.5 142.5t-213.5 89.5q-113 27 -192 59t-142.5 80.5t-94.5 118t-31 162.5q0 123 69 216.5t180 140.5t245 47q120 0 214 -32.5t154 -92.5t95 -137t47 -172h-282
q-12 106 -61 152.5t-156 46.5q-215 0 -215 -135q0 -87 64.5 -137t229.5 -89q226 -52 333 -158t107 -274q0 -126 -71.5 -220.5t-186 -141t-252.5 -46.5zM371 1480l205 293h106l202 -293h-193l-64 96l-64 -96h-192z" />
    <glyph glyph-name="scircumflex" unicode="&#x15d;" horiz-adv-x="1046" 
d="M534 -28q-200 0 -324 83t-146 247h276q28 -132 198 -132q76 0 116 18t40 68q0 57 -56.5 91t-197.5 68q-161 37 -247.5 107.5t-86.5 192.5q0 142 115 224.5t307 82.5q184 0 293.5 -86.5t128.5 -228.5h-276q-13 61 -53 88t-111 27q-126 0 -126 -86q0 -54 52.5 -84.5
t189.5 -62.5q174 -42 260 -115t86 -204q0 -144 -123 -221t-315 -77zM258 1195l190 323h112l190 -323h-186l-61 108l-61 -108h-184z" />
    <glyph glyph-name="Scedilla" unicode="&#x15e;" horiz-adv-x="1210" 
d="M548 -411q-104 0 -158 47v136q62 -32 119 -37t89 14t32 51l1 -1q0 21 -7 31.5t-32 15.5t-67.5 2t-119.5 -12l79 148q-185 30 -294.5 137.5t-125.5 286.5h282q39 -200 285 -200q103 0 165 34.5t62 109.5q0 88 -62.5 142.5t-213.5 89.5q-113 27 -192 59t-142.5 80.5
t-94.5 118t-31 162.5q0 123 69 216.5t180 140.5t245 47q120 0 214 -32.5t154 -92.5t95 -137t47 -172h-282q-12 106 -61 152.5t-156 46.5q-215 0 -215 -135q0 -87 64.5 -137t229.5 -89q226 -52 333 -158t107 -274q0 -118 -63.5 -209t-166.5 -139.5t-230 -57.5
q109 -52 109 -175q0 -71 -40.5 -120.5t-94 -69.5t-112.5 -20z" />
    <glyph glyph-name="scedilla" unicode="&#x15f;" horiz-adv-x="1046" 
d="M456 -419q-104 0 -158 47v136q62 -32 119 -37t89 14t32 51q0 27 -15 38t-60.5 11t-141.5 -12l71 155q-140 26 -225 106t-103 212h276q28 -132 198 -132q76 0 116 18t40 68q0 57 -56.5 91t-197.5 68q-161 37 -247.5 107.5t-86.5 192.5q0 142 115 224.5t307 82.5
q184 0 293.5 -86.5t128.5 -228.5h-276q-13 61 -53 88t-111 27q-126 0 -126 -86q0 -54 52.5 -84.5t189.5 -62.5q174 -42 260 -115t86 -204q0 -136 -110 -212t-287 -85q59 -22 93 -67.5t34 -113.5q0 -54 -22.5 -96.5t-60 -66.5t-79 -36t-84.5 -12z" />
    <glyph glyph-name="Scaron" unicode="&#x160;" horiz-adv-x="1210" 
d="M636 -28q-252 0 -402.5 111t-169.5 325h282q39 -200 285 -200q103 0 165 34.5t62 109.5q0 88 -62.5 142.5t-213.5 89.5q-113 27 -192 59t-142.5 80.5t-94.5 118t-31 162.5q0 123 69 216.5t180 140.5t245 47q120 0 214 -32.5t154 -92.5t95 -137t47 -172h-282
q-12 106 -61 152.5t-156 46.5q-215 0 -215 -135q0 -87 64.5 -137t229.5 -89q226 -52 333 -158t107 -274q0 -126 -71.5 -220.5t-186 -141t-252.5 -46.5zM368 1823h194l64 -96l64 96h191l-202 -293h-106z" />
    <glyph glyph-name="scaron" unicode="&#x161;" horiz-adv-x="1046" 
d="M534 -28q-200 0 -324 83t-146 247h276q28 -132 198 -132q76 0 116 18t40 68q0 57 -56.5 91t-197.5 68q-161 37 -247.5 107.5t-86.5 192.5q0 142 115 224.5t307 82.5q184 0 293.5 -86.5t128.5 -228.5h-276q-13 61 -53 88t-111 27q-126 0 -126 -86q0 -54 52.5 -84.5
t189.5 -62.5q174 -42 260 -115t86 -204q0 -144 -123 -221t-315 -77zM258 1518h186l61 -109l61 109h184l-190 -323h-112z" />
    <glyph glyph-name="uni0162" unicode="&#x162;" horiz-adv-x="1226" 
d="M566 -420q-104 0 -158 47v136q62 -32 119 -37t89 14t32 51q0 21 -7 31.5t-32 15t-68 1.5t-121 -13l96 174h-34v1162h-432v232h1124v-232h-430v-1162h-50l-13 -25q131 -47 131 -184q0 -54 -22.5 -96.5t-60 -66.5t-79 -36t-84.5 -12z" />
    <glyph glyph-name="uni0163" unicode="&#x163;" horiz-adv-x="778" 
d="M405 -419q-104 0 -158 47v136q62 -32 119 -37t89 14t32 51q0 27 -14.5 38t-59.5 11t-141 -12l90 210q-124 86 -124 279v434h-218v234h218v408h243v-408h229v-234h-229v-434q0 -60 75.5 -67.5t152.5 32.5v-268q-66 -28 -149 -28h-13q-18 0 -26 1l-5 -12q134 -46 135 -184
q0 -54 -22.5 -96.5t-60 -66.5t-79 -36t-84.5 -12z" />
    <glyph glyph-name="Tcaron" unicode="&#x164;" horiz-adv-x="1144" 
d="M442 0v1162h-432v232h1124v-232h-430v-1162h-262zM306 1823h193l64 -96l65 96h191l-204 -293h-106z" />
    <glyph glyph-name="tcaron" unicode="&#x165;" horiz-adv-x="767" 
d="M547 -13q-141 0 -225 86.5t-84 244.5v434h-218v234h218v408h243v-408h229v-234h-229v-434q0 -60 75.5 -67.5t152.5 32.5v-268q-66 -28 -149 -28h-13zM550 1117v20l116 325h149v-83l-109 -262h-156z" />
    <glyph glyph-name="Tbar" unicode="&#x166;" horiz-adv-x="1144" 
d="M442 0v564h-241v211h241v387h-432v232h1124v-232h-430v-387h236v-211h-236v-564h-262z" />
    <glyph glyph-name="tbar" unicode="&#x167;" horiz-adv-x="730" 
d="M547 -13q-141 0 -225 86.5t-84 244.5v102h-118v234h118v98h-218v234h218v408h243v-408h229v-234h-229v-98h115v-234h-115v-102q0 -60 75.5 -67.5t152.5 32.5v-268q-66 -28 -149 -28h-13z" />
    <glyph glyph-name="Utilde" unicode="&#x168;" horiz-adv-x="1286" 
d="M642 -32q-518 9 -518 536v890h258v-860q0 -106 23 -181q46 -141 237 -147q148 4 205 83t57 243v862h258v-880q0 -267 -131.5 -404t-388.5 -142zM380 1553q0 111 36 160.5t110 49.5q67 0 146 -32q62 -26 90 -26q30 0 30 52h140q0 -112 -35.5 -162t-110.5 -50
q-60 0 -146 34q-69 26 -90 26q-30 0 -30 -52h-140z" />
    <glyph glyph-name="utilde" unicode="&#x169;" horiz-adv-x="1120" 
d="M470 -20q-168 0 -263 95.5t-95 266.5v644h250v-552q0 -123 44 -180.5t138 -57.5q72 0 119 33q95 66 95 285v472h250v-986h-250v84q-115 -104 -274 -104h-14zM289 1285q0 111 36 160.5t110 49.5q67 0 146 -32q62 -26 90 -26q30 0 30 52h140q0 -112 -35.5 -162t-110.5 -50
q-60 0 -146 34q-69 26 -90 26q-30 0 -30 -52h-140z" />
    <glyph glyph-name="Umacron" unicode="&#x16a;" horiz-adv-x="1286" 
d="M642 -32q-518 9 -518 536v890h258v-860q0 -106 23 -181q46 -141 237 -147q148 4 205 83t57 243v862h258v-880q0 -267 -131.5 -404t-388.5 -142zM455 1545v161h378v-161h-378z" />
    <glyph glyph-name="umacron" unicode="&#x16b;" horiz-adv-x="1120" 
d="M470 -20q-168 0 -263 95.5t-95 266.5v644h250v-552q0 -123 44 -180.5t138 -57.5q72 0 119 33q95 66 95 285v472h250v-986h-250v84q-115 -104 -274 -104h-14zM369 1267v162h377v-162h-377z" />
    <glyph glyph-name="Ubreve" unicode="&#x16c;" horiz-adv-x="1286" 
d="M642 -32q-518 9 -518 536v890h258v-860q0 -106 23 -181q46 -141 237 -147q148 4 205 83t57 243v862h258v-880q0 -267 -131.5 -404t-388.5 -142zM411 1822h153q-10 -90 8 -124t72 -34q55 0 73 34t5 124h156q21 -139 -47.5 -228.5t-186.5 -89.5q-120 0 -187 89.5t-46 228.5
z" />
    <glyph glyph-name="ubreve" unicode="&#x16d;" horiz-adv-x="1120" 
d="M470 -20q-168 0 -263 95.5t-95 266.5v644h250v-552q0 -123 44 -180.5t138 -57.5q72 0 119 33q95 66 95 285v472h250v-986h-250v84q-115 -104 -274 -104h-14zM359 1507h156q-13 -90 5 -124.5t73 -34.5q53 0 72 34.5t7 124.5h154q21 -140 -46.5 -229.5t-186.5 -89.5
q-120 0 -187.5 89.5t-46.5 229.5z" />
    <glyph glyph-name="Uring" unicode="&#x16e;" horiz-adv-x="1286" 
d="M642 -32q-518 9 -518 536v890h258v-860q0 -106 23 -181q46 -141 237 -147q148 4 205 83t57 243v862h258v-880q0 -267 -131.5 -404t-388.5 -142zM467 1626q0 77 52 124.5t124 47.5t124 -47.5t52 -124.5q0 -76 -52 -124t-124 -48t-124 48t-52 124zM601 1626
q0 -19 11.5 -29.5t30.5 -10.5t30.5 10.5t11.5 29.5q0 40 -42 40t-42 -40z" />
    <glyph glyph-name="uring" unicode="&#x16f;" horiz-adv-x="1120" 
d="M470 -20q-168 0 -263 95.5t-95 266.5v644h250v-552q0 -123 44 -180.5t138 -57.5q72 0 119 33q95 66 95 285v472h250v-986h-250v84q-115 -104 -274 -104h-14zM385 1355q0 77 52 124.5t124 47.5t124 -47.5t52 -124.5q0 -76 -52 -124t-124 -48t-124 48t-52 124zM519 1355
q0 -40 42 -40t42 40t-42 40t-42 -40z" />
    <glyph glyph-name="Uhungarumlaut" unicode="&#x170;" horiz-adv-x="1286" 
d="M642 -32q-518 9 -518 536v890h258v-860q0 -106 23 -181q46 -141 237 -147q148 4 205 83t57 243v862h258v-880q0 -267 -131.5 -404t-388.5 -142zM394 1480l166 293h200l-194 -293h-172zM653 1480l166 293h199l-194 -293h-171z" />
    <glyph glyph-name="uhungarumlaut" unicode="&#x171;" horiz-adv-x="1120" 
d="M470 -20q-168 0 -263 95.5t-95 266.5v644h250v-552q0 -123 44 -180.5t138 -57.5q72 0 119 33q95 66 95 285v472h250v-986h-250v84q-115 -104 -274 -104h-14zM309 1196l166 294h200l-195 -294h-171zM567 1196l166 294h201l-195 -294h-172z" />
    <glyph glyph-name="Uogonek" unicode="&#x172;" horiz-adv-x="1286" 
d="M646 -422q-104 0 -171.5 54.5t-67.5 146.5q0 65 29 112q31 49 79 87q-193 31 -292 163.5t-99 362.5v890h258v-860q0 -106 23 -181q46 -141 237 -147q148 4 205 83t57 243v862h258v-880q0 -233 -99.5 -369t-294.5 -167q-183 -89 -183 -177q0 -28 18.5 -44.5t48.5 -16.5
q66 0 125 73l107 -111q-98 -124 -238 -124z" />
    <glyph glyph-name="uogonek" unicode="&#x173;" horiz-adv-x="1170" 
d="M820 -423q-104 0 -171.5 54.5t-67.5 146.5q0 65 29 112q52 83 145 127h3v67q-115 -104 -274 -104h-14q-168 0 -263 95.5t-95 266.5v644h250v-552q0 -123 44 -180.5t138 -57.5q72 0 119 33q95 66 95 285v472h250v-986h-15q-234 -101 -234 -200q0 -28 18.5 -44.5
t48.5 -16.5q66 0 125 73l107 -111q-98 -124 -238 -124z" />
    <glyph glyph-name="Wcircumflex" unicode="&#x174;" horiz-adv-x="1906" 
d="M420 0l-420 1394h272l288 -998l266 918h256l264 -918l290 998h270l-420 -1394h-250l-283 934l-281 -934h-252zM694 1480l203 293h107l203 -293h-194l-64 97l-65 -97h-190z" />
    <glyph glyph-name="wcircumflex" unicode="&#x175;" horiz-adv-x="1502" 
d="M338 0l-304 986h264l166 -606l178 606h214l178 -602l168 602h266l-306 -986h-222l-190 634l-186 -634h-226zM505 1195l191 323h112l190 -323h-187l-60 108l-61 -108h-185z" />
    <glyph glyph-name="Ycircumflex" unicode="&#x176;" horiz-adv-x="1214" 
d="M480 0v415l-490 979h296l316 -723l328 723h294l-486 -979v-415h-258zM349 1480l203 293h105l203 -293h-193l-64 96l-64 -96h-190z" />
    <glyph glyph-name="ycircumflex" unicode="&#x177;" horiz-adv-x="1057" 
d="M137 -382q-24 10 -49 24l114 234q43 -24 81 -20.5t52 39.5l63 157l-378 936h262l247 -612l247 612h261l-477 -1184q-39 -97 -104 -153t-142.5 -64t-164.5 26zM283 1195l192 323h112l190 -323h-186l-62 108l-60 -108h-186z" />
    <glyph glyph-name="Ydieresis" unicode="&#x178;" horiz-adv-x="1214" 
d="M480 0v415l-490 979h296l316 -723l328 723h294l-486 -979v-415h-258zM393 1626q0 40 28.5 69t68.5 29t69 -29t29 -69t-29 -68.5t-69 -28.5t-68.5 28.5t-28.5 68.5zM623 1626q0 40 28.5 69t68.5 29q41 0 69 -29t28 -69t-28.5 -68.5t-68.5 -28.5t-68.5 28.5t-28.5 68.5z
" />
    <glyph glyph-name="Zacute" unicode="&#x179;" horiz-adv-x="1170" 
d="M36 0v212l746 950h-746v232h1098v-212l-773 -950h773v-232h-1098zM455 1530l166 293h201l-194 -293h-173z" />
    <glyph glyph-name="zacute" unicode="&#x17a;" horiz-adv-x="868" 
d="M36 0v166l493 614h-493v206h796v-178l-479 -602h477v-206h-794zM297 1195l177 323h197l-202 -323h-172z" />
    <glyph glyph-name="Zdotaccent" unicode="&#x17b;" horiz-adv-x="1170" 
d="M36 0v212l746 950h-746v232h1098v-212l-773 -950h773v-232h-1098zM485 1626q0 40 28.5 69t68.5 29q41 0 69 -29t28 -69t-28.5 -68.5t-68.5 -28.5t-68.5 28.5t-28.5 68.5z" />
    <glyph glyph-name="zdotaccent" unicode="&#x17c;" horiz-adv-x="868" 
d="M36 0v166l493 614h-493v206h796v-178l-479 -602h477v-206h-794zM325 1353q0 40 28.5 68.5t68.5 28.5t69.5 -28t29.5 -69q0 -40 -29.5 -69t-69.5 -29t-68.5 29t-28.5 69z" />
    <glyph glyph-name="Zcaron" unicode="&#x17d;" horiz-adv-x="1170" 
d="M36 0v212l746 950h-746v232h1098v-212l-773 -950h773v-232h-1098zM326 1823h194l64 -96l64 96h192l-204 -293h-106z" />
    <glyph glyph-name="zcaron" unicode="&#x17e;" horiz-adv-x="868" 
d="M36 0v166l493 614h-493v206h796v-178l-479 -602h477v-206h-794zM176 1518h187l61 -109l62 109h184l-190 -323h-112z" />
    <glyph glyph-name="uni0218" unicode="&#x218;" horiz-adv-x="1238" 
d="M650 -28q-252 0 -402.5 111t-169.5 325h282q39 -200 285 -200q103 0 165 34.5t62 109.5q0 88 -62.5 142.5t-213.5 89.5q-113 27 -192 59t-142.5 80.5t-94.5 118t-31 162.5q0 123 69 216.5t180 140.5t245 47q120 0 214 -32.5t154 -92.5t95 -137t47 -172h-282
q-12 106 -61 152.5t-156 46.5q-215 0 -215 -135q0 -87 64.5 -137t229.5 -89q226 -52 333 -158t107 -274q0 -126 -71.5 -220.5t-186 -141t-252.5 -46.5zM465 -418l122 345h150v-82l-110 -263h-162z" />
    <glyph glyph-name="uni0219" unicode="&#x219;" horiz-adv-x="1068" 
d="M550 -28q-200 0 -324 83t-146 247h276q28 -132 198 -132q76 0 116 18t40 68q0 57 -56.5 91t-197.5 68q-161 37 -247.5 107.5t-86.5 192.5q0 142 115 224.5t307 82.5q184 0 293.5 -86.5t128.5 -228.5h-276q-13 61 -53 88t-111 27q-126 0 -126 -86q0 -54 52.5 -84.5
t189.5 -62.5q174 -42 260 -115t86 -204q0 -144 -123 -221t-315 -77zM365 -414l121 345h150v-82l-109 -263h-162z" />
    <glyph glyph-name="uni021A" unicode="&#x21a;" horiz-adv-x="1226" 
d="M482 0v1162h-432v232h1124v-232h-430v-1162h-262zM423 -414l121 345h150v-82l-110 -263h-161z" />
    <glyph glyph-name="uni021B" unicode="&#x21b;" horiz-adv-x="778" 
d="M547 -13q-141 0 -225 86.5t-84 244.5v434h-218v234h218v408h243v-408h229v-234h-229v-434q0 -60 75.5 -67.5t152.5 32.5v-268q-66 -28 -149 -28h-13zM276 -415l121 345h150v-82l-109 -263h-162z" />
    <glyph glyph-name="uni0237" unicode="&#x237;" horiz-adv-x="590" 
d="M96 -423q-167 0 -258 107l93 197q53 -29 109 -38.5t95.5 7t39.5 58.5v1078h243v-1078q0 -158 -84 -244.5t-225 -86.5h-13z" />
    <glyph glyph-name="circumflex" unicode="&#x2c6;" horiz-adv-x="725" 
d="M116 1469l191 323h112l190 -323h-186l-61 108l-62 -108h-184z" />
    <glyph glyph-name="caron" unicode="&#x2c7;" horiz-adv-x="725" 
d="M307 1469l-191 323h186l62 -109l61 109h184l-190 -323h-112z" />
    <glyph glyph-name="breve" unicode="&#x2d8;" horiz-adv-x="753" 
d="M376 1461q-120 0 -187 90t-46 230h155q-12 -91 6.5 -125t71.5 -34q55 0 73.5 34t6.5 125h154q22 -140 -46 -230t-188 -90z" />
    <glyph glyph-name="dotaccent" unicode="&#x2d9;" horiz-adv-x="912" 
d="M455 1529q-40 0 -68.5 28.5t-28.5 68.5t28.5 69t68.5 29q41 0 70 -29t29 -69t-29.5 -68.5t-69.5 -28.5z" />
    <glyph glyph-name="ring" unicode="&#x2da;" horiz-adv-x="910" 
d="M455 1527q-86 0 -147.5 57t-61.5 148t61.5 148t147.5 57t147.5 -57t61.5 -148t-61.5 -148t-147.5 -57zM388 1732q0 -31 18.5 -47.5t48.5 -16.5t48.5 16.5t18.5 47.5q0 64 -67 64t-67 -64z" />
    <glyph glyph-name="ogonek" unicode="&#x2db;" horiz-adv-x="999" 
d="M385 -423q-104 0 -171.5 54.5t-67.5 146.5q0 65 29 112q52 83 145 127l272 -3q-268 -108 -268 -214q0 -28 18.5 -44.5t48.5 -16.5q66 0 125 73l107 -111q-98 -124 -238 -124z" />
    <glyph glyph-name="tilde" unicode="&#x2dc;" horiz-adv-x="672" 
d="M206 1763q67 0 146 -32q62 -26 90 -26q30 0 30 52h140q0 -112 -35.5 -162t-110.5 -50q-60 0 -146 34q-69 26 -90 26q-30 0 -30 -52h-140q0 111 36 160.5t110 49.5z" />
    <glyph glyph-name="hungarumlaut" unicode="&#x2dd;" horiz-adv-x="878" 
d="M188 1469l166 294h201l-194 -294h-173zM448 1469l166 294h200l-194 -294h-172z" />
    <glyph glyph-name="uni0326" unicode="&#x326;" horiz-adv-x="0" 
d="M190 -315l121 344h150v-83l-110 -261h-161z" />
    <glyph glyph-name="Wgrave" unicode="&#x1e80;" horiz-adv-x="1906" 
d="M420 0l-420 1394h272l288 -998l266 918h256l264 -918l290 998h270l-420 -1394h-250l-283 934l-281 -934h-252zM708 1773h201l166 -293h-174z" />
    <glyph glyph-name="wgrave" unicode="&#x1e81;" horiz-adv-x="1502" 
d="M338 0l-304 986h264l166 -606l178 606h214l178 -602l168 602h266l-306 -986h-222l-190 634l-186 -634h-226zM505 1518h198l176 -323h-171z" />
    <glyph glyph-name="Wacute" unicode="&#x1e82;" horiz-adv-x="1906" 
d="M420 0l-420 1394h272l288 -998l266 918h256l264 -918l290 998h270l-420 -1394h-250l-283 934l-281 -934h-252zM809 1530l165 293h202l-194 -293h-173z" />
    <glyph glyph-name="wacute" unicode="&#x1e83;" horiz-adv-x="1502" 
d="M338 0l-304 986h264l166 -606l178 606h214l178 -602l168 602h266l-306 -986h-222l-190 634l-186 -634h-226zM626 1195l176 323h198l-202 -323h-172z" />
    <glyph glyph-name="Wdieresis" unicode="&#x1e84;" horiz-adv-x="1906" 
d="M420 0l-420 1394h272l288 -998l266 918h256l264 -918l290 998h270l-420 -1394h-250l-283 934l-281 -934h-252zM741 1626q0 40 28.5 69t68.5 29q41 0 69.5 -29t28.5 -69t-29 -68.5t-69 -28.5t-68.5 28.5t-28.5 68.5zM971 1626q0 40 28.5 69t68.5 29q41 0 70 -29t29 -69
t-29.5 -68.5t-69.5 -28.5t-68.5 28.5t-28.5 68.5z" />
    <glyph glyph-name="wdieresis" unicode="&#x1e85;" horiz-adv-x="1502" 
d="M338 0l-304 986h264l166 -606l178 606h214l178 -602l168 602h266l-306 -986h-222l-190 634l-186 -634h-226zM540 1355q0 40 29 68.5t69 28.5t68.5 -28.5t28.5 -68.5t-28.5 -69t-68.5 -29t-69 29t-29 69zM770 1355q0 40 29 68.5t69 28.5t68.5 -28.5t28.5 -68.5t-28.5 -69
t-68.5 -29q-41 0 -69.5 29t-28.5 69z" />
    <glyph glyph-name="uni1E9E" unicode="&#x1e9e;" horiz-adv-x="1323" 
d="M194 -5v1569h559q195 0 312.5 -91t117.5 -247q0 -94 -54.5 -178.5t-162.5 -174.5q-49 -40 -59 -54t-10 -43q0 -30 10 -44.5t59 -52.5q108 -89 162.5 -173.5t54.5 -178.5q0 -132 -85.5 -220t-230.5 -111t-337 18v229q89 -5 141.5 -7.5t101.5 -1.5t72.5 6t42.5 15.5
t24.5 26t5.5 39.5q0 37 -20 65t-102 100q-95 83 -130.5 146t-35.5 144q0 82 35.5 144t130.5 145q82 73 102 100.5t20 65.5q0 50 -34 68.5t-133 18.5h-295v-1323h-262z" />
    <glyph glyph-name="Ygrave" unicode="&#x1ef2;" horiz-adv-x="1214" 
d="M480 0v415l-490 979h296l316 -723l328 723h294l-486 -979v-415h-258zM357 1773h201l166 -293h-172z" />
    <glyph glyph-name="ygrave" unicode="&#x1ef3;" horiz-adv-x="1057" 
d="M137 -382q-24 10 -49 24l114 234q43 -24 81 -20.5t52 39.5l63 157l-378 936h262l247 -612l247 612h261l-477 -1184q-39 -97 -104 -153t-142.5 -64t-164.5 26zM284 1518h197l177 -323h-171z" />
    <glyph glyph-name="endash" unicode="&#x2013;" horiz-adv-x="916" 
d="M120 504v156h676v-156h-676z" />
    <glyph glyph-name="emdash" unicode="&#x2014;" horiz-adv-x="1776" 
d="M50 504v156h1676v-156h-1676z" />
    <glyph glyph-name="quoteleft" unicode="&#x2018;" horiz-adv-x="578" 
d="M74 920v20l204 530h222l-158 -550h-268z" />
    <glyph glyph-name="quoteright" unicode="&#x2019;" horiz-adv-x="578" 
d="M78 920l158 550h268v-20l-204 -530h-222z" />
    <glyph glyph-name="quotesinglbase" unicode="&#x201a;" horiz-adv-x="590" 
d="M74 -244l158 524h268v-20l-202 -504h-224z" />
    <glyph glyph-name="quotedblleft" unicode="&#x201c;" horiz-adv-x="996" 
d="M492 920v20l204 530h222l-158 -550h-268zM74 920v20l204 530h222l-158 -550h-268z" />
    <glyph glyph-name="quotedblright" unicode="&#x201d;" horiz-adv-x="996" 
d="M496 920l158 550h268v-20l-206 -530h-220zM78 920l158 550h268v-20l-204 -530h-222z" />
    <glyph glyph-name="quotedblbase" unicode="&#x201e;" horiz-adv-x="1006" 
d="M490 -244l158 524h268v-20l-200 -504h-226zM74 -244l158 524h268v-20l-202 -504h-224z" />
    <glyph glyph-name="dagger" unicode="&#x2020;" horiz-adv-x="1049" 
d="M443 -292l-2 1029l-341 -2v164l341 -1l-2 483h170l-1 -483l341 1v-164l-341 2l1 -1029h-166z" />
    <glyph glyph-name="daggerdbl" unicode="&#x2021;" horiz-adv-x="1049" 
d="M443 -292l-2 479l-341 -1v165l341 -2v388l-341 -2v164l341 -1l-2 483h170l-1 -483l341 1v-164l-342 2v-388l342 2v-165l-341 1l1 -479h-166z" />
    <glyph glyph-name="bullet" unicode="&#x2022;" horiz-adv-x="734" 
d="M368 374q-105 0 -171.5 66t-66.5 170t66.5 170t171.5 66q104 0 170 -66t66 -170t-66 -170t-170 -66z" />
    <glyph glyph-name="ellipsis" unicode="&#x2026;" horiz-adv-x="1490" 
d="M1232 -28q-73 0 -119.5 47t-46.5 121t46.5 121t119.5 47q75 0 121.5 -47t46.5 -121t-46.5 -121t-121.5 -47zM90 140q0 74 46.5 121t119.5 47q75 0 121.5 -47t46.5 -121t-46.5 -121t-121.5 -47q-73 0 -119.5 47t-46.5 121zM578 140q0 74 46.5 121t119.5 47q75 0 121.5 -47
t46.5 -121t-46.5 -121t-121.5 -47q-73 0 -119.5 47t-46.5 121z" />
    <glyph glyph-name="perthousand" unicode="&#x2030;" horiz-adv-x="1798" 
d="M75 0l894 1381h194l-895 -1381h-193zM50 1056q0 149 79.5 249.5t214.5 100.5t215 -100.5t80 -249.5q0 -148 -80 -250t-215 -102q-134 0 -214 102t-80 250zM216 1056q0 -97 31 -144t97 -47q67 0 98 46.5t31 144.5t-30.5 144t-98.5 46q-66 0 -97 -46t-31 -144zM599 326
q0 149 79.5 250t214.5 101q106 0 180 -65t101 -171q27 107 100 171.5t180 64.5q135 0 214.5 -101t79.5 -250q0 -147 -80 -249t-214 -102q-106 0 -179.5 65.5t-100.5 171.5q-27 -106 -100.5 -171.5t-180.5 -65.5q-135 0 -214.5 102t-79.5 249zM765 326q0 -98 31 -145t97 -47
q68 0 99 47t31 145t-31 144t-99 46q-66 0 -97 -46.5t-31 -143.5zM1325 326q0 -98 31 -145t98 -47q66 0 97 47t31 145t-30.5 144t-97.5 46t-98 -46.5t-31 -143.5z" />
    <glyph glyph-name="guilsinglleft" unicode="&#x2039;" horiz-adv-x="592" 
d="M324 164l-274 332l274 332h208l-274 -332l274 -332h-208z" />
    <glyph glyph-name="guilsinglright" unicode="&#x203a;" horiz-adv-x="592" 
d="M60 164l274 332l-274 332h208l274 -332l-274 -332h-208z" />
    <glyph glyph-name="fraction" unicode="&#x2044;" horiz-adv-x="134" 
d="M-310 -71l509 1492l171 29l-509 -1494z" />
    <glyph glyph-name="Euro" unicode="&#x20ac;" horiz-adv-x="1150" 
d="M694 -25q-226 0 -362 134.5t-168 400.5h-201l77 162h114v13q0 18 1 27h-146l75 160h83q40 259 183 396.5t351 137.5q128 0 215.5 -39t165.5 -131l-111 -119q-67 78 -121 103.5t-153 25.5q-65 0 -121 -19.5t-105 -61.5t-84 -116.5t-52 -176.5h707l-85 -160h-636v-40h636
l-68 -162h-557q28 -202 116.5 -289t254.5 -87q90 0 163 32t153 108v-205q-141 -94 -325 -94z" />
    <glyph glyph-name="trademark" unicode="&#x2122;" horiz-adv-x="1050" 
d="M470 912v406h168l76 -294l74 294h162v-406h-112l4 284l-74 -276h-114l-74 274l2 -282h-112zM20 1234v86h402v-86h-144v-322h-112v322h-146z" />
    <glyph glyph-name="partialdiff" unicode="&#x2202;" horiz-adv-x="1049" 
d="M499 -25q-185 0 -302 130.5t-117 333.5q0 234 131.5 375t332.5 141q136 0 241 -74q-45 464 -295 464q-80 0 -134.5 -25.5t-123.5 -94.5l-102 125q84 83 171.5 119t193.5 36q464 0 464 -855q0 -153 -26.5 -274.5t-80.5 -212.5t-143.5 -139.5t-209.5 -48.5zM246 442
q0 -150 67.5 -229t185.5 -79q99 0 161 46t96 156t37 295q-78 165 -247 165q-144 0 -222 -94t-78 -260z" />
    <glyph glyph-name="emptyset" unicode="&#x2205;" horiz-adv-x="1673" 
d="M836 -27q-259 0 -459 162l-153 -153l-114 113l157 157q-156 202 -156 458q0 154 58.5 291t156.5 233.5t231 153t279 56.5q260 0 460 -162l153 153l114 -113l-157 -157q155 -199 155 -455q0 -154 -58 -291.5t-156 -235t-231.5 -154t-279.5 -56.5zM278 710q0 -193 105 -340
l797 796q-148 119 -344 119q-116 0 -219 -43t-177.5 -118.5t-118 -183t-43.5 -230.5zM493 252q149 -118 343 -118q156 0 283.5 73t202 205t74.5 298q0 190 -106 338z" />
    <glyph glyph-name="product" unicode="&#x220f;" horiz-adv-x="1052" 
d="M162 -201v1422h-102v160h932v-160h-101v-1422h-162v1422h-403v-1422h-164z" />
    <glyph glyph-name="summation" unicode="&#x2211;" horiz-adv-x="1046" 
d="M20 -201v118l512 695l-457 652v117h912v-160h-684l428 -614l-477 -647h744v-161h-978z" />
    <glyph glyph-name="minus" unicode="&#x2212;" horiz-adv-x="985" 
d="M66 560v161h853v-161h-853z" />
    <glyph glyph-name="radical" unicode="&#x221a;" horiz-adv-x="1073" 
d="M455 -292l-241 820h-136v160h256l189 -646l347 1503h167l-428 -1837h-154z" />
    <glyph glyph-name="infinity" unicode="&#x221e;" horiz-adv-x="1947" 
d="M545 -25q-215 0 -350 158.5t-135 409.5q0 252 135 411.5t350 159.5q144 0 252.5 -70.5t175.5 -207.5q64 135 175 206.5t255 71.5q215 0 349.5 -159t134.5 -412q0 -252 -134.5 -410t-349.5 -158q-292 0 -429 281q-63 -138 -173.5 -209.5t-255.5 -71.5zM226 543
q0 -206 90.5 -307.5t228.5 -101.5q63 0 117 20t102 65t80.5 127.5t42.5 196.5q-58 412 -342 412q-65 0 -121.5 -24t-101.5 -71.5t-70.5 -129t-25.5 -187.5zM1062 546q53 -412 341 -412q65 0 121 23.5t101 71t70.5 128.5t25.5 186q0 106 -25.5 187.5t-70.5 129t-101 71.5
t-121 24q-50 0 -94 -12t-86.5 -41t-75 -74.5t-55.5 -117.5t-30 -164z" />
    <glyph glyph-name="integral" unicode="&#x222b;" horiz-adv-x="606" 
d="M228 -292q-57 0 -109 30.5t-79 88.5l111 120q30 -54 42.5 -66t36.5 -12q19 0 30.5 14t19 58.5t7.5 124.5q0 132 -65 522q-41 252 -54.5 362t-13.5 204q0 93 19.5 162t53 107.5t71.5 56.5t80 18q58 0 110.5 -31t77.5 -91l-110 -115q-33 55 -44 65.5t-36 10.5
q-19 0 -30 -13.5t-18.5 -58.5t-7.5 -126q0 -131 65 -521q39 -240 53 -354.5t14 -211.5q0 -178 -65.5 -261t-158.5 -83z" />
    <glyph glyph-name="approxequal" unicode="&#x2248;" horiz-adv-x="1140" 
d="M96 719q90 207 285 207q55 0 103.5 -17t124.5 -57q67 -35 92.5 -44t58.5 -9q56 0 81 22.5t87 120.5l118 -96q-91 -207 -286 -207q-54 0 -101.5 17t-125.5 58q-67 34 -92.5 43t-59.5 9q-55 0 -80 -22.5t-86 -119.5zM96 391q90 207 285 207q55 0 103.5 -17t124.5 -57
q67 -35 92.5 -44.5t58.5 -9.5q55 0 80.5 22.5t87.5 120.5l118 -95q-91 -208 -286 -208q-54 0 -101.5 17t-125.5 58q-66 35 -92 44t-60 9q-55 0 -80 -22.5t-86 -119.5z" />
    <glyph glyph-name="notequal" unicode="&#x2260;" horiz-adv-x="1060" 
d="M171 188l122 208h-207v161h301l98 167h-399v161h493l121 209h186l-122 -209h210v-161h-304l-98 -167h402v-161h-495l-122 -208h-186z" />
    <glyph glyph-name="lessequal" unicode="&#x2264;" horiz-adv-x="985" 
d="M919 221l-853 372v116l853 372v-176l-586 -254l586 -253v-177zM66 25v162h853v-162h-853z" />
    <glyph glyph-name="greaterequal" unicode="&#x2265;" horiz-adv-x="985" 
d="M66 221v177l586 253l-586 254v176l853 -372v-115zM66 25v162h853v-162h-853z" />
    <glyph glyph-name="lozenge" unicode="&#x25ca;" horiz-adv-x="907" 
d="M395 0l-335 690l335 691h117l335 -691l-335 -690h-117zM240 690l214 -444l213 444l-213 443z" />
    <glyph glyph-name="uniF8FF" unicode="&#xf8ff;" horiz-adv-x="1542" 
d="M758 253q-151 0 -279.5 75.5t-203 204.5t-74.5 280q0 152 75 280.5t203.5 203t280.5 74.5q151 0 279.5 -75t203.5 -203.5t75 -279.5q0 -152 -74.5 -281t-203.5 -204t-282 -75zM200 29v146h59q26 0 44 -9q37 -17 37 -64q0 -23 -10 -39q-21 -34 -71 -34h-59zM235 56h22
q18 0 26 4q22 10 22 42q0 18 -5 27q-12 20 -43 20h-22v-93zM268 814q0 -205 144 -350t348 -145q203 0 347.5 144.5t144.5 347.5q0 100 -39 191.5t-104.5 157.5t-156 105t-190.5 40q-134 0 -248 -65.5t-180 -178.5t-66 -247zM352 84q0 16 8 29q16 27 52 27q26 0 42 -14
q18 -15 18 -42v-8h-85q0 -8 3 -13q7 -13 25 -13q7 0 10 1q9 3 14 12l31 -3q-2 -10 -10 -17q-14 -16 -45 -16q-17 0 -33 7q-30 14 -30 50zM387 95h52l-3 10q-6 12 -23 12q-10 0 -14 -3q-10 -6 -12 -19zM442 912q10 -2 12 -4q52 -21 98 -27q41 -3 72 2q43 11 47 12
q3 0 8.5 2.5t7.5 3.5q-5 2 -16.5 8t-17 9t-13 8.5t-13.5 12.5h19q39 0 75 19q65 40 136 61q24 8 58 11q4 0 19.5 1t23.5 0q54 -2 89 -33q10 -11 28 -33v-2l-6 2q-45 17 -83 3.5t-62 -53.5q-7 -13 -25 -55q-9 -21 -27 -63.5t-20 -48.5q-33 -64 -65 -101q-27 -33 -66 -58
q-45 -34 -116 -55h-5l24 22q12 11 25 44q41 116 45 127q24 73 57 131v3q-2 -4 -11 -13q-8 -10 -10 -12q-23 -36 -31 -57q-2 -6 -8 -6q-99 3 -177 67q-40 38 -59 55q-1 1 -5 7t-8 10zM481 61l33 2q5 -14 23 -14q20 0 20 11q0 8 -16 11l-21 4q-36 6 -36 31q0 10 6 18
q13 16 46 16q48 0 53 -32l-31 -3q-4 14 -21 14q-19 0 -19 -11q0 -8 16 -12l22 -3q36 -6 36 -30q0 -9 -7 -18q-13 -18 -48 -18q-51 0 -56 34zM605 168q0 15 19 15q18 0 18 -15t-18 -15q-19 0 -19 15zM607 29v109h34v-109h-34zM656 84q0 20 7 31q13 25 43 25q10 0 18 -3
q12 -5 18 -17h1v18h35v-110q0 -14 -9 -23q-15 -19 -52 -19q-50 0 -57 31l31 3l2 -2q2 -3 4 -4q5 -6 21 -6q25 0 25 21v19h-1q-2 -3 -7 -8q-11 -9 -29 -9q-13 0 -25 5q-25 13 -25 48zM691 84q0 -10 3 -16q6 -14 24 -14q25 0 25 30q0 10 -3 17q-6 15 -22 15q-7 0 -15 -4
q-12 -7 -12 -28zM798 29v109h34v-19q10 21 37 21q13 0 23 -5q20 -10 20 -36v-70h-35v64q0 22 -21 22q-7 0 -13 -3q-11 -6 -11 -19v-64h-34zM927 84q0 15 7 29q16 27 54 27q20 0 33 -7q28 -16 28 -49q0 -17 -7 -30q-16 -27 -54 -27q-16 0 -33 7q-28 16 -28 50zM962 84
q0 -9 3 -18q7 -15 23 -15q10 0 15 4q12 9 12 29q0 2 -3 17q-8 16 -24 16q-7 0 -14 -5q-12 -7 -12 -28zM1051 138h36l26 -78h1l26 78h36l-43 -109h-39zM1177 60q0 17 15 25q13 8 32 8l17 3q13 0 13 7v1q0 14 -19 14q-17 0 -22 -13l-32 3q3 10 10 17q15 15 45 15q20 0 37 -9
q15 -8 15 -28v-74h-33v16q-5 -7 -9 -9q-9 -9 -27 -9q-13 0 -21 4q-21 8 -21 29zM1210 60q0 -12 18 -12q8 0 14 3q12 5 12 18v11q-4 -2 -23 -5q-7 0 -12 -3q-9 -3 -9 -12zM1267 177q0 16 11 26.5t27 10.5t26.5 -10.5t10.5 -26.5t-10.5 -27t-26.5 -11t-27 11t-11 27zM1279 177
q0 -11 7.5 -19t18.5 -8t18.5 8t7.5 19t-7.5 18.5t-18.5 7.5t-18.5 -7.5t-7.5 -18.5zM1292 160v35h14q12 0 12 -11q0 -5 -5 -10l8 -14h-10l-6 11h-5v-11h-8zM1300 180h6q5 0 5 3t-5 3h-6v-6z" />
    <glyph glyph-name="_Designova" horiz-adv-x="1692" 
d="M844 41q-174 0 -322.5 87t-235 235.5t-86.5 323.5q1 131 52 250.5t137.5 205.5t206 137t250.5 51q175 0 323.5 -86t235.5 -234.5t87 -323.5q0 -176 -87 -324.5t-236 -235t-325 -86.5zM278 687q0 -116 45 -221.5t120.5 -181.5t181 -121t221.5 -45q154 0 285 76t207 207
t76 285q0 116 -45 221.5t-120.5 181.5t-180.5 121t-221 45t-221 -45t-181.5 -120.5t-121.5 -181t-45 -221.5zM480 800q7 0 13 -4q58 -22 115 -31q45 -5 81 3q29 4 53 14q5 0 11.5 3t8.5 4q-5 3 -22.5 11.5t-27.5 15.5t-19 17h21q39 0 86 20q85 53 158 73q37 10 66 10
q6 0 24.5 1.5t26.5 0.5q67 -4 102 -39q6 -5 33 -37v-2q-3 2 -7 2q-53 20 -95.5 4.5t-71.5 -59.5q-5 -9 -10 -20.5t-11 -25t-9 -21.5q-6 -14 -25 -59t-30 -68q-36 -74 -74 -119q-20 -27 -74 -66q-52 -38 -136 -63h-7l28 24q18 17 30 51q7 20 25 71t27 78q31 90 65 150v1
q-3 -3 -11 -13q-9 -7 -11 -16q-23 -27 -38 -65q-3 -5 -9 -5q-117 5 -204 78q-10 10 -32.5 31t-33.5 32q-12 14 -16 18z" />
    <glyph glyph-name="_Origin" horiz-adv-x="2195" 
d="M120 1055v50h1955v-50h-1955zM120 236v50h1955v-50h-1955zM198 437v177h42v-177h-42zM230 734v177h148v-32h-107v-39h97v-31h-97v-42h107v-33h-148zM268 437v177h34l89 -107v107h40v-177h-33l-88 109v-109h-42zM408 734v177h34l88 -107v107h40v-177h-33l-88 109v-109h-41
zM524 437v177h87q72 0 72 -45q0 -28 -26 -40q3 0 3 -2q28 -12 28 -42q0 -48 -71 -48h-93zM566 468h48q32 0 32 22t-32 22h-48v-44zM566 545h42q33 0 33 20q0 22 -33 22h-42v-42zM599 879v32h156v-32h-57v-145h-41v145h-58zM708 437v177h148v-33h-107v-38h96v-31h-96v-41h105
v-34h-146zM773 911h44l40 -124l42 124h38l40 -126l42 126h39l-57 -177h-45l-39 121l-41 -121h-43zM884 437v177h81q28 0 42 -6q36 -19 36 -57q0 -21 -10 -35q-15 -18 -29 -23l37 -56h-43l-35 50h-37v-50h-42zM926 520h37q38 0 38 31q0 30 -38 30h-37v-61zM1063 437v177h40
v-143h106v-34h-146zM1066 823q0 39 28 65q26 26 69 26t69 -26q28 -25 28 -65q0 -39 -28 -65q-26 -27 -68 -27q-44 0 -70 27q-28 28 -28 65zM1108 823q0 -25 15.5 -40.5t39.5 -15.5t39.5 15.5t15.5 40.5t-15.5 41.5t-39.5 16.5t-39.5 -16.5t-15.5 -41.5zM1238 437v177h41
v-177h-41zM1283 734v177h81q28 0 41 -6q36 -17 36 -57q0 -21 -10 -35q-9 -15 -29 -23l39 -56h-45l-33 50h-39v-50h-41zM1308 437v177h35l87 -107v107h42v-177h-34l-89 109v-109h-41zM1324 817h37q38 0 38 31t-38 31h-37v-62zM1461 734v177h148v-32h-107v-39h96v-31h-96v-75
h-41zM1498 461q0 24 25 24q10 0 17 -7t7 -17q0 -11 -7 -25l-14 -38h-26l12 41q-14 5 -14 22zM1625 734v177h147v-32h-106v-39h95v-31h-95v-42h106v-33h-147zM1648 437v177h80q30 0 52 -11q46 -21 46 -77q0 -28 -12 -47q-23 -42 -86 -42h-80zM1690 471h37q17 0 31 7
q26 14 26 48q0 21 -6 29q-14 26 -51 26h-37v-110zM1802 734v177h33l90 -107v107h40v-177h-34l-89 109v-109h-40zM1850 437v177h147v-33h-107v-38h97v-31h-97v-41h106v-34h-146z" />
    <glyph glyph-name="_VendorID" horiz-adv-x="1116" 
d="M73 154v1187h974v-1187h-974zM76 63q0 13 7.5 20.5t18.5 7.5q9 0 12 -3l4 -5v26h13v-72h-13v9l-4 -7q-8 -5 -15 -5q-23 0 -23 29zM90 63q0 -17 13 -17q15 0 15 17v1q0 18 -13 18q-15 0 -15 -19zM126 205h869v1084h-869v-1084zM141 63q0 13 7.5 20.5t19.5 7.5
q11 0 18.5 -7.5t7.5 -19.5q0 -2 -2 -5h-37q1 -13 13 -13q10 0 12 9h12q-4 -21 -24 -21q-27 0 -27 29zM155 67h25q-3 15 -12 15q-12 0 -13 -15zM198 52h14q3 -9 9 -9q9 0 9 7q0 3 -12 9q-18 5 -18 16q0 16 21 16t21 -16h-14q-1 7 -7 7q-7 0 -7 -6q0 -4 12 -9q17 -5 17 -15
q0 -18 -22 -18q-20 0 -23 18zM240 455q0 59 46 125l97 137h64l-84 -120q11 3 23 3q62 0 102.5 -41.5t40.5 -103.5q0 -61 -41.5 -103.5t-101.5 -42.5q-61 0 -103.5 42.5t-42.5 103.5zM240 926q0 56 46 123l97 142h64l-84 -122q7 2 23 2q63 0 103 -41t40 -104
q0 -61 -41 -102.5t-102 -41.5t-103.5 42t-42.5 102zM251 102q0 7 8 7t8 -7q0 -8 -8 -8t-8 8zM252 37v54h14v-54h-14zM276 63q0 28 26 28q9 0 12 -3l4 -5v8h14v-41q0 -8 -2 -11q0 -24 -27 -24q-26 0 -26 18v1h14v-1q0 -8 12 -8q11 0 15 13v8l-4 -7q-8 -2 -14 -2q-24 0 -24 26
zM291 64q0 -18 12 -18q15 0 15 17v1q0 18 -15 18q-12 0 -12 -18zM294 455q0 -42 25.5 -68t66.5 -26q39 0 64.5 26t25.5 68q0 40 -25.5 65t-64.5 25q-41 0 -66.5 -25t-25.5 -65zM294 926q0 -41 25.5 -67t66.5 -26q39 0 64.5 26.5t25.5 66.5t-25.5 66t-64.5 26
q-41 0 -66.5 -25t-25.5 -67zM343 37v54h14v-10l4 7q5 3 13 3q17 0 20 -15q1 -3 1 -9v-30h-15v34q0 11 -10 11q-13 0 -13 -21v-24h-14zM402 63q0 13 7.5 20.5t19.5 7.5q28 0 28 -28q0 -29 -28 -29q-12 0 -19.5 8t-7.5 21zM416 63q0 -17 13 -17q15 0 15 17q0 19 -15 19
q-13 0 -13 -19zM462 91h14l14 -45l13 45h14l-19 -54h-18zM522 52q0 16 30 16h3v7q0 7 -9 7q-11 0 -11 -9h-13q0 18 24 18q19 0 21 -15v-39h-12v6l-3 -5q-8 -4 -14 -4q-16 0 -16 18zM535 52q0 -6 8 -6q12 0 12 9v6q-20 2 -20 -9zM576 80v9h6v8q0 15 19 15h6v-11q-11 2 -11 -5
v-7h11v-9h-11v-43h-14v43h-6zM589 455q0 62 44 125l97 137h66l-86 -120q10 3 25 3q61 0 102 -41.5t41 -103.5q0 -61 -41.5 -103.5t-101.5 -42.5q-61 0 -103.5 42.5t-42.5 103.5zM589 926q0 57 44 123l97 142h66l-87 -122q8 2 26 2q61 0 102 -41.5t41 -103.5
q0 -61 -41.5 -102.5t-101.5 -41.5q-61 0 -103.5 41.5t-42.5 102.5zM611 63q0 28 28 28q27 0 27 -28q0 -29 -27 -29q-28 0 -28 29zM625 63q0 -17 14 -17q13 0 13 17q0 19 -13 19q-14 0 -14 -19zM642 455q0 -42 26 -68t67 -26q38 0 62.5 26t24.5 68q0 40 -24.5 65t-62.5 25
q-41 0 -67 -25t-26 -65zM642 926q0 -41 26 -67t67 -26q38 0 62.5 26t24.5 67q0 40 -24.5 66t-62.5 26q-41 0 -67 -25.5t-26 -66.5zM675 37v54h12v-10l6 7q4 3 13 3q16 0 19 -15v-39h-14v34q-4 11 -9 11q-15 0 -15 -21v-24h-12zM732 80v9h8v13h14v-13h10v-9h-10v-28
q2 -10 9 -6v-10h-8q-15 0 -15 10v34h-8zM768 52h15q1 -9 10 -9q8 0 8 7q0 3 -12 9q-17 5 -17 16q0 16 20 16q19 0 24 -16h-16q0 7 -9 7q-5 0 -5 -6q0 -5 11 -9q19 -6 19 -15q0 -18 -23 -18q-21 0 -25 18zM820 42q0 10 9 10t9 -10q0 -8 -9 -8t-9 8zM844 63q0 13 8 20.5
t18 7.5q25 0 25 -20h-13q-3 11 -12 11q-12 0 -12 -19q0 -17 12 -17q10 0 12 9h13q-1 -21 -25 -21q-26 0 -26 29zM900 63q0 28 29 28q26 0 26 -28q0 -29 -26 -29q-29 0 -29 29zM914 63q0 -17 15 -17q13 0 13 17q0 19 -13 19q-15 0 -15 -19zM965 37v54h14v-9l5 6q3 3 9 3
q13 0 18 -10l5 7q3 3 11 3q17 0 17 -12q1 -4 1 -12v-30h-13v27q0 2 -0.5 5t-0.5 4q0 9 -10 9q-9 0 -9 -18v-27h-13v36q-5 9 -10 9q-10 0 -10 -18v-27h-14z" />
    </font>
</defs>
</svg>
